<?xml version="1.0" standalone="no"?>
<!DOCTYPE svg PUBLIC "-//W3C//DTD SVG 1.1//EN" "http://www.w3.org/Graphics/SVG/1.1/DTD/svg11.dtd" >
<svg xmlns="http://www.w3.org/2000/svg" xmlns:xlink="http://www.w3.org/1999/xlink" version="1.1">
<metadata>
Created by FontForge 20170924 at Thu Jul 21 23:22:51 2016
 By www-data
Copyright \251 2016 by Radomir Tinkov. All rights reserved.
</metadata>
<defs>
<font id="Gilroy-Semibold" horiz-adv-x="630" >
  <font-face 
    font-family="Gilroy"
    font-weight="600"
    font-stretch="normal"
    units-per-em="1000"
    panose-1="0 0 7 0 0 0 0 0 0 0"
    ascent="774"
    descent="-226"
    x-height="500"
    cap-height="700"
    bbox="-382 -255 1064 970"
    underline-thickness="50"
    underline-position="-100"
    unicode-range="U+0020-FB02"
  />
<missing-glyph horiz-adv-x="500" 
d="M93 800h317v-1000h-317v1000zM333 700v33h-165v-33h65v-37h-66v-33h166v33h-66v37h66zM267 534v70h-100v-104h166v34h-66zM200 570h33v-36h-33v36zM333 440v33h-166v-33h66v-37h-66v-33h100v70h66zM333 313v100h-33v-66h-133v-34h166zM333 178v113h-100v-56h34v23h33v-47
h-100v80h-33v-113h166zM333 5v113h-166v-113h166zM200 85h100v-47h-100v47zM333 -51v33h-166v-33h70l-70 -47v-33h166v33h-102l70 47h32z" />
    <glyph glyph-name="fi" unicode="fi" horiz-adv-x="543" 
d="M207 500h274v-500h-108v396h-166v-396h-108v396h-76v104h76v10c0 135 75 203 226 203c35 0 72 -4 111 -13v-99c-35 5 -72 8 -111 8c-80 0 -118 -26 -118 -99v-10z" />
    <glyph glyph-name="fl" unicode="fl" horiz-adv-x="543" 
d="M325 713c47 0 99 -6 156 -18v-695h-108v617c-11 1 -27 1 -48 1c-79 0 -118 -36 -118 -108v-10h93v-104h-93v-396h-108v396h-76v104h76v10c0 135 75 203 226 203z" />
    <glyph glyph-name="f_f" unicode="ff" horiz-adv-x="600" 
d="M600 723v-104c-79 7 -118 -26 -118 -99v-20h118v-104h-118v-396h-108v396h-167v-396h-108v396h-76v104h76v10c0 137 78 212 226 203v-104c-79 7 -118 -26 -118 -99v-10h167v20c0 137 78 212 226 203z" />
    <glyph glyph-name="f_f_i" unicode="ffi" horiz-adv-x="818" 
d="M482 500h274v-500h-108v396h-166v-396h-108v396h-167v-396h-108v396h-76v104h76v10c0 137 78 212 226 203v-104c-79 7 -118 -26 -118 -99v-10h167v20c0 135 75 203 226 203c35 0 72 -4 111 -13v-99c-35 5 -72 8 -111 8c-80 0 -118 -26 -118 -99v-20z" />
    <glyph glyph-name="f_f_l" unicode="ffl" horiz-adv-x="818" 
d="M600 723c47 0 99 -6 156 -18v-705h-108v627c-11 1 -27 1 -48 1c-79 0 -118 -36 -118 -108v-20h93v-104h-93v-396h-108v396h-167v-396h-108v396h-76v104h76v10c0 137 78 212 226 203v-104c-79 7 -118 -26 -118 -99v-10h167v20c0 135 75 203 226 203z" />
    <glyph glyph-name=".notdef" horiz-adv-x="500" 
d="M93 800h317v-1000h-317v1000zM333 700v33h-165v-33h65v-37h-66v-33h166v33h-66v37h66zM267 534v70h-100v-104h166v34h-66zM200 570h33v-36h-33v36zM333 440v33h-166v-33h66v-37h-66v-33h100v70h66zM333 313v100h-33v-66h-133v-34h166zM333 178v113h-100v-56h34v23h33v-47
h-100v80h-33v-113h166zM333 5v113h-166v-113h166zM200 85h100v-47h-100v47zM333 -51v33h-166v-33h70l-70 -47v-33h166v33h-102l70 47h32z" />
    <glyph glyph-name="NULL" horiz-adv-x="0" 
 />
    <glyph glyph-name="CR" horiz-adv-x="333" 
 />
    <glyph glyph-name="space" unicode=" " horiz-adv-x="250" 
 />
    <glyph glyph-name="exclam" unicode="!" horiz-adv-x="255" 
d="M170 220h-85l-22 280v200h130v-200zM128 138c41 0 75 -34 75 -75s-34 -75 -75 -75s-75 34 -75 75s32 75 75 75z" />
    <glyph glyph-name="quotedbl" unicode="&#x22;" horiz-adv-x="355" 
d="M135 480h-75l-15 220h105zM295 480h-75l-15 220h105z" />
    <glyph glyph-name="numbersign" unicode="#" horiz-adv-x="610" 
d="M585 485l-14 -85h-112l-16 -100h112l-13 -85h-113l-28 -165h-89l28 165h-112l-28 -165h-89l28 165h-114l14 85h114l16 100h-114l14 85h115l27 165h89l-27 -165h112l27 165h89l-27 -165h111zM242 300h112l16 100h-112z" />
    <glyph glyph-name="dollar" unicode="$" horiz-adv-x="549" 
d="M519 192c0 -113 -80 -188 -197 -203v-89h-65v88c-111 7 -192 62 -227 154l99 57c23 -59 66 -91 128 -98v208c-60 23 -90 36 -133 68c-41 32 -62 78 -62 139c0 56 19 101 56 136s84 55 139 60v88h65v-89c89 -12 151 -58 186 -137l-97 -56c-17 43 -47 70 -89 79v-198
c21 -8 37 -14 48 -19c23 -9 67 -30 87 -49c33 -28 66 -75 62 -139zM177 516c0 -41 23 -64 80 -91v174c-49 -8 -80 -39 -80 -83zM322 284v-182c53 11 82 45 82 89s-26 68 -82 93z" />
    <glyph glyph-name="percent" unicode="%" horiz-adv-x="747" 
d="M377 553c0 -45 -16 -83 -47 -114s-69 -46 -116 -46s-86 15 -117 46s-47 69 -47 114s16 82 47 113s70 47 117 47s85 -15 116 -46s47 -69 47 -114zM213 481c43 0 72 32 72 72c0 41 -29 73 -72 73c-41 0 -71 -32 -71 -73c0 -40 30 -72 71 -72zM163 71l-54 32l461 513l54 -31
zM534 -12c-47 0 -86 15 -117 46s-47 69 -47 114s16 82 47 113s70 47 117 47c46 0 85 -16 116 -47s47 -68 47 -113s-16 -83 -47 -114s-70 -46 -116 -46zM533 76c43 0 72 32 72 72c0 41 -29 73 -72 73c-41 0 -71 -32 -71 -73c0 -40 30 -72 71 -72z" />
    <glyph glyph-name="ampersand" unicode="&#x26;" horiz-adv-x="668" 
d="M554 134l91 -99l-93 -54l-67 72c-55 -44 -120 -66 -195 -66c-71 0 -129 18 -174 55c-44 37 -66 87 -66 150c0 84 43 158 123 201c-27 37 -40 77 -40 122c0 59 20 106 61 143s92 55 152 55c96 0 179 -53 216 -146l-98 -56c-19 56 -62 90 -117 90c-56 0 -99 -36 -99 -89
c0 -14 3 -28 9 -42c12 -28 23 -41 51 -70l170 -184c17 34 29 75 36 122l98 -56c-12 -56 -31 -105 -58 -148zM296 94c45 0 83 12 116 37l-172 185c-49 -25 -74 -63 -74 -115c0 -65 47 -107 130 -107z" />
    <glyph glyph-name="quotesingle" unicode="'" horiz-adv-x="195" 
d="M135 480h-75l-15 220h105z" />
    <glyph glyph-name="parenleft" unicode="(" horiz-adv-x="293" 
d="M273 -100h-108c-147 293 -147 607 0 900h108c-147 -293 -147 -607 0 -900z" />
    <glyph glyph-name="parenright" unicode=")" horiz-adv-x="293" 
d="M128 -100h-108c147 293 147 607 0 900h108c147 -293 147 -607 0 -900z" />
    <glyph glyph-name="asterisk" unicode="*" horiz-adv-x="396" 
d="M251 603l90 6v-72l-90 6l53 -72l-62 -38l-44 83l-44 -83l-62 38l54 72l-91 -6v72l91 -6l-54 72l62 38l44 -83l44 83l62 -38z" />
    <glyph glyph-name="plus" unicode="+" horiz-adv-x="550" 
d="M326 401h169v-102h-169v-169h-102v169h-169v102h169v169h102v-169z" />
    <glyph glyph-name="comma" unicode="," horiz-adv-x="265" 
d="M93 120h120l-70 -260h-90z" />
    <glyph glyph-name="hyphen" unicode="-" horiz-adv-x="510" 
d="M440 252h-370v104h370v-104z" />
    <glyph glyph-name="period" unicode="." horiz-adv-x="255" 
d="M128 138c41 0 75 -34 75 -75s-34 -75 -75 -75s-75 34 -75 75s32 75 75 75z" />
    <glyph glyph-name="slash" unicode="/" horiz-adv-x="525" 
d="M490 800l-400 -900h-55l400 900h55z" />
    <glyph glyph-name="zero" unicode="0" 
d="M517 86c-48 -66 -115 -99 -202 -99s-154 33 -203 99c-48 66 -72 154 -72 264s24 198 72 264c49 66 116 99 203 99s154 -33 202 -99c49 -66 73 -154 73 -264s-24 -198 -73 -264zM315 99c104 0 160 90 160 251s-56 251 -160 251c-103 0 -160 -90 -160 -251
s57 -251 160 -251z" />
    <glyph glyph-name="one" unicode="1" horiz-adv-x="372" 
d="M13 635l184 65h100v-700h-115v577l-141 -40z" />
    <glyph glyph-name="two" unicode="2" horiz-adv-x="529" 
d="M492 0h-461v90l244 249c59 59 89 111 89 154c0 68 -45 108 -108 108c-59 0 -102 -29 -130 -87l-97 57c44 93 129 142 226 142c61 0 114 -19 158 -58s66 -91 66 -158c0 -71 -40 -147 -119 -228l-158 -158h290v-111z" />
    <glyph glyph-name="three" unicode="3" horiz-adv-x="540" 
d="M476 602l-142 -188c101 -24 171 -97 171 -202c0 -70 -24 -125 -71 -165s-105 -60 -174 -60c-107 0 -198 50 -235 145l98 57c21 -60 66 -90 137 -90c80 0 130 44 130 113s-50 112 -130 112h-26l-46 69l151 199h-293v108h430v-98z" />
    <glyph glyph-name="four" unicode="4" horiz-adv-x="580" 
d="M483 233h80v-107h-80v-126h-116v126h-344v107l241 467h125l-241 -467h219v182h116v-182z" />
    <glyph glyph-name="five" unicode="5" horiz-adv-x="545" 
d="M187 436h88c67 0 123 -20 169 -60c46 -39 69 -94 69 -164s-24 -125 -71 -165s-105 -60 -174 -60c-111 0 -202 53 -238 150l99 57c19 -63 65 -95 139 -95c79 0 130 44 130 113s-51 112 -128 112h-204l27 376h390v-108h-284z" />
    <glyph glyph-name="six" unicode="6" horiz-adv-x="545" 
d="M260 465h13c73 0 132 -22 178 -67c46 -44 69 -101 69 -172s-23 -128 -69 -173c-46 -44 -105 -66 -178 -66s-133 22 -179 66c-46 45 -69 102 -69 173c0 53 14 100 42 141l222 333h131zM273 96c77 0 132 51 132 130s-55 130 -132 130c-79 0 -133 -51 -133 -130
s54 -130 133 -130z" />
    <glyph glyph-name="seven" unicode="7" horiz-adv-x="490" 
d="M15 590v110h445v-100l-246 -600h-121l242 590h-320z" />
    <glyph glyph-name="eight" unicode="8" horiz-adv-x="561" 
d="M423 364c69 -38 103 -95 103 -170c0 -128 -97 -207 -245 -207c-74 0 -134 18 -179 55s-67 88 -67 152c0 72 38 134 103 170c-53 35 -79 84 -79 148s21 113 64 148s95 53 158 53c62 0 114 -18 157 -53s65 -84 65 -148s-27 -113 -80 -148zM281 604c-63 0 -107 -34 -107 -97
c0 -60 46 -97 107 -97c60 0 107 37 107 97c0 63 -46 97 -107 97zM281 96c77 0 130 40 130 109s-53 109 -130 109c-79 0 -131 -40 -131 -109s52 -109 131 -109z" />
    <glyph glyph-name="nine" unicode="9" horiz-adv-x="545" 
d="M520 474c0 -53 -14 -100 -42 -141l-221 -333h-132l160 235h-12c-73 0 -132 22 -179 66c-46 45 -69 102 -69 173s23 128 69 172c47 45 106 67 179 67s132 -22 178 -67c46 -44 69 -101 69 -172zM140 474c0 -77 56 -130 133 -130s132 51 132 130s-55 130 -132 130
s-133 -51 -133 -130z" />
    <glyph glyph-name="colon" unicode=":" horiz-adv-x="255" 
d="M53 438c0 43 32 75 75 75c64 4 101 -85 53 -128c-43 -48 -132 -11 -128 53zM128 138c41 0 75 -34 75 -75s-34 -75 -75 -75s-75 34 -75 75s32 75 75 75z" />
    <glyph glyph-name="semicolon" unicode=";" horiz-adv-x="268" 
d="M66 438c0 43 34 75 75 75s75 -34 75 -75s-34 -75 -75 -75s-75 34 -75 75zM93 120h120l-70 -260h-90z" />
    <glyph glyph-name="less" unicode="&#x3c;" horiz-adv-x="525" 
d="M50 400l425 185v-114l-303 -121l303 -121v-114l-425 185v100z" />
    <glyph glyph-name="equal" unicode="=" horiz-adv-x="530" 
d="M480 402h-430v102h430v-102zM480 197h-430v102h430v-102z" />
    <glyph glyph-name="greater" unicode="&#x3e;" horiz-adv-x="525" 
d="M50 471v114l425 -185v-100l-425 -185v114l303 121z" />
    <glyph glyph-name="question" unicode="?" horiz-adv-x="546" 
d="M315 220h-115c0 146 176 187 176 294c0 56 -42 87 -107 87c-63 0 -110 -33 -130 -92l-99 56c37 95 127 148 232 148c59 0 111 -17 154 -51s65 -81 65 -141c0 -150 -176 -195 -176 -301zM258 138c41 0 75 -34 75 -75s-34 -75 -75 -75s-75 34 -75 75s32 75 75 75z" />
    <glyph glyph-name="at" unicode="@" horiz-adv-x="784" 
d="M399 612c71 0 133 -17 188 -52c109 -68 162 -177 162 -290c0 -140 -66 -215 -154 -215c-66 0 -108 27 -125 82c-25 -33 -60 -49 -103 -49c-44 0 -80 15 -109 46s-43 70 -43 116c0 47 14 85 43 116s65 47 109 47c39 0 71 -13 96 -40v30h92v-226c0 -54 20 -81 61 -81
c57 0 98 58 98 174c0 88 -30 162 -91 221c-60 59 -135 89 -224 89c-91 0 -169 -32 -233 -95s-96 -142 -96 -235c0 -95 33 -174 98 -237c66 -62 149 -93 249 -93c63 0 119 9 167 26v-34c-49 -16 -105 -24 -167 -24c-109 0 -200 34 -273 103c-73 68 -109 154 -109 259
c0 101 35 186 104 256c70 71 157 106 260 106zM386 172c44 0 77 31 77 78s-33 79 -77 79c-45 0 -78 -32 -78 -79s33 -78 78 -78z" />
    <glyph glyph-name="A" unicode="A" horiz-adv-x="655" 
d="M650 0h-124l-49 141h-298l-49 -141h-125l254 700h138zM328 565l-111 -316h222z" />
    <glyph glyph-name="B" unicode="B" horiz-adv-x="610" 
d="M482 363c61 -32 98 -90 98 -163c0 -57 -20 -105 -61 -143s-90 -57 -149 -57h-300v700h278c57 0 106 -19 145 -56c40 -37 60 -83 60 -138c0 -61 -24 -108 -71 -143zM348 592h-163v-184h163c51 0 90 40 90 92s-39 92 -90 92zM185 108h185c53 0 95 43 95 98s-42 98 -95 98
h-185v-196z" />
    <glyph glyph-name="C" unicode="C" horiz-adv-x="732" 
d="M401 -13c-105 0 -193 35 -262 104c-69 70 -104 156 -104 259s35 189 104 258c69 70 157 105 262 105c127 0 241 -64 301 -167l-100 -58c-37 69 -113 113 -201 113c-75 0 -135 -24 -182 -71c-46 -47 -69 -107 -69 -180s23 -133 69 -180c47 -47 107 -71 182 -71
c88 0 165 44 201 113l100 -57c-29 -51 -71 -92 -125 -123c-53 -30 -112 -45 -176 -45z" />
    <glyph glyph-name="D" unicode="D" horiz-adv-x="715" 
d="M70 700h275c96 0 176 -34 239 -101c64 -67 96 -150 96 -249c0 -98 -32 -181 -96 -249c-63 -67 -143 -101 -239 -101h-275v700zM185 110h160c66 0 120 23 161 68c42 45 63 103 63 172c0 70 -21 127 -63 172c-41 45 -95 68 -161 68h-160v-480z" />
    <glyph glyph-name="E" unicode="E" horiz-adv-x="530" 
d="M185 299v-189h310v-110h-425v700h420v-110h-305v-182h280v-109h-280z" />
    <glyph glyph-name="F" unicode="F" horiz-adv-x="518" 
d="M480 700v-110h-295v-196h285v-110h-285v-284h-115v700h410z" />
    <glyph glyph-name="G" unicode="G" horiz-adv-x="786" 
d="M401 362h350v-48c0 -96 -32 -175 -95 -236s-146 -91 -248 -91c-108 0 -197 35 -268 105c-70 70 -105 156 -105 258c0 101 35 187 105 257c71 71 158 106 262 106c131 0 245 -65 305 -166l-99 -57c-37 67 -115 111 -206 111c-73 0 -134 -24 -181 -72s-71 -108 -71 -180
s24 -132 71 -179c48 -47 111 -71 188 -71c124 0 205 63 226 160h-234v103z" />
    <glyph glyph-name="H" unicode="H" horiz-adv-x="670" 
d="M485 413v287h115v-700h-115v303h-300v-303h-115v700h115v-287h300z" />
    <glyph glyph-name="I" unicode="I" horiz-adv-x="255" 
d="M70 0v700h115v-700h-115z" />
    <glyph glyph-name="J" unicode="J" horiz-adv-x="564" 
d="M260 -13c-109 0 -184 43 -225 128l99 58c23 -49 65 -74 127 -74c80 0 125 41 125 113v488h115v-488c0 -72 -23 -128 -68 -167s-103 -58 -173 -58z" />
    <glyph glyph-name="K" unicode="K" horiz-adv-x="603" 
d="M305 359l293 -359h-137l-276 333v-333h-115v700h115v-314l266 314h137z" />
    <glyph glyph-name="L" unicode="L" horiz-adv-x="485" 
d="M185 700v-590h285v-110h-400v700h115z" />
    <glyph glyph-name="M" unicode="M" horiz-adv-x="810" 
d="M617 700h123v-700h-115v499l-213 -352h-14l-213 353v-500h-115v700h124l211 -350z" />
    <glyph glyph-name="N" unicode="N" horiz-adv-x="675" 
d="M490 225v475h115v-700h-90l-330 475v-475h-115v700h90z" />
    <glyph glyph-name="O" unicode="O" horiz-adv-x="796" 
d="M655 92c-70 -70 -156 -105 -257 -105s-187 35 -258 105c-70 71 -105 157 -105 258s35 187 105 257c71 71 157 106 258 106s187 -35 257 -106c71 -70 106 -156 106 -257s-35 -187 -106 -258zM221 170c48 -47 107 -71 177 -71s129 24 176 71c48 48 72 108 72 180
s-24 132 -72 179c-47 48 -106 72 -176 72s-129 -24 -177 -72c-47 -47 -71 -107 -71 -179s24 -132 71 -180z" />
    <glyph glyph-name="P" unicode="P" horiz-adv-x="590" 
d="M70 700h258c66 0 121 -22 165 -66c45 -44 67 -99 67 -164s-22 -119 -67 -164c-44 -44 -99 -66 -165 -66h-143v-240h-115v700zM185 348h143c68 0 117 51 117 122s-49 122 -117 122h-143v-244z" />
    <glyph glyph-name="Q" unicode="Q" horiz-adv-x="801" 
d="M761 350c0 -93 -31 -174 -92 -242l74 -76l-81 -73l-77 79c-59 -34 -121 -51 -187 -51c-101 0 -186 35 -257 105c-71 71 -106 157 -106 258s35 187 106 257c71 71 156 106 257 106s186 -35 257 -106c71 -70 106 -156 106 -257zM398 99c37 0 72 8 105 23l-128 131l81 73
l134 -137c37 46 56 100 56 161c0 71 -24 131 -72 179s-107 72 -176 72s-128 -24 -176 -72s-72 -108 -72 -179s24 -131 72 -179s107 -72 176 -72z" />
    <glyph glyph-name="R" unicode="R" horiz-adv-x="613" 
d="M595 0h-126l-148 255h-136v-255h-115v700h280c63 0 116 -22 159 -66c44 -43 66 -96 66 -159c0 -89 -56 -170 -139 -203zM350 592h-165v-234h165c61 0 110 52 110 117s-49 117 -110 117z" />
    <glyph glyph-name="S" unicode="S" horiz-adv-x="581" 
d="M303 -13c-135 0 -233 65 -270 172l99 58c28 -79 86 -118 174 -118c87 0 130 37 130 92c0 29 -12 50 -35 65s-65 32 -124 50c-67 20 -100 33 -147 64c-45 32 -68 78 -68 141c0 62 22 111 66 147c44 37 97 55 159 55c112 0 199 -58 244 -154l-97 -56c-29 65 -78 98 -147 98
c-67 0 -110 -34 -110 -87c0 -52 34 -76 141 -109c27 -9 46 -15 58 -20c13 -4 30 -11 52 -20c23 -9 40 -19 51 -28c37 -29 77 -77 72 -144c0 -63 -23 -114 -69 -151c-45 -37 -105 -55 -179 -55z" />
    <glyph glyph-name="T" unicode="T" horiz-adv-x="540" 
d="M15 700h510v-110h-197v-590h-115v590h-198v110z" />
    <glyph glyph-name="U" unicode="U" horiz-adv-x="655" 
d="M63 232v468h115v-461c0 -85 50 -140 150 -140s150 55 150 140v461h115v-468c0 -75 -25 -134 -74 -179c-49 -44 -113 -66 -191 -66s-142 22 -191 66c-49 45 -74 104 -74 179z" />
    <glyph glyph-name="V" unicode="V" horiz-adv-x="634" 
d="M386 0h-138l-243 700h126l186 -561l187 561h125z" />
    <glyph glyph-name="W" unicode="W" horiz-adv-x="999" 
d="M351 0h-133l-198 700h121l147 -547l159 547h106l158 -547l147 547h121l-198 -700h-133l-148 511z" />
    <glyph glyph-name="X" unicode="X" horiz-adv-x="600" 
d="M366 360l219 -360h-131l-154 253l-154 -253h-131l220 360l-207 340h130l142 -233l142 233h131z" />
    <glyph glyph-name="Y" unicode="Y" horiz-adv-x="613" 
d="M477 700h131l-244 -422v-278h-115v278l-244 422h131l171 -310z" />
    <glyph glyph-name="Z" unicode="Z" horiz-adv-x="530" 
d="M495 605l-314 -495h322v-110h-465v95l314 495h-307v110h450v-95z" />
    <glyph glyph-name="bracketleft" unicode="[" horiz-adv-x="300" 
d="M280 800v-104h-117v-692h117v-104h-225v900h225z" />
    <glyph glyph-name="backslash" unicode="\" horiz-adv-x="525" 
d="M490 -100h-55l-400 900h55z" />
    <glyph glyph-name="bracketright" unicode="]" horiz-adv-x="300" 
d="M20 800h225v-900h-225v104h117v692h-117v104z" />
    <glyph glyph-name="asciicircum" unicode="^" horiz-adv-x="540" 
d="M226 700h88l186 -320h-118l-112 197l-111 -197h-119z" />
    <glyph glyph-name="underscore" unicode="_" horiz-adv-x="520" 
d="M485 -161h-450v104h450v-104z" />
    <glyph glyph-name="grave" unicode="`" horiz-adv-x="250" 
d="M230 565h-104l-106 135h130z" />
    <glyph glyph-name="a" unicode="a" 
d="M459 429v71h108v-500h-108v72c-41 -57 -99 -85 -175 -85c-69 0 -127 25 -176 76s-73 114 -73 187c0 74 24 136 73 187s107 76 176 76c76 0 134 -28 175 -84zM188 135c30 -30 68 -45 113 -45s83 15 113 45c30 31 45 69 45 115s-15 84 -45 114c-30 31 -68 46 -113 46
s-83 -15 -113 -46c-30 -30 -45 -68 -45 -114s15 -84 45 -115z" />
    <glyph glyph-name="b" unicode="b" 
d="M346 513c69 0 127 -25 176 -76s73 -113 73 -187c0 -73 -24 -136 -73 -187s-107 -76 -176 -76c-76 0 -134 28 -175 85v-72h-108v700h108v-271c41 56 99 84 175 84zM216 135c30 -30 68 -45 113 -45s83 15 113 45c30 31 45 69 45 115s-15 84 -45 114c-30 31 -68 46 -113 46
s-83 -15 -113 -46c-30 -30 -45 -68 -45 -114s15 -84 45 -115z" />
    <glyph glyph-name="c" unicode="c" horiz-adv-x="542" 
d="M299 -13c-75 0 -138 25 -189 76c-50 51 -75 113 -75 187c0 75 25 137 75 187c51 51 114 76 189 76c97 0 183 -50 223 -129l-93 -54c-23 48 -71 77 -131 77c-44 0 -81 -15 -111 -45c-29 -30 -44 -67 -44 -112s15 -82 44 -112c30 -30 67 -45 111 -45c59 0 109 30 133 77
l93 -53c-43 -80 -128 -130 -225 -130z" />
    <glyph glyph-name="d" unicode="d" 
d="M459 429v271h108v-700h-108v72c-41 -57 -99 -85 -175 -85c-69 0 -127 25 -176 76s-73 114 -73 187c0 74 24 136 73 187s107 76 176 76c76 0 134 -28 175 -84zM188 135c30 -30 68 -45 113 -45s83 15 113 45c30 31 45 69 45 115s-15 84 -45 114c-30 31 -68 46 -113 46
s-83 -15 -113 -46c-30 -30 -45 -68 -45 -114s15 -84 45 -115z" />
    <glyph glyph-name="e" unicode="e" horiz-adv-x="582" 
d="M546 204h-398c16 -76 77 -118 160 -118c57 0 100 21 129 62l89 -52c-49 -73 -122 -109 -219 -109c-81 0 -147 25 -197 74c-50 50 -75 113 -75 189c0 75 25 137 74 187c49 51 113 76 190 76c73 0 133 -26 180 -77s71 -114 71 -187c0 -11 -1 -26 -4 -45zM147 292h294
c-15 81 -72 123 -143 123c-80 0 -136 -47 -151 -123z" />
    <glyph glyph-name="f" unicode="f" horiz-adv-x="325" 
d="M325 713v-104c-79 7 -118 -26 -118 -99v-10h118v-104h-118v-396h-108v396h-76v104h76v10c0 137 78 212 226 203z" />
    <glyph glyph-name="g" unicode="g" 
d="M461 426v74h106v-477c0 -76 -25 -134 -75 -175s-111 -61 -182 -61c-115 0 -194 40 -237 121l93 54c26 -51 75 -77 146 -77c93 0 149 51 149 138v61c-41 -58 -99 -87 -174 -87c-71 0 -130 25 -179 75c-49 51 -73 112 -73 183s24 132 73 182c49 51 108 76 179 76
c75 0 133 -29 174 -87zM188 143c31 -30 69 -45 114 -45s83 15 113 45c31 30 46 67 46 112s-15 82 -46 112c-30 30 -68 45 -113 45s-83 -15 -114 -45c-30 -30 -45 -67 -45 -112s15 -82 45 -112z" />
    <glyph glyph-name="h" unicode="h" horiz-adv-x="571" 
d="M326 513c115 0 192 -78 192 -206v-307h-108v296c0 75 -43 116 -112 116c-76 0 -127 -47 -127 -144v-268h-108v700h108v-264c33 51 84 77 155 77z" />
    <glyph glyph-name="i" unicode="i" horiz-adv-x="233" 
d="M165 595c-27 -27 -69 -27 -97 0c-27 28 -27 70 0 97c27 28 71 28 98 0c27 -27 27 -69 -1 -97zM171 0h-108v500h108v-500z" />
    <glyph glyph-name="j" unicode="j" horiz-adv-x="253" 
d="M184 595c-27 -27 -69 -27 -97 0c-27 28 -27 70 0 97c28 28 70 28 97 0c28 -27 28 -69 0 -97zM82 -20v520h108v-520c0 -139 -68 -203 -205 -193v104c67 -7 97 20 97 89z" />
    <glyph glyph-name="k" unicode="k" horiz-adv-x="515" 
d="M277 255l228 -255h-129l-205 231v-231h-108v700h108v-421l194 221h132z" />
    <glyph glyph-name="l" unicode="l" horiz-adv-x="233" 
d="M171 0h-108v730h108v-730z" />
    <glyph glyph-name="m" unicode="m" horiz-adv-x="851" 
d="M609 513c113 0 189 -79 189 -203v-310h-108v303c0 69 -37 109 -97 109c-67 0 -109 -44 -109 -132v-280h-108v303c0 69 -34 109 -94 109c-65 0 -111 -45 -111 -132v-280h-108v500h108v-60c32 49 80 73 143 73c64 0 111 -26 142 -79c33 53 84 79 153 79z" />
    <glyph glyph-name="n" unicode="n" horiz-adv-x="571" 
d="M326 513c115 0 192 -78 192 -206v-307h-108v296c0 75 -43 116 -112 116c-76 0 -127 -47 -127 -144v-268h-108v500h108v-64c33 51 84 77 155 77z" />
    <glyph glyph-name="o" unicode="o" horiz-adv-x="598" 
d="M299 -13c-73 0 -136 25 -187 76s-77 113 -77 187s26 136 77 187s114 76 187 76c74 0 136 -25 187 -76s77 -113 77 -187s-26 -136 -77 -187s-113 -76 -187 -76zM188 137c30 -30 67 -45 111 -45s81 15 111 45s45 68 45 113s-15 83 -45 113s-67 45 -111 45s-81 -15 -111 -45
s-45 -68 -45 -113s15 -83 45 -113z" />
    <glyph glyph-name="p" unicode="p" 
d="M346 513c69 0 127 -26 176 -77s73 -113 73 -186c0 -74 -24 -136 -73 -187s-107 -76 -176 -76c-76 0 -134 28 -175 84v-271h-108v700h108v-72c41 57 99 85 175 85zM216 135c30 -30 68 -45 113 -45s83 15 113 45c30 31 45 69 45 115s-15 84 -45 114c-30 31 -68 46 -113 46
s-83 -15 -113 -46c-30 -30 -45 -68 -45 -114s15 -84 45 -115z" />
    <glyph glyph-name="q" unicode="q" 
d="M459 428v72h108v-700h-108v271c-41 -56 -99 -84 -175 -84c-69 0 -127 25 -176 76s-73 113 -73 187c0 73 24 135 73 186s107 77 176 77c76 0 134 -28 175 -85zM188 135c30 -30 68 -45 113 -45s83 15 113 45c30 31 45 69 45 115s-15 84 -45 114c-30 31 -68 46 -113 46
s-83 -15 -113 -46c-30 -30 -45 -68 -45 -114s15 -84 45 -115z" />
    <glyph glyph-name="r" unicode="r" horiz-adv-x="342" 
d="M171 500v-84c27 62 79 93 154 93v-117c-41 3 -77 -7 -108 -30c-31 -22 -46 -59 -46 -110v-252h-108v500h108z" />
    <glyph glyph-name="s" unicode="s" horiz-adv-x="461" 
d="M160 362c0 -33 42 -50 94 -65c77 -17 177 -49 175 -156c0 -48 -19 -86 -56 -113s-83 -41 -139 -41c-99 0 -172 44 -204 117l93 54c17 -48 54 -72 111 -72s85 19 85 56c0 32 -42 51 -95 64c-75 19 -176 49 -174 154c0 46 17 83 52 111s79 42 131 42c83 0 150 -39 185 -104
l-91 -51c-17 38 -49 57 -94 57c-41 0 -73 -18 -73 -53z" />
    <glyph glyph-name="t" unicode="t" horiz-adv-x="382" 
d="M342 500v-104h-124v-240c0 -64 42 -63 124 -59v-97c-165 -20 -232 25 -232 156v240h-92v104h92v108l108 32v-140h124z" />
    <glyph glyph-name="u" unicode="u" horiz-adv-x="571" 
d="M400 232v268h108v-500h-108v64c-33 -51 -84 -77 -155 -77c-115 0 -192 78 -192 206v307h108v-296c0 -75 43 -116 112 -116c76 0 127 47 127 144z" />
    <glyph glyph-name="v" unicode="v" horiz-adv-x="525" 
d="M263 120l139 380h118l-195 -500h-125l-195 500h118z" />
    <glyph glyph-name="w" unicode="w" horiz-adv-x="770" 
d="M541 155l98 345h114l-157 -500h-106l-104 337l-105 -337h-106l-157 500h114l97 -345l105 345h103z" />
    <glyph glyph-name="x" unicode="x" horiz-adv-x="520" 
d="M323 256l187 -256h-125l-124 171l-125 -171h-126l188 257l-178 243h125l115 -158l115 158h126z" />
    <glyph glyph-name="y" unicode="y" horiz-adv-x="520" 
d="M272 137l128 363h115l-192 -516c-48 -129 -129 -191 -244 -184v101c68 -4 106 29 133 98l5 10l-212 491h118z" />
    <glyph glyph-name="z" unicode="z" horiz-adv-x="473" 
d="M425 428l-233 -326h243v-102h-390v72l234 326h-224v102h370v-72z" />
    <glyph glyph-name="braceleft" unicode="{" horiz-adv-x="357" 
d="M337 -4v-104c-133 -10 -200 50 -200 179v154c0 63 -27 77 -87 74v105c60 -3 87 11 87 74v154c0 129 67 188 200 178v-104c-64 8 -92 -10 -92 -74v-154c0 -64 -22 -106 -65 -126c43 -21 65 -64 65 -127v-154c0 -64 28 -82 92 -75z" />
    <glyph glyph-name="bar" unicode="|" horiz-adv-x="248" 
d="M178 -200h-108v920h108v-920z" />
    <glyph glyph-name="braceright" unicode="}" horiz-adv-x="357" 
d="M20 -108v104c64 -7 92 11 92 75v154c0 63 22 106 65 127c-43 20 -65 62 -65 126v154c0 64 -28 82 -92 74v104c133 10 200 -49 200 -178v-154c0 -63 27 -77 87 -74v-105c-60 3 -87 -11 -87 -74v-154c0 -129 -67 -189 -200 -179z" />
    <glyph glyph-name="asciitilde" unicode="~" horiz-adv-x="597" 
d="M457 433l90 -43c-35 -125 -129 -161 -250 -97c-51 26 -87 37 -108 33s-38 -24 -49 -61l-90 43c35 125 131 161 251 97c51 -26 87 -37 107 -33c21 5 37 25 49 61z" />
    <glyph glyph-name="exclamdown" unicode="&#xa1;" horiz-adv-x="255" 
d="M128 362c-43 0 -75 34 -75 75s34 75 75 75s75 -34 75 -75s-34 -75 -75 -75zM63 0l22 280h85l23 -280v-200h-130v200z" />
    <glyph glyph-name="cent" unicode="&#xa2;" horiz-adv-x="542" 
d="M431 270l93 -53c-43 -80 -128 -130 -225 -130c-23 0 -45 2 -64 7l-30 -94h-55l36 111c-92 41 -151 132 -151 239c0 75 25 137 75 187c51 51 114 76 189 76c18 0 34 -1 48 -4l29 91h55l-34 -105c57 -23 98 -60 125 -111l-93 -54c-13 29 -35 50 -65 63l-96 -297
c10 -2 20 -3 30 -3c59 0 109 30 133 77zM143 350c0 -59 29 -109 76 -136l94 292c-3 1 -8 1 -15 1c-44 0 -81 -15 -111 -45c-29 -30 -44 -67 -44 -112z" />
    <glyph glyph-name="sterling" unicode="&#xa3;" horiz-adv-x="583" 
d="M230 279v-168h340v-111h-535v111h80v168h-65v101h65v118c0 69 21 122 64 159s93 56 151 56c99 0 173 -52 209 -141l-98 -56c-19 57 -55 85 -108 85c-59 0 -103 -36 -103 -107v-114h213v-101h-213z" />
    <glyph glyph-name="currency" unicode="&#xa4;" horiz-adv-x="546" 
d="M487 350c0 -50 -15 -94 -46 -132l70 -70l-36 -36l-70 71c-38 -29 -82 -44 -132 -44c-49 0 -93 15 -131 44l-71 -71l-36 36l70 70c-31 38 -46 82 -46 132c0 51 15 95 46 133l-70 69l36 36l71 -70c38 29 82 43 131 43c50 0 94 -14 132 -43l70 70l36 -36l-69 -70
c30 -39 45 -83 45 -132zM196 272c21 -20 46 -30 77 -30s56 10 76 30c21 21 31 47 31 78s-10 57 -31 77c-20 21 -45 31 -76 31s-56 -10 -77 -31c-20 -20 -30 -46 -30 -77s10 -57 30 -78z" />
    <glyph glyph-name="yen" unicode="&#xa5;" horiz-adv-x="593" 
d="M477 700h131l-198 -343h112v-73h-155l-3 -6v-44h158v-73h-158v-161h-115v161h-177v73h177v44l-3 6h-174v73h131l-198 343h131l171 -310z" />
    <glyph glyph-name="brokenbar" unicode="&#xa6;" horiz-adv-x="248" 
d="M178 350h-108v370h108v-370zM178 -200h-108v370h108v-370z" />
    <glyph glyph-name="section" unicode="&#xa7;" horiz-adv-x="531" 
d="M494 277c0 -51 -20 -93 -61 -127c25 -27 37 -60 37 -101c0 -49 -18 -88 -55 -117c-36 -29 -82 -44 -139 -44c-109 0 -182 43 -218 129l96 54c19 -57 59 -86 122 -86c52 0 86 24 86 64c0 23 -15 39 -36 53c-12 9 -39 21 -54 28c-7 3 -17 8 -32 13l-33 14
c-95 39 -154 86 -154 173c0 51 21 92 64 125c-22 27 -33 60 -33 99c0 49 18 87 53 116s79 43 132 43c87 0 158 -44 193 -124l-89 -49c-22 51 -57 76 -104 76c-44 0 -77 -23 -77 -62c0 -22 13 -39 35 -55c15 -8 20 -12 39 -21c9 -4 16 -7 21 -10l49 -20
c97 -40 158 -86 158 -171zM161 335c0 -43 33 -68 93 -91l100 -39c21 16 32 37 32 62c0 44 -36 68 -100 93l-40 15l-51 22c-23 -15 -34 -35 -34 -62z" />
    <glyph glyph-name="dieresis" unicode="&#xa8;" horiz-adv-x="350" 
d="M122 575c-23 -23 -61 -23 -85 0c-23 24 -23 62 0 85c24 24 62 24 85 0c24 -23 24 -61 0 -85zM312 575c-23 -23 -61 -23 -85 0c-23 24 -23 62 0 85c24 24 62 24 85 0c24 -23 24 -61 0 -85z" />
    <glyph glyph-name="copyright" unicode="&#xa9;" horiz-adv-x="794" 
d="M653 94c-71 -71 -156 -106 -256 -106s-185 35 -256 106s-106 156 -106 256s35 185 106 256s156 106 256 106s185 -35 256 -106s106 -156 106 -256s-35 -185 -106 -256zM397 20c91 0 168 32 231 96c64 65 96 143 96 234s-32 169 -96 233c-63 65 -140 97 -231 97
c-90 0 -167 -32 -231 -97c-64 -64 -96 -142 -96 -233s32 -168 96 -233s141 -97 231 -97zM400 156c-55 0 -101 19 -139 57s-57 84 -57 137s19 99 57 137c38 39 84 58 139 58c71 0 132 -36 167 -95l-83 -48c-15 29 -48 48 -85 48c-60 0 -100 -45 -100 -100
c0 -53 40 -100 100 -100c41 0 69 16 86 49l82 -48c-33 -59 -96 -95 -167 -95z" />
    <glyph glyph-name="guillemotleft" unicode="&#xab;" horiz-adv-x="527" 
d="M175 494h107l-110 -185l110 -185h-107l-110 185zM355 494h107l-110 -185l110 -185h-107l-110 185z" />
    <glyph glyph-name="logicalnot" unicode="&#xac;" horiz-adv-x="540" 
d="M50 299v102h440v-220h-108v118h-332z" />
    <glyph glyph-name="registered" unicode="&#xae;" horiz-adv-x="794" 
d="M141 606c71 71 156 106 256 106s185 -35 256 -106s106 -156 106 -256s-35 -185 -106 -256s-156 -106 -256 -106s-185 35 -256 106s-106 156 -106 256s35 185 106 256zM397 20c91 0 168 32 231 96c64 65 96 143 96 234s-32 169 -96 233c-63 65 -140 97 -231 97
c-90 0 -167 -32 -231 -97c-64 -64 -96 -142 -96 -233s32 -168 96 -233s141 -97 231 -97zM549 414c0 -50 -20 -87 -59 -110l76 -139h-100l-59 117h-45v-117h-92v370h137c83 0 142 -52 142 -121zM402 450h-40v-88h40c35 0 55 17 55 44c0 29 -18 44 -55 44z" />
    <glyph glyph-name="overscore" unicode="&#xaf;" horiz-adv-x="320" 
d="M300 570h-280v89h280v-89z" />
    <glyph glyph-name="degree" unicode="&#xb0;" horiz-adv-x="396" 
d="M198 490c-47 0 -86 15 -117 46s-46 69 -46 114s15 82 46 113s70 47 117 47s85 -16 116 -47s47 -68 47 -113s-15 -83 -46 -114s-70 -46 -117 -46zM198 580c41 0 69 30 69 70s-29 70 -69 70s-69 -30 -69 -70s29 -70 69 -70z" />
    <glyph glyph-name="plusminus" unicode="&#xb1;" horiz-adv-x="550" 
d="M326 635v-151h169v-102h-169v-152h-102v152h-169v102h169v151h102zM495 65h-440v102h440v-102z" />
    <glyph glyph-name="acute" unicode="&#xb4;" horiz-adv-x="250" 
d="M20 565l80 135h130l-106 -135h-104z" />
    <glyph glyph-name="uni00B5" unicode="&#xb5;" horiz-adv-x="613" 
d="M551 102h37v-102h-56c-51 0 -86 19 -107 58c-33 -47 -84 -71 -151 -71c-40 0 -74 10 -103 29v-216h-108v700h108v-296c0 -73 43 -116 111 -116c77 0 128 46 128 145v267h108v-365c0 -20 13 -33 33 -33z" />
    <glyph glyph-name="paragraph" unicode="&#xb6;" horiz-adv-x="639" 
d="M240 700h355v-96h-61v-804h-102v804h-90v-804h-102v480c-58 0 -108 21 -149 62s-61 91 -61 148c0 59 20 108 61 149s91 61 149 61z" />
    <glyph glyph-name="middot" unicode="&#xb7;" horiz-adv-x="255" 
d="M53 348c0 43 32 75 75 75c64 4 101 -85 53 -128c-43 -48 -132 -11 -128 53z" />
    <glyph glyph-name="cedilla" unicode="&#xb8;" horiz-adv-x="255" 
d="M157 0v-46c45 -8 78 -36 78 -79c0 -69 -72 -100 -215 -91v79c81 -7 121 2 121 25c0 18 -24 28 -73 30v82h89z" />
    <glyph glyph-name="guillemotright" unicode="&#xbb;" horiz-adv-x="527" 
d="M65 494h107l110 -185l-110 -185h-107l110 185zM245 494h107l110 -185l-110 -185h-107l110 185z" />
    <glyph glyph-name="onequarter" unicode="&#xbc;" horiz-adv-x="817" 
d="M204 700v-400h-92v306l-85 -25l-22 76l119 43h80zM121 0l400 700h80l-400 -700h-80zM756 152h44v-84h-44v-68h-89v68h-193v84l135 248h99l-132 -248h91v79h89v-79z" />
    <glyph glyph-name="onehalf" unicode="&#xbd;" horiz-adv-x="812" 
d="M204 700v-400h-92v306l-85 -25l-22 76l119 43h80zM121 0l400 700h80l-400 -700h-80zM707 161l-82 -76h155v-85h-293v64l157 151c25 23 37 46 37 69c0 27 -20 44 -52 44s-55 -18 -70 -54l-75 42c25 60 75 97 146 97c84 0 143 -52 143 -124c0 -43 -22 -86 -66 -128z" />
    <glyph glyph-name="threequarters" unicode="&#xbe;" horiz-adv-x="905" 
d="M319 419c0 -83 -59 -132 -152 -132c-75 0 -125 29 -152 87l78 45c13 -33 38 -50 74 -50c79 -8 78 108 -3 100h-14l-36 55l75 91h-158v85h270v-72l-78 -93c61 -15 96 -57 96 -116zM209 0l400 700h80l-400 -700h-80zM844 152h44v-84h-44v-68h-89v68h-193v84l135 248h99
l-132 -248h91v79h89v-79z" />
    <glyph glyph-name="questiondown" unicode="&#xbf;" horiz-adv-x="546" 
d="M288 362c-41 0 -75 34 -75 75s34 75 75 75s75 -34 75 -75s-32 -75 -75 -75zM231 280h115c0 -146 -176 -187 -176 -294c0 -56 42 -87 107 -87c63 0 110 33 130 92l99 -56c-37 -95 -127 -148 -232 -148c-59 0 -111 17 -154 51s-65 81 -65 141c0 150 176 195 176 301z" />
    <glyph glyph-name="Agrave" unicode="&#xc0;" horiz-adv-x="655" 
d="M323 900l80 -135h-104l-106 135h130zM650 0h-124l-49 141h-298l-49 -141h-125l254 700h138zM328 565l-111 -316h222z" />
    <glyph glyph-name="Aacute" unicode="&#xc1;" horiz-adv-x="655" 
d="M338 900h130l-106 -135h-104zM650 0h-124l-49 141h-298l-49 -141h-125l254 700h138zM328 565l-111 -316h222z" />
    <glyph glyph-name="Acircumflex" unicode="&#xc2;" horiz-adv-x="655" 
d="M378 760l-52 74l-53 -74h-110l106 140h113l106 -140h-110zM650 0h-124l-49 141h-298l-49 -141h-125l254 700h138zM328 565l-111 -316h222z" />
    <glyph glyph-name="Atilde" unicode="&#xc3;" horiz-adv-x="655" 
d="M320 790c-44 35 -63 33 -63 -23h-89c0 146 88 164 169 110c43 -35 62 -33 62 23h89c0 -146 -86 -165 -168 -110zM650 0h-124l-49 141h-298l-49 -141h-125l254 700h138zM328 565l-111 -316h222z" />
    <glyph glyph-name="Adieresis" unicode="&#xc4;" horiz-adv-x="655" 
d="M275 775c-23 -23 -61 -23 -85 0c-23 24 -23 62 0 85c24 24 62 24 85 0c24 -23 24 -61 0 -85zM465 775c-23 -23 -61 -23 -85 0c-23 24 -23 62 0 85c24 24 62 24 85 0c24 -23 24 -61 0 -85zM650 0h-124l-49 141h-298l-49 -141h-125l254 700h138zM328 565l-111 -316h222z
" />
    <glyph glyph-name="Aring" unicode="&#xc5;" horiz-adv-x="655" 
d="M650 0h-124l-49 141h-298l-49 -141h-125l246 677c-29 21 -43 51 -43 88c0 64 50 113 119 113c71 0 120 -48 120 -113c0 -37 -14 -66 -42 -88zM327 807c-27 0 -43 -17 -43 -42c0 -24 16 -41 43 -41c28 0 44 17 44 41c0 25 -16 42 -44 42zM328 565l-111 -316h222z" />
    <glyph glyph-name="AE" unicode="&#xc6;" horiz-adv-x="880" 
d="M563 299v-189h282v-110h-395v141h-236l-84 -141h-130l419 700h421v-110h-277v-182h257v-109h-257zM450 537l-172 -288h172v288z" />
    <glyph glyph-name="Ccedilla" unicode="&#xc7;" horiz-adv-x="732" 
d="M401 99c88 0 165 44 201 113l100 -57c-51 -91 -146 -152 -255 -165v-36c45 -8 78 -36 78 -79c0 -69 -72 -100 -215 -91v79c81 -7 121 2 121 25c0 18 -24 28 -73 30v71c-95 10 -172 49 -233 117c-60 68 -90 149 -90 244c0 103 35 189 104 258c69 70 157 105 262 105
c127 0 241 -64 301 -167l-100 -58c-37 69 -113 113 -201 113c-75 0 -135 -24 -182 -71c-46 -47 -69 -107 -69 -180s23 -133 69 -180c47 -47 107 -71 182 -71z" />
    <glyph glyph-name="Egrave" unicode="&#xc8;" horiz-adv-x="530" 
d="M276 900l80 -135h-104l-106 135h130zM185 299v-189h310v-110h-425v700h420v-110h-305v-182h280v-109h-280z" />
    <glyph glyph-name="Eacute" unicode="&#xc9;" horiz-adv-x="530" 
d="M291 900h130l-106 -135h-104zM185 299v-189h310v-110h-425v700h420v-110h-305v-182h280v-109h-280z" />
    <glyph glyph-name="Ecircumflex" unicode="&#xca;" horiz-adv-x="530" 
d="M331 760l-52 74l-53 -74h-110l106 140h113l106 -140h-110zM185 299v-189h310v-110h-425v700h420v-110h-305v-182h280v-109h-280z" />
    <glyph glyph-name="Edieresis" unicode="&#xcb;" horiz-adv-x="530" 
d="M228 775c-23 -23 -61 -23 -85 0c-23 24 -23 62 0 85c24 24 62 24 85 0c24 -23 24 -61 0 -85zM418 775c-23 -23 -61 -23 -85 0c-23 24 -23 62 0 85c24 24 62 24 85 0c24 -23 24 -61 0 -85zM185 299v-189h310v-110h-425v700h420v-110h-305v-182h280v-109h-280z" />
    <glyph glyph-name="Igrave" unicode="&#xcc;" horiz-adv-x="255" 
d="M203 765h-104l-106 135h130zM70 700v-700h115v700h-115z" />
    <glyph glyph-name="Iacute" unicode="&#xcd;" horiz-adv-x="255" 
d="M58 765l80 135h130l-106 -135h-104zM70 700v-700h115v700h-115z" />
    <glyph glyph-name="Icircumflex" unicode="&#xce;" horiz-adv-x="255" 
d="M178 760l-52 74l-53 -74h-110l106 140h113l106 -140h-110zM185 0h-115v700h115v-700z" />
    <glyph glyph-name="Idieresis" unicode="&#xcf;" horiz-adv-x="255" 
d="M75 775c-23 -23 -61 -23 -84 0c-24 24 -24 62 0 85c23 24 61 24 84 0c24 -23 24 -61 0 -85zM265 775c-23 -23 -61 -23 -85 0c-23 24 -23 62 0 85c24 24 62 24 85 0c24 -23 24 -61 0 -85zM70 0v700h115v-700h-115z" />
    <glyph glyph-name="Eth" unicode="&#xd0;" horiz-adv-x="745" 
d="M100 700h275c96 0 176 -34 239 -101c64 -67 96 -150 96 -249c0 -98 -32 -181 -96 -249c-63 -67 -143 -101 -239 -101h-275v293h-75v104h75v303zM215 110h160c66 0 120 23 161 68c42 45 63 103 63 172c0 70 -21 127 -63 172c-41 45 -95 68 -161 68h-160v-193h180v-104
h-180v-183z" />
    <glyph glyph-name="Ntilde" unicode="&#xd1;" horiz-adv-x="675" 
d="M262 767h-89c0 146 88 164 169 110c43 -35 62 -33 62 23h89c0 -146 -86 -165 -168 -110c-44 35 -63 33 -63 -23zM490 225v475h115v-700h-90l-330 475v-475h-115v700h90z" />
    <glyph glyph-name="Ograve" unicode="&#xd2;" horiz-adv-x="796" 
d="M473 770h-104l-106 135h130zM655 92c71 71 106 157 106 258s-35 187 -106 257c-70 71 -156 106 -257 106s-187 -35 -258 -106c-70 -70 -105 -156 -105 -257s35 -187 105 -258c71 -70 157 -105 258 -105s187 35 257 105zM221 170c-47 48 -71 108 -71 180s24 132 71 179
c48 48 107 72 177 72s129 -24 176 -72c48 -47 72 -107 72 -179s-24 -132 -72 -180c-47 -47 -106 -71 -176 -71s-129 24 -177 71z" />
    <glyph glyph-name="Oacute" unicode="&#xd3;" horiz-adv-x="796" 
d="M328 770l80 135h130l-106 -135h-104zM655 92c71 71 106 157 106 258s-35 187 -106 257c-70 71 -156 106 -257 106s-187 -35 -258 -106c-70 -70 -105 -156 -105 -257s35 -187 105 -258c71 -70 157 -105 258 -105s187 35 257 105zM221 170c-47 48 -71 108 -71 180
s24 132 71 179c48 48 107 72 177 72s129 -24 176 -72c48 -47 72 -107 72 -179s-24 -132 -72 -180c-47 -47 -106 -71 -176 -71s-129 24 -177 71z" />
    <glyph glyph-name="Ocircumflex" unicode="&#xd4;" horiz-adv-x="796" 
d="M448 765l-52 74l-53 -74h-110l106 140h113l106 -140h-110zM140 607c71 71 157 106 258 106s187 -35 257 -106c71 -70 106 -156 106 -257s-35 -187 -106 -258c-70 -70 -156 -105 -257 -105s-187 35 -258 105c-70 71 -105 157 -105 258s35 187 105 257zM221 170
c48 -47 107 -71 177 -71s129 24 176 71c48 48 72 108 72 180s-24 132 -72 179c-47 48 -106 72 -176 72s-129 -24 -177 -72c-47 -47 -71 -107 -71 -179s24 -132 71 -180z" />
    <glyph glyph-name="Otilde" unicode="&#xd5;" horiz-adv-x="796" 
d="M327 772h-89c0 146 88 164 169 110c43 -35 62 -33 62 23h89c0 -146 -86 -165 -168 -110c-44 35 -63 33 -63 -23zM655 92c-70 -70 -156 -105 -257 -105s-187 35 -258 105c-70 71 -105 157 -105 258s35 187 105 257c71 71 157 106 258 106s187 -35 257 -106
c71 -70 106 -156 106 -257s-35 -187 -106 -258zM221 170c48 -47 107 -71 177 -71s129 24 176 71c48 48 72 108 72 180s-24 132 -72 179c-47 48 -106 72 -176 72s-129 -24 -177 -72c-47 -47 -71 -107 -71 -179s24 -132 71 -180z" />
    <glyph glyph-name="Odieresis" unicode="&#xd6;" horiz-adv-x="796" 
d="M345 780c-23 -23 -61 -23 -85 0c-23 24 -23 62 0 85c24 24 62 24 85 0c24 -23 24 -61 0 -85zM535 780c-23 -23 -61 -23 -85 0c-23 24 -23 62 0 85c24 24 62 24 85 0c24 -23 24 -61 0 -85zM655 92c-70 -70 -156 -105 -257 -105s-187 35 -258 105c-70 71 -105 157 -105 258
s35 187 105 257c71 71 157 106 258 106s187 -35 257 -106c71 -70 106 -156 106 -257s-35 -187 -106 -258zM221 170c48 -47 107 -71 177 -71s129 24 176 71c48 48 72 108 72 180s-24 132 -72 179c-47 48 -106 72 -176 72s-129 -24 -177 -72c-47 -47 -71 -107 -71 -179
s24 -132 71 -180z" />
    <glyph glyph-name="multiply" unicode="&#xd7;" horiz-adv-x="498" 
d="M376 548l72 -70l-128 -128l128 -128l-72 -70l-127 127l-127 -127l-72 70l128 128l-128 128l72 70l127 -127z" />
    <glyph glyph-name="Oslash" unicode="&#xd8;" horiz-adv-x="804" 
d="M721 672l-56 -66c69 -69 104 -155 104 -256s-35 -187 -106 -258c-70 -70 -156 -105 -257 -105c-77 0 -145 21 -206 63l-48 -57l-61 35l56 66c-69 71 -104 156 -104 256c0 101 35 187 105 257c71 71 157 106 258 106c77 0 145 -21 206 -63l48 57zM158 350
c0 -65 20 -122 61 -169l321 383c-41 25 -85 37 -134 37c-70 0 -129 -24 -177 -72c-47 -47 -71 -107 -71 -179zM406 99c70 0 129 24 176 71c48 48 72 108 72 180c0 65 -20 122 -61 169l-321 -383c41 -25 85 -37 134 -37z" />
    <glyph glyph-name="Ugrave" unicode="&#xd9;" horiz-adv-x="655" 
d="M403 765h-104l-106 135h130zM63 232c0 -75 25 -134 74 -179c49 -44 113 -66 191 -66s142 22 191 66c49 45 74 104 74 179v468h-115v-461c0 -85 -50 -140 -150 -140s-150 55 -150 140v461h-115v-468z" />
    <glyph glyph-name="Uacute" unicode="&#xda;" horiz-adv-x="655" 
d="M258 765l80 135h130l-106 -135h-104zM63 232c0 -75 25 -134 74 -179c49 -44 113 -66 191 -66s142 22 191 66c49 45 74 104 74 179v468h-115v-461c0 -85 -50 -140 -150 -140s-150 55 -150 140v461h-115v-468z" />
    <glyph glyph-name="Ucircumflex" unicode="&#xdb;" horiz-adv-x="655" 
d="M378 760l-52 74l-53 -74h-110l106 140h113l106 -140h-110zM478 239v461h115v-468c0 -75 -25 -134 -74 -179c-49 -44 -113 -66 -191 -66s-142 22 -191 66c-49 45 -74 104 -74 179v468h115v-461c0 -85 50 -140 150 -140s150 55 150 140z" />
    <glyph glyph-name="Udieresis" unicode="&#xdc;" horiz-adv-x="655" 
d="M275 775c-23 -23 -61 -23 -85 0c-23 24 -23 62 0 85c24 24 62 24 85 0c24 -23 24 -61 0 -85zM465 775c-23 -23 -61 -23 -85 0c-23 24 -23 62 0 85c24 24 62 24 85 0c24 -23 24 -61 0 -85zM63 232v468h115v-461c0 -85 50 -140 150 -140s150 55 150 140v461h115v-468
c0 -75 -25 -134 -74 -179c-49 -44 -113 -66 -191 -66s-142 22 -191 66c-49 45 -74 104 -74 179z" />
    <glyph glyph-name="Yacute" unicode="&#xdd;" horiz-adv-x="613" 
d="M315 900h130l-106 -135h-104zM477 700h131l-244 -422v-278h-115v278l-244 422h131l171 -310z" />
    <glyph glyph-name="Thorn" unicode="&#xde;" horiz-adv-x="590" 
d="M185 580h145c65 0 120 -22 164 -66s66 -99 66 -164s-22 -119 -67 -164c-44 -44 -98 -66 -163 -66h-145v-120h-115v700h115v-120zM185 228h145c65 0 115 51 115 122s-48 122 -115 122h-145v-244z" />
    <glyph glyph-name="germandbls" unicode="&#xdf;" horiz-adv-x="530" 
d="M283 -5v96c81 -7 122 16 122 68c0 35 -32 82 -64 117c-31 36 -63 83 -63 116c0 19 12 43 35 73c24 31 36 56 36 75c0 44 -33 73 -82 73c-55 0 -96 -33 -96 -102v-511h-108v510c0 125 83 203 208 203c57 0 102 -16 135 -47c34 -31 51 -68 51 -113c2 -71 -72 -125 -69 -156
c0 -27 31 -68 62 -104c32 -35 63 -94 63 -149c0 -100 -73 -164 -230 -149z" />
    <glyph glyph-name="agrave" unicode="&#xe0;" 
d="M303 700l80 -135h-104l-106 135h130zM459 429v71h108v-500h-108v72c-41 -57 -99 -85 -175 -85c-69 0 -127 25 -176 76s-73 114 -73 187c0 74 24 136 73 187s107 76 176 76c76 0 134 -28 175 -84zM188 135c30 -30 68 -45 113 -45s83 15 113 45c30 31 45 69 45 115
s-15 84 -45 114c-30 31 -68 46 -113 46s-83 -15 -113 -46c-30 -30 -45 -68 -45 -114s15 -84 45 -115z" />
    <glyph glyph-name="aacute" unicode="&#xe1;" 
d="M318 700h130l-106 -135h-104zM459 429v71h108v-500h-108v72c-41 -57 -99 -85 -175 -85c-69 0 -127 25 -176 76s-73 114 -73 187c0 74 24 136 73 187s107 76 176 76c76 0 134 -28 175 -84zM188 135c30 -30 68 -45 113 -45s83 15 113 45c30 31 45 69 45 115s-15 84 -45 114
c-30 31 -68 46 -113 46s-83 -15 -113 -46c-30 -30 -45 -68 -45 -114s15 -84 45 -115z" />
    <glyph glyph-name="acircumflex" unicode="&#xe2;" 
d="M358 560l-52 74l-53 -74h-110l106 140h113l106 -140h-110zM459 429v71h108v-500h-108v72c-41 -57 -99 -85 -175 -85c-69 0 -127 25 -176 76s-73 114 -73 187c0 74 24 136 73 187s107 76 176 76c76 0 134 -28 175 -84zM188 135c30 -30 68 -45 113 -45s83 15 113 45
c30 31 45 69 45 115s-15 84 -45 114c-30 31 -68 46 -113 46s-83 -15 -113 -46c-30 -30 -45 -68 -45 -114s15 -84 45 -115z" />
    <glyph glyph-name="atilde" unicode="&#xe3;" 
d="M300 590c-44 35 -63 33 -63 -23h-89c0 146 88 164 169 110c43 -35 62 -33 62 23h89c0 -146 -86 -165 -168 -110zM459 429v71h108v-500h-108v72c-41 -57 -99 -85 -175 -85c-69 0 -127 25 -176 76s-73 114 -73 187c0 74 24 136 73 187s107 76 176 76c76 0 134 -28 175 -84z
M188 135c30 -30 68 -45 113 -45s83 15 113 45c30 31 45 69 45 115s-15 84 -45 114c-30 31 -68 46 -113 46s-83 -15 -113 -46c-30 -30 -45 -68 -45 -114s15 -84 45 -115z" />
    <glyph glyph-name="adieresis" unicode="&#xe4;" 
d="M255 575c-23 -23 -61 -23 -85 0c-23 24 -23 62 0 85c24 24 62 24 85 0c24 -23 24 -61 0 -85zM445 575c-23 -23 -61 -23 -85 0c-23 24 -23 62 0 85c24 24 62 24 85 0c24 -23 24 -61 0 -85zM459 429v71h108v-500h-108v72c-41 -57 -99 -85 -175 -85c-69 0 -127 25 -176 76
s-73 114 -73 187c0 74 24 136 73 187s107 76 176 76c76 0 134 -28 175 -84zM188 135c30 -30 68 -45 113 -45s83 15 113 45c30 31 45 69 45 115s-15 84 -45 114c-30 31 -68 46 -113 46s-83 -15 -113 -46c-30 -30 -45 -68 -45 -114s15 -84 45 -115z" />
    <glyph glyph-name="aring" unicode="&#xe5;" 
d="M308 543c-69 0 -119 48 -119 112s50 113 119 113c71 0 120 -48 120 -113s-49 -112 -120 -112zM308 697c-27 0 -43 -17 -43 -42c0 -24 16 -41 43 -41c28 0 44 17 44 41c0 25 -16 42 -44 42zM459 429v71h108v-500h-108v72c-41 -57 -99 -85 -175 -85c-69 0 -127 25 -176 76
s-73 114 -73 187c0 74 24 136 73 187s107 76 176 76c76 0 134 -28 175 -84zM188 135c30 -30 68 -45 113 -45s83 15 113 45c30 31 45 69 45 115s-15 84 -45 114c-30 31 -68 46 -113 46s-83 -15 -113 -46c-30 -30 -45 -68 -45 -114s15 -84 45 -115z" />
    <glyph glyph-name="ae" unicode="&#xe6;" horiz-adv-x="1006" 
d="M970 204h-397c16 -76 77 -118 157 -118c59 0 102 21 131 62l89 -52c-49 -73 -118 -109 -206 -109c-79 0 -140 29 -182 87v-74h-103v72c-41 -57 -99 -85 -175 -85c-69 0 -127 25 -176 76s-73 114 -73 187c0 74 24 136 73 187s107 76 176 76c76 0 134 -28 175 -84v71h103
v-74c42 58 101 87 176 87c73 0 131 -25 173 -76c42 -50 63 -113 63 -188c0 -11 -1 -26 -4 -45zM572 293h293c-13 81 -70 122 -141 122c-81 0 -137 -46 -152 -122zM188 135c30 -30 68 -45 113 -45s83 15 113 45c30 31 45 69 45 115s-15 84 -45 114c-30 31 -68 46 -113 46
s-83 -15 -113 -46c-30 -30 -45 -68 -45 -114s15 -84 45 -115z" />
    <glyph glyph-name="ccedilla" unicode="&#xe7;" horiz-adv-x="542" 
d="M431 170l93 -53c-35 -67 -102 -113 -179 -126v-37c45 -8 78 -36 78 -79c0 -69 -72 -100 -215 -91v79c81 -7 121 2 121 25c0 18 -24 28 -73 30v72c-65 10 -118 39 -159 87c-41 49 -62 106 -62 173c0 75 25 137 75 187c51 51 114 76 189 76c97 0 183 -50 223 -129l-93 -54
c-23 48 -71 77 -131 77c-44 0 -81 -15 -111 -45c-29 -30 -44 -67 -44 -112s15 -82 44 -112c30 -30 67 -45 111 -45c59 0 109 30 133 77z" />
    <glyph glyph-name="egrave" unicode="&#xe8;" horiz-adv-x="582" 
d="M288 703l80 -135h-104l-106 135h130zM546 204h-398c16 -76 77 -118 160 -118c57 0 100 21 129 62l89 -52c-49 -73 -122 -109 -219 -109c-81 0 -147 25 -197 74c-50 50 -75 113 -75 189c0 75 25 137 74 187c49 51 113 76 190 76c73 0 133 -26 180 -77s71 -114 71 -187
c0 -11 -1 -26 -4 -45zM147 292h294c-15 81 -72 123 -143 123c-80 0 -136 -47 -151 -123z" />
    <glyph glyph-name="eacute" unicode="&#xe9;" horiz-adv-x="582" 
d="M303 703h130l-106 -135h-104zM546 204h-398c16 -76 77 -118 160 -118c57 0 100 21 129 62l89 -52c-49 -73 -122 -109 -219 -109c-81 0 -147 25 -197 74c-50 50 -75 113 -75 189c0 75 25 137 74 187c49 51 113 76 190 76c73 0 133 -26 180 -77s71 -114 71 -187
c0 -11 -1 -26 -4 -45zM147 292h294c-15 81 -72 123 -143 123c-80 0 -136 -47 -151 -123z" />
    <glyph glyph-name="ecircumflex" unicode="&#xea;" horiz-adv-x="582" 
d="M343 563l-52 74l-53 -74h-110l106 140h113l106 -140h-110zM546 204h-398c16 -76 77 -118 160 -118c57 0 100 21 129 62l89 -52c-49 -73 -122 -109 -219 -109c-81 0 -147 25 -197 74c-50 50 -75 113 -75 189c0 75 25 137 74 187c49 51 113 76 190 76c73 0 133 -26 180 -77
s71 -114 71 -187c0 -11 -1 -26 -4 -45zM147 292h294c-15 81 -72 123 -143 123c-80 0 -136 -47 -151 -123z" />
    <glyph glyph-name="edieresis" unicode="&#xeb;" horiz-adv-x="582" 
d="M240 578c-23 -23 -61 -23 -85 0c-23 24 -23 62 0 85c24 24 62 24 85 0c24 -23 24 -61 0 -85zM430 578c-23 -23 -61 -23 -85 0c-23 24 -23 62 0 85c24 24 62 24 85 0c24 -23 24 -61 0 -85zM546 204h-398c16 -76 77 -118 160 -118c57 0 100 21 129 62l89 -52
c-49 -73 -122 -109 -219 -109c-81 0 -147 25 -197 74c-50 50 -75 113 -75 189c0 75 25 137 74 187c49 51 113 76 190 76c73 0 133 -26 180 -77s71 -114 71 -187c0 -11 -1 -26 -4 -45zM147 292h294c-15 81 -72 123 -143 123c-80 0 -136 -47 -151 -123z" />
    <glyph glyph-name="igrave" unicode="&#xec;" horiz-adv-x="233" 
d="M167 560h-104l-66 140h125zM171 0v500h-108v-500h108z" />
    <glyph glyph-name="iacute" unicode="&#xed;" horiz-adv-x="233" 
d="M64 560l45 140h125l-66 -140h-104zM63 0h108v500h-108v-500z" />
    <glyph glyph-name="icircumflex" unicode="&#xee;" horiz-adv-x="233" 
d="M154 560l-37 62l-38 -62h-110l91 140h113l91 -140h-110zM171 0h-108v500h108v-500z" />
    <glyph glyph-name="idieresis" unicode="&#xef;" horiz-adv-x="233" 
d="M79 577c-23 -23 -61 -23 -85 0c-24 24 -24 62 0 85c24 24 62 24 85 0c24 -23 24 -61 0 -85zM239 577c-23 -23 -61 -23 -85 0c-23 24 -23 62 0 85c24 24 62 24 85 0c24 -23 24 -61 0 -85zM171 0h-108v500h108v-500z" />
    <glyph glyph-name="eth" unicode="&#xf0;" horiz-adv-x="576" 
d="M328 594l167 -224c31 -41 46 -87 46 -140c0 -73 -25 -131 -74 -176c-49 -44 -109 -66 -179 -66s-130 22 -179 66c-49 45 -74 103 -74 176c0 72 27 130 80 175c54 45 117 61 188 50h1l-66 91l-123 -65v80l80 43l-70 96h124l36 -49l117 62v-80zM433 230c0 33 -8 60 -24 81
l-1 1c-27 36 -66 54 -119 54c-85 0 -146 -53 -146 -136c0 -85 62 -140 145 -140s145 55 145 140z" />
    <glyph glyph-name="ntilde" unicode="&#xf1;" horiz-adv-x="571" 
d="M288 595c-44 35 -63 33 -63 -23h-89c0 146 88 164 169 110c43 -35 62 -33 62 23h89c0 -146 -86 -165 -168 -110zM326 513c115 0 192 -78 192 -206v-307h-108v296c0 75 -43 116 -112 116c-76 0 -127 -47 -127 -144v-268h-108v500h108v-64c33 51 84 77 155 77z" />
    <glyph glyph-name="ograve" unicode="&#xf2;" horiz-adv-x="598" 
d="M374 570h-104l-106 135h130zM299 -13c74 0 136 25 187 76s77 113 77 187s-26 136 -77 187s-113 76 -187 76c-73 0 -136 -25 -187 -76s-77 -113 -77 -187s26 -136 77 -187s114 -76 187 -76zM188 137c-30 30 -45 68 -45 113s15 83 45 113s67 45 111 45s81 -15 111 -45
s45 -68 45 -113s-15 -83 -45 -113s-67 -45 -111 -45s-81 15 -111 45z" />
    <glyph glyph-name="oacute" unicode="&#xf3;" horiz-adv-x="598" 
d="M229 570l80 135h130l-106 -135h-104zM299 -13c74 0 136 25 187 76s77 113 77 187s-26 136 -77 187s-113 76 -187 76c-73 0 -136 -25 -187 -76s-77 -113 -77 -187s26 -136 77 -187s114 -76 187 -76zM188 137c-30 30 -45 68 -45 113s15 83 45 113s67 45 111 45
s81 -15 111 -45s45 -68 45 -113s-15 -83 -45 -113s-67 -45 -111 -45s-81 15 -111 45z" />
    <glyph glyph-name="ocircumflex" unicode="&#xf4;" horiz-adv-x="598" 
d="M349 565l-52 74l-53 -74h-110l106 140h113l106 -140h-110zM299 513c74 0 136 -25 187 -76s77 -113 77 -187s-26 -136 -77 -187s-113 -76 -187 -76c-73 0 -136 25 -187 76s-77 113 -77 187s26 136 77 187s114 76 187 76zM188 137c30 -30 67 -45 111 -45s81 15 111 45
s45 68 45 113s-15 83 -45 113s-67 45 -111 45s-81 -15 -111 -45s-45 -68 -45 -113s15 -83 45 -113z" />
    <glyph glyph-name="otilde" unicode="&#xf5;" horiz-adv-x="598" 
d="M228 572h-89c0 146 88 164 169 110c43 -35 62 -33 62 23h89c0 -146 -86 -165 -168 -110c-44 35 -63 33 -63 -23zM299 -13c-73 0 -136 25 -187 76s-77 113 -77 187s26 136 77 187s114 76 187 76c74 0 136 -25 187 -76s77 -113 77 -187s-26 -136 -77 -187
s-113 -76 -187 -76zM188 137c30 -30 67 -45 111 -45s81 15 111 45s45 68 45 113s-15 83 -45 113s-67 45 -111 45s-81 -15 -111 -45s-45 -68 -45 -113s15 -83 45 -113z" />
    <glyph glyph-name="odieresis" unicode="&#xf6;" horiz-adv-x="598" 
d="M246 580c-23 -23 -61 -23 -85 0c-23 24 -23 62 0 85c24 24 62 24 85 0c24 -23 24 -61 0 -85zM436 580c-23 -23 -61 -23 -85 0c-23 24 -23 62 0 85c24 24 62 24 85 0c24 -23 24 -61 0 -85zM299 -13c-73 0 -136 25 -187 76s-77 113 -77 187s26 136 77 187s114 76 187 76
c74 0 136 -25 187 -76s77 -113 77 -187s-26 -136 -77 -187s-113 -76 -187 -76zM188 137c30 -30 67 -45 111 -45s81 15 111 45s45 68 45 113s-15 83 -45 113s-67 45 -111 45s-81 -15 -111 -45s-45 -68 -45 -113s15 -83 45 -113z" />
    <glyph glyph-name="divide" unicode="&#xf7;" horiz-adv-x="570" 
d="M337 490c-28 -27 -76 -27 -104 0c-27 28 -27 76 0 104c28 28 76 28 104 0s28 -76 0 -104zM520 299h-470v102h470v-102zM337 106c-28 -27 -76 -27 -104 0c-27 28 -27 76 0 104c28 28 76 28 104 0s28 -76 0 -104z" />
    <glyph glyph-name="oslash" unicode="&#xf8;" horiz-adv-x="598" 
d="M534 479l-41 -48c47 -51 70 -112 70 -181c0 -74 -26 -136 -77 -187s-113 -76 -187 -76c-55 0 -104 15 -149 45l-34 -40l-51 29l41 48c-47 51 -71 111 -71 181c0 74 26 136 77 187s114 76 187 76c55 0 105 -15 150 -45l34 40zM143 250c0 -39 11 -72 33 -100l203 237
c-25 14 -51 21 -80 21c-44 0 -81 -15 -111 -45s-45 -68 -45 -113zM299 92c44 0 81 15 111 45s45 68 45 113c0 38 -11 71 -33 99l-202 -236c23 -14 49 -21 79 -21z" />
    <glyph glyph-name="ugrave" unicode="&#xf9;" horiz-adv-x="571" 
d="M275 700l80 -135h-104l-106 135h130zM400 232v268h108v-500h-108v64c-33 -51 -84 -77 -155 -77c-115 0 -192 78 -192 206v307h108v-296c0 -75 43 -116 112 -116c76 0 127 47 127 144z" />
    <glyph glyph-name="uacute" unicode="&#xfa;" horiz-adv-x="571" 
d="M290 700h130l-106 -135h-104zM400 232v268h108v-500h-108v64c-33 -51 -84 -77 -155 -77c-115 0 -192 78 -192 206v307h108v-296c0 -75 43 -116 112 -116c76 0 127 47 127 144z" />
    <glyph glyph-name="ucircumflex" unicode="&#xfb;" horiz-adv-x="571" 
d="M330 560l-52 74l-53 -74h-110l106 140h113l106 -140h-110zM400 232v268h108v-500h-108v64c-33 -51 -84 -77 -155 -77c-115 0 -192 78 -192 206v307h108v-296c0 -75 43 -116 112 -116c76 0 127 47 127 144z" />
    <glyph glyph-name="udieresis" unicode="&#xfc;" horiz-adv-x="571" 
d="M227 575c-23 -23 -61 -23 -85 0c-23 24 -23 62 0 85c24 24 62 24 85 0c24 -23 24 -61 0 -85zM417 575c-23 -23 -61 -23 -85 0c-23 24 -23 62 0 85c24 24 62 24 85 0c24 -23 24 -61 0 -85zM400 232v268h108v-500h-108v64c-33 -51 -84 -77 -155 -77
c-115 0 -192 78 -192 206v307h108v-296c0 -75 43 -116 112 -116c76 0 127 47 127 144z" />
    <glyph glyph-name="yacute" unicode="&#xfd;" horiz-adv-x="520" 
d="M270 700h130l-106 -135h-104zM272 137l128 363h115l-192 -516c-48 -129 -129 -191 -244 -184v101c68 -4 106 29 133 98l5 10l-212 491h118z" />
    <glyph glyph-name="thorn" unicode="&#xfe;" 
d="M346 513c69 0 127 -25 176 -76s73 -113 73 -187c0 -73 -24 -136 -73 -187s-107 -76 -176 -76c-76 0 -134 28 -175 85v-272h-108v900h108v-271c41 56 99 84 175 84zM216 135c30 -30 68 -45 113 -45s83 15 113 45c30 31 45 69 45 115s-15 84 -45 114c-30 31 -68 46 -113 46
s-83 -15 -113 -46c-30 -30 -45 -68 -45 -114s15 -84 45 -115z" />
    <glyph glyph-name="ydieresis" unicode="&#xff;" horiz-adv-x="520" 
d="M207 575c-23 -23 -61 -23 -85 0c-23 24 -23 62 0 85c24 24 62 24 85 0c24 -23 24 -61 0 -85zM397 575c-23 -23 -61 -23 -85 0c-23 24 -23 62 0 85c24 24 62 24 85 0c24 -23 24 -61 0 -85zM272 137l128 363h115l-192 -516c-48 -129 -129 -191 -244 -184v101
c68 -4 106 29 133 98l5 10l-212 491h118z" />
    <glyph glyph-name="Amacron" unicode="&#x100;" horiz-adv-x="655" 
d="M188 859h280v-89h-280v89zM650 0h-124l-49 141h-298l-49 -141h-125l254 700h138zM328 565l-111 -316h222z" />
    <glyph glyph-name="amacron" unicode="&#x101;" 
d="M168 659h280v-89h-280v89zM459 429v71h108v-500h-108v72c-41 -57 -99 -85 -175 -85c-69 0 -127 25 -176 76s-73 114 -73 187c0 74 24 136 73 187s107 76 176 76c76 0 134 -28 175 -84zM188 135c30 -30 68 -45 113 -45s83 15 113 45c30 31 45 69 45 115s-15 84 -45 114
c-30 31 -68 46 -113 46s-83 -15 -113 -46c-30 -30 -45 -68 -45 -114s15 -84 45 -115z" />
    <glyph glyph-name="Abreve" unicode="&#x102;" horiz-adv-x="655" 
d="M328 752c-100 0 -158 51 -158 140h98c0 -39 20 -59 60 -59c39 0 59 20 59 59h98c0 -89 -58 -140 -157 -140zM650 0h-124l-49 141h-298l-49 -141h-125l254 700h138zM328 565l-111 -316h222z" />
    <glyph glyph-name="abreve" unicode="&#x103;" 
d="M308 552c-100 0 -158 51 -158 140h98c0 -39 20 -59 60 -59c39 0 59 20 59 59h98c0 -89 -58 -140 -157 -140zM459 429v71h108v-500h-108v72c-41 -57 -99 -85 -175 -85c-69 0 -127 25 -176 76s-73 114 -73 187c0 74 24 136 73 187s107 76 176 76c76 0 134 -28 175 -84z
M188 135c30 -30 68 -45 113 -45s83 15 113 45c30 31 45 69 45 115s-15 84 -45 114c-30 31 -68 46 -113 46s-83 -15 -113 -46c-30 -30 -45 -68 -45 -114s15 -84 45 -115z" />
    <glyph glyph-name="Aogonek" unicode="&#x104;" horiz-adv-x="655" 
d="M618 -133c8 -1 19 1 32 6v-72c-23 -9 -47 -14 -73 -14c-56 0 -91 31 -91 83c0 41 23 85 68 130h-28l-49 141h-298l-49 -141h-125l254 700h138l253 -700c-40 -40 -60 -75 -60 -105c-1 -19 9 -28 28 -28zM328 565l-111 -316h222z" />
    <glyph glyph-name="aogonek" unicode="&#x105;" 
d="M567 500v-500c-40 -40 -60 -75 -60 -105c-1 -19 9 -28 28 -28c8 -1 19 1 32 6v-72c-23 -9 -47 -14 -73 -14c-56 0 -91 31 -91 83c0 39 21 82 64 130h-8v72c-41 -57 -99 -85 -175 -85c-69 0 -127 25 -176 76s-73 114 -73 187c0 74 24 136 73 187s107 76 176 76
c76 0 134 -28 175 -84v71h108zM188 135c30 -30 68 -45 113 -45s83 15 113 45c30 31 45 69 45 115s-15 84 -45 114c-30 31 -68 46 -113 46s-83 -15 -113 -46c-30 -30 -45 -68 -45 -114s15 -84 45 -115z" />
    <glyph glyph-name="Cacute" unicode="&#x106;" horiz-adv-x="732" 
d="M331 770l80 135h130l-106 -135h-104zM401 -13c64 0 123 15 176 45c54 31 96 72 125 123l-100 57c-36 -69 -113 -113 -201 -113c-75 0 -135 24 -182 71c-46 47 -69 107 -69 180s23 133 69 180c47 47 107 71 182 71c88 0 164 -44 201 -113l100 58
c-60 103 -174 167 -301 167c-105 0 -193 -35 -262 -105c-69 -69 -104 -155 -104 -258s35 -189 104 -259c69 -69 157 -104 262 -104z" />
    <glyph glyph-name="cacute" unicode="&#x107;" horiz-adv-x="542" 
d="M225 565l80 135h130l-106 -135h-104zM299 -13c97 0 182 50 225 130l-93 53c-24 -47 -74 -77 -133 -77c-44 0 -81 15 -111 45c-29 30 -44 67 -44 112s15 82 44 112c30 30 67 45 111 45c60 0 108 -29 131 -77l93 54c-40 79 -126 129 -223 129c-75 0 -138 -25 -189 -76
c-50 -50 -75 -112 -75 -187c0 -74 25 -136 75 -187c51 -51 114 -76 189 -76z" />
    <glyph glyph-name="Cdotaccent" unicode="&#x10a;" horiz-adv-x="732" 
d="M450 783c-27 -27 -71 -27 -99 0c-27 28 -27 72 0 99c28 28 72 28 99 0c28 -27 28 -71 0 -99zM401 -13c-105 0 -193 35 -262 104c-69 70 -104 156 -104 259s35 189 104 258c69 70 157 105 262 105c127 0 241 -64 301 -167l-100 -58c-37 69 -113 113 -201 113
c-75 0 -135 -24 -182 -71c-46 -47 -69 -107 -69 -180s23 -133 69 -180c47 -47 107 -71 182 -71c88 0 165 44 201 113l100 -57c-29 -51 -71 -92 -125 -123c-53 -30 -112 -45 -176 -45z" />
    <glyph glyph-name="cdotaccent" unicode="&#x10b;" horiz-adv-x="542" 
d="M225 628c0 37 31 70 70 70s70 -31 70 -70s-31 -70 -70 -70s-70 31 -70 70zM299 -13c-75 0 -138 25 -189 76c-50 51 -75 113 -75 187c0 75 25 137 75 187c51 51 114 76 189 76c97 0 183 -50 223 -129l-93 -54c-23 48 -71 77 -131 77c-44 0 -81 -15 -111 -45
c-29 -30 -44 -67 -44 -112s15 -82 44 -112c30 -30 67 -45 111 -45c59 0 109 30 133 77l93 -53c-43 -80 -128 -130 -225 -130z" />
    <glyph glyph-name="Ccaron" unicode="&#x10c;" horiz-adv-x="732" 
d="M455 765h-113l-106 140h110l53 -73l52 73h110zM401 99c88 0 165 44 201 113l100 -57c-29 -51 -71 -92 -125 -123c-53 -30 -112 -45 -176 -45c-105 0 -193 35 -262 104c-69 70 -104 156 -104 259s35 189 104 258c69 70 157 105 262 105c127 0 241 -64 301 -167l-100 -58
c-37 69 -113 113 -201 113c-75 0 -135 -24 -182 -71c-46 -47 -69 -107 -69 -180s23 -133 69 -180c47 -47 107 -71 182 -71z" />
    <glyph glyph-name="ccaron" unicode="&#x10d;" horiz-adv-x="542" 
d="M349 560h-113l-106 140h110l53 -73l52 73h110zM431 170l93 -53c-43 -80 -128 -130 -225 -130c-75 0 -138 25 -189 76c-50 51 -75 113 -75 187c0 75 25 137 75 187c51 51 114 76 189 76c97 0 183 -50 223 -129l-93 -54c-23 48 -71 77 -131 77c-44 0 -81 -15 -111 -45
c-29 -30 -44 -67 -44 -112s15 -82 44 -112c30 -30 67 -45 111 -45c59 0 109 30 133 77z" />
    <glyph glyph-name="Dcaron" unicode="&#x10e;" horiz-adv-x="715" 
d="M394 760h-113l-106 140h110l53 -73l52 73h110zM70 700h275c96 0 176 -34 239 -101c64 -67 96 -150 96 -249c0 -98 -32 -181 -96 -249c-63 -67 -143 -101 -239 -101h-275v700zM185 110h160c66 0 120 23 161 68c42 45 63 103 63 172c0 70 -21 127 -63 172
c-41 45 -95 68 -161 68h-160v-480z" />
    <glyph glyph-name="dcaron" unicode="&#x10f;" horiz-adv-x="724" 
d="M459 429v271h108v-700h-108v72c-41 -57 -99 -85 -175 -85c-69 0 -127 25 -176 76s-73 114 -73 187c0 74 24 136 73 187s107 76 176 76c76 0 134 -28 175 -84zM621 510l10 190h103l-30 -190h-83zM188 135c30 -30 68 -45 113 -45s83 15 113 45c30 31 45 69 45 115
s-15 84 -45 114c-30 31 -68 46 -113 46s-83 -15 -113 -46c-30 -30 -45 -68 -45 -114s15 -84 45 -115z" />
    <glyph glyph-name="Dcroat" unicode="&#x110;" horiz-adv-x="745" 
d="M100 700h275c96 0 176 -34 239 -101c64 -67 96 -150 96 -249c0 -98 -32 -181 -96 -249c-63 -67 -143 -101 -239 -101h-275v293h-75v104h75v303zM215 110h160c66 0 120 23 161 68c42 45 63 103 63 172c0 70 -21 127 -63 172c-41 45 -95 68 -161 68h-160v-193h180v-104
h-180v-183z" />
    <glyph glyph-name="dslash" unicode="&#x111;" horiz-adv-x="637" 
d="M567 635h65v-74h-65v-561h-108v72c-41 -57 -99 -85 -175 -85c-69 0 -127 25 -176 76s-73 114 -73 187c0 74 24 136 73 187s107 76 176 76c76 0 134 -28 175 -84v132h-162v74h162v65h108v-65zM188 135c30 -30 68 -45 113 -45s83 15 113 45c30 31 45 69 45 115
s-15 84 -45 114c-30 31 -68 46 -113 46s-83 -15 -113 -46c-30 -30 -45 -68 -45 -114s15 -84 45 -115z" />
    <glyph glyph-name="Emacron" unicode="&#x112;" horiz-adv-x="530" 
d="M141 859h280v-89h-280v89zM185 299v-189h310v-110h-425v700h420v-110h-305v-182h280v-109h-280z" />
    <glyph glyph-name="emacron" unicode="&#x113;" horiz-adv-x="582" 
d="M153 662h280v-89h-280v89zM546 204h-398c16 -76 77 -118 160 -118c57 0 100 21 129 62l89 -52c-49 -73 -122 -109 -219 -109c-81 0 -147 25 -197 74c-50 50 -75 113 -75 189c0 75 25 137 74 187c49 51 113 76 190 76c73 0 133 -26 180 -77s71 -114 71 -187
c0 -11 -1 -26 -4 -45zM147 292h294c-15 81 -72 123 -143 123c-80 0 -136 -47 -151 -123z" />
    <glyph glyph-name="Edotaccent" unicode="&#x116;" horiz-adv-x="530" 
d="M211 828c0 37 31 70 70 70s70 -31 70 -70s-31 -70 -70 -70s-70 31 -70 70zM185 299v-189h310v-110h-425v700h420v-110h-305v-182h280v-109h-280z" />
    <glyph glyph-name="edotaccent" unicode="&#x117;" horiz-adv-x="582" 
d="M342 581c-27 -27 -71 -27 -99 0c-27 28 -27 72 0 99c28 28 72 28 99 0c28 -27 28 -71 0 -99zM546 204h-398c16 -76 77 -118 160 -118c57 0 100 21 129 62l89 -52c-49 -73 -122 -109 -219 -109c-81 0 -147 25 -197 74c-50 50 -75 113 -75 189c0 75 25 137 74 187
c49 51 113 76 190 76c73 0 133 -26 180 -77s71 -114 71 -187c0 -11 -1 -26 -4 -45zM147 292h294c-15 81 -72 123 -143 123c-80 0 -136 -47 -151 -123z" />
    <glyph glyph-name="Eogonek" unicode="&#x118;" horiz-adv-x="530" 
d="M495 110v-110c-41 -39 -61 -74 -61 -105c0 -19 9 -28 28 -28c8 -1 19 1 33 6v-72c-23 -9 -47 -14 -74 -14c-55 0 -91 31 -91 83c0 40 23 83 68 130h-328v700h420v-110h-305v-182h280v-109h-280v-189h310z" />
    <glyph glyph-name="eogonek" unicode="&#x119;" horiz-adv-x="582" 
d="M546 204h-398c16 -76 77 -118 160 -118c57 0 100 21 129 62l89 -52c-11 -17 -23 -31 -36 -42c-65 -71 -97 -124 -97 -159c0 -19 9 -28 28 -28c8 -1 19 1 33 6v-72c-23 -9 -47 -14 -74 -14c-55 0 -91 31 -91 83c0 41 22 81 65 120c-15 -2 -30 -3 -47 -3
c-81 0 -147 25 -197 74c-50 50 -75 113 -75 189c0 75 25 137 74 187c49 51 113 76 190 76c73 0 133 -26 180 -77s71 -114 71 -187c0 -11 -1 -26 -4 -45zM147 292h294c-15 81 -72 123 -143 123c-80 0 -136 -47 -151 -123z" />
    <glyph glyph-name="Ecaron" unicode="&#x11a;" horiz-adv-x="530" 
d="M335 760h-113l-106 140h110l53 -73l52 73h110zM185 299v-189h310v-110h-425v700h420v-110h-305v-182h280v-109h-280z" />
    <glyph glyph-name="ecaron" unicode="&#x11b;" horiz-adv-x="582" 
d="M347 563h-113l-106 140h110l53 -73l52 73h110zM546 204h-398c16 -76 77 -118 160 -118c57 0 100 21 129 62l89 -52c-49 -73 -122 -109 -219 -109c-81 0 -147 25 -197 74c-50 50 -75 113 -75 189c0 75 25 137 74 187c49 51 113 76 190 76c73 0 133 -26 180 -77
s71 -114 71 -187c0 -11 -1 -26 -4 -45zM147 292h294c-15 81 -72 123 -143 123c-80 0 -136 -47 -151 -123z" />
    <glyph glyph-name="Gbreve" unicode="&#x11e;" horiz-adv-x="786" 
d="M396 757c-100 0 -158 51 -158 140h98c0 -39 20 -59 60 -59c39 0 59 20 59 59h98c0 -89 -58 -140 -157 -140zM401 362h350v-48c0 -96 -32 -175 -95 -236s-146 -91 -248 -91c-108 0 -197 35 -268 105c-70 70 -105 156 -105 258c0 101 35 187 105 257c71 71 158 106 262 106
c131 0 245 -65 305 -166l-99 -57c-37 67 -115 111 -206 111c-73 0 -134 -24 -181 -72s-71 -108 -71 -180s24 -132 71 -179c48 -47 111 -71 188 -71c124 0 205 63 226 160h-234v103z" />
    <glyph glyph-name="gbreve" unicode="&#x11f;" 
d="M301 557c-100 0 -158 51 -158 140h98c0 -39 20 -59 60 -59c39 0 59 20 59 59h98c0 -89 -58 -140 -157 -140zM461 426v74h106v-477c0 -76 -25 -134 -75 -175s-111 -61 -182 -61c-115 0 -194 40 -237 121l93 54c26 -51 75 -77 146 -77c93 0 149 51 149 138v61
c-41 -58 -99 -87 -174 -87c-71 0 -130 25 -179 75c-49 51 -73 112 -73 183s24 132 73 182c49 51 108 76 179 76c75 0 133 -29 174 -87zM188 143c31 -30 69 -45 114 -45s83 15 113 45c31 30 46 67 46 112s-15 82 -46 112c-30 30 -68 45 -113 45s-83 -15 -114 -45
c-30 -30 -45 -67 -45 -112s15 -82 45 -112z" />
    <glyph glyph-name="Gdotaccent" unicode="&#x120;" horiz-adv-x="786" 
d="M396 903c39 0 70 -31 70 -70s-31 -70 -70 -70s-70 31 -70 70s33 70 70 70zM401 362h350v-48c0 -96 -32 -175 -95 -236s-146 -91 -248 -91c-108 0 -197 35 -268 105c-70 70 -105 156 -105 258c0 101 35 187 105 257c71 71 158 106 262 106c131 0 245 -65 305 -166l-99 -57
c-37 67 -115 111 -206 111c-73 0 -134 -24 -181 -72s-71 -108 -71 -180s24 -132 71 -179c48 -47 111 -71 188 -71c124 0 205 63 226 160h-234v103z" />
    <glyph glyph-name="gdotaccent" unicode="&#x121;" 
d="M350 583c-27 -27 -71 -27 -99 0c-27 28 -27 72 0 99c28 28 72 28 99 0c28 -27 28 -71 0 -99zM461 426v74h106v-477c0 -76 -25 -134 -75 -175s-111 -61 -182 -61c-115 0 -194 40 -237 121l93 54c26 -51 75 -77 146 -77c93 0 149 51 149 138v61c-41 -58 -99 -87 -174 -87
c-71 0 -130 25 -179 75c-49 51 -73 112 -73 183s24 132 73 182c49 51 108 76 179 76c75 0 133 -29 174 -87zM188 143c31 -30 69 -45 114 -45s83 15 113 45c31 30 46 67 46 112s-15 82 -46 112c-30 30 -68 45 -113 45s-83 -15 -114 -45c-30 -30 -45 -67 -45 -112
s15 -82 45 -112z" />
    <glyph glyph-name="Gcommaaccent" unicode="&#x122;" horiz-adv-x="786" 
d="M401 362h350v-48c0 -96 -32 -175 -95 -236s-146 -91 -248 -91c-108 0 -197 35 -268 105c-70 70 -105 156 -105 258c0 101 35 187 105 257c71 71 158 106 262 106c131 0 245 -65 305 -166l-99 -57c-37 67 -115 111 -206 111c-73 0 -134 -24 -181 -72s-71 -108 -71 -180
s24 -132 71 -179c48 -47 111 -71 188 -71c124 0 205 63 226 160h-234v103zM439 -255h-83l10 190h103z" />
    <glyph glyph-name="gcommaaccent" unicode="&#x123;" 
d="M273 775h83l-10 -190h-103zM461 426v74h106v-477c0 -76 -25 -134 -75 -175s-111 -61 -182 -61c-115 0 -194 40 -237 121l93 54c26 -51 75 -77 146 -77c93 0 149 51 149 138v61c-41 -58 -99 -87 -174 -87c-71 0 -130 25 -179 75c-49 51 -73 112 -73 183s24 132 73 182
c49 51 108 76 179 76c75 0 133 -29 174 -87zM188 143c31 -30 69 -45 114 -45s83 15 113 45c31 30 46 67 46 112s-15 82 -46 112c-30 30 -68 45 -113 45s-83 -15 -114 -45c-30 -30 -45 -67 -45 -112s15 -82 45 -112z" />
    <glyph glyph-name="Hbar" unicode="&#x126;" horiz-adv-x="715" 
d="M623 591h62v-86h-62v-505h-115v290h-300v-290h-115v505h-63v86h63v109h115v-109h300v109h115v-109zM208 400h300v105h-300v-105z" />
    <glyph glyph-name="hbar" unicode="&#x127;" horiz-adv-x="578" 
d="M334 513c113 0 191 -78 191 -206v-307h-108v296c0 75 -43 116 -111 116c-77 0 -128 -47 -128 -144v-268h-108v561h-65v74h65v65h108v-65h142v-74h-142v-125c33 51 85 77 156 77z" />
    <glyph glyph-name="Imacron" unicode="&#x12a;" horiz-adv-x="255" 
d="M268 770h-280v89h280v-89zM70 0v700h115v-700h-115z" />
    <glyph glyph-name="imacron" unicode="&#x12b;" horiz-adv-x="233" 
d="M227 570h-220v94h220v-94zM171 0h-108v500h108v-500z" />
    <glyph glyph-name="Iogonek" unicode="&#x12e;" horiz-adv-x="255" 
d="M176 -133c8 -1 19 1 32 6v-72c-23 -9 -47 -14 -73 -14c-56 0 -91 31 -91 83c0 39 14 83 43 130h-17v700h115v-700c-25 -42 -37 -77 -37 -105c-1 -19 9 -28 28 -28z" />
    <glyph glyph-name="iogonek" unicode="&#x12f;" horiz-adv-x="233" 
d="M165 595c-27 -27 -69 -27 -97 0c-27 28 -27 70 0 97c27 28 71 28 98 0c27 -27 27 -69 -1 -97zM162 -133c8 -1 19 1 33 6v-72c-23 -9 -47 -14 -74 -14c-55 0 -91 35 -91 88c0 36 14 78 41 125h-8v500h108v-500c-25 -40 -37 -73 -37 -100c0 -22 9 -33 28 -33z" />
    <glyph glyph-name="Idot" unicode="&#x130;" horiz-adv-x="255" 
d="M58 828c0 37 33 70 70 70c60 3 95 -79 49 -120c-39 -44 -123 -10 -119 50zM70 0v700h115v-700h-115z" />
    <glyph glyph-name="dotlessi" unicode="&#x131;" horiz-adv-x="233" 
d="M171 0h-108v500h108v-500z" />
    <glyph glyph-name="Kcommaaccent" unicode="&#x136;" horiz-adv-x="603" 
d="M588 700l-283 -341l293 -359h-137l-276 333v-333h-115v700h115v-314l266 314h137zM333 -255h-83l10 190h103z" />
    <glyph glyph-name="kcommaaccent" unicode="&#x137;" horiz-adv-x="515" 
d="M497 500l-220 -245l228 -255h-129l-205 231v-231h-108v700h108v-421l194 221h132zM301 -255h-83l10 190h103z" />
    <glyph glyph-name="Lacute" unicode="&#x139;" horiz-adv-x="485" 
d="M152 900h130l-106 -135h-104zM185 700v-590h285v-110h-400v700h115z" />
    <glyph glyph-name="lacute" unicode="&#x13a;" horiz-adv-x="233" 
d="M61 765l80 135h130l-106 -135h-104zM63 0h108v730h-108v-730z" />
    <glyph glyph-name="Lcommaaccent" unicode="&#x13b;" horiz-adv-x="485" 
d="M185 700v-590h285v-110h-400v700h115zM304 -255h-83l10 190h103z" />
    <glyph glyph-name="lcommaaccent" unicode="&#x13c;" horiz-adv-x="233" 
d="M171 0h-108v730h108v-730zM140 -255h-83l10 190h103z" />
    <glyph glyph-name="Lcaron" unicode="&#x13d;" horiz-adv-x="485" 
d="M185 700v-590h285v-110h-400v700h115zM274 700h108l-30 -180h-88z" />
    <glyph glyph-name="lcaron" unicode="&#x13e;" horiz-adv-x="327" 
d="M171 0h-108v730h108v-730zM307 540h-83l10 190h103z" />
    <glyph glyph-name="Lslash" unicode="&#x141;" horiz-adv-x="505" 
d="M205 290v-180h285v-110h-400v222l-60 -36v113l60 36v365h115v-297l145 86v-113z" />
    <glyph glyph-name="lslash" unicode="&#x142;" horiz-adv-x="255" 
d="M182 440l58 40v-103l-58 -40v-337h-108v263l-59 -40v103l59 40v364h108v-290z" />
    <glyph glyph-name="Nacute" unicode="&#x143;" horiz-adv-x="675" 
d="M263 765l80 135h130l-106 -135h-104zM490 700v-475l-330 475h-90v-700h115v475l330 -475h90v700h-115z" />
    <glyph glyph-name="nacute" unicode="&#x144;" horiz-adv-x="571" 
d="M306 705h130l-106 -135h-104zM326 513c115 0 192 -78 192 -206v-307h-108v296c0 75 -43 116 -112 116c-76 0 -127 -47 -127 -144v-268h-108v500h108v-64c33 51 84 77 155 77z" />
    <glyph glyph-name="Ncommaaccent" unicode="&#x145;" horiz-adv-x="675" 
d="M490 225v475h115v-700h-90l-330 475v-475h-115v700h90zM364 -255h-83l10 190h103z" />
    <glyph glyph-name="ncommaaccent" unicode="&#x146;" horiz-adv-x="571" 
d="M326 513c115 0 192 -78 192 -206v-307h-108v296c0 75 -43 116 -112 116c-76 0 -127 -47 -127 -144v-268h-108v500h108v-64c33 51 84 77 155 77zM319 -255h-83l10 190h103z" />
    <glyph glyph-name="Ncaron" unicode="&#x147;" horiz-adv-x="675" 
d="M387 760h-113l-106 140h110l53 -73l52 73h110zM490 225v475h115v-700h-90l-330 475v-475h-115v700h90z" />
    <glyph glyph-name="ncaron" unicode="&#x148;" horiz-adv-x="571" 
d="M350 565h-113l-106 140h110l53 -73l52 73h110zM326 513c115 0 192 -78 192 -206v-307h-108v296c0 75 -43 116 -112 116c-76 0 -127 -47 -127 -144v-268h-108v500h108v-64c33 51 84 77 155 77z" />
    <glyph glyph-name="Eng" unicode="&#x14a;" horiz-adv-x="675" 
d="M490 225v475h115v-700c0 -139 -84 -205 -225 -200v106c73 0 110 23 110 99v31l-305 439v-475h-115v700h90z" />
    <glyph glyph-name="eng" unicode="&#x14b;" horiz-adv-x="571" 
d="M326 513c115 0 192 -78 192 -206v-327c0 -132 -68 -202 -200 -193v104c61 -7 92 18 92 89v316c0 75 -43 116 -112 116c-76 0 -127 -47 -127 -144v-268h-108v500h108v-64c33 51 84 77 155 77z" />
    <glyph glyph-name="Omacron" unicode="&#x14c;" horiz-adv-x="796" 
d="M538 775h-280v89h280v-89zM655 92c-70 -70 -156 -105 -257 -105s-187 35 -258 105c-70 71 -105 157 -105 258s35 187 105 257c71 71 157 106 258 106s187 -35 257 -106c71 -70 106 -156 106 -257s-35 -187 -106 -258zM221 170c48 -47 107 -71 177 -71s129 24 176 71
c48 48 72 108 72 180s-24 132 -72 179c-47 48 -106 72 -176 72s-129 -24 -177 -72c-47 -47 -71 -107 -71 -179s24 -132 71 -180z" />
    <glyph glyph-name="omacron" unicode="&#x14d;" horiz-adv-x="598" 
d="M439 575h-280v89h280v-89zM299 -13c-73 0 -136 25 -187 76s-77 113 -77 187s26 136 77 187s114 76 187 76c74 0 136 -25 187 -76s77 -113 77 -187s-26 -136 -77 -187s-113 -76 -187 -76zM188 137c30 -30 67 -45 111 -45s81 15 111 45s45 68 45 113s-15 83 -45 113
s-67 45 -111 45s-81 -15 -111 -45s-45 -68 -45 -113s15 -83 45 -113z" />
    <glyph glyph-name="Ohungarumlaut" unicode="&#x150;" horiz-adv-x="796" 
d="M238 765l75 135h114l-81 -135h-108zM401 765l85 135h114l-91 -135h-108zM655 92c71 71 106 157 106 258s-35 187 -106 257c-70 71 -156 106 -257 106s-187 -35 -258 -106c-70 -70 -105 -156 -105 -257s35 -187 105 -258c71 -70 157 -105 258 -105s187 35 257 105z
M221 170c-47 48 -71 108 -71 180s24 132 71 179c48 48 107 72 177 72s129 -24 176 -72c48 -47 72 -107 72 -179s-24 -132 -72 -180c-47 -47 -106 -71 -176 -71s-129 24 -177 71z" />
    <glyph glyph-name="ohungarumlaut" unicode="&#x151;" horiz-adv-x="598" 
d="M139 565l75 135h114l-81 -135h-108zM302 565l85 135h114l-91 -135h-108zM299 -13c74 0 136 25 187 76s77 113 77 187s-26 136 -77 187s-113 76 -187 76c-73 0 -136 -25 -187 -76s-77 -113 -77 -187s26 -136 77 -187s114 -76 187 -76zM188 137c-30 30 -45 68 -45 113
s15 83 45 113s67 45 111 45s81 -15 111 -45s45 -68 45 -113s-15 -83 -45 -113s-67 -45 -111 -45s-81 15 -111 45z" />
    <glyph glyph-name="OE" unicode="&#x152;" horiz-adv-x="916" 
d="M601 299v-189h280v-110h-395c-30 -9 -63 -13 -98 -13c-101 0 -185 35 -252 105s-101 156 -101 258s34 188 101 258s151 105 252 105c35 0 68 -4 98 -13h390v-110h-275v-182h255v-109h-255zM486 114v472c-27 10 -60 15 -98 15c-69 0 -126 -24 -171 -71s-67 -107 -67 -180
s22 -133 67 -180s102 -71 171 -71c35 0 68 5 98 15z" />
    <glyph glyph-name="oe" unicode="&#x153;" horiz-adv-x="1002" 
d="M966 204h-398c17 -77 81 -118 158 -118c59 0 102 21 131 62l89 -52c-49 -73 -122 -109 -218 -109c-100 0 -177 46 -220 123c-41 -76 -118 -123 -211 -123c-75 0 -137 25 -187 76s-75 113 -75 187c0 75 25 137 75 187c50 51 112 76 187 76c93 0 170 -46 211 -122
c41 76 118 122 215 122c73 0 132 -26 178 -77s69 -113 69 -187c0 -11 -1 -26 -4 -45zM567 293h294c-15 80 -73 122 -142 122c-80 0 -137 -46 -152 -122zM299 92c44 0 81 15 111 45s45 68 45 113s-15 83 -45 113s-67 45 -111 45c-45 0 -83 -15 -112 -45s-44 -68 -44 -113
s15 -83 44 -113s67 -45 112 -45z" />
    <glyph glyph-name="Racute" unicode="&#x154;" horiz-adv-x="613" 
d="M310 900h130l-106 -135h-104zM595 0h-126l-148 255h-136v-255h-115v700h280c63 0 116 -22 159 -66c44 -43 66 -96 66 -159c0 -89 -56 -170 -139 -203zM350 592h-165v-234h165c61 0 110 52 110 117s-49 117 -110 117z" />
    <glyph glyph-name="racute" unicode="&#x155;" horiz-adv-x="342" 
d="M200 700h130l-106 -135h-104zM171 500v-84c27 62 79 93 154 93v-117c-41 3 -77 -7 -108 -30c-31 -22 -46 -59 -46 -110v-252h-108v500h108z" />
    <glyph glyph-name="Rcommaaccent" unicode="&#x156;" horiz-adv-x="613" 
d="M436 272l159 -272h-126l-148 255h-136v-255h-115v700h280c63 0 116 -22 159 -66c44 -43 66 -96 66 -159c0 -89 -56 -170 -139 -203zM350 592h-165v-234h165c61 0 110 52 110 117s-49 117 -110 117zM351 -255h-83l10 190h103z" />
    <glyph glyph-name="rcommaaccent" unicode="&#x157;" horiz-adv-x="342" 
d="M171 500v-84c27 62 79 93 154 93v-117c-41 3 -77 -7 -108 -30c-31 -22 -46 -59 -46 -110v-252h-108v500h108zM141 -255h-83l10 190h103z" />
    <glyph glyph-name="Rcaron" unicode="&#x158;" horiz-adv-x="613" 
d="M354 760h-113l-106 140h110l53 -73l52 73h110zM595 0h-126l-148 255h-136v-255h-115v700h280c63 0 116 -22 159 -66c44 -43 66 -96 66 -159c0 -89 -56 -170 -139 -203zM350 592h-165v-234h165c61 0 110 52 110 117s-49 117 -110 117z" />
    <glyph glyph-name="rcaron" unicode="&#x159;" horiz-adv-x="342" 
d="M244 560h-113l-106 140h110l53 -73l52 73h110zM171 500v-84c27 62 79 93 154 93v-117c-41 3 -77 -7 -108 -30c-31 -22 -46 -59 -46 -110v-252h-108v500h108z" />
    <glyph glyph-name="Sacute" unicode="&#x15a;" horiz-adv-x="581" 
d="M219 770l80 135h130l-106 -135h-104zM303 -13c74 0 134 18 179 55c46 37 69 88 69 151c5 67 -35 115 -72 144c-11 9 -28 19 -51 28c-22 9 -39 16 -52 20c-12 5 -31 11 -58 20c-107 33 -141 57 -141 109c0 53 43 87 110 87c69 0 118 -33 147 -98l97 56
c-45 96 -132 154 -244 154c-62 0 -115 -18 -159 -55c-44 -36 -66 -85 -66 -147c0 -63 23 -109 68 -141c47 -31 80 -44 147 -64c59 -18 101 -35 124 -50s35 -36 35 -65c0 -55 -43 -92 -130 -92c-88 0 -146 39 -174 118l-99 -58c37 -107 135 -172 270 -172z" />
    <glyph glyph-name="sacute" unicode="&#x15b;" horiz-adv-x="461" 
d="M241 705h130l-106 -135h-104zM160 362c0 -33 42 -50 94 -65c77 -17 177 -49 175 -156c0 -48 -19 -86 -56 -113s-83 -41 -139 -41c-99 0 -172 44 -204 117l93 54c17 -48 54 -72 111 -72s85 19 85 56c0 32 -42 51 -95 64c-75 19 -176 49 -174 154c0 46 17 83 52 111
s79 42 131 42c83 0 150 -39 185 -104l-91 -51c-17 38 -49 57 -94 57c-41 0 -73 -18 -73 -53z" />
    <glyph glyph-name="Scedilla" unicode="&#x15e;" horiz-adv-x="581" 
d="M551 193c0 -115 -80 -189 -207 -204v-35c45 -8 78 -36 78 -79c0 -69 -72 -100 -215 -91v79c81 -7 121 2 121 25c0 18 -24 28 -73 30v72c-109 13 -189 76 -222 169l99 58c28 -79 86 -118 174 -118c87 0 130 37 130 92c0 29 -12 50 -35 65s-65 32 -124 50
c-67 20 -100 33 -147 64c-45 32 -68 78 -68 141c0 62 22 111 66 147c44 37 97 55 159 55c112 0 199 -58 244 -154l-97 -56c-29 65 -78 98 -147 98c-67 0 -110 -34 -110 -87c0 -52 34 -76 141 -109c27 -9 46 -15 58 -20c13 -4 30 -11 52 -20c23 -9 40 -19 51 -28
c37 -29 77 -77 72 -144z" />
    <glyph glyph-name="scedilla" unicode="&#x15f;" horiz-adv-x="461" 
d="M429 141c0 -81 -58 -135 -146 -150v-37c45 -8 78 -36 78 -79c0 -69 -72 -100 -215 -91v79c81 -7 121 2 121 25c0 18 -24 28 -73 30v72c-79 10 -134 48 -164 114l93 54c17 -48 54 -72 111 -72s85 19 85 56c0 32 -42 51 -95 64c-75 19 -176 49 -174 154c0 46 17 83 52 111
s79 42 131 42c83 0 150 -39 185 -104l-91 -51c-17 38 -49 57 -94 57c-41 0 -73 -18 -73 -53c0 -33 42 -50 94 -65c77 -17 177 -49 175 -156z" />
    <glyph glyph-name="Scaron" unicode="&#x160;" horiz-adv-x="581" 
d="M343 765h-113l-106 140h110l53 -73l52 73h110zM318 405c27 -9 46 -15 58 -20c13 -4 30 -11 52 -20c23 -9 40 -19 51 -28c37 -29 77 -77 72 -144c0 -63 -23 -114 -69 -151c-45 -37 -105 -55 -179 -55c-135 0 -233 65 -270 172l99 58c28 -79 86 -118 174 -118
c87 0 130 37 130 92c0 29 -12 50 -35 65s-65 32 -124 50c-67 20 -100 33 -147 64c-45 32 -68 78 -68 141c0 62 22 111 66 147c44 37 97 55 159 55c112 0 199 -58 244 -154l-97 -56c-29 65 -78 98 -147 98c-67 0 -110 -34 -110 -87c0 -52 34 -76 141 -109z" />
    <glyph glyph-name="scaron" unicode="&#x161;" horiz-adv-x="461" 
d="M285 565h-113l-106 140h110l53 -73l52 73h110zM160 362c0 -33 42 -50 94 -65c77 -17 177 -49 175 -156c0 -48 -19 -86 -56 -113s-83 -41 -139 -41c-99 0 -172 44 -204 117l93 54c17 -48 54 -72 111 -72s85 19 85 56c0 32 -42 51 -95 64c-75 19 -176 49 -174 154
c0 46 17 83 52 111s79 42 131 42c83 0 150 -39 185 -104l-91 -51c-17 38 -49 57 -94 57c-41 0 -73 -18 -73 -53z" />
    <glyph glyph-name="uni0162" unicode="&#x162;" horiz-adv-x="540" 
d="M15 700h510v-110h-197v-590h-115v590h-198v110zM296 -255h-83l10 190h103z" />
    <glyph glyph-name="uni0163" unicode="&#x163;" horiz-adv-x="382" 
d="M342 500v-104h-124v-240c0 -64 42 -63 124 -59v-97c-165 -20 -232 25 -232 156v240h-92v104h92v108l108 32v-140h124zM256 -255h-83l10 190h103z" />
    <glyph glyph-name="Tcaron" unicode="&#x164;" horiz-adv-x="540" 
d="M324 760h-113l-106 140h110l53 -73l52 73h110zM15 700h510v-110h-197v-590h-115v590h-198v110z" />
    <glyph glyph-name="tcaron" unicode="&#x165;" horiz-adv-x="396" 
d="M266 548l10 175h103l-30 -175h-83zM110 608l108 32v-140h124v-104h-124v-240c0 -64 42 -63 124 -59v-97c-165 -20 -232 25 -232 156v240h-92v104h92v108z" />
    <glyph glyph-name="Tbar" unicode="&#x166;" horiz-adv-x="540" 
d="M525 700v-110h-197v-193h127v-104h-127v-293h-115v293h-128v104h128v193h-198v110h510z" />
    <glyph glyph-name="tbar" unicode="&#x167;" horiz-adv-x="382" 
d="M342 500v-104h-124v-98h86v-87h-86v-55c0 -64 42 -63 124 -59v-97c-165 -20 -232 25 -232 156v55h-61v87h61v98h-92v104h92v108l108 32v-140h124z" />
    <glyph glyph-name="Umacron" unicode="&#x16a;" horiz-adv-x="655" 
d="M468 770h-280v89h280v-89zM63 232v468h115v-461c0 -85 50 -140 150 -140s150 55 150 140v461h115v-468c0 -75 -25 -134 -74 -179c-49 -44 -113 -66 -191 -66s-142 22 -191 66c-49 45 -74 104 -74 179z" />
    <glyph glyph-name="umacron" unicode="&#x16b;" horiz-adv-x="571" 
d="M140 659h280v-89h-280v89zM400 232v268h108v-500h-108v64c-33 -51 -84 -77 -155 -77c-115 0 -192 78 -192 206v307h108v-296c0 -75 43 -116 112 -116c76 0 127 47 127 144z" />
    <glyph glyph-name="Uring" unicode="&#x16e;" horiz-adv-x="655" 
d="M327 713c-69 0 -119 48 -119 112s50 113 119 113c71 0 120 -48 120 -113s-49 -112 -120 -112zM327 784c28 0 44 17 44 41c0 25 -16 42 -44 42c-27 0 -43 -17 -43 -42c0 -24 16 -41 43 -41zM63 232v468h115v-461c0 -85 50 -140 150 -140s150 55 150 140v461h115v-468
c0 -75 -25 -134 -74 -179c-49 -44 -113 -66 -191 -66s-142 22 -191 66c-49 45 -74 104 -74 179z" />
    <glyph glyph-name="uring" unicode="&#x16f;" horiz-adv-x="571" 
d="M280 543c-69 0 -119 48 -119 112s50 113 119 113c71 0 120 -48 120 -113s-49 -112 -120 -112zM280 697c-27 0 -43 -17 -43 -42c0 -24 16 -41 43 -41c28 0 44 17 44 41c0 25 -16 42 -44 42zM400 232v268h108v-500h-108v64c-33 -51 -84 -77 -155 -77
c-115 0 -192 78 -192 206v307h108v-296c0 -75 43 -116 112 -116c76 0 127 47 127 144z" />
    <glyph glyph-name="Uhungarumlaut" unicode="&#x170;" horiz-adv-x="655" 
d="M168 760l75 135h114l-81 -135h-108zM331 760l85 135h114l-91 -135h-108zM63 232c0 -75 25 -134 74 -179c49 -44 113 -66 191 -66s142 22 191 66c49 45 74 104 74 179v468h-115v-461c0 -85 -50 -140 -150 -140s-150 55 -150 140v461h-115v-468z" />
    <glyph glyph-name="uhungarumlaut" unicode="&#x171;" horiz-adv-x="571" 
d="M195 695h114l-81 -135h-108zM482 695l-91 -135h-108l85 135h114zM400 232v268h108v-500h-108v64c-33 -51 -84 -77 -155 -77c-115 0 -192 78 -192 206v307h108v-296c0 -75 43 -116 112 -116c76 0 127 47 127 144z" />
    <glyph glyph-name="Uogonek" unicode="&#x172;" horiz-adv-x="655" 
d="M478 239v461h115v-468c0 -81 -30 -144 -89 -191c-76 -71 -102 -106 -103 -146c0 -17 9 -27 28 -28c8 -1 19 1 33 6v-72c-23 -9 -47 -14 -74 -14c-55 0 -91 31 -91 83c0 37 19 76 57 118c-6 -1 -15 -1 -26 -1c-78 0 -142 22 -191 66c-49 45 -74 104 -74 179v468h115v-461
c0 -85 50 -140 150 -140s150 55 150 140z" />
    <glyph glyph-name="uogonek" unicode="&#x173;" horiz-adv-x="571" 
d="M508 500v-500c-40 -40 -60 -75 -60 -105c-1 -19 9 -28 28 -28c8 -1 19 1 32 6v-72c-23 -9 -47 -14 -73 -14c-56 0 -91 31 -91 83c0 37 21 80 64 130h-8v64c-33 -51 -84 -77 -155 -77c-115 0 -192 78 -192 206v307h108v-296c0 -75 43 -116 112 -116c76 0 127 47 127 144
v268h108z" />
    <glyph glyph-name="Wcircumflex" unicode="&#x174;" horiz-adv-x="999" 
d="M569 760l-52 74l-53 -74h-110l106 140h113l106 -140h-110zM711 153l147 547h121l-198 -700h-133l-148 511l-149 -511h-133l-198 700h121l147 -547l159 547h106z" />
    <glyph glyph-name="wcircumflex" unicode="&#x175;" horiz-adv-x="770" 
d="M435 560l-52 74l-53 -74h-110l106 140h113l106 -140h-110zM541 155l98 345h114l-157 -500h-106l-104 337l-105 -337h-106l-157 500h114l97 -345l105 345h103z" />
    <glyph glyph-name="Ycircumflex" unicode="&#x176;" horiz-adv-x="613" 
d="M355 760l-52 74l-53 -74h-110l106 140h113l106 -140h-110zM477 700h131l-244 -422v-278h-115v278l-244 422h131l171 -310z" />
    <glyph glyph-name="ycircumflex" unicode="&#x177;" horiz-adv-x="520" 
d="M310 560l-52 74l-53 -74h-110l106 140h113l106 -140h-110zM272 137l128 363h115l-192 -516c-48 -129 -129 -191 -244 -184v101c68 -4 106 29 133 98l5 10l-212 491h118z" />
    <glyph glyph-name="Ydieresis" unicode="&#x178;" horiz-adv-x="613" 
d="M252 775c-23 -23 -61 -23 -85 0c-23 24 -23 62 0 85c24 24 62 24 85 0c24 -23 24 -61 0 -85zM442 775c-23 -23 -61 -23 -85 0c-23 24 -23 62 0 85c24 24 62 24 85 0c24 -23 24 -61 0 -85zM477 700h131l-244 -422v-278h-115v278l-244 422h131l171 -310z" />
    <glyph glyph-name="Zacute" unicode="&#x179;" horiz-adv-x="530" 
d="M280 900h130l-106 -135h-104zM495 605l-314 -495h322v-110h-465v95l314 495h-307v110h450v-95z" />
    <glyph glyph-name="zacute" unicode="&#x17a;" horiz-adv-x="473" 
d="M251 700h130l-106 -135h-104zM425 428l-233 -326h243v-102h-390v72l234 326h-224v102h370v-72z" />
    <glyph glyph-name="Zdotaccent" unicode="&#x17b;" horiz-adv-x="530" 
d="M200 828c0 37 33 70 70 70c60 3 95 -79 49 -120c-39 -44 -123 -10 -119 50zM495 605l-314 -495h322v-110h-465v95l314 495h-307v110h450v-95z" />
    <glyph glyph-name="zdotaccent" unicode="&#x17c;" horiz-adv-x="473" 
d="M171 628c0 37 31 70 70 70s70 -31 70 -70s-31 -70 -70 -70s-70 31 -70 70zM425 428l-233 -326h243v-102h-390v72l234 326h-224v102h370v-72z" />
    <glyph glyph-name="Zcaron" unicode="&#x17d;" horiz-adv-x="530" 
d="M324 760h-113l-106 140h110l53 -73l52 73h110zM495 605l-314 -495h322v-110h-465v95l314 495h-307v110h450v-95z" />
    <glyph glyph-name="zcaron" unicode="&#x17e;" horiz-adv-x="473" 
d="M295 560h-113l-106 140h110l53 -73l52 73h110zM425 428l-233 -326h243v-102h-390v72l234 326h-224v102h370v-72z" />
    <glyph glyph-name="florin" unicode="&#x192;" horiz-adv-x="441" 
d="M441 704v-107c-53 25 -107 1 -116 -60l-23 -133h99v-104h-116l-60 -351c-23 -133 -110 -182 -225 -150v107c53 -25 107 -1 116 60l57 334h-93v104h110l26 150c23 133 110 182 225 150z" />
    <glyph glyph-name="Scommaaccent" unicode="&#x218;" horiz-adv-x="581" 
d="M303 -13c-135 0 -233 65 -270 172l99 58c28 -79 86 -118 174 -118c87 0 130 37 130 92c0 29 -12 50 -35 65s-65 32 -124 50c-67 20 -100 33 -147 64c-45 32 -68 78 -68 141c0 62 22 111 66 147c44 37 97 55 159 55c112 0 199 -58 244 -154l-97 -56c-29 65 -78 98 -147 98
c-67 0 -110 -34 -110 -87c0 -52 34 -76 141 -109c27 -9 46 -15 58 -20c13 -4 30 -11 52 -20c23 -9 40 -19 51 -28c37 -29 77 -77 72 -144c0 -63 -23 -114 -69 -151c-45 -37 -105 -55 -179 -55zM331 -255h-83l10 190h103z" />
    <glyph glyph-name="scommaaccent" unicode="&#x219;" horiz-adv-x="461" 
d="M160 362c0 -33 42 -50 94 -65c77 -17 177 -49 175 -156c0 -48 -19 -86 -56 -113s-83 -41 -139 -41c-99 0 -172 44 -204 117l93 54c17 -48 54 -72 111 -72s85 19 85 56c0 32 -42 51 -95 64c-75 19 -176 49 -174 154c0 46 17 83 52 111s79 42 131 42c83 0 150 -39 185 -104
l-91 -51c-17 38 -49 57 -94 57c-41 0 -73 -18 -73 -53zM270 -255h-83l10 190h103z" />
    <glyph glyph-name="uni021A" unicode="&#x21a;" horiz-adv-x="540" 
d="M15 700h510v-110h-197v-590h-115v590h-198v110zM296 -255h-83l10 190h103z" />
    <glyph glyph-name="uni021B" unicode="&#x21b;" horiz-adv-x="382" 
d="M342 500v-104h-124v-240c0 -64 42 -63 124 -59v-97c-165 -20 -232 25 -232 156v240h-92v104h92v108l108 32v-140h124zM256 -255h-83l10 190h103z" />
    <glyph glyph-name="circumflex" unicode="&#x2c6;" horiz-adv-x="365" 
d="M239 700l106 -140h-110l-52 74l-53 -74h-110l106 140h113z" />
    <glyph glyph-name="caron" unicode="&#x2c7;" horiz-adv-x="365" 
d="M183 627l52 73h110l-106 -140h-113l-106 140h110z" />
    <glyph glyph-name="breve" unicode="&#x2d8;" horiz-adv-x="355" 
d="M178 552c-100 0 -158 51 -158 140h98c0 -39 20 -59 60 -59c39 0 59 20 59 59h98c0 -89 -58 -140 -157 -140z" />
    <glyph glyph-name="dotaccent" unicode="&#x2d9;" horiz-adv-x="185" 
d="M20 628c0 37 33 70 70 70c60 3 95 -79 49 -120c-39 -44 -123 -10 -119 50z" />
    <glyph glyph-name="ring" unicode="&#x2da;" horiz-adv-x="279" 
d="M139 543c-69 0 -119 48 -119 112s50 113 119 113c71 0 120 -48 120 -113s-49 -112 -120 -112zM139 614c28 0 44 17 44 41c0 25 -16 42 -44 42c-27 0 -43 -17 -43 -42c0 -24 16 -41 43 -41z" />
    <glyph glyph-name="ogonek" unicode="&#x2db;" horiz-adv-x="205" 
d="M111 -213c-55 0 -91 31 -91 83c0 40 23 83 68 130h97c-41 -39 -61 -74 -61 -105c0 -19 9 -28 28 -28c8 -1 19 1 33 6v-72c-23 -9 -47 -14 -74 -14z" />
    <glyph glyph-name="tilde" unicode="&#x2dc;" horiz-adv-x="360" 
d="M109 567h-89c0 146 88 164 169 110c43 -35 62 -33 62 23h89c0 -146 -86 -165 -168 -110c-44 35 -63 33 -63 -23z" />
    <glyph glyph-name="hungarumlaut" unicode="&#x2dd;" horiz-adv-x="402" 
d="M20 560l75 135h114l-81 -135h-108zM183 560l85 135h114l-91 -135h-108z" />
    <glyph glyph-name="gravecomb" unicode="&#x300;" horiz-adv-x="0" 
d="M-20 565h-104l-106 135h130z" />
    <glyph glyph-name="acutecomb" unicode="&#x301;" horiz-adv-x="0" 
d="M-230 565l80 135h130l-106 -135h-104z" />
    <glyph glyph-name="uni0302" unicode="&#x302;" horiz-adv-x="0" 
d="M-126 700l106 -140h-110l-52 74l-53 -74h-110l106 140h113z" />
    <glyph glyph-name="tildecomb" unicode="&#x303;" horiz-adv-x="0" 
d="M-246 567h-89c0 146 88 164 169 110c43 -35 62 -33 62 23h89c0 -146 -86 -165 -168 -110c-44 35 -63 33 -63 -23z" />
    <glyph glyph-name="uni0304" unicode="&#x304;" horiz-adv-x="0" 
d="M-20 570h-280v89h280v-89z" />
    <glyph glyph-name="uni0306" unicode="&#x306;" horiz-adv-x="0" 
d="M-177 552c-100 0 -158 51 -158 140h98c0 -39 20 -59 60 -59c39 0 59 20 59 59h98c0 -89 -58 -140 -157 -140z" />
    <glyph glyph-name="uni0307" unicode="&#x307;" horiz-adv-x="0" 
d="M-160 628c0 37 33 70 70 70c60 3 94 -79 50 -120c-41 -44 -123 -10 -120 50z" />
    <glyph glyph-name="uni0308" unicode="&#x308;" horiz-adv-x="0" 
d="M-227 575c-24 -23 -62 -23 -85 0c-24 24 -24 62 0 85c23 24 61 24 85 0c23 -23 23 -61 0 -85zM-37 575c-24 -23 -62 -23 -85 0c-24 24 -24 62 0 85c23 24 61 24 85 0c23 -23 23 -61 0 -85z" />
    <glyph glyph-name="uni030A" unicode="&#x30a;" horiz-adv-x="0" 
d="M-142 543c-69 0 -119 48 -119 112s50 113 119 113c71 0 120 -48 120 -113s-49 -112 -120 -112zM-142 614c28 0 44 17 44 41c0 25 -16 42 -44 42c-27 0 -43 -17 -43 -42c0 -24 16 -41 43 -41z" />
    <glyph glyph-name="uni030B" unicode="&#x30b;" horiz-adv-x="0" 
d="M-382 560l75 135h114l-81 -135h-108zM-219 560l85 135h114l-91 -135h-108z" />
    <glyph glyph-name="uni030C" unicode="&#x30c;" horiz-adv-x="0" 
d="M-182 627l52 73h110l-106 -140h-113l-106 140h110z" />
    <glyph glyph-name="uni0312" unicode="&#x312;" horiz-adv-x="0" 
d="M-103 970h83l-10 -190h-103z" />
    <glyph glyph-name="uni0326" unicode="&#x326;" horiz-adv-x="0" 
d="M-50 -255h-83l10 190h103z" />
    <glyph glyph-name="uni0327" unicode="&#x327;" horiz-adv-x="0" 
d="M-98 0v-46c45 -8 78 -36 78 -79c0 -69 -72 -100 -215 -91v79c81 -7 121 2 121 25c0 18 -24 28 -73 30v82h89z" />
    <glyph glyph-name="uni0328" unicode="&#x328;" horiz-adv-x="0" 
d="M-99 -213c-55 0 -91 31 -91 83c0 40 23 83 68 130h97c-41 -39 -61 -74 -61 -105c0 -19 9 -28 28 -28c8 -1 19 1 33 6v-72c-23 -9 -47 -14 -74 -14z" />
    <glyph glyph-name="uni0394" unicode="&#x394;" horiz-adv-x="645" 
d="M254 700h138l248 -700h-635zM323 569l-156 -461h312z" />
    <glyph glyph-name="uni03A9" unicode="&#x3a9;" horiz-adv-x="786" 
d="M756 360c0 -101 -45 -191 -121 -250h108v-110h-275v110c51 15 93 45 125 88s48 94 48 152c0 72 -24 132 -72 179c-47 48 -106 72 -176 72s-129 -24 -177 -72c-47 -47 -71 -107 -71 -179c0 -58 16 -109 48 -152s74 -73 126 -88v-110h-276v110h108
c-81 63 -121 146 -121 250c0 99 35 182 105 250c71 69 157 103 258 103s187 -34 257 -103c71 -68 106 -151 106 -250z" />
    <glyph glyph-name="pi" unicode="&#x3c0;" horiz-adv-x="660" 
d="M25 500h610v-102h-80v-398h-108v398h-229v-398h-108v398h-85v102z" />
    <glyph glyph-name="uni0401" unicode="&#x401;" horiz-adv-x="530" 
d="M228 775c-23 -23 -61 -23 -85 0c-23 24 -23 62 0 85c24 24 62 24 85 0c24 -23 24 -61 0 -85zM418 775c-23 -23 -61 -23 -85 0c-23 24 -23 62 0 85c24 24 62 24 85 0c24 -23 24 -61 0 -85zM185 299v-189h310v-110h-425v700h420v-110h-305v-182h280v-109h-280z" />
    <glyph glyph-name="uni0402" unicode="&#x402;" horiz-adv-x="702" 
d="M458 468c115 0 189 -68 189 -193v-91c0 -139 -68 -203 -205 -193v107c65 -5 90 18 90 86v82c0 65 -31 98 -93 98c-44 0 -86 -8 -126 -24v-340h-115v590h-183v110h505v-110h-207v-148c49 17 97 26 145 26z" />
    <glyph glyph-name="uni0403" unicode="&#x403;" horiz-adv-x="480" 
d="M281 899h130l-106 -135h-104zM70 700h395v-110h-280v-590h-115v700z" />
    <glyph glyph-name="uni0404" unicode="&#x404;" horiz-adv-x="730" 
d="M398 99c88 0 165 44 202 113l100 -57c-60 -103 -174 -168 -302 -168c-105 0 -192 35 -261 104c-68 70 -102 156 -102 259s34 189 102 258c69 70 156 105 261 105c128 0 242 -64 302 -167l-100 -58c-37 69 -114 113 -202 113c-129 0 -222 -78 -243 -197h336v-108h-336
c21 -119 114 -197 243 -197z" />
    <glyph glyph-name="uni0405" unicode="&#x405;" horiz-adv-x="581" 
d="M303 -13c-135 0 -233 65 -270 172l99 58c28 -79 86 -118 174 -118c87 0 130 37 130 92c0 29 -12 50 -35 65s-65 32 -124 50c-67 20 -100 33 -147 64c-45 32 -68 78 -68 141c0 62 22 111 66 147c44 37 97 55 159 55c112 0 199 -58 244 -154l-97 -56c-29 65 -78 98 -147 98
c-67 0 -110 -34 -110 -87c0 -52 34 -76 141 -109c27 -9 46 -15 58 -20c13 -4 30 -11 52 -20c23 -9 40 -19 51 -28c37 -29 77 -77 72 -144c0 -63 -23 -114 -69 -151c-45 -37 -105 -55 -179 -55z" />
    <glyph glyph-name="uni0406" unicode="&#x406;" horiz-adv-x="255" 
d="M70 0v700h115v-700h-115z" />
    <glyph glyph-name="uni0407" unicode="&#x407;" horiz-adv-x="255" 
d="M75 775c-23 -23 -61 -23 -84 0c-24 24 -24 62 0 85c23 24 61 24 84 0c24 -23 24 -61 0 -85zM265 775c-23 -23 -61 -23 -85 0c-23 24 -23 62 0 85c24 24 62 24 85 0c24 -23 24 -61 0 -85zM70 0v700h115v-700h-115z" />
    <glyph glyph-name="uni0408" unicode="&#x408;" horiz-adv-x="564" 
d="M260 -13c-109 0 -184 43 -225 128l99 58c23 -49 65 -74 127 -74c80 0 125 41 125 113v488h115v-488c0 -72 -23 -128 -68 -167s-103 -58 -173 -58z" />
    <glyph glyph-name="uni0409" unicode="&#x409;" horiz-adv-x="973" 
d="M593 425h122c64 0 118 -20 162 -60s66 -91 66 -152c0 -62 -22 -113 -66 -153s-98 -60 -162 -60h-237v590h-219v-293c0 -123 -27 -209 -75 -250s-102 -54 -171 -49v107c88 -12 131 35 131 190v405h449v-275zM593 108h122c65 0 113 41 113 105s-48 104 -113 104h-122v-209z
" />
    <glyph glyph-name="uni040A" unicode="&#x40a;" horiz-adv-x="965" 
d="M585 425h123c64 0 118 -20 161 -60c44 -40 66 -91 66 -152c0 -62 -22 -113 -66 -153c-43 -40 -97 -60 -161 -60h-238v317h-285v-317h-115v700h115v-275h285v275h115v-275zM585 108h123c65 0 112 41 112 105s-47 104 -112 104h-123v-209z" />
    <glyph glyph-name="uni040B" unicode="&#x40b;" horiz-adv-x="707" 
d="M458 468c115 0 189 -68 189 -193v-275h-115v266c0 65 -31 98 -93 98c-44 0 -86 -8 -126 -24v-340h-115v590h-183v110h505v-110h-207v-148c49 17 97 26 145 26z" />
    <glyph glyph-name="uni040C" unicode="&#x40c;" horiz-adv-x="603" 
d="M311 899h130l-106 -135h-104zM305 359l293 -359h-137l-276 333v-333h-115v700h115v-314l266 314h137z" />
    <glyph glyph-name="uni040E" unicode="&#x40e;" horiz-adv-x="590" 
d="M159 863h280v-94h-280v94zM311 331l153 369h116l-217 -520c-53 -127 -140 -187 -259 -180v107c79 -8 125 23 154 98l-233 495h116z" />
    <glyph glyph-name="uni040F" unicode="&#x40f;" horiz-adv-x="655" 
d="M470 110v590h115v-700h-200v-134h-115v134h-200v700h115v-590h285z" />
    <glyph glyph-name="uni0410" unicode="&#x410;" horiz-adv-x="655" 
d="M650 0h-124l-49 141h-298l-49 -141h-125l254 700h138zM328 565l-111 -316h222z" />
    <glyph glyph-name="uni0411" unicode="&#x411;" horiz-adv-x="585" 
d="M185 430h150c65 0 118 -20 161 -61s64 -92 64 -154s-21 -113 -64 -154s-96 -61 -161 -61h-265v700h430v-110h-315v-160zM185 108h150c63 0 110 43 110 107s-47 107 -110 107h-150v-214z" />
    <glyph glyph-name="uni0412" unicode="&#x412;" horiz-adv-x="610" 
d="M482 363c61 -32 98 -90 98 -163c0 -57 -20 -105 -61 -143s-90 -57 -149 -57h-300v700h278c57 0 106 -19 145 -56c40 -37 60 -83 60 -138c0 -61 -24 -108 -71 -143zM348 592h-163v-184h163c51 0 90 40 90 92s-39 92 -90 92zM185 108h185c53 0 95 43 95 98s-42 98 -95 98
h-185v-196z" />
    <glyph glyph-name="uni0413" unicode="&#x413;" horiz-adv-x="480" 
d="M70 700h395v-110h-280v-590h-115v700z" />
    <glyph glyph-name="uni0414" unicode="&#x414;" horiz-adv-x="700" 
d="M595 700v-590h75v-244h-115v134h-425v-134h-115v244h65c41 53 61 134 61 241v349h454zM206 110h274v482h-224v-243c0 -104 -17 -184 -50 -239z" />
    <glyph glyph-name="uni0415" unicode="&#x415;" horiz-adv-x="530" 
d="M185 299v-189h310v-110h-425v700h420v-110h-305v-182h280v-109h-280z" />
    <glyph glyph-name="uni0416" unicode="&#x416;" horiz-adv-x="886" 
d="M610 358l261 -358h-129l-241 328v-328h-115v328l-241 -328h-130l262 358l-252 342h130l231 -318v318h115v-318l231 318h129z" />
    <glyph glyph-name="uni0417" unicode="&#x417;" horiz-adv-x="563" 
d="M426 363c71 -34 107 -90 107 -169c0 -61 -23 -111 -70 -150c-46 -38 -106 -57 -181 -57c-128 0 -213 54 -254 162l99 57c21 -74 72 -111 155 -111c88 0 136 41 136 105c0 63 -47 104 -128 104h-85v104h62c79 0 125 39 125 99s-41 98 -116 98c-69 0 -116 -32 -140 -95
l-98 57c45 97 125 146 238 146c69 0 124 -19 167 -56s64 -85 64 -144c0 -66 -27 -116 -81 -150z" />
    <glyph glyph-name="uni0418" unicode="&#x418;" horiz-adv-x="675" 
d="M605 0h-115v475l-330 -475h-90v700h115v-475l330 475h90v-700z" />
    <glyph glyph-name="uni0419" unicode="&#x419;" horiz-adv-x="675" 
d="M478 770h-280v94h280v-94zM605 0h-115v475l-330 -475h-90v700h115v-475l330 475h90v-700z" />
    <glyph glyph-name="uni041A" unicode="&#x41a;" horiz-adv-x="603" 
d="M305 359l293 -359h-137l-276 333v-333h-115v700h115v-314l266 314h137z" />
    <glyph glyph-name="uni041B" unicode="&#x41b;" horiz-adv-x="683" 
d="M13 0v106c88 -12 131 34 131 189v405h469v-700h-115v590h-239v-293c0 -123 -27 -207 -75 -250c-48 -41 -102 -54 -171 -47z" />
    <glyph glyph-name="uni041C" unicode="&#x41c;" horiz-adv-x="810" 
d="M617 700h123v-700h-115v499l-213 -352h-14l-213 353v-500h-115v700h124l211 -350z" />
    <glyph glyph-name="uni041D" unicode="&#x41d;" horiz-adv-x="670" 
d="M485 413v287h115v-700h-115v303h-300v-303h-115v700h115v-287h300z" />
    <glyph glyph-name="uni041E" unicode="&#x41e;" horiz-adv-x="796" 
d="M655 92c-70 -70 -156 -105 -257 -105s-187 35 -258 105c-70 71 -105 157 -105 258s35 187 105 257c71 71 157 106 258 106s187 -35 257 -106c71 -70 106 -156 106 -257s-35 -187 -106 -258zM221 170c48 -47 107 -71 177 -71s129 24 176 71c48 48 72 108 72 180
s-24 132 -72 179c-47 48 -106 72 -176 72s-129 -24 -177 -72c-47 -47 -71 -107 -71 -179s24 -132 71 -180z" />
    <glyph glyph-name="uni041F" unicode="&#x41f;" horiz-adv-x="655" 
d="M70 700h515v-700h-115v590h-285v-590h-115v700z" />
    <glyph glyph-name="uni0420" unicode="&#x420;" horiz-adv-x="590" 
d="M70 700h258c66 0 121 -22 165 -66c45 -44 67 -99 67 -164s-22 -119 -67 -164c-44 -44 -99 -66 -165 -66h-143v-240h-115v700zM185 348h143c68 0 117 51 117 122s-49 122 -117 122h-143v-244z" />
    <glyph glyph-name="uni0421" unicode="&#x421;" horiz-adv-x="732" 
d="M401 -13c-105 0 -193 35 -262 104c-69 70 -104 156 -104 259s35 189 104 258c69 70 157 105 262 105c127 0 241 -64 301 -167l-100 -58c-37 69 -113 113 -201 113c-75 0 -135 -24 -182 -71c-46 -47 -69 -107 -69 -180s23 -133 69 -180c47 -47 107 -71 182 -71
c88 0 165 44 201 113l100 -57c-29 -51 -71 -92 -125 -123c-53 -30 -112 -45 -176 -45z" />
    <glyph glyph-name="uni0422" unicode="&#x422;" horiz-adv-x="540" 
d="M15 700h510v-110h-197v-590h-115v590h-198v110z" />
    <glyph glyph-name="uni0423" unicode="&#x423;" horiz-adv-x="590" 
d="M311 331l153 369h116l-217 -520c-53 -127 -140 -187 -259 -180v107c79 -8 125 23 154 98l-233 495h116z" />
    <glyph glyph-name="uni0424" unicode="&#x424;" horiz-adv-x="814" 
d="M464 70v-80h-113v80c-99 8 -179 36 -238 85s-88 114 -88 195s29 145 88 194s139 78 238 86v80h113v-80c99 -8 177 -37 236 -86s89 -113 89 -194s-30 -146 -89 -195s-137 -77 -236 -85zM140 350c0 -104 75 -163 211 -175v350c-141 -13 -211 -71 -211 -175zM464 525v-350
c140 14 210 72 210 175c0 104 -70 162 -210 175z" />
    <glyph glyph-name="uni0425" unicode="&#x425;" horiz-adv-x="600" 
d="M366 360l219 -360h-131l-154 253l-154 -253h-131l220 360l-207 340h130l142 -233l142 233h131z" />
    <glyph glyph-name="uni0426" unicode="&#x426;" horiz-adv-x="690" 
d="M585 700v-590h75v-244h-115v134h-475v700h115v-590h285v590h115z" />
    <glyph glyph-name="uni0427" unicode="&#x427;" 
d="M445 380v320h115v-700h-115v269c-49 -22 -100 -33 -154 -33c-70 0 -127 19 -171 58c-43 39 -65 91 -65 156v250h115v-238c0 -72 47 -116 123 -116c55 0 106 11 152 34z" />
    <glyph glyph-name="uni0428" unicode="&#x428;" horiz-adv-x="945" 
d="M760 110v590h115v-700h-805v700h115v-590h230v590h115v-590h230z" />
    <glyph glyph-name="uni0429" unicode="&#x429;" horiz-adv-x="980" 
d="M875 700v-590h75v-244h-115v134h-765v700h115v-590h230v590h115v-590h230v590h115z" />
    <glyph glyph-name="uni042A" unicode="&#x42a;" horiz-adv-x="695" 
d="M433 0h-258v590h-175v110h290v-240h143c66 0 121 -22 165 -67c45 -44 67 -98 67 -163s-22 -119 -67 -164c-44 -44 -99 -66 -165 -66zM290 352v-244h143c68 0 117 51 117 122s-49 122 -117 122h-143z" />
    <glyph glyph-name="uni042B" unicode="&#x42b;" horiz-adv-x="813" 
d="M328 0h-258v700h115v-240h143c66 0 121 -22 165 -67c45 -44 67 -98 67 -163s-22 -119 -67 -164c-44 -44 -99 -66 -165 -66zM743 0h-115v700h115v-700zM185 352v-244h143c68 0 117 51 117 122s-49 122 -117 122h-143z" />
    <glyph glyph-name="uni042C" unicode="&#x42c;" horiz-adv-x="590" 
d="M185 460h143c66 0 121 -22 165 -67c45 -44 67 -98 67 -163s-22 -120 -67 -164c-44 -44 -99 -66 -165 -66h-258v700h115v-240zM185 108h143c68 0 117 51 117 122s-49 122 -117 122h-143v-244z" />
    <glyph glyph-name="uni042D" unicode="&#x42d;" horiz-adv-x="730" 
d="M332 713c105 0 192 -35 260 -105c69 -69 103 -155 103 -258s-34 -189 -103 -259c-68 -69 -155 -104 -260 -104c-128 0 -242 65 -302 168l100 57c37 -69 114 -113 202 -113c129 0 222 78 243 197h-336v108h336c-21 119 -114 197 -243 197c-88 0 -165 -44 -202 -113
l-100 58c60 103 174 167 302 167z" />
    <glyph glyph-name="uni042E" unicode="&#x42e;" horiz-adv-x="1050" 
d="M652 713c101 0 187 -35 257 -106c71 -70 106 -156 106 -257s-35 -187 -106 -258c-70 -70 -156 -105 -257 -105c-93 0 -173 30 -240 90c-67 61 -105 137 -116 228h-111v-305h-115v700h115v-285h114c15 86 55 157 120 213c66 57 144 85 233 85zM652 601
c-71 0 -130 -24 -177 -71s-71 -107 -71 -180c0 -72 24 -132 71 -180c48 -47 107 -71 177 -71s129 24 176 71c48 48 72 108 72 180s-24 132 -72 179c-47 48 -106 72 -176 72z" />
    <glyph glyph-name="uni042F" unicode="&#x42f;" horiz-adv-x="623" 
d="M273 700h280v-700h-115v255h-111l-169 -255h-130l178 265c-46 14 -84 40 -114 79c-29 39 -44 83 -44 131c0 63 22 116 65 159c44 44 97 66 160 66zM273 358h165v234h-165c-61 0 -110 -52 -110 -117s49 -117 110 -117z" />
    <glyph glyph-name="uni0430" unicode="&#x430;" 
d="M459 429v71h108v-500h-108v72c-41 -57 -99 -85 -175 -85c-69 0 -127 25 -176 76s-73 114 -73 187c0 74 24 136 73 187s107 76 176 76c76 0 134 -28 175 -84zM188 135c30 -30 68 -45 113 -45s83 15 113 45c30 31 45 69 45 115s-15 84 -45 114c-30 31 -68 46 -113 46
s-83 -15 -113 -46c-30 -30 -45 -68 -45 -114s15 -84 45 -115z" />
    <glyph glyph-name="uni0431" unicode="&#x431;" horiz-adv-x="567" 
d="M295 -13c-77 0 -139 25 -188 74c-48 50 -72 114 -72 191c0 85 13 150 38 196c25 47 77 89 154 127c13 6 31 15 56 26s43 19 52 24s21 13 35 22c28 20 39 40 47 71l88 -51c-4 -43 -40 -80 -69 -101c-8 -7 -22 -15 -41 -24l-43 -20l-50 -21c-88 -35 -123 -67 -139 -122
c40 45 94 68 163 68c59 0 110 -21 153 -63c44 -42 66 -96 66 -163c0 -68 -23 -124 -70 -168c-46 -44 -106 -66 -180 -66zM294 88c84 0 143 56 143 133c0 79 -58 135 -142 135c-37 0 -71 -12 -101 -36c-30 -23 -45 -55 -45 -94c0 -40 14 -73 42 -99s62 -39 103 -39z" />
    <glyph glyph-name="uni0432" unicode="&#x432;" horiz-adv-x="508" 
d="M409 257c49 -23 74 -61 74 -115c0 -84 -59 -142 -164 -142h-256v500h236c103 0 162 -57 162 -138c0 -47 -17 -82 -52 -105zM291 408h-125v-111h125c44 0 66 19 66 56s-22 55 -66 55zM166 94h143c45 0 68 20 68 59c0 35 -25 55 -68 55h-143v-114z" />
    <glyph glyph-name="uni0433" unicode="&#x433;" horiz-adv-x="408" 
d="M63 500h335v-104h-227v-396h-108v500z" />
    <glyph glyph-name="uni0434" unicode="&#x434;" horiz-adv-x="595" 
d="M503 500v-398h67v-236h-106v134h-343v-134h-106v236h61c31 43 46 104 46 181v217h381zM195 102h202v299h-169v-118c0 -71 -11 -132 -33 -181z" />
    <glyph glyph-name="uni0435" unicode="&#x435;" horiz-adv-x="582" 
d="M546 204h-398c16 -76 77 -118 160 -118c57 0 100 21 129 62l89 -52c-49 -73 -122 -109 -219 -109c-81 0 -147 25 -197 74c-50 50 -75 113 -75 189c0 75 25 137 74 187c49 51 113 76 190 76c73 0 133 -26 180 -77s71 -114 71 -187c0 -11 -1 -26 -4 -45zM147 292h294
c-15 81 -72 123 -143 123c-80 0 -136 -47 -151 -123z" />
    <glyph glyph-name="uni0436" unicode="&#x436;" horiz-adv-x="722" 
d="M512 255l195 -255h-123l-170 231v-231h-106v229l-170 -229h-123l195 255l-185 245h123l160 -219v219h106v-220l160 220h123z" />
    <glyph glyph-name="uni0437" unicode="&#x437;" horiz-adv-x="449" 
d="M344 256c53 -24 80 -64 80 -119c0 -85 -73 -150 -197 -150c-101 0 -169 40 -204 120l88 52c18 -50 57 -75 117 -75c56 0 90 25 90 64c0 35 -27 57 -72 57h-71v95h53c44 0 70 22 70 58c0 35 -30 59 -77 59c-50 0 -85 -22 -104 -66l-88 50c37 75 101 112 190 112
c56 0 100 -14 133 -43c33 -28 50 -62 50 -103c0 -50 -19 -87 -58 -111z" />
    <glyph glyph-name="uni0438" unicode="&#x438;" horiz-adv-x="570" 
d="M169 183l256 317h83v-500h-106v318l-256 -318h-83v500h106v-317z" />
    <glyph glyph-name="uni0439" unicode="&#x439;" horiz-adv-x="570" 
d="M425 570h-280v94h280v-94zM169 183l256 317h83v-500h-106v318l-256 -318h-83v500h106v-317z" />
    <glyph glyph-name="uni043A" unicode="&#x43a;" horiz-adv-x="515" 
d="M277 255l228 -255h-129l-205 231v-231h-108v500h108v-221l194 221h132z" />
    <glyph glyph-name="uni043B" unicode="&#x43b;" horiz-adv-x="548" 
d="M102 500h383v-500h-108v396h-167v-186c0 -159 -72 -222 -200 -210v101c61 -11 92 23 92 114v285z" />
    <glyph glyph-name="uni043C" unicode="&#x43c;" horiz-adv-x="635" 
d="M463 500h110v-500h-105v329l-144 -229h-13l-143 228v-328h-105v500h110l145 -231z" />
    <glyph glyph-name="uni043D" unicode="&#x43d;" horiz-adv-x="570" 
d="M400 301v199h108v-500h-108v199h-229v-199h-108v500h108v-199h229z" />
    <glyph glyph-name="uni043E" unicode="&#x43e;" horiz-adv-x="598" 
d="M299 -13c-73 0 -136 25 -187 76s-77 113 -77 187s26 136 77 187s114 76 187 76c74 0 136 -25 187 -76s77 -113 77 -187s-26 -136 -77 -187s-113 -76 -187 -76zM188 137c30 -30 67 -45 111 -45s81 15 111 45s45 68 45 113s-15 83 -45 113s-67 45 -111 45s-81 -15 -111 -45
s-45 -68 -45 -113s15 -83 45 -113z" />
    <glyph glyph-name="uni043F" unicode="&#x43f;" horiz-adv-x="570" 
d="M63 500h445v-500h-108v398h-229v-398h-108v500z" />
    <glyph glyph-name="uni0440" unicode="&#x440;" 
d="M346 513c69 0 127 -26 176 -77s73 -113 73 -186c0 -74 -24 -136 -73 -187s-107 -76 -176 -76c-76 0 -134 28 -175 84v-271h-108v700h108v-72c41 57 99 85 175 85zM216 135c30 -30 68 -45 113 -45s83 15 113 45c30 31 45 69 45 115s-15 84 -45 114c-30 31 -68 46 -113 46
s-83 -15 -113 -46c-30 -30 -45 -68 -45 -114s15 -84 45 -115z" />
    <glyph glyph-name="uni0441" unicode="&#x441;" horiz-adv-x="542" 
d="M299 -13c-75 0 -138 25 -189 76c-50 51 -75 113 -75 187c0 75 25 137 75 187c51 51 114 76 189 76c97 0 183 -50 223 -129l-93 -54c-23 48 -71 77 -131 77c-44 0 -81 -15 -111 -45c-29 -30 -44 -67 -44 -112s15 -82 44 -112c30 -30 67 -45 111 -45c59 0 109 30 133 77
l93 -53c-43 -80 -128 -130 -225 -130z" />
    <glyph glyph-name="uni0442" unicode="&#x442;" horiz-adv-x="455" 
d="M10 500h435v-104h-163v-396h-108v396h-164v104z" />
    <glyph glyph-name="uni0443" unicode="&#x443;" horiz-adv-x="520" 
d="M272 136l128 364h115l-192 -516c-47 -127 -133 -191 -244 -184v101c68 -4 108 27 133 96l3 7l-210 496h115z" />
    <glyph glyph-name="uni0444" unicode="&#x444;" horiz-adv-x="680" 
d="M393 -9v-191h-106v191c-77 10 -139 39 -184 86s-68 105 -68 173s23 126 68 173s107 76 184 86v191h106v-191c77 -10 139 -39 184 -86s68 -105 68 -173s-23 -126 -68 -173s-107 -76 -184 -86zM393 406v-312c92 17 145 76 145 156s-53 139 -145 156zM287 94v312
c-92 -17 -145 -77 -145 -156s53 -139 145 -156z" />
    <glyph glyph-name="uni0445" unicode="&#x445;" horiz-adv-x="520" 
d="M323 256l187 -256h-125l-124 171l-125 -171h-126l188 257l-178 243h125l115 -158l115 158h126z" />
    <glyph glyph-name="uni0446" unicode="&#x446;" horiz-adv-x="600" 
d="M493 500v-398h82v-236h-106v134h-406v500h108v-398h214v398h108z" />
    <glyph glyph-name="uni0447" unicode="&#x447;" horiz-adv-x="538" 
d="M367 271v229h108v-500h-108v169c-40 -15 -82 -22 -126 -22c-124 0 -201 62 -201 181v172h108v-162c0 -60 36 -90 107 -90c42 0 79 8 112 23z" />
    <glyph glyph-name="uni0448" unicode="&#x448;" horiz-adv-x="825" 
d="M655 102v398h108v-500h-700v500h108v-398h188v398h108v-398h188z" />
    <glyph glyph-name="uni0449" unicode="&#x449;" horiz-adv-x="845" 
d="M753 500v-398h67v-236h-106v134h-651v500h108v-398h183v398h108v-398h183v398h108z" />
    <glyph glyph-name="uni044A" unicode="&#x44a;" horiz-adv-x="563" 
d="M246 330h110c53 0 97 -15 131 -46c34 -30 51 -70 51 -119s-17 -88 -51 -119s-78 -46 -131 -46h-218v396h-138v104h246v-170zM246 97h111c43 0 75 28 75 68c0 41 -32 68 -75 68h-111v-136z" />
    <glyph glyph-name="uni044B" unicode="&#x44b;" horiz-adv-x="693" 
d="M171 330h110c53 0 97 -15 131 -46c34 -30 51 -70 51 -119s-17 -88 -51 -119s-78 -46 -131 -46h-218v500h108v-170zM523 0v500h108v-500h-108zM171 97h111c43 0 75 28 75 68c0 41 -32 68 -75 68h-111v-136z" />
    <glyph glyph-name="uni044C" unicode="&#x44c;" horiz-adv-x="488" 
d="M171 330h110c53 0 97 -15 131 -46c34 -30 51 -70 51 -119s-17 -88 -51 -119s-78 -46 -131 -46h-218v500h108v-170zM171 97h111c43 0 75 28 75 68c0 41 -32 68 -75 68h-111v-136z" />
    <glyph glyph-name="uni044D" unicode="&#x44d;" horiz-adv-x="538" 
d="M245 513c76 0 138 -25 186 -74s72 -112 72 -189s-24 -140 -73 -189c-48 -49 -110 -74 -186 -74c-105 0 -189 51 -229 131l92 52c22 -53 68 -79 138 -79c71 0 125 45 144 110h-198v99h198c-19 67 -72 110 -143 110c-64 0 -113 -31 -136 -79l-93 53c43 80 127 129 228 129z
" />
    <glyph glyph-name="uni044E" unicode="&#x44e;" horiz-adv-x="808" 
d="M509 513c73 0 136 -25 187 -76s77 -113 77 -187s-26 -136 -77 -187s-114 -76 -187 -76c-65 0 -121 20 -168 59c-47 40 -76 91 -87 153h-83v-199h-108v500h108v-199h83c11 62 40 113 87 152c47 40 103 60 168 60zM398 137c30 -30 67 -45 111 -45s81 15 111 45
s45 68 45 113s-15 83 -45 113s-67 45 -111 45s-81 -15 -111 -45s-45 -68 -45 -113s15 -83 45 -113z" />
    <glyph glyph-name="uni044F" unicode="&#x44f;" horiz-adv-x="513" 
d="M227 500h223v-500h-106v168h-60l-127 -168h-127l135 178c-69 23 -115 85 -115 156c0 46 16 85 49 117c33 33 76 49 128 49zM233 261h111v141h-111c-44 0 -77 -27 -77 -71c0 -43 33 -70 77 -70z" />
    <glyph glyph-name="uni0451" unicode="&#x451;" horiz-adv-x="582" 
d="M240 578c-23 -23 -61 -23 -85 0c-23 24 -23 62 0 85c24 24 62 24 85 0c24 -23 24 -61 0 -85zM430 578c-23 -23 -61 -23 -85 0c-23 24 -23 62 0 85c24 24 62 24 85 0c24 -23 24 -61 0 -85zM546 204h-398c16 -76 77 -118 160 -118c57 0 100 21 129 62l89 -52
c-49 -73 -122 -109 -219 -109c-81 0 -147 25 -197 74c-50 50 -75 113 -75 189c0 75 25 137 74 187c49 51 113 76 190 76c73 0 133 -26 180 -77s71 -114 71 -187c0 -11 -1 -26 -4 -45zM147 292h294c-15 81 -72 123 -143 123c-80 0 -136 -47 -151 -123z" />
    <glyph glyph-name="uni0452" unicode="&#x452;" horiz-adv-x="578" 
d="M334 513c113 0 191 -78 191 -206v-327c0 -139 -68 -203 -205 -193v104c67 -7 97 20 97 89v316c0 75 -43 116 -111 116c-77 0 -128 -47 -128 -144v-268h-108v561h-65v74h65v65h108v-65h142v-74h-142v-125c33 51 85 77 156 77z" />
    <glyph glyph-name="uni0453" unicode="&#x453;" horiz-adv-x="408" 
d="M221 700h130l-106 -135h-104zM63 500h335v-104h-227v-396h-108v500z" />
    <glyph glyph-name="uni0454" unicode="&#x454;" horiz-adv-x="538" 
d="M431 170l92 -52c-40 -80 -124 -131 -229 -131c-76 0 -138 25 -187 74c-48 49 -72 112 -72 189s24 140 72 189s110 74 186 74c101 0 185 -49 228 -129l-93 -53c-23 48 -72 79 -136 79c-71 0 -124 -43 -143 -110h198v-99h-198c19 -65 73 -110 144 -110c70 0 116 26 138 79z
" />
    <glyph glyph-name="uni0455" unicode="&#x455;" horiz-adv-x="461" 
d="M160 362c0 -33 42 -50 94 -65c77 -17 177 -49 175 -156c0 -48 -19 -86 -56 -113s-83 -41 -139 -41c-99 0 -172 44 -204 117l93 54c17 -48 54 -72 111 -72s85 19 85 56c0 32 -42 51 -95 64c-75 19 -176 49 -174 154c0 46 17 83 52 111s79 42 131 42c83 0 150 -39 185 -104
l-91 -51c-17 38 -49 57 -94 57c-41 0 -73 -18 -73 -53z" />
    <glyph glyph-name="uni0456" unicode="&#x456;" horiz-adv-x="233" 
d="M165 595c-27 -27 -69 -27 -97 0c-27 28 -27 70 0 97c27 28 71 28 98 0c27 -27 27 -69 -1 -97zM171 0h-108v500h108v-500z" />
    <glyph glyph-name="uni0457" unicode="&#x457;" horiz-adv-x="233" 
d="M64 575c-23 -23 -61 -23 -84 0c-24 24 -24 62 0 85c23 24 61 24 84 0c24 -23 24 -61 0 -85zM254 575c-23 -23 -61 -23 -85 0c-23 24 -23 62 0 85c24 24 62 24 85 0c24 -23 24 -61 0 -85zM171 0h-108v500h108v-500z" />
    <glyph glyph-name="uni0458" unicode="&#x458;" horiz-adv-x="253" 
d="M184 595c-27 -27 -69 -27 -97 0c-27 28 -27 70 0 97c28 28 70 28 97 0c28 -27 28 -69 0 -97zM82 -20v520h108v-520c0 -139 -68 -203 -205 -193v104c67 -7 97 20 97 89z" />
    <glyph glyph-name="uni0459" unicode="&#x459;" horiz-adv-x="772" 
d="M475 315h106c100 0 166 -60 166 -157s-67 -158 -166 -158h-214v396h-157v-186c0 -159 -72 -222 -200 -214v101c61 -7 92 27 92 118v285h373v-185zM475 97h106c37 0 65 21 65 61c0 39 -28 60 -65 60h-106v-121z" />
    <glyph glyph-name="uni045A" unicode="&#x45a;" horiz-adv-x="790" 
d="M488 315h105c101 0 172 -61 172 -157c0 -97 -72 -158 -172 -158h-213v213h-214v-213h-108v500h108v-185h214v185h108v-185zM488 97h106c37 0 65 21 65 61c0 39 -29 60 -65 60h-106v-121z" />
    <glyph glyph-name="uni045B" unicode="&#x45b;" horiz-adv-x="578" 
d="M334 513c113 0 191 -78 191 -206v-307h-108v296c0 75 -43 116 -111 116c-77 0 -128 -47 -128 -144v-268h-108v561h-65v74h65v65h108v-65h142v-74h-142v-125c33 51 85 77 156 77z" />
    <glyph glyph-name="uni045C" unicode="&#x45c;" horiz-adv-x="515" 
d="M271 700h130l-106 -135h-104zM277 255l228 -255h-129l-205 231v-231h-108v500h108v-221l194 221h132z" />
    <glyph glyph-name="uni045E" unicode="&#x45e;" horiz-adv-x="520" 
d="M120 664h280v-94h-280v94zM272 136l128 364h115l-192 -516c-47 -127 -133 -191 -244 -184v101c68 -4 108 27 133 96l3 7l-210 496h115z" />
    <glyph glyph-name="uni045F" unicode="&#x45f;" horiz-adv-x="570" 
d="M400 102v398h108v-500h-170v-134h-106v134h-169v500h108v-398h229z" />
    <glyph glyph-name="uni0490" unicode="&#x490;" horiz-adv-x="480" 
d="M350 700v120h115v-230h-280v-590h-115v700h280z" />
    <glyph glyph-name="uni0491" unicode="&#x491;" horiz-adv-x="408" 
d="M292 500v102h106v-206h-227v-396h-108v500h229z" />
    <glyph glyph-name="Wgrave" unicode="&#x1e80;" horiz-adv-x="999" 
d="M594 765h-104l-106 135h130zM218 0h133l149 511l148 -511h133l198 700h-121l-147 -547l-158 547h-106l-159 -547l-147 547h-121z" />
    <glyph glyph-name="wgrave" unicode="&#x1e81;" horiz-adv-x="770" 
d="M380 700l80 -135h-104l-106 135h130zM541 155l98 345h114l-157 -500h-106l-104 337l-105 -337h-106l-157 500h114l97 -345l105 345h103z" />
    <glyph glyph-name="Wacute" unicode="&#x1e82;" horiz-adv-x="999" 
d="M449 765l80 135h130l-106 -135h-104zM218 0h133l149 511l148 -511h133l198 700h-121l-147 -547l-158 547h-106l-159 -547l-147 547h-121z" />
    <glyph glyph-name="wacute" unicode="&#x1e83;" horiz-adv-x="770" 
d="M395 700h130l-106 -135h-104zM541 155l98 345h114l-157 -500h-106l-104 337l-105 -337h-106l-157 500h114l97 -345l105 345h103z" />
    <glyph glyph-name="Wdieresis" unicode="&#x1e84;" horiz-adv-x="999" 
d="M466 775c-23 -23 -61 -23 -85 0c-23 24 -23 62 0 85c24 24 62 24 85 0c24 -23 24 -61 0 -85zM656 775c-23 -23 -61 -23 -85 0c-23 24 -23 62 0 85c24 24 62 24 85 0c24 -23 24 -61 0 -85zM351 0h-133l-198 700h121l147 -547l159 547h106l158 -547l147 547h121l-198 -700
h-133l-148 511z" />
    <glyph glyph-name="wdieresis" unicode="&#x1e85;" horiz-adv-x="770" 
d="M332 575c-23 -23 -61 -23 -85 0c-23 24 -23 62 0 85c24 24 62 24 85 0c24 -23 24 -61 0 -85zM522 575c-23 -23 -61 -23 -85 0c-23 24 -23 62 0 85c24 24 62 24 85 0c24 -23 24 -61 0 -85zM541 155l98 345h114l-157 -500h-106l-104 337l-105 -337h-106l-157 500h114
l97 -345l105 345h103z" />
    <glyph glyph-name="Ygrave" unicode="&#x1ef2;" horiz-adv-x="613" 
d="M300 900l80 -135h-104l-106 135h130zM477 700h131l-244 -422v-278h-115v278l-244 422h131l171 -310z" />
    <glyph glyph-name="ygrave" unicode="&#x1ef3;" horiz-adv-x="520" 
d="M255 700l80 -135h-104l-106 135h130zM272 137l128 363h115l-192 -516c-48 -129 -129 -191 -244 -184v101c68 -4 106 29 133 98l5 10l-212 491h118z" />
    <glyph glyph-name="endash" unicode="&#x2013;" horiz-adv-x="650" 
d="M580 252h-510v104h510v-104z" />
    <glyph glyph-name="emdash" unicode="&#x2014;" horiz-adv-x="750" 
d="M680 252h-610v104h610v-104z" />
    <glyph glyph-name="quoteleft" unicode="&#x2018;" horiz-adv-x="265" 
d="M172 440h-120l70 260h90z" />
    <glyph glyph-name="quoteright" unicode="&#x2019;" horiz-adv-x="265" 
d="M93 700h120l-70 -260h-90z" />
    <glyph glyph-name="quotesinglbase" unicode="&#x201a;" horiz-adv-x="265" 
d="M93 120h120l-70 -260h-90z" />
    <glyph glyph-name="quotedblleft" unicode="&#x201c;" horiz-adv-x="435" 
d="M172 440h-120l70 260h90zM342 440h-120l70 260h90z" />
    <glyph glyph-name="quotedblright" unicode="&#x201d;" horiz-adv-x="435" 
d="M93 700h120l-70 -260h-90zM263 700h120l-70 -260h-90z" />
    <glyph glyph-name="quotedblbase" unicode="&#x201e;" horiz-adv-x="435" 
d="M93 120h120l-70 -260h-90zM263 120h120l-70 -260h-90z" />
    <glyph glyph-name="dagger" unicode="&#x2020;" horiz-adv-x="480" 
d="M294 555h136v-104h-136v-451h-108v451h-136v104h136v145h108v-145z" />
    <glyph glyph-name="daggerdbl" unicode="&#x2021;" horiz-adv-x="480" 
d="M430 555v-104h-136v-202h136v-104h-136v-145h-108v145h-136v104h136v202h-136v104h136v145h108v-145h136z" />
    <glyph glyph-name="bullet" unicode="&#x2022;" horiz-adv-x="340" 
d="M172 225c-35 0 -65 12 -90 37s-37 55 -37 90c0 34 12 63 37 87s55 36 90 36c34 0 63 -12 87 -36s36 -53 36 -87c0 -35 -12 -65 -36 -90s-53 -37 -87 -37z" />
    <glyph glyph-name="ellipsis" unicode="&#x2026;" horiz-adv-x="685" 
d="M128 138c41 0 75 -34 75 -75s-34 -75 -75 -75s-75 34 -75 75s32 75 75 75zM396 10c-29 -29 -77 -29 -106 0s-29 77 0 106s77 29 106 0s29 -77 0 -106zM558 138c41 0 75 -34 75 -75s-34 -75 -75 -75s-75 34 -75 75s32 75 75 75z" />
    <glyph glyph-name="perthousand" unicode="&#x2030;" horiz-adv-x="1114" 
d="M377 553c0 -45 -16 -83 -47 -114s-69 -46 -116 -46s-86 15 -117 46s-47 69 -47 114s16 82 47 113s70 47 117 47s85 -15 116 -46s47 -69 47 -114zM213 481c43 0 72 32 72 72c0 41 -29 73 -72 73c-41 0 -71 -32 -71 -73c0 -40 30 -72 71 -72zM163 71l-54 32l461 513l54 -31
zM534 -12c-47 0 -86 15 -117 46s-47 69 -47 114s16 82 47 113s70 47 117 47c46 0 85 -16 116 -47s47 -68 47 -113s-16 -83 -47 -114s-70 -46 -116 -46zM1017 34c-31 -31 -69 -46 -116 -46s-86 15 -117 46s-46 69 -46 114s15 82 46 113s70 47 117 47s85 -16 116 -47
s47 -68 47 -113s-16 -83 -47 -114zM533 76c43 0 72 32 72 72c0 41 -29 73 -72 73c-41 0 -71 -32 -71 -73c0 -40 30 -72 71 -72zM972 148c0 41 -30 73 -71 73s-71 -32 -71 -73c0 -40 30 -72 71 -72s71 32 71 72z" />
    <glyph glyph-name="guilsinglleft" unicode="&#x2039;" horiz-adv-x="347" 
d="M175 494h107l-110 -185l110 -185h-107l-110 185z" />
    <glyph glyph-name="guilsinglright" unicode="&#x203a;" horiz-adv-x="347" 
d="M65 494h107l110 -185l-110 -185h-107l110 185z" />
    <glyph glyph-name="fraction" unicode="&#x2044;" horiz-adv-x="200" 
d="M340 700l-400 -700h-80l400 700h80z" />
    <glyph glyph-name="Euro" unicode="&#x20ac;" horiz-adv-x="605" 
d="M487 189l96 -55c-44 -98 -118 -147 -223 -147c-148 0 -246 104 -271 273h-71v71h65v19c0 12 0 21 1 27h-66v71h73c27 164 124 265 269 265c103 0 176 -47 220 -142l-95 -55c-26 57 -68 85 -125 85c-80 0 -133 -54 -153 -153h221v-71h-229c-1 -6 -1 -15 -1 -27v-19h230
v-71h-223c19 -104 74 -161 155 -161c59 0 101 30 127 90z" />
    <glyph glyph-name="uni20BD" unicode="&#x20bd;" horiz-adv-x="598" 
d="M353 255h-143v-67h235v-78h-235v-110h-115v110h-80v78h80v67h-80v103h80v342h258c63 0 117 -22 161 -66c44 -43 66 -96 66 -159c0 -62 -22 -114 -66 -157c-44 -42 -98 -63 -161 -63zM353 592h-143v-234h143c31 0 58 11 79 34c22 23 33 50 33 83s-11 60 -33 83
c-21 23 -48 34 -79 34z" />
    <glyph glyph-name="uni2116" unicode="&#x2116;" horiz-adv-x="1031" 
d="M833 393c-47 0 -86 15 -117 46s-46 69 -46 114s15 82 46 113s70 47 117 47s85 -16 116 -47s47 -68 47 -113s-15 -83 -46 -114s-70 -46 -117 -46zM490 225v475h115v-700h-90l-330 475v-475h-115v700h90zM833 483c41 0 69 30 69 70s-29 70 -69 70s-69 -30 -69 -70
s29 -70 69 -70zM985 231h-302v102h302v-102z" />
    <glyph glyph-name="trademark" unicode="&#x2122;" horiz-adv-x="471" 
d="M35 700h166v-49h-56v-151h-53v151h-57v49zM329 616l55 84h52v-200h-52v116l-52 -80h-5l-52 79v-115h-52v200h52z" />
    <glyph glyph-name="estimated" unicode="&#x212e;" horiz-adv-x="800" 
d="M770 350c0 -10 -5 -15 -15 -15h-560c-10 0 -15 -5 -15 -15v-192c0 -7 2 -14 7 -19c56 -59 134 -89 233 -89c97 0 174 32 231 97c5 6 11 9 18 9h37c13 0 18 -10 9 -19c-73 -78 -171 -117 -295 -117c-117 0 -212 34 -283 103s-107 155 -107 257c0 101 34 187 103 256
s158 104 267 104s197 -35 266 -104s104 -155 104 -256zM620 380v192c0 7 -2 14 -7 19c-56 59 -127 89 -213 89s-157 -30 -213 -89c-5 -5 -7 -12 -7 -19v-192c0 -10 5 -15 15 -15h410c10 0 15 5 15 15z" />
    <glyph glyph-name="oneeighth" unicode="&#x215b;" horiz-adv-x="806" 
d="M204 700v-400h-92v306l-85 -25l-22 76l119 43h80zM121 0l400 700h80l-400 -700h-80zM723 210c41 -23 61 -57 61 -102c0 -75 -58 -121 -150 -121c-93 0 -151 46 -151 121c0 45 20 79 61 102c-31 21 -47 49 -47 85c0 73 57 118 137 118c79 0 136 -45 136 -118
c0 -36 -16 -64 -47 -85zM634 334c-37 0 -55 -15 -55 -45s18 -45 55 -45c71 -7 71 97 0 90zM634 68c39 0 62 20 62 52s-25 52 -62 52c-83 8 -83 -112 0 -104z" />
    <glyph glyph-name="threeeighths" unicode="&#x215c;" horiz-adv-x="894" 
d="M319 419c0 -83 -59 -132 -152 -132c-75 0 -125 29 -152 87l78 45c13 -33 38 -50 74 -50c79 -8 78 108 -3 100h-14l-36 55l75 91h-158v85h270v-72l-78 -93c61 -15 96 -57 96 -116zM209 0l400 700h80l-400 -700h-80zM811 210c41 -23 61 -57 61 -102
c0 -75 -58 -121 -150 -121c-93 0 -151 46 -151 121c0 45 20 79 61 102c-31 21 -47 49 -47 85c0 73 57 118 137 118c79 0 136 -45 136 -118c0 -36 -16 -64 -47 -85zM722 334c-37 0 -55 -15 -55 -45s18 -45 55 -45c71 -7 71 97 0 90zM722 68c39 0 62 20 62 52s-25 52 -62 52
c-83 8 -83 -112 0 -104z" />
    <glyph glyph-name="fiveeighths" unicode="&#x215d;" horiz-adv-x="882" 
d="M311 417c0 -83 -58 -130 -146 -130c-74 0 -124 29 -150 87l76 43c14 -33 38 -49 72 -49c40 0 61 19 61 50c0 35 -20 53 -61 53h-126l16 229h239v-84h-161l-4 -66h42c85 0 142 -48 142 -133zM197 0l400 700h80l-400 -700h-80zM799 210c41 -23 61 -57 61 -102
c0 -75 -58 -121 -150 -121c-93 0 -151 46 -151 121c0 45 20 79 61 102c-31 21 -47 49 -47 85c0 73 57 118 137 118c79 0 136 -45 136 -118c0 -36 -16 -64 -47 -85zM710 334c-37 0 -55 -15 -55 -45s18 -45 55 -45c71 -7 71 97 0 90zM710 68c39 0 62 20 62 52s-25 52 -62 52
c-83 8 -83 -112 0 -104z" />
    <glyph glyph-name="seveneighths" unicode="&#x215e;" horiz-adv-x="841" 
d="M5 700h273v-71l-133 -329h-96l130 315h-174v85zM156 0l400 700h80l-400 -700h-80zM758 210c41 -23 61 -57 61 -102c0 -75 -58 -121 -150 -121c-93 0 -151 46 -151 121c0 45 20 79 61 102c-31 21 -47 49 -47 85c0 73 57 118 137 118c79 0 136 -45 136 -118
c0 -36 -16 -64 -47 -85zM669 334c-37 0 -55 -15 -55 -45s18 -45 55 -45c71 -7 71 97 0 90zM669 68c39 0 62 20 62 52s-25 52 -62 52c-83 8 -83 -112 0 -104z" />
    <glyph glyph-name="arrowleft" unicode="&#x2190;" horiz-adv-x="805" 
d="M246 402h509v-104h-509l248 -248h-144l-300 300l300 300h144z" />
    <glyph glyph-name="arrowup" unicode="&#x2191;" horiz-adv-x="700" 
d="M350 700l300 -300v-144l-246 246v-502h-108v502l-246 -246v144z" />
    <glyph glyph-name="arrowright" unicode="&#x2192;" horiz-adv-x="805" 
d="M311 650h144l300 -300l-300 -300h-144l248 248h-509v104h509z" />
    <glyph glyph-name="arrowdown" unicode="&#x2193;" horiz-adv-x="700" 
d="M404 700v-502l246 246v-144l-300 -300l-300 300v144l246 -246v502h108z" />
    <glyph glyph-name="arrowboth" unicode="&#x2194;" horiz-adv-x="1070" 
d="M614 615h142l264 -265l-264 -265h-142l211 213h-581l213 -213h-142l-265 265l265 265h142l-213 -213h582z" />
    <glyph glyph-name="arrowupdn" unicode="&#x2195;" 
d="M580 571v-142l-211 210v-578l211 211v-142l-265 -265l-265 265v142l211 -211v578l-211 -210v142l265 264z" />
    <glyph glyph-name="uni2196" unicode="&#x2196;" horiz-adv-x="642" 
d="M227 503l365 -366l-74 -74l-366 365v-349l-102 102v424h424l102 -102h-349z" />
    <glyph glyph-name="uni2197" unicode="&#x2197;" horiz-adv-x="642" 
d="M66 503l102 102h424v-424l-102 -102v349l-366 -365l-74 74l365 366h-349z" />
    <glyph glyph-name="uni2198" unicode="&#x2198;" horiz-adv-x="642" 
d="M490 255v349l102 -102v-424h-424l-102 102h349l-365 366l74 74z" />
    <glyph glyph-name="uni2199" unicode="&#x2199;" horiz-adv-x="642" 
d="M518 620l74 -74l-365 -366h349l-102 -102h-424v424l102 102v-349z" />
    <glyph glyph-name="partialdiff" unicode="&#x2202;" horiz-adv-x="581" 
d="M237 713c81 0 151 -34 208 -101s86 -155 86 -262c0 -115 -26 -205 -77 -268s-116 -95 -195 -95c-67 0 -119 20 -157 60c-38 41 -57 92 -57 153c0 69 20 125 61 168s96 65 167 65c54 0 103 -15 148 -44c-12 133 -81 221 -194 222c-43 0 -83 -11 -121 -33v99
c37 24 81 36 131 36zM262 89c89 0 147 76 159 203c-39 29 -84 44 -137 44c-79 0 -131 -49 -131 -133c0 -68 41 -114 109 -114z" />
    <glyph glyph-name="emptyset" unicode="&#x2205;" horiz-adv-x="804" 
d="M749 720l-92 -113c71 -71 107 -157 107 -257s-35 -185 -106 -256s-156 -106 -256 -106c-71 0 -137 20 -198 59l-54 -67h-95l92 113c-71 71 -107 157 -107 257s35 185 106 256s156 106 256 106c71 0 137 -20 198 -59l54 67h95zM120 350c0 -76 25 -141 76 -195l354 437
c-45 28 -94 42 -148 42c-79 0 -145 -28 -200 -83s-82 -122 -82 -201zM402 66c79 0 145 27 200 82s82 123 82 202c0 76 -25 141 -76 195l-354 -437c45 -28 94 -42 148 -42z" />
    <glyph glyph-name="product" unicode="&#x220f;" horiz-adv-x="640" 
d="M178 -200h-108v900h500v-900h-108v796h-284v-796z" />
    <glyph glyph-name="summation" unicode="&#x2211;" horiz-adv-x="555" 
d="M520 -200h-480v95l222 365l-207 344v96h450v-104h-323l202 -336l-216 -356h352v-104z" />
    <glyph glyph-name="minus" unicode="&#x2212;" horiz-adv-x="550" 
d="M495 299h-440v102h440v-102z" />
    <glyph glyph-name="radical" unicode="&#x221a;" horiz-adv-x="665" 
d="M381 0h-107l-127 211h-97v104h159l109 -188l226 673h111z" />
    <glyph glyph-name="infinity" unicode="&#x221e;" horiz-adv-x="805" 
d="M578 520c51 0 92 -16 125 -48c33 -31 50 -72 50 -122c0 -49 -17 -90 -50 -122s-74 -48 -125 -48c-59 0 -117 31 -175 93c-58 -62 -117 -93 -176 -93c-50 0 -92 16 -125 48s-49 73 -49 122c0 50 16 91 49 122c33 32 75 48 125 48c59 0 118 -31 176 -93
c58 62 116 93 175 93zM232 278c35 0 71 24 107 72c-36 49 -72 73 -107 73c-41 0 -72 -30 -72 -73c0 -41 31 -72 72 -72zM574 278c41 0 72 31 72 72c0 43 -31 73 -72 73c-35 0 -71 -24 -107 -73c36 -48 72 -72 107 -72z" />
    <glyph glyph-name="integral" unicode="&#x222b;" horiz-adv-x="441" 
d="M0 -203v107c53 -25 104 -3 113 60l100 588c23 133 108 181 228 150v-107c-59 24 -110 3 -119 -60l-100 -588c-23 -133 -109 -181 -222 -150z" />
    <glyph glyph-name="approxequal" unicode="&#x2248;" horiz-adv-x="577" 
d="M287 387c-101 52 -133 33 -162 -13l-75 28c35 125 120 160 241 97c92 -48 127 -40 146 28l90 -43c-31 -123 -119 -161 -240 -97zM140 174l-90 43c31 121 121 160 241 97c103 -50 131 -36 161 13l75 -28c-35 -127 -117 -160 -240 -97c-91 48 -129 39 -147 -28z" />
    <glyph glyph-name="notequal" unicode="&#x2260;" horiz-adv-x="530" 
d="M480 504v-102h-157l-46 -103h203v-102h-249l-61 -137h-70l61 137h-111v102h157l46 103h-203v102h249l61 136h70l-61 -136h111z" />
    <glyph glyph-name="lessequal" unicode="&#x2264;" horiz-adv-x="525" 
d="M50 472l425 163v-114l-299 -98l299 -98v-114l-425 163v98zM475 70h-425v102h425v-102z" />
    <glyph glyph-name="greaterequal" unicode="&#x2265;" horiz-adv-x="525" 
d="M50 521v114l425 -163v-98l-425 -163v114l299 98zM475 70h-425v102h425v-102z" />
    <glyph glyph-name="lozenge" unicode="&#x25ca;" horiz-adv-x="550" 
d="M319 0h-88l-186 350l186 350h88l186 -350zM162 350l113 -213l114 213l-114 213z" />
    <glyph glyph-name="i.loclTRK" horiz-adv-x="233" 
d="M47 628c0 37 31 70 70 70s70 -31 70 -70s-31 -70 -70 -70s-70 31 -70 70zM171 0h-108v500h108v-500z" />
    <glyph glyph-name="f_f_j" horiz-adv-x="818" 
d="M482 500h274v-520c0 -139 -68 -203 -205 -193v104c67 -7 97 20 97 89v416h-166v-396h-108v396h-167v-396h-108v396h-76v104h76v10c0 137 78 212 226 203v-104c-79 7 -118 -26 -118 -99v-10h167v20c0 135 75 203 226 203c35 0 72 -4 111 -13v-99c-35 5 -72 8 -111 8
c-80 0 -118 -26 -118 -99v-20z" />
    <glyph glyph-name="f_j" horiz-adv-x="543" 
d="M207 500h274v-520c0 -139 -68 -203 -205 -193v104c67 -7 97 20 97 89v416h-166v-396h-108v396h-76v104h76v10c0 135 75 203 226 203c35 0 72 -4 111 -13v-99c-35 5 -72 8 -111 8c-80 0 -118 -26 -118 -99v-10z" />
    <glyph glyph-name="uni0414.loclBGR" horiz-adv-x="720" 
d="M429 700l196 -590h75v-244h-115v134h-450v-134h-115v244h75l196 590h138zM360 567l-144 -457h289z" />
    <glyph glyph-name="uni041B.loclBGR" horiz-adv-x="634" 
d="M5 0l243 700h138l243 -700h-125l-187 561l-186 -561h-126z" />
    <glyph glyph-name="uni0424.loclBGR" horiz-adv-x="854" 
d="M482 -9v-91h-110v91c-102 10 -184 47 -245 112s-92 147 -92 247s31 182 92 247s143 102 245 112v91h110v-91c102 -10 184 -47 245 -112s92 -147 92 -247s-31 -182 -92 -247s-143 -102 -245 -112zM372 96v508c-143 -19 -222 -110 -222 -254s79 -235 222 -254zM482 604
v-508c143 19 222 110 222 254s-79 235 -222 254z" />
    <glyph glyph-name="uni0414.ss01" horiz-adv-x="700" 
d="M595 700v-590h75v-110h-655v110h65c41 53 61 134 61 241v349h454zM206 110h274v482h-224v-243c0 -104 -17 -184 -50 -239z" />
    <glyph glyph-name="uni0426.ss01" horiz-adv-x="690" 
d="M585 700v-590h75v-110h-590v700h115v-590h285v590h115z" />
    <glyph glyph-name="uni0429.ss01" horiz-adv-x="980" 
d="M875 700v-590h75v-110h-880v700h115v-590h230v590h115v-590h230v590h115z" />
    <glyph glyph-name="uni0414.loclBGR.ss01" horiz-adv-x="720" 
d="M429 700l196 -590h75v-110h-680v110h75l196 590h138zM360 567l-144 -457h289z" />
    <glyph glyph-name="uni0432.loclBGR" horiz-adv-x="568" 
d="M413 406c76 -29 120 -98 120 -197c0 -139 -87 -222 -235 -222c-145 0 -235 94 -235 242v237c0 75 20 135 60 180c41 45 95 67 164 67c115 0 191 -68 191 -172c0 -47 -22 -92 -65 -135zM287 611c-72 0 -116 -57 -116 -145v-66l66 14c25 5 48 8 68 8c45 35 67 72 67 109
c0 48 -32 80 -85 80zM298 91c80 0 127 43 127 118c0 89 -75 130 -188 106l-66 -14v-72c0 -85 48 -138 127 -138z" />
    <glyph glyph-name="uni0433.loclBGR" horiz-adv-x="461" 
d="M343 160l93 -53c-33 -75 -105 -120 -204 -120c-56 0 -102 14 -139 41s-55 65 -55 113c-2 107 96 139 171 156c52 15 93 32 93 65s-32 53 -71 53c-47 0 -79 -20 -96 -59l-92 50c36 68 104 107 188 107c51 0 93 -14 128 -42s53 -65 53 -111c0 -67 -41 -110 -93 -129
c-76 -27 -171 -36 -171 -88c0 -37 35 -57 84 -57c55 0 95 29 111 74z" />
    <glyph glyph-name="uni0434.loclBGR" 
d="M461 426v74h106v-477c0 -76 -25 -134 -75 -175s-111 -61 -182 -61c-115 0 -194 40 -237 121l93 54c26 -51 75 -77 146 -77c93 0 149 51 149 138v61c-41 -58 -99 -87 -174 -87c-71 0 -130 25 -179 75c-49 51 -73 112 -73 183s24 132 73 182c49 51 108 76 179 76
c75 0 133 -29 174 -87zM188 143c31 -30 69 -45 114 -45s83 15 113 45c31 30 46 67 46 112s-15 82 -46 112c-30 30 -68 45 -113 45s-83 -15 -114 -45c-30 -30 -45 -67 -45 -112s15 -82 45 -112z" />
    <glyph glyph-name="uni0436.loclBGR" horiz-adv-x="722" 
d="M512 255l195 -255h-123l-170 229v-229h-106v229l-170 -229h-123l195 255l-185 245h123l160 -218v418h106v-418l160 218h123z" />
    <glyph glyph-name="uni0438.loclBGR" horiz-adv-x="571" 
d="M400 232v268h108v-500h-108v64c-33 -51 -84 -77 -155 -77c-115 0 -192 78 -192 206v307h108v-296c0 -75 43 -116 112 -116c76 0 127 47 127 144z" />
    <glyph glyph-name="uni0439.loclBGR" horiz-adv-x="571" 
d="M140 664h280v-94h-280v94zM400 232v268h108v-500h-108v64c-33 -51 -84 -77 -155 -77c-115 0 -192 78 -192 206v307h108v-296c0 -75 43 -116 112 -116c76 0 127 47 127 144z" />
    <glyph glyph-name="uni043A.loclBGR" horiz-adv-x="515" 
d="M277 255l228 -255h-129l-205 231v-231h-108v700h108v-421l194 221h132z" />
    <glyph glyph-name="uni043B.loclBGR" horiz-adv-x="525" 
d="M325 500l195 -500h-118l-139 380l-140 -380h-118l195 500h125z" />
    <glyph glyph-name="uni043F.loclBGR" horiz-adv-x="571" 
d="M326 513c115 0 192 -78 192 -206v-307h-108v296c0 75 -43 116 -112 116c-76 0 -127 -47 -127 -144v-268h-108v500h108v-64c33 51 84 77 155 77z" />
    <glyph glyph-name="uni0442.loclBGR" horiz-adv-x="851" 
d="M609 513c113 0 189 -79 189 -203v-310h-108v303c0 69 -37 109 -97 109c-67 0 -109 -44 -109 -132v-280h-108v303c0 69 -34 109 -94 109c-65 0 -111 -45 -111 -132v-280h-108v500h108v-60c32 49 80 73 143 73c64 0 111 -26 142 -79c33 53 84 79 153 79z" />
    <glyph glyph-name="uni0446.loclBGR" horiz-adv-x="609" 
d="M542 102h42v-236h-106v141c-33 10 -55 31 -68 62c-36 -55 -91 -82 -165 -82c-115 0 -192 78 -192 206v307h108v-296c0 -73 43 -116 112 -116c76 0 127 48 127 145v267h108v-365c0 -20 13 -33 34 -33z" />
    <glyph glyph-name="uni0448.loclBGR" horiz-adv-x="851" 
d="M680 220v280h108v-500h-108v60c-32 -49 -80 -73 -143 -73c-64 0 -111 26 -142 79c-33 -53 -84 -79 -153 -79c-113 0 -189 79 -189 203v310h108v-303c0 -69 37 -109 97 -109c67 0 109 44 109 132v280h108v-303c0 -69 34 -109 94 -109c65 0 111 45 111 132z" />
    <glyph glyph-name="uni0449.loclBGR" horiz-adv-x="889" 
d="M822 102h42v-236h-106v141c-31 9 -53 28 -66 57c-33 -51 -83 -77 -150 -77s-116 26 -147 79c-34 -53 -85 -79 -153 -79c-113 0 -189 80 -189 204v309h108v-303c0 -68 37 -109 97 -109c67 0 109 44 109 133v279h108v-303c0 -69 35 -109 94 -109c65 0 111 45 111 133v279
h108v-365c0 -20 13 -33 34 -33z" />
    <glyph glyph-name="uni044C.loclBGR" horiz-adv-x="488" 
d="M159 353h104c128 0 200 -65 200 -178c0 -53 -19 -98 -57 -134s-87 -54 -148 -54c-127 0 -205 77 -205 193v320h106v-147zM258 89c57 0 99 42 99 87c0 49 -34 80 -94 80h-104v-76c0 -51 39 -91 99 -91z" />
    <glyph glyph-name="uni044A.loclBGR" horiz-adv-x="574" 
d="M244 353h104c128 0 200 -65 200 -178c0 -53 -19 -98 -57 -134s-87 -54 -148 -54c-127 0 -205 77 -205 193v218h-138v102h244v-147zM343 89c57 0 99 42 99 87c0 49 -34 80 -94 80h-104v-76c0 -51 39 -91 99 -91z" />
    <glyph glyph-name="uni044E.loclBGR" horiz-adv-x="808" 
d="M509 513c73 0 136 -25 187 -76s77 -113 77 -187s-26 -136 -77 -187s-114 -76 -187 -76c-65 0 -121 20 -168 59c-47 40 -76 91 -87 153h-83v-199h-108v700h108v-399h83c11 62 40 113 87 152c47 40 103 60 168 60zM398 137c30 -30 67 -45 111 -45s81 15 111 45
s45 68 45 113s-15 83 -45 113s-67 45 -111 45s-81 -15 -111 -45s-45 -68 -45 -113s15 -83 45 -113z" />
    <glyph glyph-name="zero.sinf" horiz-adv-x="409" 
d="M336 -115c-32 -39 -76 -58 -131 -58s-99 19 -132 58c-32 38 -48 90 -48 155s16 117 48 155c33 39 77 58 132 58s99 -19 131 -58c32 -38 48 -90 48 -155s-16 -117 -48 -155zM205 -82c53 0 85 43 85 122s-32 122 -85 122c-55 0 -86 -43 -86 -122s31 -122 86 -122z" />
    <glyph glyph-name="one.sinf" horiz-adv-x="257" 
d="M5 197l119 43h80v-400h-92v306l-85 -25z" />
    <glyph glyph-name="two.sinf" horiz-adv-x="347" 
d="M319 -160h-293v64l157 151c25 23 37 46 37 69c0 27 -20 44 -52 44s-55 -18 -70 -54l-75 42c25 60 75 97 146 97c84 0 143 -52 143 -124c0 -43 -22 -86 -66 -128l-82 -76h155v-85z" />
    <glyph glyph-name="three.sinf" horiz-adv-x="346" 
d="M301 168l-78 -93c61 -15 96 -57 96 -116c0 -83 -59 -132 -152 -132c-75 0 -125 29 -152 87l78 45c13 -33 38 -50 74 -50c79 -8 78 108 -3 100h-14l-36 55l75 91h-158v85h270v-72z" />
    <glyph glyph-name="four.sinf" horiz-adv-x="356" 
d="M295 -8h44v-84h-44v-68h-89v68h-193v84l135 248h99l-132 -248h91v79h89v-79z" />
    <glyph glyph-name="five.sinf" horiz-adv-x="334" 
d="M130 90h42c85 0 142 -48 142 -133c0 -83 -58 -130 -146 -130c-74 0 -124 29 -150 87l76 43c14 -33 38 -49 72 -49c40 0 61 19 61 50c0 35 -20 53 -61 53h-126l16 229h239v-84h-161z" />
    <glyph glyph-name="six.sinf" horiz-adv-x="339" 
d="M261 240l-86 -130c87 -3 146 -62 146 -142c0 -81 -63 -141 -152 -141c-44 0 -80 13 -109 40c-28 27 -42 60 -42 101c0 27 6 51 19 73l126 199h98zM169 -93c40 0 65 24 65 61s-25 61 -65 61c-39 0 -64 -24 -64 -61s25 -61 64 -61z" />
    <glyph glyph-name="seven.sinf" horiz-adv-x="296" 
d="M5 155v85h273v-71l-133 -329h-96l130 315h-174z" />
    <glyph glyph-name="eight.sinf" horiz-adv-x="345" 
d="M262 50c41 -23 61 -57 61 -102c0 -75 -58 -121 -150 -121c-93 0 -151 46 -151 121c0 45 20 79 61 102c-31 21 -47 49 -47 85c0 73 57 118 137 118c79 0 136 -45 136 -118c0 -36 -16 -64 -47 -85zM173 174c-37 0 -55 -15 -55 -45s18 -45 55 -45c71 -7 71 97 0 90zM173 -92
c39 0 62 20 62 52s-25 52 -62 52c-83 8 -83 -112 0 -104z" />
    <glyph glyph-name="nine.sinf" horiz-adv-x="339" 
d="M321 112c0 -31 -8 -58 -25 -81l-120 -191h-98l86 130c-87 3 -146 62 -146 142c0 81 63 141 152 141c44 0 80 -13 108 -40c29 -27 43 -60 43 -101zM170 51c39 0 64 24 64 61s-25 61 -64 61c-40 0 -65 -24 -65 -61s25 -61 65 -61z" />
    <glyph glyph-name="zero.tf" horiz-adv-x="575" 
d="M490 86c-48 -66 -115 -99 -202 -99s-154 33 -203 99c-48 66 -72 154 -72 264s24 198 72 264c49 66 116 99 203 99s154 -33 202 -99c49 -66 73 -154 73 -264s-24 -198 -73 -264zM288 99c103 0 160 90 160 251s-57 251 -160 251c-104 0 -160 -90 -160 -251
s56 -251 160 -251z" />
    <glyph glyph-name="one.tf" horiz-adv-x="575" 
d="M358 700v-590h195v-110h-520v110h210v467l-141 -40l-28 98l184 65h100z" />
    <glyph glyph-name="two.tf" horiz-adv-x="575" 
d="M535 0h-497v90l254 226c76 67 116 115 116 170c0 68 -46 115 -125 115c-64 0 -112 -33 -145 -99l-96 56c47 100 135 155 242 155c69 0 126 -21 171 -62s68 -95 68 -160c0 -89 -52 -161 -152 -248l-155 -132h319v-111z" />
    <glyph glyph-name="three.tf" horiz-adv-x="575" 
d="M511 602l-150 -182c111 -24 182 -97 182 -206c0 -71 -24 -126 -73 -167c-49 -40 -110 -60 -185 -60c-125 0 -222 58 -262 162l99 57c20 -67 78 -107 158 -107c93 0 148 43 148 115c0 73 -55 115 -148 115h-25l-47 70l160 193h-322v108h465v-98z" />
    <glyph glyph-name="four.tf" horiz-adv-x="575" 
d="M478 233h80v-107h-80v-126h-116v126h-349v107l241 467h124l-241 -467h225v172h116v-172z" />
    <glyph glyph-name="five.tf" horiz-adv-x="575" 
d="M188 436h105c73 0 132 -20 179 -59s71 -94 71 -165s-24 -126 -73 -166c-48 -39 -108 -59 -180 -59c-125 0 -222 58 -262 162l99 57c20 -67 78 -107 161 -107c88 0 140 42 140 113s-52 112 -140 112h-220l27 376h418v-108h-313z" />
    <glyph glyph-name="six.tf" horiz-adv-x="575" 
d="M265 470h18c81 0 145 -22 193 -67c48 -44 72 -102 72 -174c0 -73 -24 -131 -72 -176c-48 -44 -112 -66 -193 -66s-145 22 -193 66c-48 45 -72 103 -72 176c0 55 15 103 44 144l235 327h133zM433 229c0 81 -57 132 -150 132s-150 -49 -150 -132s57 -133 150 -133
s150 50 150 133z" />
    <glyph glyph-name="seven.tf" horiz-adv-x="575" 
d="M30 590v110h510v-100l-271 -600h-121l265 590h-383z" />
    <glyph glyph-name="eight.tf" horiz-adv-x="575" 
d="M444 363c71 -38 107 -94 107 -169c0 -128 -102 -207 -263 -207c-163 0 -264 79 -264 207c0 76 36 132 108 169c-56 36 -84 86 -84 149c0 64 23 113 68 148s103 53 172 53s126 -18 171 -53s68 -84 68 -148c0 -63 -28 -113 -83 -149zM288 604c-79 0 -125 -34 -125 -97
c0 -60 48 -97 125 -97c76 0 124 37 124 97c0 63 -47 97 -124 97zM177 124c26 -19 63 -28 111 -28s85 9 110 28s38 46 38 81s-13 61 -38 80s-62 29 -110 29s-85 -10 -111 -29c-25 -19 -38 -45 -38 -80s13 -62 38 -81z" />
    <glyph glyph-name="nine.tf" horiz-adv-x="575" 
d="M558 472c0 -60 -17 -111 -51 -153l-228 -319h-134l165 230h-17c-81 0 -145 22 -193 66c-48 45 -72 103 -72 176c0 72 24 130 72 174c48 45 112 67 193 67s145 -22 193 -67c48 -44 72 -102 72 -174zM183 569c-27 -23 -40 -56 -40 -97s13 -74 40 -98c27 -23 63 -35 110 -35
s83 12 110 35c27 24 40 57 40 98s-13 74 -40 97s-63 35 -110 35s-83 -12 -110 -35z" />
    <glyph glyph-name="zero.dnom" horiz-adv-x="409" 
d="M336 44c-32 -38 -76 -57 -131 -57s-99 19 -132 57c-32 39 -48 91 -48 156s16 117 48 155c33 39 77 58 132 58s99 -19 131 -58c32 -38 48 -90 48 -155s-16 -117 -48 -156zM205 78c53 0 85 43 85 122s-32 122 -85 122c-55 0 -86 -43 -86 -122s31 -122 86 -122z" />
    <glyph glyph-name="one.dnom" horiz-adv-x="261" 
d="M5 357l119 43h80v-400h-92v306l-85 -25z" />
    <glyph glyph-name="two.dnom" horiz-adv-x="351" 
d="M319 0h-293v64l157 151c25 23 37 46 37 69c0 27 -20 44 -52 44s-55 -18 -70 -54l-75 42c25 60 75 97 146 97c84 0 143 -52 143 -124c0 -43 -22 -86 -66 -128l-82 -76h155v-85z" />
    <glyph glyph-name="three.dnom" horiz-adv-x="349" 
d="M301 328l-78 -93c61 -15 96 -57 96 -116c0 -83 -59 -132 -152 -132c-75 0 -125 29 -152 87l78 45c13 -33 38 -50 74 -50c79 -8 78 108 -3 100h-14l-36 55l75 91h-158v85h270v-72z" />
    <glyph glyph-name="four.dnom" horiz-adv-x="356" 
d="M295 152h44v-84h-44v-68h-89v68h-193v84l135 248h99l-132 -248h91v79h89v-79z" />
    <glyph glyph-name="five.dnom" horiz-adv-x="337" 
d="M127 250h42c85 0 142 -48 142 -133c0 -83 -58 -130 -146 -130c-74 0 -124 29 -150 87l76 43c14 -33 38 -49 72 -49c40 0 61 19 61 50c0 35 -20 53 -61 53h-126l16 229h239v-84h-161z" />
    <glyph glyph-name="six.dnom" horiz-adv-x="339" 
d="M261 400l-86 -130c87 -3 146 -62 146 -142c0 -81 -63 -141 -152 -141c-44 0 -80 13 -109 40c-28 27 -42 60 -42 101c0 27 6 51 19 73l126 199h98zM169 67c40 0 65 24 65 61s-25 61 -65 61c-39 0 -64 -24 -64 -61s25 -61 64 -61z" />
    <glyph glyph-name="seven.dnom" horiz-adv-x="296" 
d="M5 315v85h273v-71l-133 -329h-96l130 315h-174z" />
    <glyph glyph-name="eight.dnom" horiz-adv-x="345" 
d="M262 210c41 -23 61 -57 61 -102c0 -75 -58 -121 -150 -121c-93 0 -151 46 -151 121c0 45 20 79 61 102c-31 21 -47 49 -47 85c0 73 57 118 137 118c79 0 136 -45 136 -118c0 -36 -16 -64 -47 -85zM173 334c-37 0 -55 -15 -55 -45s18 -45 55 -45c71 -7 71 97 0 90zM173 68
c39 0 62 20 62 52s-25 52 -62 52c-83 8 -83 -112 0 -104z" />
    <glyph glyph-name="nine.dnom" horiz-adv-x="339" 
d="M321 272c0 -31 -8 -58 -25 -81l-120 -191h-98l86 130c-87 3 -146 62 -146 142c0 81 63 141 152 141c44 0 80 -13 108 -40c29 -27 43 -60 43 -101zM170 211c39 0 64 24 64 61s-25 61 -64 61c-40 0 -65 -24 -65 -61s25 -61 65 -61z" />
    <glyph glyph-name="zero.numr" horiz-adv-x="409" 
d="M336 344c-32 -38 -76 -57 -131 -57s-99 19 -132 57c-32 39 -48 91 -48 156s16 117 48 155c33 39 77 58 132 58s99 -19 131 -58c32 -38 48 -90 48 -155s-16 -117 -48 -156zM205 378c53 0 85 43 85 122s-32 122 -85 122c-55 0 -86 -43 -86 -122s31 -122 86 -122z" />
    <glyph glyph-name="one.numr" horiz-adv-x="261" 
d="M5 657l119 43h80v-400h-92v306l-85 -25z" />
    <glyph glyph-name="two.numr" horiz-adv-x="351" 
d="M319 300h-293v64l157 151c25 23 37 46 37 69c0 27 -20 44 -52 44s-55 -18 -70 -54l-75 42c25 60 75 97 146 97c84 0 143 -52 143 -124c0 -43 -22 -86 -66 -128l-82 -76h155v-85z" />
    <glyph glyph-name="three.numr" horiz-adv-x="349" 
d="M301 628l-78 -93c61 -15 96 -57 96 -116c0 -83 -59 -132 -152 -132c-75 0 -125 29 -152 87l78 45c13 -33 38 -50 74 -50c79 -8 78 108 -3 100h-14l-36 55l75 91h-158v85h270v-72z" />
    <glyph glyph-name="four.numr" horiz-adv-x="356" 
d="M295 452h44v-84h-44v-68h-89v68h-193v84l135 248h99l-132 -248h91v79h89v-79z" />
    <glyph glyph-name="five.numr" horiz-adv-x="337" 
d="M127 550h42c85 0 142 -48 142 -133c0 -83 -58 -130 -146 -130c-74 0 -124 29 -150 87l76 43c14 -33 38 -49 72 -49c40 0 61 19 61 50c0 35 -20 53 -61 53h-126l16 229h239v-84h-161z" />
    <glyph glyph-name="six.numr" horiz-adv-x="339" 
d="M261 700l-86 -130c87 -3 146 -62 146 -142c0 -81 -63 -141 -152 -141c-44 0 -80 13 -109 40c-28 27 -42 60 -42 101c0 27 6 51 19 73l126 199h98zM169 367c40 0 65 24 65 61s-25 61 -65 61c-39 0 -64 -24 -64 -61s25 -61 64 -61z" />
    <glyph glyph-name="seven.numr" horiz-adv-x="296" 
d="M5 615v85h273v-71l-133 -329h-96l130 315h-174z" />
    <glyph glyph-name="eight.numr" horiz-adv-x="345" 
d="M262 510c41 -23 61 -57 61 -102c0 -75 -58 -121 -150 -121c-93 0 -151 46 -151 121c0 45 20 79 61 102c-31 21 -47 49 -47 85c0 73 57 118 137 118c79 0 136 -45 136 -118c0 -36 -16 -64 -47 -85zM173 634c-37 0 -55 -15 -55 -45s18 -45 55 -45c71 -7 71 97 0 90z
M173 368c39 0 62 20 62 52s-25 52 -62 52c-83 8 -83 -112 0 -104z" />
    <glyph glyph-name="nine.numr" horiz-adv-x="339" 
d="M321 572c0 -31 -8 -58 -25 -81l-120 -191h-98l86 130c-87 3 -146 62 -146 142c0 81 63 141 152 141c44 0 80 -13 108 -40c29 -27 43 -60 43 -101zM170 511c39 0 64 24 64 61s-25 61 -64 61c-40 0 -65 -24 -65 -61s25 -61 65 -61z" />
    <glyph glyph-name="zero.sups" horiz-adv-x="409" 
d="M336 504c-32 -38 -76 -57 -131 -57s-99 19 -132 57c-32 39 -48 91 -48 156s16 117 48 155c33 39 77 58 132 58s99 -19 131 -58c32 -38 48 -90 48 -155s-16 -117 -48 -156zM205 538c53 0 85 43 85 122s-32 122 -85 122c-55 0 -86 -43 -86 -122s31 -122 86 -122z" />
    <glyph glyph-name="one.sups" horiz-adv-x="261" 
d="M5 817l119 43h80v-400h-92v306l-85 -25z" />
    <glyph glyph-name="two.sups" horiz-adv-x="351" 
d="M319 460h-293v64l157 151c25 23 37 46 37 69c0 27 -20 44 -52 44s-55 -18 -70 -54l-75 42c25 60 75 97 146 97c84 0 143 -52 143 -124c0 -43 -22 -86 -66 -128l-82 -76h155v-85z" />
    <glyph glyph-name="three.sups" horiz-adv-x="349" 
d="M301 788l-78 -93c61 -15 96 -57 96 -116c0 -83 -59 -132 -152 -132c-75 0 -125 29 -152 87l78 45c13 -33 38 -50 74 -50c79 -8 78 108 -3 100h-14l-36 55l75 91h-158v85h270v-72z" />
    <glyph glyph-name="four.sups" horiz-adv-x="356" 
d="M295 612h44v-84h-44v-68h-89v68h-193v84l135 248h99l-132 -248h91v79h89v-79z" />
    <glyph glyph-name="five.sups" horiz-adv-x="337" 
d="M127 710h42c85 0 142 -48 142 -133c0 -83 -58 -130 -146 -130c-74 0 -124 29 -150 87l76 43c14 -33 38 -49 72 -49c40 0 61 19 61 50c0 35 -20 53 -61 53h-126l16 229h239v-84h-161z" />
    <glyph glyph-name="six.sups" horiz-adv-x="339" 
d="M261 860l-86 -130c87 -3 146 -62 146 -142c0 -81 -63 -141 -152 -141c-44 0 -80 13 -109 40c-28 27 -42 60 -42 101c0 27 6 51 19 73l126 199h98zM169 527c40 0 65 24 65 61s-25 61 -65 61c-39 0 -64 -24 -64 -61s25 -61 64 -61z" />
    <glyph glyph-name="seven.sups" horiz-adv-x="296" 
d="M5 775v85h273v-71l-133 -329h-96l130 315h-174z" />
    <glyph glyph-name="eight.sups" horiz-adv-x="345" 
d="M262 670c41 -23 61 -57 61 -102c0 -75 -58 -121 -150 -121c-93 0 -151 46 -151 121c0 45 20 79 61 102c-31 21 -47 49 -47 85c0 73 57 118 137 118c79 0 136 -45 136 -118c0 -36 -16 -64 -47 -85zM173 794c-37 0 -55 -15 -55 -45s18 -45 55 -45c71 -7 71 97 0 90z
M173 528c39 0 62 20 62 52s-25 52 -62 52c-83 8 -83 -112 0 -104z" />
    <glyph glyph-name="nine.sups" horiz-adv-x="339" 
d="M321 732c0 -31 -8 -58 -25 -81l-120 -191h-98l86 130c-87 3 -146 62 -146 142c0 81 63 141 152 141c44 0 80 -13 108 -40c29 -27 43 -60 43 -101zM170 671c39 0 64 24 64 61s-25 61 -64 61c-40 0 -65 -24 -65 -61s25 -61 65 -61z" />
    <glyph glyph-name="cent.tf" horiz-adv-x="575" 
d="M447 270l93 -53c-43 -80 -128 -130 -225 -130c-23 0 -45 2 -64 7l-30 -94h-55l36 111c-92 41 -151 132 -151 239c0 75 25 137 75 187c51 51 114 76 189 76c18 0 34 -1 48 -4l29 91h55l-34 -105c57 -23 98 -60 125 -111l-93 -54c-13 29 -35 50 -65 63l-96 -297
c10 -2 20 -3 30 -3c59 0 109 30 133 77zM159 350c0 -59 29 -109 76 -136l94 292c-3 1 -8 1 -15 1c-44 0 -81 -15 -111 -45c-29 -30 -44 -67 -44 -112z" />
    <glyph glyph-name="dollar.tf" horiz-adv-x="575" 
d="M545 191c0 -115 -82 -190 -209 -202v-89h-65v88c-120 8 -204 67 -241 164l99 57c25 -67 72 -104 142 -111v208c-65 23 -99 37 -144 69c-44 32 -65 79 -65 142c0 57 20 103 59 137c39 35 89 54 150 58v88h65v-89c95 -12 159 -60 194 -145l-97 -56c-18 49 -50 79 -97 90
v-200c52 -17 80 -28 120 -52c58 -34 85 -78 89 -157zM177 518c0 -43 26 -67 94 -95v180c-61 -7 -94 -38 -94 -85zM336 283v-184c63 9 94 38 94 88c0 45 -26 68 -94 96z" />
    <glyph glyph-name="Euro.tf" horiz-adv-x="575" 
d="M459 196l95 -54c-35 -97 -112 -155 -211 -155c-140 0 -230 104 -254 273h-66v71h60v19c0 12 0 21 1 27h-61v71h67c25 164 117 265 253 265c95 0 171 -54 206 -145l-96 -55c-17 56 -59 88 -110 88c-74 0 -120 -51 -137 -153h196v-71h-203c-1 -6 -1 -15 -1 -27v-19h204v-71
h-198c17 -107 64 -161 139 -161c52 0 96 36 116 97z" />
    <glyph glyph-name="florin.tf" horiz-adv-x="575" 
d="M550 704v-107c-68 23 -115 1 -131 -60l-35 -133h131v-104h-158l-93 -351c-35 -133 -122 -181 -239 -150v107c68 -23 115 -1 131 60l88 334h-129v104h156l40 150c35 133 122 181 239 150z" />
    <glyph glyph-name="uni20BD.tf" horiz-adv-x="575" 
d="M323 255h-118v-67h210v-78h-210v-110h-115v110h-80v78h80v67h-80v103h80v342h233c63 0 117 -22 161 -66c44 -43 66 -96 66 -159c0 -62 -22 -114 -66 -157c-44 -42 -98 -63 -161 -63zM323 592h-118v-234h118c31 0 58 11 79 34c22 23 33 50 33 83s-11 60 -33 83
c-21 23 -48 34 -79 34z" />
    <glyph glyph-name="sterling.tf" horiz-adv-x="575" 
d="M225 279v-168h340v-111h-535v111h80v168h-65v101h65v118c0 69 21 122 64 159s93 56 151 56c99 0 173 -52 209 -141l-98 -56c-19 57 -55 85 -108 85c-59 0 -103 -36 -103 -107v-114h218v-101h-218z" />
    <glyph glyph-name="yen.tf" horiz-adv-x="575" 
d="M442 700h130l-203 -343h144v-73h-168v-50h168v-73h-168v-161h-115v161h-167v73h167v50h-167v73h144l-203 343h130l154 -273z" />
    <glyph glyph-name="brevecy" horiz-adv-x="340" 
d="M310 570h-280v94h280v-94z" />
    </font>
</defs>
</svg>
