<?xml version="1.0" standalone="no"?>
<!DOCTYPE svg PUBLIC "-//W3C//DTD SVG 1.1//EN" "http://www.w3.org/Graphics/SVG/1.1/DTD/svg11.dtd" >
<svg xmlns="http://www.w3.org/2000/svg" xmlns:xlink="http://www.w3.org/1999/xlink" version="1.1">
<metadata>
Created by FontForge 20170924 at Thu Jul 21 23:22:16 2016
 By www-data
Copyright \251 2016 by Radomir Tinkov. All rights reserved.
</metadata>
<defs>
<font id="Gilroy-Thin" horiz-adv-x="570" >
  <font-face 
    font-family="Gilroy"
    font-weight="250"
    font-stretch="normal"
    units-per-em="1000"
    panose-1="0 0 3 0 0 0 0 0 0 0"
    ascent="777"
    descent="-223"
    x-height="500"
    cap-height="700"
    bbox="-280 -240 1049 960"
    underline-thickness="50"
    underline-position="-100"
    unicode-range="U+0020-FB02"
  />
<missing-glyph horiz-adv-x="500" 
d="M93 800h317v-1000h-317v1000zM333 700v33h-165v-33h65v-37h-66v-33h166v33h-66v37h66zM267 534v70h-100v-104h166v34h-66zM200 570h33v-36h-33v36zM333 440v33h-166v-33h66v-37h-66v-33h100v70h66zM333 313v100h-33v-66h-133v-34h166zM333 178v113h-100v-56h34v23h33v-47
h-100v80h-33v-113h166zM333 5v113h-166v-113h166zM200 85h100v-47h-100v47zM333 -51v33h-166v-33h70l-70 -47v-33h166v33h-102l70 47h32z" />
    <glyph glyph-name="fi" unicode="fi" horiz-adv-x="499" 
d="M140 500h269v-500h-20v482h-249v-482h-20v482h-90v18h90v40c0 113 60 170 179 170c35 0 68 -3 100 -10v-18c-32 7 -65 10 -100 10c-111 0 -159 -49 -159 -152v-40z" />
    <glyph glyph-name="fl" unicode="fl" horiz-adv-x="499" 
d="M299 710c35 0 71 -3 110 -10v-700h-20v685c-24 5 -54 7 -90 7c-111 0 -159 -49 -159 -152v-40h129v-18h-129v-482h-20v482h-90v18h90v40c0 113 60 170 179 170z" />
    <glyph glyph-name="f_f" unicode="ff" horiz-adv-x="568" 
d="M568 720v-18c-106 9 -159 -42 -159 -152v-50h159v-18h-159v-482h-20v482h-249v-482h-20v482h-90v18h90v40c0 115 59 179 179 170v-18c-106 9 -159 -42 -159 -152v-40h249v50c0 115 59 179 179 170z" />
    <glyph glyph-name="f_f_i" unicode="ffi" horiz-adv-x="768" 
d="M409 500h269v-500h-20v482h-249v-482h-20v482h-249v-482h-20v482h-90v18h90v40c0 115 59 179 179 170v-18c-106 9 -159 -42 -159 -152v-40h249v50c0 113 60 170 179 170c35 0 68 -3 100 -10v-18c-32 7 -65 10 -100 10c-111 0 -159 -49 -159 -152v-50z" />
    <glyph glyph-name="f_f_l" unicode="ffl" horiz-adv-x="768" 
d="M568 720c35 0 71 -3 110 -10v-710h-20v695c-24 5 -54 7 -90 7c-111 0 -159 -49 -159 -152v-50h129v-18h-129v-482h-20v482h-249v-482h-20v482h-90v18h90v40c0 115 59 179 179 170v-18c-106 9 -159 -42 -159 -152v-40h249v50c0 113 60 170 179 170z" />
    <glyph glyph-name=".notdef" horiz-adv-x="500" 
d="M93 800h317v-1000h-317v1000zM333 700v33h-165v-33h65v-37h-66v-33h166v33h-66v37h66zM267 534v70h-100v-104h166v34h-66zM200 570h33v-36h-33v36zM333 440v33h-166v-33h66v-37h-66v-33h100v70h66zM333 313v100h-33v-66h-133v-34h166zM333 178v113h-100v-56h34v23h33v-47
h-100v80h-33v-113h166zM333 5v113h-166v-113h166zM200 85h100v-47h-100v47zM333 -51v33h-166v-33h70l-70 -47v-33h166v33h-102l70 47h32z" />
    <glyph glyph-name="NULL" horiz-adv-x="0" 
 />
    <glyph glyph-name="CR" horiz-adv-x="333" 
 />
    <glyph glyph-name="space" unicode=" " horiz-adv-x="300" 
 />
    <glyph glyph-name="exclam" unicode="!" horiz-adv-x="200" 
d="M110 160h-20v540h20v-540zM117 -3c-22 -22 -58 13 -35 36c22 24 60 -13 35 -36z" />
    <glyph glyph-name="quotedbl" unicode="&#x22;" horiz-adv-x="260" 
d="M80 540h-20v160h20v-160zM200 540h-20v160h20v-160z" />
    <glyph glyph-name="numbersign" unicode="#" horiz-adv-x="612" 
d="M562 450l-3 -20h-120l-26 -160h120l-4 -20h-120l-33 -200h-20l33 200h-200l-33 -200h-20l33 200h-119l3 20h120l26 160h-120l3 20h121l33 200h20l-33 -200h200l33 200h20l-33 -200h119zM193 270h200l26 160h-200z" />
    <glyph glyph-name="dollar" unicode="$" horiz-adv-x="550" 
d="M500 172c0 -103 -77 -173 -201 -181v-91h-20v90h-3c-115 0 -201 50 -226 134l17 10c23 -81 102 -126 209 -126h3v339c-52 17 -75 25 -115 46c-56 31 -81 69 -86 141c0 49 19 91 57 125c39 34 87 51 144 51v90h20v-91c91 -5 152 -45 181 -120l-16 -9
c-26 68 -81 105 -165 111v-331c52 -19 78 -27 117 -50c53 -31 84 -69 84 -138zM98 534c0 -49 18 -86 59 -113c21 -13 39 -22 54 -29s38 -15 68 -26v326c-55 0 -99 -16 -132 -48c-33 -31 -49 -68 -49 -110zM299 340v-331c117 8 181 75 181 163s-61 128 -181 168z" />
    <glyph glyph-name="percent" unicode="%" horiz-adv-x="729" 
d="M223 414c-44 0 -81 14 -110 42c-29 29 -43 64 -43 106s14 77 43 105c29 29 66 43 110 43s80 -14 109 -43c29 -28 44 -63 44 -105s-14 -77 -43 -106c-29 -28 -65 -42 -110 -42zM223 432c77 0 133 55 133 130c0 37 -13 68 -38 93s-57 37 -95 37s-70 -12 -95 -37
s-38 -56 -38 -93s13 -68 38 -93s57 -37 95 -37zM129 71l-15 9l485 549l16 -9zM615 32c-29 -28 -65 -42 -109 -42s-81 14 -110 42c-29 29 -43 64 -43 106s14 77 43 105c29 29 66 43 110 43s80 -14 109 -43c29 -28 44 -63 44 -105s-15 -77 -44 -106zM411 45
c25 -25 57 -37 95 -37s70 12 95 37s38 56 38 93s-13 68 -38 93s-57 37 -95 37s-70 -12 -95 -37s-38 -56 -38 -93s13 -68 38 -93z" />
    <glyph glyph-name="ampersand" unicode="&#x26;" horiz-adv-x="651" 
d="M519 113l102 -103l-17 -10l-96 97c-52 -71 -124 -107 -216 -107c-139 0 -222 77 -222 196c0 91 56 168 148 207c-43 48 -65 96 -65 145c0 51 18 92 55 124s83 48 139 48c87 0 154 -44 181 -120l-16 -9c-24 68 -82 111 -165 111c-53 0 -96 -15 -127 -45
c-31 -29 -47 -66 -47 -111c0 -63 31 -102 100 -173l232 -235c26 41 43 91 51 151l17 -10c-9 -60 -27 -112 -54 -156zM291 8c87 0 154 35 203 104l-235 239c-13 13 -22 22 -27 28c-92 -36 -142 -110 -142 -194c0 -109 78 -177 201 -177z" />
    <glyph glyph-name="quotesingle" unicode="'" horiz-adv-x="130" 
d="M80 540h-20v160h20v-160z" />
    <glyph glyph-name="parenleft" unicode="(" horiz-adv-x="250" 
d="M190 -100h-20c-147 293 -147 607 0 900h20c-147 -293 -147 -607 0 -900z" />
    <glyph glyph-name="parenright" unicode=")" horiz-adv-x="250" 
d="M80 -100h-20c147 293 147 607 0 900h20c147 -293 147 -607 0 -900z" />
    <glyph glyph-name="asterisk" unicode="*" horiz-adv-x="376" 
d="M203 613l103 1v-18l-103 1l55 -87l-16 -10l-54 89l-54 -89l-16 10l55 87l-103 -1v18l103 -1l-55 87l16 10l54 -89l54 89l16 -10z" />
    <glyph glyph-name="plus" unicode="+" horiz-adv-x="520" 
d="M270 359h180v-18h-180v-181h-20v181h-180v18h180v181h20v-181z" />
    <glyph glyph-name="comma" unicode="," horiz-adv-x="190" 
d="M99 35h26l-42 -175h-18z" />
    <glyph glyph-name="hyphen" unicode="-" horiz-adv-x="560" 
d="M460 300h-360v18h360v-18z" />
    <glyph glyph-name="period" unicode="." horiz-adv-x="180" 
d="M107 -3c-22 -22 -58 13 -35 36c22 24 60 -13 35 -36z" />
    <glyph glyph-name="slash" unicode="/" horiz-adv-x="520" 
d="M470 800l-400 -900h-20l400 900h20z" />
    <glyph glyph-name="zero" unicode="0" horiz-adv-x="630" 
d="M502 88c-45 -65 -108 -98 -187 -98s-142 33 -187 98s-68 153 -68 262s23 197 68 262s108 98 187 98s142 -33 187 -98s68 -153 68 -262s-23 -197 -68 -262zM143 99c43 -61 100 -91 172 -91s129 30 171 91c43 61 64 145 64 251s-21 189 -64 250c-42 61 -99 92 -171 92
s-129 -31 -172 -92c-42 -61 -63 -144 -63 -250s21 -190 63 -251z" />
    <glyph glyph-name="one" unicode="1" horiz-adv-x="316" 
d="M20 638l181 62h15v-700h-20v679l-171 -58z" />
    <glyph glyph-name="two" unicode="2" horiz-adv-x="530" 
d="M480 0h-430v18l266 284c83 89 124 163 124 223c0 49 -16 89 -49 120s-76 47 -131 47c-91 0 -154 -40 -189 -120l-16 10c35 80 110 128 205 128c57 0 105 -17 143 -50s57 -78 57 -135c0 -64 -44 -143 -131 -236l-253 -271h404v-18z" />
    <glyph glyph-name="three" unicode="3" horiz-adv-x="557" 
d="M457 682l-178 -272c63 -3 115 -23 156 -62s62 -88 62 -148c0 -62 -22 -113 -65 -152s-96 -58 -160 -58c-103 0 -182 47 -217 123l16 10c31 -71 102 -115 201 -115c61 0 111 18 148 54c38 37 57 83 57 138s-19 101 -58 137c-38 37 -89 55 -152 55h-6l-8 12l182 278h-368
v18h390v-18z" />
    <glyph glyph-name="four" unicode="4" horiz-adv-x="560" 
d="M445 178h90v-18h-90v-160h-20v160h-390v18l276 522h22l-276 -522h368v232h20v-232z" />
    <glyph glyph-name="five" unicode="5" horiz-adv-x="543" 
d="M107 410h161c67 0 122 -20 165 -59s65 -89 65 -151s-22 -113 -65 -152s-98 -58 -165 -58c-99 0 -178 48 -213 125l16 10c31 -72 101 -117 197 -117c63 0 114 18 152 54c39 37 58 83 58 138s-19 101 -58 137c-38 37 -89 55 -152 55h-181l21 308h360v-18h-343z" />
    <glyph glyph-name="six" unicode="6" horiz-adv-x="550" 
d="M275 450c69 0 125 -22 169 -65s66 -98 66 -165s-22 -123 -66 -166s-100 -64 -169 -64s-125 21 -169 64s-66 99 -66 166c0 52 14 98 43 139l245 341h22l-202 -283c38 22 80 33 127 33zM118 68c39 -40 91 -60 157 -60s118 20 157 60c39 41 58 91 58 152s-19 111 -58 151
c-39 41 -91 61 -157 61s-118 -20 -157 -61c-39 -40 -58 -90 -58 -151s19 -111 58 -152z" />
    <glyph glyph-name="seven" unicode="7" horiz-adv-x="490" 
d="M30 682v18h410v-18l-287 -682h-20l288 682h-391z" />
    <glyph glyph-name="eight" unicode="8" horiz-adv-x="554" 
d="M351 362c96 -23 153 -89 153 -182c0 -116 -88 -190 -227 -190s-227 74 -227 190c0 93 57 159 153 182c-81 24 -131 86 -131 169c0 53 19 96 57 129s87 50 148 50s110 -17 148 -50s57 -76 57 -129c0 -83 -50 -145 -131 -169zM141 646c-33 -31 -49 -69 -49 -115
s16 -84 49 -115s78 -46 136 -46s103 15 136 46s49 69 49 115s-16 84 -49 115s-78 46 -136 46s-103 -15 -136 -46zM124 56c36 -32 87 -48 153 -48s117 16 153 48s54 73 54 124s-18 92 -54 124s-87 48 -153 48s-117 -16 -153 -48s-54 -73 -54 -124s18 -92 54 -124z" />
    <glyph glyph-name="nine" unicode="9" horiz-adv-x="550" 
d="M510 480c0 -52 -14 -98 -43 -139l-245 -341h-22l202 283c-38 -22 -80 -33 -127 -33c-69 0 -125 21 -169 64s-66 99 -66 166s22 122 66 165s100 65 169 65s125 -22 169 -65s66 -98 66 -165zM118 631c-39 -40 -58 -90 -58 -151s19 -111 58 -152c39 -40 91 -60 157 -60
s118 20 157 60c39 41 58 91 58 152s-19 111 -58 151c-39 41 -91 61 -157 61s-118 -20 -157 -61z" />
    <glyph glyph-name="colon" unicode=":" horiz-adv-x="180" 
d="M107 437c-22 -22 -58 13 -35 36c22 24 60 -13 35 -36zM107 -3c-22 -22 -58 13 -35 36c22 24 60 -13 35 -36z" />
    <glyph glyph-name="semicolon" unicode=";" horiz-adv-x="200" 
d="M127 437c-22 -22 -58 13 -35 36c22 24 60 -13 35 -36zM99 35h26l-42 -175h-18z" />
    <glyph glyph-name="less" unicode="&#x3c;" horiz-adv-x="540" 
d="M70 359l400 183v-20l-378 -172l378 -172v-20l-400 183v18z" />
    <glyph glyph-name="equal" unicode="=" horiz-adv-x="530" 
d="M460 441h-390v18h390v-18zM460 241h-390v18h390v-18z" />
    <glyph glyph-name="greater" unicode="&#x3e;" horiz-adv-x="540" 
d="M70 522v20l400 -183v-18l-400 -183v20l378 172z" />
    <glyph glyph-name="question" unicode="?" horiz-adv-x="526" 
d="M260 160h-20c0 64 30 126 69 170c56 66 127 130 127 210c0 92 -60 152 -175 152c-88 0 -161 -48 -184 -115l-17 9c13 37 39 66 76 89s79 35 125 35c120 0 195 -65 195 -170c0 -53 -30 -106 -69 -149c-56 -62 -127 -134 -127 -231zM267 -3c-22 -22 -58 13 -35 36
c22 24 60 -13 35 -36z" />
    <glyph glyph-name="at" unicode="@" horiz-adv-x="834" 
d="M424 612c71 0 133 -17 188 -52c109 -68 162 -177 162 -290c0 -141 -57 -202 -130 -202c-61 0 -89 44 -89 99v13c-24 -55 -77 -90 -142 -90c-46 0 -85 15 -116 46s-46 69 -46 114s15 83 46 114s70 46 116 46c65 0 118 -35 142 -90v83h20v-236c0 -51 25 -81 69 -81
c69 0 110 68 110 184c0 91 -32 168 -96 230c-63 63 -141 94 -234 94c-97 0 -178 -33 -245 -100c-66 -66 -99 -147 -99 -244c0 -99 34 -182 102 -247c69 -65 155 -97 260 -97c65 0 121 9 167 26l7 -17c-50 -18 -108 -27 -174 -27c-109 0 -200 34 -273 103
c-73 68 -109 154 -109 259c0 101 35 186 104 256c70 71 157 106 260 106zM311 148c27 -27 61 -40 102 -40s74 13 101 40s41 61 41 102s-14 74 -41 101s-60 41 -101 41s-75 -14 -102 -41s-40 -60 -40 -101s13 -75 40 -102z" />
    <glyph glyph-name="A" unicode="A" horiz-adv-x="628" 
d="M603 0h-21l-75 191h-386l-75 -191h-21l277 700h24zM314 679l-186 -470h372z" />
    <glyph glyph-name="B" unicode="B" horiz-adv-x="630" 
d="M434 360c42 -9 77 -30 104 -63c28 -33 42 -71 42 -114c0 -51 -18 -94 -54 -130c-35 -35 -78 -53 -129 -53h-297v700h274c49 0 90 -17 124 -52c35 -35 52 -76 52 -124c0 -75 -47 -140 -116 -164zM374 682h-254v-316h254c43 0 79 15 110 46s46 69 46 112s-15 80 -46 111
s-67 47 -110 47zM120 18h277c45 0 83 16 115 48c32 33 48 72 48 117s-16 84 -48 116c-32 33 -70 49 -115 49h-277v-330z" />
    <glyph glyph-name="C" unicode="C" horiz-adv-x="764" 
d="M420 -10c-103 0 -189 35 -258 104c-68 70 -102 155 -102 256s34 186 102 255c69 70 155 105 258 105c124 0 235 -62 294 -161l-17 -10c-55 93 -160 153 -277 153c-98 0 -179 -33 -244 -99c-64 -66 -96 -147 -96 -243s32 -177 96 -243c65 -66 146 -99 244 -99
c121 0 229 63 281 160l18 -10c-57 -103 -171 -168 -299 -168z" />
    <glyph glyph-name="D" unicode="D" horiz-adv-x="740" 
d="M100 700h250c95 0 174 -34 236 -102c63 -67 94 -150 94 -248s-31 -181 -94 -249c-62 -67 -141 -101 -236 -101h-250v700zM120 18h230c90 0 164 32 222 96c59 64 88 143 88 236s-29 172 -88 236c-58 64 -132 96 -222 96h-230v-664z" />
    <glyph glyph-name="E" unicode="E" horiz-adv-x="540" 
d="M120 344v-326h370v-18h-390v700h385v-18h-365v-320h340v-18h-340z" />
    <glyph glyph-name="F" unicode="F" horiz-adv-x="525" 
d="M475 700v-18h-355v-324h350v-18h-350v-340h-20v700h375z" />
    <glyph glyph-name="G" unicode="G" horiz-adv-x="820" 
d="M409 313h351v-10c0 -88 -31 -162 -92 -223c-61 -60 -141 -90 -238 -90c-108 0 -197 35 -266 104s-104 155 -104 256s34 186 102 255c69 70 155 105 258 105c125 0 239 -65 296 -165l-17 -10c-27 48 -65 86 -115 114c-50 29 -105 43 -164 43c-98 0 -179 -33 -244 -99
c-64 -66 -96 -147 -96 -243s33 -177 98 -243c66 -66 150 -99 252 -99c91 0 165 27 222 82s87 124 89 205h-332v18z" />
    <glyph glyph-name="H" unicode="H" horiz-adv-x="700" 
d="M580 369v331h20v-700h-20v351h-460v-351h-20v700h20v-331h460z" />
    <glyph glyph-name="I" unicode="I" horiz-adv-x="220" 
d="M100 0v700h20v-700h-20z" />
    <glyph glyph-name="J" unicode="J" horiz-adv-x="554" 
d="M249 -10c-97 0 -168 42 -199 113l16 10c29 -70 90 -105 183 -105c121 0 195 71 195 172v520h20v-520c0 -57 -20 -103 -60 -138s-92 -52 -155 -52z" />
    <glyph glyph-name="K" unicode="K" horiz-adv-x="555" 
d="M142 360l403 -360h-27l-398 355v-355h-20v700h20v-335l388 335h27z" />
    <glyph glyph-name="L" unicode="L" horiz-adv-x="500" 
d="M120 700v-682h350v-18h-370v700h20z" />
    <glyph glyph-name="M" unicode="M" horiz-adv-x="820" 
d="M694 700h26v-700h-20v673l-286 -464h-8l-286 464v-673h-20v700h26l284 -462z" />
    <glyph glyph-name="N" unicode="N" horiz-adv-x="700" 
d="M580 34v666h20v-700h-20l-460 666v-666h-20v700h20z" />
    <glyph glyph-name="O" unicode="O" horiz-adv-x="840" 
d="M674 95c-70 -70 -155 -105 -254 -105s-184 35 -255 105c-70 71 -105 156 -105 255s35 184 105 254c71 71 156 106 255 106s184 -35 254 -106c71 -70 106 -155 106 -254s-35 -184 -106 -255zM179 108c67 -67 147 -100 241 -100s174 33 240 100c67 67 100 147 100 242
s-33 175 -100 242c-66 67 -146 100 -240 100s-174 -33 -241 -100c-66 -67 -99 -147 -99 -242s33 -175 99 -242z" />
    <glyph glyph-name="P" unicode="P" horiz-adv-x="580" 
d="M100 700h215c62 0 113 -20 154 -60s61 -90 61 -150s-20 -110 -61 -150s-92 -60 -154 -60h-195v-280h-20v700zM120 298h195c57 0 103 18 140 54c37 37 55 83 55 138s-18 101 -55 137c-37 37 -83 55 -140 55h-195v-384z" />
    <glyph glyph-name="Q" unicode="Q" horiz-adv-x="845" 
d="M780 350c0 -105 -45 -203 -121 -270l87 -86l-13 -13l-88 88c-65 -53 -140 -79 -225 -79c-99 0 -184 35 -255 105c-70 71 -105 156 -105 255s35 184 105 254c71 71 156 106 255 106s184 -35 254 -106c71 -70 106 -155 106 -254zM420 8c79 0 149 25 211 74l-160 159l13 12
l161 -159c72 63 115 156 115 256c0 95 -33 175 -100 242c-66 67 -146 100 -240 100s-174 -33 -241 -100c-66 -67 -99 -147 -99 -242s33 -175 99 -242c67 -67 147 -100 241 -100z" />
    <glyph glyph-name="R" unicode="R" horiz-adv-x="620" 
d="M410 304l180 -304h-22l-178 301c-4 -1 -11 -1 -20 -1h-250v-300h-20v700h270c55 0 102 -20 141 -59s59 -86 59 -141c0 -47 -15 -90 -46 -127c-30 -37 -68 -60 -114 -69zM120 682v-364h250c49 0 92 18 127 53c35 36 53 79 53 129s-18 93 -53 128c-35 36 -78 54 -127 54
h-250z" />
    <glyph glyph-name="S" unicode="S" 
d="M302 -10c-129 0 -220 65 -247 154l17 10c24 -87 109 -146 230 -146c129 0 198 71 198 167c0 85 -70 131 -201 170c-71 20 -110 36 -153 64s-63 68 -63 120c0 51 19 93 57 128c39 35 88 53 149 53c107 0 179 -57 211 -141l-16 -9c-34 88 -99 132 -195 132
c-58 0 -104 -16 -137 -49s-49 -71 -49 -114c0 -39 19 -71 39 -91c10 -10 26 -20 47 -31c21 -10 39 -18 53 -23c15 -5 36 -13 65 -22c140 -45 213 -92 213 -187c0 -111 -83 -185 -218 -185z" />
    <glyph glyph-name="T" unicode="T" horiz-adv-x="540" 
d="M30 700h480v-18h-230v-682h-20v682h-230v18z" />
    <glyph glyph-name="U" unicode="U" horiz-adv-x="680" 
d="M90 225v475h20v-475c0 -63 20 -115 59 -156c40 -41 97 -61 171 -61s131 20 170 61c40 41 60 93 60 156v475h20v-475c0 -69 -23 -126 -68 -170c-45 -43 -105 -65 -182 -65s-138 22 -183 65c-45 44 -67 101 -67 170z" />
    <glyph glyph-name="V" unicode="V" horiz-adv-x="598" 
d="M311 0h-24l-267 700h21l258 -678l258 678h21z" />
    <glyph glyph-name="W" unicode="W" horiz-adv-x="980" 
d="M267 0h-24l-203 700h20l195 -676l223 676h24l223 -676l195 676h20l-203 -700h-24l-223 676z" />
    <glyph glyph-name="X" unicode="X" horiz-adv-x="560" 
d="M292 357l238 -357h-24l-226 339l-226 -339h-24l238 357l-229 343h24l217 -325l217 325h24z" />
    <glyph glyph-name="Y" unicode="Y" horiz-adv-x="560" 
d="M528 700h22l-260 -410v-290h-20v290l-260 410h22l248 -393z" />
    <glyph glyph-name="Z" unicode="Z" horiz-adv-x="530" 
d="M480 682l-408 -664h418v-18h-440v18l409 664h-399v18h420v-18z" />
    <glyph glyph-name="bracketleft" unicode="[" horiz-adv-x="270" 
d="M250 800v-19h-160v-862h160v-19h-180v900h180z" />
    <glyph glyph-name="backslash" unicode="\" horiz-adv-x="520" 
d="M470 -100h-20l-400 900h20z" />
    <glyph glyph-name="bracketright" unicode="]" horiz-adv-x="270" 
d="M20 800h180v-900h-180v19h160v862h-160v19z" />
    <glyph glyph-name="asciicircum" unicode="^" horiz-adv-x="506" 
d="M245 700h16l175 -300h-22l-161 276l-161 -276h-22z" />
    <glyph glyph-name="underscore" unicode="_" horiz-adv-x="480" 
d="M440 -118h-400v18h400v-18z" />
    <glyph glyph-name="grave" unicode="`" horiz-adv-x="141" 
d="M121 570h-17l-84 120h21z" />
    <glyph glyph-name="a" unicode="a" horiz-adv-x="662" 
d="M552 347v153h20v-500h-20v153c-19 -49 -51 -89 -94 -119c-43 -29 -92 -44 -147 -44c-73 0 -134 25 -185 75s-76 112 -76 185s25 135 76 185s112 75 185 75c55 0 104 -15 147 -45c43 -29 75 -69 94 -118zM140 78c47 -47 104 -70 171 -70s124 23 171 70s70 104 70 172
s-23 125 -70 172s-104 70 -171 70s-124 -23 -171 -70s-70 -104 -70 -172s23 -125 70 -172z" />
    <glyph glyph-name="b" unicode="b" horiz-adv-x="662" 
d="M351 510c73 0 134 -25 185 -75s76 -112 76 -185s-25 -135 -76 -185s-112 -75 -185 -75c-55 0 -105 15 -149 46c-43 31 -74 71 -92 121v-157h-20v700h20v-357c18 50 49 90 92 121c44 31 94 46 149 46zM180 78c47 -47 104 -70 171 -70s124 23 171 70s70 104 70 172
s-23 125 -70 172s-104 70 -171 70s-124 -23 -171 -70s-70 -104 -70 -172s23 -125 70 -172z" />
    <glyph glyph-name="c" unicode="c" horiz-adv-x="579" 
d="M311 -10c-74 0 -136 25 -186 75s-75 112 -75 185s25 135 75 185s112 75 186 75c97 0 181 -47 218 -122l-16 -10c-35 69 -111 114 -202 114c-69 0 -127 -23 -173 -70c-45 -46 -68 -103 -68 -172s23 -126 68 -173c46 -46 104 -69 173 -69c91 0 166 45 202 114l16 -10
c-37 -75 -121 -122 -218 -122z" />
    <glyph glyph-name="d" unicode="d" horiz-adv-x="662" 
d="M552 343v357h20v-700h-20v157c-18 -50 -49 -90 -93 -121c-43 -31 -93 -46 -148 -46c-73 0 -134 25 -185 75s-76 112 -76 185s25 135 76 185s112 75 185 75c55 0 105 -15 148 -46c44 -31 75 -71 93 -121zM140 78c47 -47 104 -70 171 -70s124 23 171 70s70 104 70 172
s-23 125 -70 172s-104 70 -171 70s-124 -23 -171 -70s-70 -104 -70 -172s23 -125 70 -172z" />
    <glyph glyph-name="e" unicode="e" horiz-adv-x="599" 
d="M303 510c73 0 132 -26 177 -78c46 -51 69 -113 69 -184v-10h-479c3 -68 26 -123 71 -166s101 -64 166 -64c88 0 163 40 196 103l17 -10c-39 -68 -118 -111 -213 -111c-74 0 -135 24 -184 73s-73 112 -73 187c0 74 24 136 71 185c48 50 109 75 182 75zM70 256h461
c-4 70 -28 127 -71 170c-43 44 -95 66 -157 66c-65 0 -120 -22 -165 -67c-44 -44 -67 -100 -68 -169z" />
    <glyph glyph-name="f" unicode="f" horiz-adv-x="299" 
d="M299 710v-18c-106 9 -159 -42 -159 -152v-40h159v-18h-159v-482h-20v482h-90v18h90v40c0 115 59 179 179 170z" />
    <glyph glyph-name="g" unicode="g" horiz-adv-x="672" 
d="M562 343v157h20v-469c0 -148 -91 -241 -246 -241c-115 0 -201 50 -233 118l16 9c29 -61 109 -109 217 -109c143 0 226 86 226 223v126c-18 -50 -49 -90 -93 -121c-43 -31 -93 -46 -148 -46c-73 0 -134 25 -185 75s-76 112 -76 185s25 135 76 185s112 75 185 75
c55 0 105 -15 148 -46c44 -31 75 -71 93 -121zM150 78c47 -47 104 -70 171 -70s124 23 171 70s70 104 70 172s-23 125 -70 172s-104 70 -171 70s-124 -23 -171 -70s-70 -104 -70 -172s23 -125 70 -172z" />
    <glyph glyph-name="h" unicode="h" horiz-adv-x="575" 
d="M310 510c57 0 102 -18 137 -53s53 -82 53 -139v-318h-20v318c0 101 -66 174 -171 174c-59 0 -107 -21 -144 -62s-55 -95 -55 -162v-268h-20v700h20v-337c27 95 105 147 200 147z" />
    <glyph glyph-name="i" unicode="i" horiz-adv-x="200" 
d="M116 658c-20 -23 -54 13 -33 32c22 22 54 -11 33 -32zM110 0h-20v500h20v-500z" />
    <glyph glyph-name="j" unicode="j" horiz-adv-x="209" 
d="M92 690c22 22 54 -11 33 -32c-20 -23 -54 13 -33 32zM99 -90v590h20v-590c0 -83 -48 -129 -139 -120v18c79 -9 119 25 119 102z" />
    <glyph glyph-name="k" unicode="k" horiz-adv-x="461" 
d="M131 260l300 -260h-28l-293 254v-254h-20v700h20v-434l283 234h28z" />
    <glyph glyph-name="l" unicode="l" horiz-adv-x="200" 
d="M110 0h-20v730h20v-730z" />
    <glyph glyph-name="m" unicode="m" horiz-adv-x="875" 
d="M627 510c103 0 173 -63 173 -183v-327h-20v327c0 105 -60 165 -153 165c-101 0 -172 -78 -172 -210v-282h-20v327c0 105 -58 165 -149 165c-104 0 -176 -78 -176 -210v-282h-20v500h20v-121c25 88 93 131 176 131c85 0 149 -47 165 -136c25 91 96 136 176 136z" />
    <glyph glyph-name="n" unicode="n" horiz-adv-x="575" 
d="M310 510c57 0 102 -18 137 -53s53 -82 53 -139v-318h-20v318c0 101 -66 174 -171 174c-59 0 -107 -21 -144 -62s-55 -95 -55 -162v-268h-20v500h20v-137c27 95 105 147 200 147z" />
    <glyph glyph-name="o" unicode="o" horiz-adv-x="622" 
d="M496 65c-51 -50 -112 -75 -185 -75s-134 25 -185 75s-76 112 -76 185s25 135 76 185s112 75 185 75s134 -25 185 -75s76 -112 76 -185s-25 -135 -76 -185zM140 78c47 -47 104 -70 171 -70s124 23 171 70s70 104 70 172s-23 125 -70 172s-104 70 -171 70
s-124 -23 -171 -70s-70 -104 -70 -172s23 -125 70 -172z" />
    <glyph glyph-name="p" unicode="p" horiz-adv-x="662" 
d="M351 510c73 0 134 -25 185 -75s76 -112 76 -185s-25 -135 -76 -185s-112 -75 -185 -75c-55 0 -105 15 -149 46c-43 31 -74 71 -92 121v-357h-20v700h20v-157c18 50 49 90 92 121c44 31 94 46 149 46zM180 78c47 -47 104 -70 171 -70s124 23 171 70s70 104 70 172
s-23 125 -70 172s-104 70 -171 70s-124 -23 -171 -70s-70 -104 -70 -172s23 -125 70 -172z" />
    <glyph glyph-name="q" unicode="q" horiz-adv-x="662" 
d="M552 343v157h20v-700h-20v357c-18 -50 -49 -90 -93 -121c-43 -31 -93 -46 -148 -46c-73 0 -134 25 -185 75s-76 112 -76 185s25 135 76 185s112 75 185 75c55 0 105 -15 148 -46c44 -31 75 -71 93 -121zM140 78c47 -47 104 -70 171 -70s124 23 171 70s70 104 70 172
s-23 125 -70 172s-104 70 -171 70s-124 -23 -171 -70s-70 -104 -70 -172s23 -125 70 -172z" />
    <glyph glyph-name="r" unicode="r" horiz-adv-x="325" 
d="M110 500v-134c24 93 101 140 185 140v-18c-52 0 -96 -19 -132 -56c-35 -37 -53 -89 -53 -154v-278h-20v500h20z" />
    <glyph glyph-name="s" unicode="s" horiz-adv-x="465" 
d="M90 370c0 -57 51 -88 115 -101c92 -18 211 -36 210 -139c0 -39 -16 -73 -49 -100s-75 -40 -126 -40c-99 0 -160 35 -185 105l16 9c21 -64 77 -96 169 -96c91 0 155 51 155 122c0 59 -51 91 -115 104c-90 21 -212 35 -210 136c0 80 65 140 168 140c77 0 136 -37 160 -96
l-16 -9c-21 53 -75 87 -144 87c-89 0 -148 -50 -148 -122z" />
    <glyph glyph-name="t" unicode="t" horiz-adv-x="379" 
d="M329 500v-18h-159v-371c0 -88 43 -110 159 -93v-18c-125 -20 -179 12 -179 111v371h-120v18h120v134l20 6v-140h159z" />
    <glyph glyph-name="u" unicode="u" horiz-adv-x="575" 
d="M465 232v268h20v-500h-20v137c-27 -95 -105 -147 -200 -147c-57 0 -103 18 -138 53s-52 82 -52 139v318h20v-318c0 -101 66 -174 171 -174c59 0 106 20 143 61s56 96 56 163z" />
    <glyph glyph-name="v" unicode="v" horiz-adv-x="512" 
d="M256 22l215 478h21l-225 -500h-22l-225 500h21z" />
    <glyph glyph-name="w" unicode="w" horiz-adv-x="770" 
d="M554 29l155 471h21l-164 -500h-22l-159 473l-159 -473h-22l-164 500h21l155 -471l157 471h24z" />
    <glyph glyph-name="x" unicode="x" horiz-adv-x="500" 
d="M262 256l208 -256h-25l-195 241l-195 -241h-25l208 256l-198 244h24l186 -229l186 229h24z" />
    <glyph glyph-name="y" unicode="y" horiz-adv-x="510" 
d="M270 1l200 499h20l-219 -546c-40 -99 -114 -161 -191 -154v18c69 -5 134 50 173 142l7 18l-240 522h20z" />
    <glyph glyph-name="z" unicode="z" horiz-adv-x="490" 
d="M430 489l-343 -471h353v-18h-380v11l343 471h-333v18h360v-11z" />
    <glyph glyph-name="braceleft" unicode="{" horiz-adv-x="338" 
d="M318 -91v-18c-91 -9 -139 37 -139 120v229c0 71 -36 102 -119 102v18c83 0 119 31 119 102v228c0 83 48 129 139 120v-18c-79 9 -119 -25 -119 -102v-228c0 -65 -28 -102 -83 -112c55 -9 83 -45 83 -110v-229c0 -77 40 -111 119 -102z" />
    <glyph glyph-name="bar" unicode="|" horiz-adv-x="220" 
d="M120 -200h-20v920h20v-920z" />
    <glyph glyph-name="braceright" unicode="}" horiz-adv-x="338" 
d="M20 -109v18c79 -9 119 25 119 102v229c0 65 28 101 83 110c-55 10 -83 47 -83 112v228c0 77 -40 111 -119 102v18c91 9 139 -37 139 -120v-228c0 -71 36 -102 119 -102v-18c-83 0 -119 -31 -119 -102v-229c0 -83 -48 -129 -139 -120z" />
    <glyph glyph-name="asciitilde" unicode="~" horiz-adv-x="572" 
d="M484 404l18 -8c-5 -21 -13 -43 -37 -68c-31 -37 -91 -51 -184 14c-65 47 -118 53 -146 29c-28 -23 -40 -47 -47 -75l-18 8c5 21 13 43 37 68c33 35 89 51 184 -14c65 -47 118 -53 146 -30c28 24 40 48 47 76z" />
    <glyph glyph-name="exclamdown" unicode="&#xa1;" horiz-adv-x="200" 
d="M82 503c22 24 60 -13 35 -36c-22 -22 -58 13 -35 36zM90 -200v540h20v-540h-20z" />
    <glyph glyph-name="cent" unicode="&#xa2;" horiz-adv-x="579" 
d="M311 108c91 0 166 45 202 114l16 -10c-37 -75 -121 -122 -218 -122c-30 0 -58 4 -83 13l-35 -103h-20l37 109c-97 39 -160 132 -160 241c0 73 25 135 75 185s112 75 186 75c19 0 40 -2 65 -7l33 97h20l-35 -102c63 -20 108 -57 135 -110l-16 -10c-25 51 -67 85 -124 102
l-156 -460c24 -8 50 -12 78 -12zM70 350c0 -101 58 -188 146 -224l154 459c-17 5 -36 7 -59 7c-69 0 -127 -23 -173 -70c-45 -46 -68 -103 -68 -172z" />
    <glyph glyph-name="sterling" unicode="&#xa3;" horiz-adv-x="600" 
d="M180 301v-283h400v-18h-530v18h110v283h-90v18h90v206c0 55 18 99 55 133c37 35 84 52 140 52c89 0 148 -41 178 -123l-16 -10c-26 77 -80 115 -162 115c-53 0 -96 -16 -128 -48c-31 -31 -47 -71 -47 -119v-206h260v-18h-260z" />
    <glyph glyph-name="currency" unicode="&#xa4;" horiz-adv-x="554" 
d="M488 350c0 -55 -18 -102 -55 -142l71 -72l-14 -12l-71 70c-39 -36 -87 -54 -142 -54s-103 18 -143 54l-70 -70l-14 12l71 71c-37 40 -55 88 -55 143s18 103 55 143l-71 71l14 12l71 -70c39 36 87 54 142 54s103 -18 143 -54l70 70l14 -12l-71 -71c37 -40 55 -88 55 -143z
M141 486c-37 -37 -55 -82 -55 -136s18 -100 55 -137s83 -55 136 -55s98 18 135 55s56 83 56 137s-19 99 -56 136s-82 56 -135 56s-99 -19 -136 -56z" />
    <glyph glyph-name="yen" unicode="&#xa5;" horiz-adv-x="560" 
d="M528 700h22l-230 -363h166v-18h-178l-18 -29v-81h196v-18h-196v-191h-20v191h-194v18h194v81l-18 29h-176v18h164l-230 363h22l229 -363h38zM272 319l8 -12l8 12h-16z" />
    <glyph glyph-name="brokenbar" unicode="&#xa6;" horiz-adv-x="220" 
d="M120 350h-20v370h20v-370zM120 -200h-20v370h20v-370z" />
    <glyph glyph-name="section" unicode="&#xa7;" horiz-adv-x="505" 
d="M386 135c33 -28 49 -63 49 -104s-16 -75 -48 -102s-74 -41 -127 -41c-97 0 -159 42 -186 125l16 10c25 -78 81 -117 170 -117c92 0 155 50 155 125c0 40 -17 72 -54 97c-36 27 -61 39 -116 63c-63 27 -104 49 -125 65c-33 27 -50 58 -50 94c0 49 23 86 69 113
c-33 27 -49 61 -49 101c0 84 68 146 168 146c81 0 145 -39 173 -111l-16 -9c-27 68 -80 102 -157 102c-88 0 -148 -55 -148 -128c0 -45 26 -83 77 -112c13 -7 46 -22 98 -45c29 -13 50 -22 63 -29c13 -6 29 -16 50 -30c41 -27 57 -59 57 -100c0 -49 -23 -86 -69 -113z
M90 350c0 -36 16 -65 52 -89c19 -11 35 -21 49 -28c15 -7 35 -15 62 -26c53 -21 92 -40 117 -59c41 21 65 59 65 100c0 36 -15 64 -51 88c-17 12 -33 21 -47 28c-13 7 -33 16 -60 27c-59 25 -100 45 -122 60c-43 -23 -65 -57 -65 -101z" />
    <glyph glyph-name="dieresis" unicode="&#xa8;" horiz-adv-x="240" 
d="M54 586c-18 -18 -46 10 -28 28s46 -10 28 -28zM214 586c-18 -18 -46 10 -28 28s46 -10 28 -28z" />
    <glyph glyph-name="copyright" unicode="&#xa9;" horiz-adv-x="844" 
d="M678 95c-71 -70 -156 -105 -256 -105s-185 35 -256 105s-106 155 -106 255s35 185 106 255s156 105 256 105s185 -35 256 -105s106 -155 106 -255s-35 -185 -106 -255zM180 108c67 -67 147 -100 242 -100s175 33 242 100s100 147 100 242s-33 175 -100 242
s-147 100 -242 100s-175 -33 -242 -100s-100 -147 -100 -242s33 -175 100 -242zM425 158c-56 0 -102 18 -139 55s-55 83 -55 137s18 99 55 136s83 56 139 56c72 0 131 -36 162 -93l-17 -9c-27 52 -80 84 -145 84c-50 0 -92 -17 -125 -51c-33 -33 -49 -74 -49 -123
s16 -90 49 -124c33 -33 75 -50 125 -50c65 0 118 32 145 84l17 -9c-29 -57 -90 -93 -162 -93z" />
    <glyph glyph-name="guillemotleft" unicode="&#xab;" horiz-adv-x="424" 
d="M200 469h22l-100 -160l100 -160h-22l-100 160zM302 469h22l-100 -160l100 -160h-22l-100 160z" />
    <glyph glyph-name="logicalnot" unicode="&#xac;" horiz-adv-x="520" 
d="M70 364v18h380v-160h-20v142h-360z" />
    <glyph glyph-name="registered" unicode="&#xae;" horiz-adv-x="844" 
d="M166 605c71 70 156 105 256 105s185 -35 256 -105s106 -155 106 -255s-35 -185 -106 -255s-156 -105 -256 -105s-185 35 -256 105s-106 155 -106 255s35 185 106 255zM180 108c67 -67 147 -100 242 -100s175 33 242 100s100 147 100 242s-33 175 -100 242
s-147 100 -242 100s-175 -33 -242 -100s-100 -147 -100 -242s33 -175 100 -242zM556 426c0 -59 -30 -95 -90 -106l97 -155h-22l-95 153c-4 -1 -11 -1 -20 -1h-84v-152h-20v370h104c87 0 130 -50 130 -109zM342 517v-182h84c73 0 110 30 110 91c0 52 -39 91 -110 91h-84z" />
    <glyph glyph-name="overscore" unicode="&#xaf;" horiz-adv-x="280" 
d="M260 601h-240v16h240v-16z" />
    <glyph glyph-name="degree" unicode="&#xb0;" horiz-adv-x="386" 
d="M193 530c-41 0 -75 14 -102 41s-41 60 -41 99s14 72 41 99s61 41 102 41s75 -14 102 -41s41 -60 41 -99s-14 -73 -41 -100s-61 -40 -102 -40zM193 548c71 0 123 53 123 122s-54 122 -123 122s-123 -53 -123 -122s54 -122 123 -122z" />
    <glyph glyph-name="plusminus" unicode="&#xb1;" horiz-adv-x="520" 
d="M270 600v-181h180v-18h-180v-181h-20v181h-180v18h180v181h20zM450 100h-380v18h380v-18z" />
    <glyph glyph-name="acute" unicode="&#xb4;" horiz-adv-x="141" 
d="M20 570l80 120h21l-83 -120h-18z" />
    <glyph glyph-name="uni00B5" unicode="&#xb5;" horiz-adv-x="610" 
d="M550 18h20v-18h-20c-44 0 -70 26 -70 70v67c-27 -95 -105 -147 -200 -147c-81 0 -143 39 -170 106v-296h-20v700h20v-318c0 -101 66 -174 171 -174c59 0 106 20 143 61s56 96 56 163v268h20v-430c0 -33 19 -52 50 -52z" />
    <glyph glyph-name="paragraph" unicode="&#xb6;" horiz-adv-x="550" 
d="M230 700h270v-18h-60v-882h-20v882h-170v-882h-20v540c-50 0 -93 18 -128 53s-52 78 -52 127c0 50 17 92 52 127s78 53 128 53z" />
    <glyph glyph-name="middot" unicode="&#xb7;" horiz-adv-x="180" 
d="M107 317c-22 -22 -58 13 -35 36c22 24 60 -13 35 -36z" />
    <glyph glyph-name="cedilla" unicode="&#xb8;" horiz-adv-x="195" 
d="M97 0v-79c44 4 88 -18 88 -61c0 -51 -60 -77 -175 -62v16c105 -13 157 3 157 46c0 35 -29 50 -88 45v95h18z" />
    <glyph glyph-name="guillemotright" unicode="&#xbb;" horiz-adv-x="424" 
d="M100 469h22l100 -160l-100 -160h-22l100 160zM202 469h22l100 -160l-100 -160h-22l100 160z" />
    <glyph glyph-name="onequarter" unicode="&#xbc;" horiz-adv-x="844" 
d="M165 300h-20v374l-119 -44l-6 18l135 52h10v-400zM145 0l420 700h20l-420 -700h-20zM752 108h62v-18h-62v-90h-20v90h-227v18l154 292h20l-153 -292h206v121h20v-121z" />
    <glyph glyph-name="onehalf" unicode="&#xbd;" horiz-adv-x="831" 
d="M165 300h-20v374l-119 -44l-6 18l135 52h10v-400zM145 0l420 700h20l-420 -700h-20zM728 183l-173 -165h236v-18h-266v15l188 180c33 31 50 65 50 101c0 53 -40 98 -107 98c-56 0 -97 -31 -110 -75l-17 9c16 49 63 84 128 84c77 0 126 -51 126 -116
c0 -39 -18 -77 -55 -113z" />
    <glyph glyph-name="threequarters" unicode="&#xbe;" horiz-adv-x="942" 
d="M298 412c0 -71 -50 -124 -134 -124c-67 0 -110 25 -129 74l16 9c17 -43 55 -65 113 -65c73 0 114 46 114 106s-41 106 -114 106h-3l-9 13l110 151h-217v18h238v-18l-106 -146c76 -5 121 -57 121 -124zM243 0l420 700h20l-420 -700h-20zM850 108h62v-18h-62v-90h-20v90
h-227v18l154 292h20l-153 -292h206v121h20v-121z" />
    <glyph glyph-name="questiondown" unicode="&#xbf;" horiz-adv-x="526" 
d="M258 503c22 24 60 -13 35 -36c-22 -22 -58 13 -35 36zM266 340h20c0 -64 -30 -126 -69 -171c-57 -64 -127 -130 -127 -209c0 -92 60 -152 175 -152c88 0 161 48 184 115l17 -9c-13 -37 -39 -66 -76 -89s-79 -35 -125 -35c-120 0 -195 65 -195 170c0 53 30 106 69 149
c56 62 127 134 127 231z" />
    <glyph glyph-name="Agrave" unicode="&#xc0;" horiz-adv-x="628" 
d="M259 890l80 -120h-17l-84 120h21zM603 0h-21l-75 191h-386l-75 -191h-21l277 700h24zM314 679l-186 -470h372z" />
    <glyph glyph-name="Aacute" unicode="&#xc1;" horiz-adv-x="628" 
d="M369 890h21l-83 -120h-18zM603 0h-21l-75 191h-386l-75 -191h-21l277 700h24zM314 679l-186 -470h372z" />
    <glyph glyph-name="Acircumflex" unicode="&#xc2;" horiz-adv-x="628" 
d="M413 770l-101 108l-101 -108h-22l112 120h22l112 -120h-22zM603 0h-21l-75 191h-386l-75 -191h-21l277 700h24zM314 679l-186 -470h372z" />
    <glyph glyph-name="Atilde" unicode="&#xc3;" horiz-adv-x="628" 
d="M309 826c-63 63 -106 41 -106 -36h-17c0 47 13 75 40 86s58 -1 93 -38c61 -63 106 -40 106 36h17c0 -45 -14 -74 -41 -85s-57 1 -92 37zM603 0h-21l-75 191h-386l-75 -191h-21l277 700h24zM314 679l-186 -470h372z" />
    <glyph glyph-name="Adieresis" unicode="&#xc4;" horiz-adv-x="628" 
d="M248 786c-18 -18 -46 10 -28 28s46 -10 28 -28zM408 786c-18 -18 -46 10 -28 28s46 -10 28 -28zM603 0h-21l-75 191h-386l-75 -191h-21l277 700h24zM314 679l-186 -470h372z" />
    <glyph glyph-name="Aring" unicode="&#xc5;" horiz-adv-x="628" 
d="M603 0h-21l-75 191h-386l-75 -191h-21l273 691c-48 5 -79 42 -79 89c0 52 39 90 95 90c57 0 95 -38 95 -90c0 -47 -31 -84 -79 -89zM258 833c-28 -27 -28 -79 0 -107c29 -27 83 -27 111 0c15 14 22 32 22 54s-7 40 -22 53c-28 28 -82 28 -111 0zM314 679l-186 -470h372z
" />
    <glyph glyph-name="AE" unicode="&#xc6;" horiz-adv-x="858" 
d="M468 344v-326h340v-18h-360v204h-291l-124 -204h-23l428 700h365v-18h-335v-320h310v-18h-310zM448 680l-280 -458h280v458z" />
    <glyph glyph-name="Ccedilla" unicode="&#xc7;" horiz-adv-x="764" 
d="M701 168l18 -10c-56 -99 -163 -163 -286 -168v-69c44 4 88 -18 88 -61c0 -51 -60 -77 -175 -62v16c105 -13 157 3 157 46c0 35 -29 50 -88 45v85c-102 1 -187 37 -254 106c-67 70 -101 155 -101 254c0 101 34 186 102 255c69 70 155 105 258 105c124 0 235 -62 294 -161
l-17 -10c-55 93 -160 153 -277 153c-98 0 -179 -33 -244 -99c-64 -66 -96 -147 -96 -243s32 -177 96 -243c65 -66 146 -99 244 -99c121 0 229 63 281 160z" />
    <glyph glyph-name="Egrave" unicode="&#xc8;" horiz-adv-x="540" 
d="M237 890l80 -120h-17l-84 120h21zM120 344v-326h370v-18h-390v700h385v-18h-365v-320h340v-18h-340z" />
    <glyph glyph-name="Eacute" unicode="&#xc9;" horiz-adv-x="540" 
d="M347 890h21l-83 -120h-18zM120 344v-326h370v-18h-390v700h385v-18h-365v-320h340v-18h-340z" />
    <glyph glyph-name="Ecircumflex" unicode="&#xca;" horiz-adv-x="540" 
d="M391 770l-101 108l-101 -108h-22l112 120h22l112 -120h-22zM120 344v-326h370v-18h-390v700h385v-18h-365v-320h340v-18h-340z" />
    <glyph glyph-name="Edieresis" unicode="&#xcb;" horiz-adv-x="540" 
d="M226 786c-18 -18 -46 10 -28 28s46 -10 28 -28zM386 786c-18 -18 -46 10 -28 28s46 -10 28 -28zM120 344v-326h370v-18h-390v700h385v-18h-365v-320h340v-18h-340z" />
    <glyph glyph-name="Igrave" unicode="&#xcc;" horiz-adv-x="220" 
d="M135 770h-17l-84 120h21zM100 700v-700h20v700h-20z" />
    <glyph glyph-name="Iacute" unicode="&#xcd;" horiz-adv-x="220" 
d="M85 770l80 120h21l-83 -120h-18zM100 700v-700h20v700h-20z" />
    <glyph glyph-name="Icircumflex" unicode="&#xce;" horiz-adv-x="220" 
d="M97 890h22l112 -120h-22l-101 108l-101 -108h-22zM120 0h-20v700h20v-700z" />
    <glyph glyph-name="Idieresis" unicode="&#xcf;" horiz-adv-x="220" 
d="M44 786c-18 -18 -46 10 -28 28s46 -10 28 -28zM204 786c-18 -18 -46 10 -28 28s46 -10 28 -28zM100 0v700h20v-700h-20z" />
    <glyph glyph-name="Eth" unicode="&#xd0;" horiz-adv-x="760" 
d="M120 700h250c95 0 174 -34 236 -102c63 -67 94 -150 94 -248s-31 -181 -94 -249c-62 -67 -141 -101 -236 -101h-250v341h-60v18h60v341zM140 18h230c90 0 164 32 222 96c59 64 88 143 88 236s-29 172 -88 236c-58 64 -132 96 -222 96h-230v-323h280v-18h-280v-323z" />
    <glyph glyph-name="Ntilde" unicode="&#xd1;" horiz-adv-x="700" 
d="M229 790h-17c0 47 13 75 40 86s58 -1 93 -38c61 -63 106 -40 106 36h17c0 -45 -14 -74 -41 -85s-57 1 -92 37c-63 63 -106 41 -106 -36zM580 34v666h20v-700h-20l-460 666v-666h-20v700h20z" />
    <glyph glyph-name="Ograve" unicode="&#xd2;" horiz-adv-x="840" 
d="M445 770h-17l-84 120h21zM674 95c71 71 106 156 106 255s-35 184 -106 254c-70 71 -155 106 -254 106s-184 -35 -255 -106c-70 -70 -105 -155 -105 -254s35 -184 105 -255c71 -70 156 -105 255 -105s184 35 254 105zM179 108c-66 67 -99 147 -99 242s33 175 99 242
c67 67 147 100 241 100s174 -33 240 -100c67 -67 100 -147 100 -242s-33 -175 -100 -242c-66 -67 -146 -100 -240 -100s-174 33 -241 100z" />
    <glyph glyph-name="Oacute" unicode="&#xd3;" horiz-adv-x="840" 
d="M395 770l80 120h21l-83 -120h-18zM674 95c71 71 106 156 106 255s-35 184 -106 254c-70 71 -155 106 -254 106s-184 -35 -255 -106c-70 -70 -105 -155 -105 -254s35 -184 105 -255c71 -70 156 -105 255 -105s184 35 254 105zM179 108c-66 67 -99 147 -99 242
s33 175 99 242c67 67 147 100 241 100s174 -33 240 -100c67 -67 100 -147 100 -242s-33 -175 -100 -242c-66 -67 -146 -100 -240 -100s-174 33 -241 100z" />
    <glyph glyph-name="Ocircumflex" unicode="&#xd4;" horiz-adv-x="840" 
d="M519 770l-101 108l-101 -108h-22l112 120h22l112 -120h-22zM165 604c71 71 156 106 255 106s184 -35 254 -106c71 -70 106 -155 106 -254s-35 -184 -106 -255c-70 -70 -155 -105 -254 -105s-184 35 -255 105c-70 71 -105 156 -105 255s35 184 105 254zM179 108
c67 -67 147 -100 241 -100s174 33 240 100c67 67 100 147 100 242s-33 175 -100 242c-66 67 -146 100 -240 100s-174 -33 -241 -100c-66 -67 -99 -147 -99 -242s33 -175 99 -242z" />
    <glyph glyph-name="Otilde" unicode="&#xd5;" horiz-adv-x="840" 
d="M309 790h-17c0 47 13 75 40 86s58 -1 93 -38c61 -63 106 -40 106 36h17c0 -45 -14 -74 -41 -85s-57 1 -92 37c-63 63 -106 41 -106 -36zM674 95c-70 -70 -155 -105 -254 -105s-184 35 -255 105c-70 71 -105 156 -105 255s35 184 105 254c71 71 156 106 255 106
s184 -35 254 -106c71 -70 106 -155 106 -254s-35 -184 -106 -255zM179 108c67 -67 147 -100 241 -100s174 33 240 100c67 67 100 147 100 242s-33 175 -100 242c-66 67 -146 100 -240 100s-174 -33 -241 -100c-66 -67 -99 -147 -99 -242s33 -175 99 -242z" />
    <glyph glyph-name="Odieresis" unicode="&#xd6;" horiz-adv-x="840" 
d="M354 786c-18 -18 -46 10 -28 28s46 -10 28 -28zM514 786c-18 -18 -46 10 -28 28s46 -10 28 -28zM674 95c-70 -70 -155 -105 -254 -105s-184 35 -255 105c-70 71 -105 156 -105 255s35 184 105 254c71 71 156 106 255 106s184 -35 254 -106c71 -70 106 -155 106 -254
s-35 -184 -106 -255zM179 108c67 -67 147 -100 241 -100s174 33 240 100c67 67 100 147 100 242s-33 175 -100 242c-66 67 -146 100 -240 100s-174 -33 -241 -100c-66 -67 -99 -147 -99 -242s33 -175 99 -242z" />
    <glyph glyph-name="multiply" unicode="&#xd7;" horiz-adv-x="464" 
d="M380 511l14 -12l-149 -149l149 -149l-14 -12l-148 148l-148 -148l-14 12l149 149l-149 149l14 12l148 -148z" />
    <glyph glyph-name="Oslash" unicode="&#xd8;" horiz-adv-x="850" 
d="M734 691l-63 -73c79 -72 119 -161 119 -268c0 -99 -35 -184 -106 -255c-70 -70 -155 -105 -254 -105c-87 0 -163 27 -228 81l-61 -71l-15 9l63 73c-79 72 -119 161 -119 268c0 99 35 184 105 254c71 71 156 106 255 106c87 0 163 -27 228 -81l61 71zM90 350
c0 -99 42 -190 111 -253l445 518c-63 51 -135 77 -216 77c-94 0 -174 -33 -241 -100c-66 -67 -99 -147 -99 -242zM430 8c94 0 174 33 240 100c67 67 100 147 100 242c0 99 -42 190 -111 253l-445 -518c63 -51 135 -77 216 -77z" />
    <glyph glyph-name="Ugrave" unicode="&#xd9;" horiz-adv-x="680" 
d="M360 770h-17l-84 120h21zM90 225c0 -69 22 -126 67 -170c45 -43 106 -65 183 -65s137 22 182 65c45 44 68 101 68 170v475h-20v-475c0 -63 -20 -115 -60 -156c-39 -41 -96 -61 -170 -61s-131 20 -171 61c-39 41 -59 93 -59 156v475h-20v-475z" />
    <glyph glyph-name="Uacute" unicode="&#xda;" horiz-adv-x="680" 
d="M310 770l80 120h21l-83 -120h-18zM90 225c0 -69 22 -126 67 -170c45 -43 106 -65 183 -65s137 22 182 65c45 44 68 101 68 170v475h-20v-475c0 -63 -20 -115 -60 -156c-39 -41 -96 -61 -170 -61s-131 20 -171 61c-39 41 -59 93 -59 156v475h-20v-475z" />
    <glyph glyph-name="Ucircumflex" unicode="&#xdb;" horiz-adv-x="680" 
d="M434 770l-101 108l-101 -108h-22l112 120h22l112 -120h-22zM570 225v475h20v-475c0 -69 -23 -126 -68 -170c-45 -43 -105 -65 -182 -65s-138 22 -183 65c-45 44 -67 101 -67 170v475h20v-475c0 -63 20 -115 59 -156c40 -41 97 -61 171 -61s131 20 170 61
c40 41 60 93 60 156z" />
    <glyph glyph-name="Udieresis" unicode="&#xdc;" horiz-adv-x="680" 
d="M269 786c-18 -18 -46 10 -28 28s46 -10 28 -28zM429 786c-18 -18 -46 10 -28 28s46 -10 28 -28zM90 225v475h20v-475c0 -63 20 -115 59 -156c40 -41 97 -61 171 -61s131 20 170 61c40 41 60 93 60 156v475h20v-475c0 -69 -23 -126 -68 -170c-45 -43 -105 -65 -182 -65
s-138 22 -183 65c-45 44 -67 101 -67 170z" />
    <glyph glyph-name="Yacute" unicode="&#xdd;" horiz-adv-x="560" 
d="M335 890h21l-83 -120h-18zM528 700h22l-260 -410v-290h-20v290l-260 410h22l248 -393z" />
    <glyph glyph-name="Thorn" unicode="&#xde;" horiz-adv-x="580" 
d="M120 560h195c62 0 113 -20 154 -60s61 -90 61 -150s-20 -110 -61 -150s-92 -60 -154 -60h-195v-140h-20v700h20v-140zM120 158h195c57 0 103 18 140 54c37 37 55 83 55 138s-18 101 -55 137c-37 37 -83 55 -140 55h-195v-384z" />
    <glyph glyph-name="germandbls" unicode="&#xdf;" horiz-adv-x="516" 
d="M291 -5v18c109 -5 175 45 175 128c0 48 -39 102 -76 137s-76 81 -76 116c0 64 96 91 96 171c0 73 -50 127 -137 127c-104 0 -163 -70 -163 -175v-517h-20v517c0 120 71 193 183 193c100 0 157 -64 157 -145c4 -80 -102 -130 -98 -171c0 -29 38 -72 77 -108
c39 -35 77 -92 77 -145c0 -93 -75 -151 -195 -146z" />
    <glyph glyph-name="agrave" unicode="&#xe0;" horiz-adv-x="662" 
d="M255 690l80 -120h-17l-84 120h21zM552 347v153h20v-500h-20v153c-19 -49 -51 -89 -94 -119c-43 -29 -92 -44 -147 -44c-73 0 -134 25 -185 75s-76 112 -76 185s25 135 76 185s112 75 185 75c55 0 104 -15 147 -45c43 -29 75 -69 94 -118zM140 78c47 -47 104 -70 171 -70
s124 23 171 70s70 104 70 172s-23 125 -70 172s-104 70 -171 70s-124 -23 -171 -70s-70 -104 -70 -172s23 -125 70 -172z" />
    <glyph glyph-name="aacute" unicode="&#xe1;" horiz-adv-x="662" 
d="M365 690h21l-83 -120h-18zM552 347v153h20v-500h-20v153c-19 -49 -51 -89 -94 -119c-43 -29 -92 -44 -147 -44c-73 0 -134 25 -185 75s-76 112 -76 185s25 135 76 185s112 75 185 75c55 0 104 -15 147 -45c43 -29 75 -69 94 -118zM140 78c47 -47 104 -70 171 -70
s124 23 171 70s70 104 70 172s-23 125 -70 172s-104 70 -171 70s-124 -23 -171 -70s-70 -104 -70 -172s23 -125 70 -172z" />
    <glyph glyph-name="acircumflex" unicode="&#xe2;" horiz-adv-x="662" 
d="M409 570l-101 108l-101 -108h-22l112 120h22l112 -120h-22zM552 347v153h20v-500h-20v153c-19 -49 -51 -89 -94 -119c-43 -29 -92 -44 -147 -44c-73 0 -134 25 -185 75s-76 112 -76 185s25 135 76 185s112 75 185 75c55 0 104 -15 147 -45c43 -29 75 -69 94 -118zM140 78
c47 -47 104 -70 171 -70s124 23 171 70s70 104 70 172s-23 125 -70 172s-104 70 -171 70s-124 -23 -171 -70s-70 -104 -70 -172s23 -125 70 -172z" />
    <glyph glyph-name="atilde" unicode="&#xe3;" horiz-adv-x="662" 
d="M305 626c-63 63 -106 41 -106 -36h-17c0 47 13 75 40 86s58 -1 93 -38c61 -63 106 -40 106 36h17c0 -45 -14 -74 -41 -85s-57 1 -92 37zM552 347v153h20v-500h-20v153c-19 -49 -51 -89 -94 -119c-43 -29 -92 -44 -147 -44c-73 0 -134 25 -185 75s-76 112 -76 185
s25 135 76 185s112 75 185 75c55 0 104 -15 147 -45c43 -29 75 -69 94 -118zM140 78c47 -47 104 -70 171 -70s124 23 171 70s70 104 70 172s-23 125 -70 172s-104 70 -171 70s-124 -23 -171 -70s-70 -104 -70 -172s23 -125 70 -172z" />
    <glyph glyph-name="adieresis" unicode="&#xe4;" horiz-adv-x="662" 
d="M244 586c-18 -18 -46 10 -28 28s46 -10 28 -28zM404 586c-18 -18 -46 10 -28 28s46 -10 28 -28zM552 347v153h20v-500h-20v153c-19 -49 -51 -89 -94 -119c-43 -29 -92 -44 -147 -44c-73 0 -134 25 -185 75s-76 112 -76 185s25 135 76 185s112 75 185 75
c55 0 104 -15 147 -45c43 -29 75 -69 94 -118zM140 78c47 -47 104 -70 171 -70s124 23 171 70s70 104 70 172s-23 125 -70 172s-104 70 -171 70s-124 -23 -171 -70s-70 -104 -70 -172s23 -125 70 -172z" />
    <glyph glyph-name="aring" unicode="&#xe5;" horiz-adv-x="662" 
d="M310 560c-56 0 -95 38 -95 90s39 90 95 90c57 0 95 -38 95 -90s-38 -90 -95 -90zM365 703c-28 28 -82 28 -111 0c-28 -27 -28 -79 0 -107c29 -27 83 -27 111 0c15 14 22 32 22 54s-7 40 -22 53zM552 347v153h20v-500h-20v153c-19 -49 -51 -89 -94 -119
c-43 -29 -92 -44 -147 -44c-73 0 -134 25 -185 75s-76 112 -76 185s25 135 76 185s112 75 185 75c55 0 104 -15 147 -45c43 -29 75 -69 94 -118zM140 78c47 -47 104 -70 171 -70s124 23 171 70s70 104 70 172s-23 125 -70 172s-104 70 -171 70s-124 -23 -171 -70
s-70 -104 -70 -172s23 -125 70 -172z" />
    <glyph glyph-name="ae" unicode="&#xe6;" horiz-adv-x="1099" 
d="M806 510c75 0 134 -26 177 -77c44 -51 66 -113 66 -185v-10h-477c3 -68 26 -123 70 -166c45 -43 101 -64 168 -64c92 0 167 39 200 103l17 -10c-39 -69 -118 -111 -217 -111c-116 0 -204 63 -240 163v-153h-18v153c-19 -49 -51 -89 -94 -119c-43 -29 -92 -44 -147 -44
c-73 0 -134 25 -185 75s-76 112 -76 185s25 135 76 185s112 75 185 75c55 0 104 -15 147 -45c43 -29 75 -69 94 -118v153h18v-153c35 99 123 163 236 163zM140 78c47 -47 104 -70 171 -70s124 23 171 70s70 104 70 172s-23 125 -70 172s-104 70 -171 70s-124 -23 -171 -70
s-70 -104 -70 -172s23 -125 70 -172zM572 256h459c-4 71 -27 128 -68 171s-94 65 -157 65c-67 0 -123 -22 -167 -66c-43 -44 -66 -101 -67 -170z" />
    <glyph glyph-name="ccedilla" unicode="&#xe7;" horiz-adv-x="579" 
d="M311 8c91 0 166 45 202 114l16 -10c-35 -71 -111 -117 -202 -122v-69c44 4 88 -18 88 -61c0 -51 -60 -77 -175 -62v16c105 -13 157 3 157 46c0 35 -29 50 -88 45v85c-74 1 -136 26 -185 75c-49 50 -74 112 -74 185s25 135 75 185s112 75 186 75c97 0 181 -47 218 -122
l-16 -10c-35 69 -111 114 -202 114c-69 0 -127 -23 -173 -70c-45 -46 -68 -103 -68 -172s23 -126 68 -173c46 -46 104 -69 173 -69z" />
    <glyph glyph-name="egrave" unicode="&#xe8;" horiz-adv-x="599" 
d="M242 690l80 -120h-17l-84 120h21zM303 510c73 0 132 -26 177 -78c46 -51 69 -113 69 -184v-10h-479c3 -68 26 -123 71 -166s101 -64 166 -64c88 0 163 40 196 103l17 -10c-39 -68 -118 -111 -213 -111c-74 0 -135 24 -184 73s-73 112 -73 187c0 74 24 136 71 185
c48 50 109 75 182 75zM70 256h461c-4 70 -28 127 -71 170c-43 44 -95 66 -157 66c-65 0 -120 -22 -165 -67c-44 -44 -67 -100 -68 -169z" />
    <glyph glyph-name="eacute" unicode="&#xe9;" horiz-adv-x="599" 
d="M352 690h21l-83 -120h-18zM303 510c73 0 132 -26 177 -78c46 -51 69 -113 69 -184v-10h-479c3 -68 26 -123 71 -166s101 -64 166 -64c88 0 163 40 196 103l17 -10c-39 -68 -118 -111 -213 -111c-74 0 -135 24 -184 73s-73 112 -73 187c0 74 24 136 71 185
c48 50 109 75 182 75zM70 256h461c-4 70 -28 127 -71 170c-43 44 -95 66 -157 66c-65 0 -120 -22 -165 -67c-44 -44 -67 -100 -68 -169z" />
    <glyph glyph-name="ecircumflex" unicode="&#xea;" horiz-adv-x="599" 
d="M396 570l-101 108l-101 -108h-22l112 120h22l112 -120h-22zM303 510c73 0 132 -26 177 -78c46 -51 69 -113 69 -184v-10h-479c3 -68 26 -123 71 -166s101 -64 166 -64c88 0 163 40 196 103l17 -10c-39 -68 -118 -111 -213 -111c-74 0 -135 24 -184 73s-73 112 -73 187
c0 74 24 136 71 185c48 50 109 75 182 75zM70 256h461c-4 70 -28 127 -71 170c-43 44 -95 66 -157 66c-65 0 -120 -22 -165 -67c-44 -44 -67 -100 -68 -169z" />
    <glyph glyph-name="edieresis" unicode="&#xeb;" horiz-adv-x="599" 
d="M231 586c-18 -18 -46 10 -28 28s46 -10 28 -28zM391 586c-18 -18 -46 10 -28 28s46 -10 28 -28zM303 510c73 0 132 -26 177 -78c46 -51 69 -113 69 -184v-10h-479c3 -68 26 -123 71 -166s101 -64 166 -64c88 0 163 40 196 103l17 -10c-39 -68 -118 -111 -213 -111
c-74 0 -135 24 -184 73s-73 112 -73 187c0 74 24 136 71 185c48 50 109 75 182 75zM70 256h461c-4 70 -28 127 -71 170c-43 44 -95 66 -157 66c-65 0 -120 -22 -165 -67c-44 -44 -67 -100 -68 -169z" />
    <glyph glyph-name="igrave" unicode="&#xec;" horiz-adv-x="200" 
d="M116 570h-18l-68 120h21zM110 0v500h-20v-500h20z" />
    <glyph glyph-name="iacute" unicode="&#xed;" horiz-adv-x="200" 
d="M80 570l65 120h21l-68 -120h-18zM90 0h20v500h-20v-500z" />
    <glyph glyph-name="icircumflex" unicode="&#xee;" horiz-adv-x="200" 
d="M89 690h22l82 -120h-22l-71 104l-71 -104h-22zM110 0h-20v500h20v-500z" />
    <glyph glyph-name="idieresis" unicode="&#xef;" horiz-adv-x="200" 
d="M54 586c-18 -18 -46 10 -28 28s46 -10 28 -28zM174 586c-18 -18 -46 10 -28 28s46 -10 28 -28zM110 0h-20v500h20v-500z" />
    <glyph glyph-name="eth" unicode="&#xf0;" horiz-adv-x="590" 
d="M314 611l180 -241c31 -41 46 -88 46 -140c0 -71 -24 -129 -72 -174c-48 -44 -105 -66 -171 -66c-67 0 -125 22 -174 66c-49 45 -73 103 -73 174c0 67 24 123 72 166c48 44 104 66 169 66c55 0 101 -12 140 -37l-132 177l-133 -82v20l123 76l-63 84h22l56 -75l109 67v-20z
M297 8c63 0 116 21 159 63c43 43 64 96 64 159c0 51 -13 94 -40 129c-49 67 -109 85 -189 85c-62 0 -114 -21 -157 -63c-43 -41 -64 -92 -64 -151c0 -63 22 -116 65 -159c43 -42 97 -63 162 -63z" />
    <glyph glyph-name="ntilde" unicode="&#xf1;" horiz-adv-x="575" 
d="M290 626c-61 63 -106 41 -106 -36h-17c0 47 13 75 40 86s58 -1 93 -38c61 -63 106 -40 106 36h17c0 -45 -14 -74 -41 -85s-57 1 -92 37zM310 510c57 0 102 -18 137 -53s53 -82 53 -139v-318h-20v318c0 101 -66 174 -171 174c-59 0 -107 -21 -144 -62s-55 -95 -55 -162
v-268h-20v500h20v-137c27 95 105 147 200 147z" />
    <glyph glyph-name="ograve" unicode="&#xf2;" horiz-adv-x="622" 
d="M328 570h-17l-84 120h21zM496 65c51 50 76 112 76 185s-25 135 -76 185s-112 75 -185 75s-134 -25 -185 -75s-76 -112 -76 -185s25 -135 76 -185s112 -75 185 -75s134 25 185 75zM140 78c-47 47 -70 104 -70 172s23 125 70 172s104 70 171 70s124 -23 171 -70
s70 -104 70 -172s-23 -125 -70 -172s-104 -70 -171 -70s-124 23 -171 70z" />
    <glyph glyph-name="oacute" unicode="&#xf3;" horiz-adv-x="622" 
d="M278 570l80 120h21l-83 -120h-18zM496 65c51 50 76 112 76 185s-25 135 -76 185s-112 75 -185 75s-134 -25 -185 -75s-76 -112 -76 -185s25 -135 76 -185s112 -75 185 -75s134 25 185 75zM140 78c-47 47 -70 104 -70 172s23 125 70 172s104 70 171 70s124 -23 171 -70
s70 -104 70 -172s-23 -125 -70 -172s-104 -70 -171 -70s-124 23 -171 70z" />
    <glyph glyph-name="ocircumflex" unicode="&#xf4;" horiz-adv-x="622" 
d="M402 570l-101 108l-101 -108h-22l112 120h22l112 -120h-22zM126 435c51 50 112 75 185 75s134 -25 185 -75s76 -112 76 -185s-25 -135 -76 -185s-112 -75 -185 -75s-134 25 -185 75s-76 112 -76 185s25 135 76 185zM140 78c47 -47 104 -70 171 -70s124 23 171 70
s70 104 70 172s-23 125 -70 172s-104 70 -171 70s-124 -23 -171 -70s-70 -104 -70 -172s23 -125 70 -172z" />
    <glyph glyph-name="otilde" unicode="&#xf5;" horiz-adv-x="622" 
d="M192 590h-17c0 47 13 75 40 86s58 -1 93 -38c61 -63 106 -40 106 36h17c0 -45 -14 -74 -41 -85s-57 1 -92 37c-61 63 -106 41 -106 -36zM496 65c-51 -50 -112 -75 -185 -75s-134 25 -185 75s-76 112 -76 185s25 135 76 185s112 75 185 75s134 -25 185 -75
s76 -112 76 -185s-25 -135 -76 -185zM140 78c47 -47 104 -70 171 -70s124 23 171 70s70 104 70 172s-23 125 -70 172s-104 70 -171 70s-124 -23 -171 -70s-70 -104 -70 -172s23 -125 70 -172z" />
    <glyph glyph-name="odieresis" unicode="&#xf6;" horiz-adv-x="622" 
d="M237 586c-18 -18 -46 10 -28 28s46 -10 28 -28zM397 586c-18 -18 -46 10 -28 28s46 -10 28 -28zM496 65c-51 -50 -112 -75 -185 -75s-134 25 -185 75s-76 112 -76 185s25 135 76 185s112 75 185 75s134 -25 185 -75s76 -112 76 -185s-25 -135 -76 -185zM140 78
c47 -47 104 -70 171 -70s124 23 171 70s70 104 70 172s-23 125 -70 172s-104 70 -171 70s-124 -23 -171 -70s-70 -104 -70 -172s23 -125 70 -172z" />
    <glyph glyph-name="divide" unicode="&#xf7;" horiz-adv-x="580" 
d="M307 519c-22 -22 -58 13 -35 36c22 24 60 -13 35 -36zM510 341h-440v18h440v-18zM307 145c-22 -22 -58 13 -35 36c22 24 60 -13 35 -36z" />
    <glyph glyph-name="oslash" unicode="&#xf8;" horiz-adv-x="622" 
d="M545 491l-50 -55c51 -50 77 -112 77 -186c0 -73 -25 -135 -76 -185s-112 -75 -185 -75c-65 0 -122 21 -171 62l-48 -52l-15 9l50 55c-51 50 -77 112 -77 186c0 73 25 135 76 185s112 75 185 75c65 0 122 -21 171 -62l48 52zM140 78l329 356c-45 39 -98 58 -158 58
c-67 0 -124 -23 -171 -70s-70 -104 -70 -172s23 -125 70 -172zM311 8c67 0 124 23 171 70s70 104 70 172s-23 125 -70 172l-329 -356c45 -39 98 -58 158 -58z" />
    <glyph glyph-name="ugrave" unicode="&#xf9;" horiz-adv-x="575" 
d="M225 690l80 -120h-17l-84 120h21zM465 232v268h20v-500h-20v137c-27 -95 -105 -147 -200 -147c-57 0 -103 18 -138 53s-52 82 -52 139v318h20v-318c0 -101 66 -174 171 -174c59 0 106 20 143 61s56 96 56 163z" />
    <glyph glyph-name="uacute" unicode="&#xfa;" horiz-adv-x="575" 
d="M335 690h21l-83 -120h-18zM465 232v268h20v-500h-20v137c-27 -95 -105 -147 -200 -147c-57 0 -103 18 -138 53s-52 82 -52 139v318h20v-318c0 -101 66 -174 171 -174c59 0 106 20 143 61s56 96 56 163z" />
    <glyph glyph-name="ucircumflex" unicode="&#xfb;" horiz-adv-x="575" 
d="M379 570l-101 108l-101 -108h-22l112 120h22l112 -120h-22zM465 232v268h20v-500h-20v137c-27 -95 -105 -147 -200 -147c-57 0 -103 18 -138 53s-52 82 -52 139v318h20v-318c0 -101 66 -174 171 -174c59 0 106 20 143 61s56 96 56 163z" />
    <glyph glyph-name="udieresis" unicode="&#xfc;" horiz-adv-x="575" 
d="M214 586c-18 -18 -46 10 -28 28s46 -10 28 -28zM374 586c-18 -18 -46 10 -28 28s46 -10 28 -28zM465 232v268h20v-500h-20v137c-27 -95 -105 -147 -200 -147c-57 0 -103 18 -138 53s-52 82 -52 139v318h20v-318c0 -101 66 -174 171 -174c59 0 106 20 143 61s56 96 56 163
z" />
    <glyph glyph-name="yacute" unicode="&#xfd;" horiz-adv-x="510" 
d="M323 690h21l-83 -120h-18zM270 1l200 499h20l-219 -546c-40 -99 -114 -161 -191 -154v18c69 -5 134 50 173 142l7 18l-240 522h20z" />
    <glyph glyph-name="thorn" unicode="&#xfe;" horiz-adv-x="662" 
d="M351 510c73 0 134 -25 185 -75s76 -112 76 -185s-25 -135 -76 -185s-112 -75 -185 -75c-55 0 -105 15 -149 46c-43 31 -74 71 -92 121v-357h-20v900h20v-357c18 50 49 90 92 121c44 31 94 46 149 46zM180 78c47 -47 104 -70 171 -70s124 23 171 70s70 104 70 172
s-23 125 -70 172s-104 70 -171 70s-124 -23 -171 -70s-70 -104 -70 -172s23 -125 70 -172z" />
    <glyph glyph-name="ydieresis" unicode="&#xff;" horiz-adv-x="510" 
d="M202 586c-18 -18 -46 10 -28 28s46 -10 28 -28zM362 586c-18 -18 -46 10 -28 28s46 -10 28 -28zM270 1l200 499h20l-219 -546c-40 -99 -114 -161 -191 -154v18c69 -5 134 50 173 142l7 18l-240 522h20z" />
    <glyph glyph-name="Amacron" unicode="&#x100;" horiz-adv-x="628" 
d="M194 817h240v-16h-240v16zM603 0h-21l-75 191h-386l-75 -191h-21l277 700h24zM314 679l-186 -470h372z" />
    <glyph glyph-name="amacron" unicode="&#x101;" horiz-adv-x="662" 
d="M190 617h240v-16h-240v16zM552 347v153h20v-500h-20v153c-19 -49 -51 -89 -94 -119c-43 -29 -92 -44 -147 -44c-73 0 -134 25 -185 75s-76 112 -76 185s25 135 76 185s112 75 185 75c55 0 104 -15 147 -45c43 -29 75 -69 94 -118zM140 78c47 -47 104 -70 171 -70
s124 23 171 70s70 104 70 172s-23 125 -70 172s-104 70 -171 70s-124 -23 -171 -70s-70 -104 -70 -172s23 -125 70 -172z" />
    <glyph glyph-name="Abreve" unicode="&#x102;" horiz-adv-x="628" 
d="M194 877h18c0 -53 41 -89 102 -89s102 36 102 89h18c0 -63 -48 -105 -120 -105s-120 42 -120 105zM603 0h-21l-75 191h-386l-75 -191h-21l277 700h24zM314 679l-186 -470h372z" />
    <glyph glyph-name="abreve" unicode="&#x103;" horiz-adv-x="662" 
d="M190 677h18c0 -53 41 -89 102 -89s102 36 102 89h18c0 -63 -48 -105 -120 -105s-120 42 -120 105zM552 347v153h20v-500h-20v153c-19 -49 -51 -89 -94 -119c-43 -29 -92 -44 -147 -44c-73 0 -134 25 -185 75s-76 112 -76 185s25 135 76 185s112 75 185 75
c55 0 104 -15 147 -45c43 -29 75 -69 94 -118zM140 78c47 -47 104 -70 171 -70s124 23 171 70s70 104 70 172s-23 125 -70 172s-104 70 -171 70s-124 -23 -171 -70s-70 -104 -70 -172s23 -125 70 -172z" />
    <glyph glyph-name="Aogonek" unicode="&#x104;" horiz-adv-x="628" 
d="M506 -144c0 -31 21 -50 52 -50c19 0 34 3 45 8v-16c-10 -5 -25 -8 -45 -8c-43 0 -70 26 -70 66c0 44 31 94 92 149l-73 186h-386l-75 -191h-21l277 700h24l277 -700c-65 -55 -97 -103 -97 -144zM314 679l-186 -470h372z" />
    <glyph glyph-name="aogonek" unicode="&#x105;" horiz-adv-x="662" 
d="M572 500v-500c-65 -55 -97 -103 -97 -144c0 -31 21 -50 52 -50c17 0 32 3 45 8v-16c-11 -5 -26 -8 -45 -8c-43 0 -70 26 -70 66c0 47 32 96 95 149v148c-19 -49 -51 -89 -94 -119c-43 -29 -92 -44 -147 -44c-73 0 -134 25 -185 75s-76 112 -76 185s25 135 76 185
s112 75 185 75c55 0 104 -15 147 -45c43 -29 75 -69 94 -118v153h20zM140 78c47 -47 104 -70 171 -70s124 23 171 70s70 104 70 172s-23 125 -70 172s-104 70 -171 70s-124 -23 -171 -70s-70 -104 -70 -172s23 -125 70 -172z" />
    <glyph glyph-name="Cacute" unicode="&#x106;" horiz-adv-x="764" 
d="M395 770l80 120h21l-83 -120h-18zM420 -10c128 0 242 65 299 168l-18 10c-52 -97 -160 -160 -281 -160c-98 0 -179 33 -244 99c-64 66 -96 147 -96 243s32 177 96 243c65 66 146 99 244 99c117 0 222 -60 277 -153l17 10c-59 99 -170 161 -294 161
c-103 0 -189 -35 -258 -105c-68 -69 -102 -154 -102 -255s34 -186 102 -256c69 -69 155 -104 258 -104z" />
    <glyph glyph-name="cacute" unicode="&#x107;" horiz-adv-x="579" 
d="M287 570l80 120h21l-83 -120h-18zM311 -10c97 0 181 47 218 122l-16 10c-36 -69 -111 -114 -202 -114c-69 0 -127 23 -173 69c-45 47 -68 104 -68 173s23 126 68 172c46 47 104 70 173 70c91 0 167 -45 202 -114l16 10c-37 75 -121 122 -218 122c-74 0 -136 -25 -186 -75
s-75 -112 -75 -185s25 -135 75 -185s112 -75 186 -75z" />
    <glyph glyph-name="Cdotaccent" unicode="&#x10a;" horiz-adv-x="764" 
d="M441 788c-11 -11 -31 -11 -43 0c-11 12 -11 32 0 43c28 28 71 -15 43 -43zM420 -10c-103 0 -189 35 -258 104c-68 70 -102 155 -102 256s34 186 102 255c69 70 155 105 258 105c124 0 235 -62 294 -161l-17 -10c-55 93 -160 153 -277 153c-98 0 -179 -33 -244 -99
c-64 -66 -96 -147 -96 -243s32 -177 96 -243c65 -66 146 -99 244 -99c121 0 229 63 281 160l18 -10c-57 -103 -171 -168 -299 -168z" />
    <glyph glyph-name="cdotaccent" unicode="&#x10b;" horiz-adv-x="579" 
d="M333 588c-11 -11 -31 -11 -43 0c-11 12 -11 32 0 43c28 28 71 -15 43 -43zM311 -10c-74 0 -136 25 -186 75s-75 112 -75 185s25 135 75 185s112 75 186 75c97 0 181 -47 218 -122l-16 -10c-35 69 -111 114 -202 114c-69 0 -127 -23 -173 -70c-45 -46 -68 -103 -68 -172
s23 -126 68 -173c46 -46 104 -69 173 -69c91 0 166 45 202 114l16 -10c-37 -75 -121 -122 -218 -122z" />
    <glyph glyph-name="Ccaron" unicode="&#x10c;" horiz-adv-x="764" 
d="M542 890l-112 -120h-22l-112 120h22l101 -108l101 108h22zM701 168l18 -10c-57 -103 -171 -168 -299 -168c-103 0 -189 35 -258 104c-68 70 -102 155 -102 256s34 186 102 255c69 70 155 105 258 105c124 0 235 -62 294 -161l-17 -10c-55 93 -160 153 -277 153
c-98 0 -179 -33 -244 -99c-64 -66 -96 -147 -96 -243s32 -177 96 -243c65 -66 146 -99 244 -99c121 0 229 63 281 160z" />
    <glyph glyph-name="ccaron" unicode="&#x10d;" horiz-adv-x="579" 
d="M434 690l-112 -120h-22l-112 120h22l101 -108l101 108h22zM311 8c91 0 166 45 202 114l16 -10c-37 -75 -121 -122 -218 -122c-74 0 -136 25 -186 75s-75 112 -75 185s25 135 75 185s112 75 186 75c97 0 181 -47 218 -122l-16 -10c-35 69 -111 114 -202 114
c-69 0 -127 -23 -173 -70c-45 -46 -68 -103 -68 -172s23 -126 68 -173c46 -46 104 -69 173 -69z" />
    <glyph glyph-name="Dcaron" unicode="&#x10e;" horiz-adv-x="740" 
d="M472 890l-112 -120h-22l-112 120h22l101 -108l101 108h22zM100 700h250c95 0 174 -34 236 -102c63 -67 94 -150 94 -248s-31 -181 -94 -249c-62 -67 -141 -101 -236 -101h-250v700zM120 18h230c90 0 164 32 222 96c59 64 88 143 88 236s-29 172 -88 236
c-58 64 -132 96 -222 96h-230v-664z" />
    <glyph glyph-name="dcaron" unicode="&#x10f;" horiz-adv-x="686" 
d="M552 343v357h20v-700h-20v157c-18 -50 -49 -90 -93 -121c-43 -31 -93 -46 -148 -46c-73 0 -134 25 -185 75s-76 112 -76 185s25 135 76 185s112 75 185 75c55 0 105 -15 148 -46c44 -31 75 -71 93 -121zM656 530l10 170h20l-14 -170h-16zM140 78c47 -47 104 -70 171 -70
s124 23 171 70s70 104 70 172s-23 125 -70 172s-104 70 -171 70s-124 -23 -171 -70s-70 -104 -70 -172s23 -125 70 -172z" />
    <glyph glyph-name="Dcroat" unicode="&#x110;" horiz-adv-x="760" 
d="M120 700h250c95 0 174 -34 236 -102c63 -67 94 -150 94 -248s-31 -181 -94 -249c-62 -67 -141 -101 -236 -101h-250v341h-60v18h60v341zM140 18h230c90 0 164 32 222 96c59 64 88 143 88 236s-29 172 -88 236c-58 64 -132 96 -222 96h-230v-323h280v-18h-280v-323z" />
    <glyph glyph-name="dslash" unicode="&#x111;" horiz-adv-x="666" 
d="M572 612h64v-17h-64v-595h-20v157c-18 -50 -49 -90 -93 -121c-43 -31 -93 -46 -148 -46c-73 0 -134 25 -185 75s-76 112 -76 185s25 135 76 185s112 75 185 75c55 0 105 -15 148 -46c44 -31 75 -71 93 -121v252h-236v17h236v88h20v-88zM140 78c47 -47 104 -70 171 -70
s124 23 171 70s70 104 70 172s-23 125 -70 172s-104 70 -171 70s-124 -23 -171 -70s-70 -104 -70 -172s23 -125 70 -172z" />
    <glyph glyph-name="Emacron" unicode="&#x112;" horiz-adv-x="540" 
d="M172 817h240v-16h-240v16zM120 344v-326h370v-18h-390v700h385v-18h-365v-320h340v-18h-340z" />
    <glyph glyph-name="emacron" unicode="&#x113;" horiz-adv-x="599" 
d="M177 617h240v-16h-240v16zM303 510c73 0 132 -26 177 -78c46 -51 69 -113 69 -184v-10h-479c3 -68 26 -123 71 -166s101 -64 166 -64c88 0 163 40 196 103l17 -10c-39 -68 -118 -111 -213 -111c-74 0 -135 24 -184 73s-73 112 -73 187c0 74 24 136 71 185
c48 50 109 75 182 75zM70 256h461c-4 70 -28 127 -71 170c-43 44 -95 66 -157 66c-65 0 -120 -22 -165 -67c-44 -44 -67 -100 -68 -169z" />
    <glyph glyph-name="Edotaccent" unicode="&#x116;" horiz-adv-x="540" 
d="M313 788c-11 -11 -31 -11 -43 0c-11 12 -11 32 0 43c28 28 71 -15 43 -43zM120 344v-326h370v-18h-390v700h385v-18h-365v-320h340v-18h-340z" />
    <glyph glyph-name="edotaccent" unicode="&#x117;" horiz-adv-x="599" 
d="M318 588c-11 -11 -31 -11 -43 0c-11 12 -11 32 0 43c28 28 71 -15 43 -43zM303 510c73 0 132 -26 177 -78c46 -51 69 -113 69 -184v-10h-479c3 -68 26 -123 71 -166s101 -64 166 -64c88 0 163 40 196 103l17 -10c-39 -68 -118 -111 -213 -111c-74 0 -135 24 -184 73
s-73 112 -73 187c0 74 24 136 71 185c48 50 109 75 182 75zM70 256h461c-4 70 -28 127 -71 170c-43 44 -95 66 -157 66c-65 0 -120 -22 -165 -67c-44 -44 -67 -100 -68 -169z" />
    <glyph glyph-name="Eogonek" unicode="&#x118;" horiz-adv-x="542" 
d="M447 -194c17 0 32 3 45 8v-16c-11 -5 -26 -8 -45 -8c-44 0 -72 25 -72 66c0 45 31 93 92 144h-367v700h385v-18h-365v-320h340v-18h-340v-326h370v-18c-65 -55 -97 -103 -97 -144c0 -31 22 -50 54 -50z" />
    <glyph glyph-name="eogonek" unicode="&#x119;" horiz-adv-x="599" 
d="M303 510c73 0 132 -26 177 -78c46 -51 69 -113 69 -184v-10h-479c3 -68 26 -123 71 -166s101 -64 166 -64c88 0 163 40 196 103l17 -10c-9 -17 -20 -31 -33 -44c-56 -61 -93 -105 -112 -130c-19 -26 -28 -50 -28 -71c0 -31 22 -50 54 -50c17 0 32 3 45 8v-16
c-11 -5 -26 -8 -45 -8c-44 0 -72 25 -72 66c0 40 33 94 100 161c-38 -18 -79 -27 -122 -27c-74 0 -135 24 -184 73s-73 112 -73 187c0 74 24 136 71 185c48 50 109 75 182 75zM70 256h461c-4 70 -28 127 -71 170c-43 44 -95 66 -157 66c-65 0 -120 -22 -165 -67
c-44 -44 -67 -100 -68 -169z" />
    <glyph glyph-name="Ecaron" unicode="&#x11a;" horiz-adv-x="540" 
d="M414 890l-112 -120h-22l-112 120h22l101 -108l101 108h22zM120 344v-326h370v-18h-390v700h385v-18h-365v-320h340v-18h-340z" />
    <glyph glyph-name="ecaron" unicode="&#x11b;" horiz-adv-x="599" 
d="M419 690l-112 -120h-22l-112 120h22l101 -108l101 108h22zM303 510c73 0 132 -26 177 -78c46 -51 69 -113 69 -184v-10h-479c3 -68 26 -123 71 -166s101 -64 166 -64c88 0 163 40 196 103l17 -10c-39 -68 -118 -111 -213 -111c-74 0 -135 24 -184 73s-73 112 -73 187
c0 74 24 136 71 185c48 50 109 75 182 75zM70 256h461c-4 70 -28 127 -71 170c-43 44 -95 66 -157 66c-65 0 -120 -22 -165 -67c-44 -44 -67 -100 -68 -169z" />
    <glyph glyph-name="Gbreve" unicode="&#x11e;" horiz-adv-x="820" 
d="M300 877h18c0 -53 41 -89 102 -89s102 36 102 89h18c0 -63 -48 -105 -120 -105s-120 42 -120 105zM409 313h351v-10c0 -88 -31 -162 -92 -223c-61 -60 -141 -90 -238 -90c-108 0 -197 35 -266 104s-104 155 -104 256s34 186 102 255c69 70 155 105 258 105
c125 0 239 -65 296 -165l-17 -10c-27 48 -65 86 -115 114c-50 29 -105 43 -164 43c-98 0 -179 -33 -244 -99c-64 -66 -96 -147 -96 -243s33 -177 98 -243c66 -66 150 -99 252 -99c91 0 165 27 222 82s87 124 89 205h-332v18z" />
    <glyph glyph-name="gbreve" unicode="&#x11f;" horiz-adv-x="672" 
d="M208 677h18c0 -53 41 -89 102 -89s102 36 102 89h18c0 -63 -48 -105 -120 -105s-120 42 -120 105zM562 343v157h20v-469c0 -148 -91 -241 -246 -241c-115 0 -201 50 -233 118l16 9c29 -61 109 -109 217 -109c143 0 226 86 226 223v126c-18 -50 -49 -90 -93 -121
c-43 -31 -93 -46 -148 -46c-73 0 -134 25 -185 75s-76 112 -76 185s25 135 76 185s112 75 185 75c55 0 105 -15 148 -46c44 -31 75 -71 93 -121zM150 78c47 -47 104 -70 171 -70s124 23 171 70s70 104 70 172s-23 125 -70 172s-104 70 -171 70s-124 -23 -171 -70
s-70 -104 -70 -172s23 -125 70 -172z" />
    <glyph glyph-name="Gdotaccent" unicode="&#x120;" horiz-adv-x="820" 
d="M441 788c-11 -11 -31 -11 -43 0c-11 12 -11 32 0 43c28 28 71 -15 43 -43zM409 313h351v-10c0 -88 -31 -162 -92 -223c-61 -60 -141 -90 -238 -90c-108 0 -197 35 -266 104s-104 155 -104 256s34 186 102 255c69 70 155 105 258 105c125 0 239 -65 296 -165l-17 -10
c-27 48 -65 86 -115 114c-50 29 -105 43 -164 43c-98 0 -179 -33 -244 -99c-64 -66 -96 -147 -96 -243s33 -177 98 -243c66 -66 150 -99 252 -99c91 0 165 27 222 82s87 124 89 205h-332v18z" />
    <glyph glyph-name="gdotaccent" unicode="&#x121;" horiz-adv-x="672" 
d="M349 588c-11 -11 -31 -11 -43 0c-11 12 -11 32 0 43c28 28 71 -15 43 -43zM562 343v157h20v-469c0 -148 -91 -241 -246 -241c-115 0 -201 50 -233 118l16 9c29 -61 109 -109 217 -109c143 0 226 86 226 223v126c-18 -50 -49 -90 -93 -121c-43 -31 -93 -46 -148 -46
c-73 0 -134 25 -185 75s-76 112 -76 185s25 135 76 185s112 75 185 75c55 0 105 -15 148 -46c44 -31 75 -71 93 -121zM150 78c47 -47 104 -70 171 -70s124 23 171 70s70 104 70 172s-23 125 -70 172s-104 70 -171 70s-124 -23 -171 -70s-70 -104 -70 -172s23 -125 70 -172z
" />
    <glyph glyph-name="Gcommaaccent" unicode="&#x122;" horiz-adv-x="820" 
d="M409 313h351v-10c0 -88 -31 -162 -92 -223c-61 -60 -141 -90 -238 -90c-108 0 -197 35 -266 104s-104 155 -104 256s34 186 102 255c69 70 155 105 258 105c125 0 239 -65 296 -165l-17 -10c-27 48 -65 86 -115 114c-50 29 -105 43 -164 43c-98 0 -179 -33 -244 -99
c-64 -66 -96 -147 -96 -243s33 -177 98 -243c66 -66 150 -99 252 -99c91 0 165 27 222 82s87 124 89 205h-332v18zM428 -240h-16l10 170h20z" />
    <glyph glyph-name="gcommaaccent" unicode="&#x123;" horiz-adv-x="672" 
d="M323 760h16l-10 -170h-20zM562 343v157h20v-469c0 -148 -91 -241 -246 -241c-115 0 -201 50 -233 118l16 9c29 -61 109 -109 217 -109c143 0 226 86 226 223v126c-18 -50 -49 -90 -93 -121c-43 -31 -93 -46 -148 -46c-73 0 -134 25 -185 75s-76 112 -76 185
s25 135 76 185s112 75 185 75c55 0 105 -15 148 -46c44 -31 75 -71 93 -121zM150 78c47 -47 104 -70 171 -70s124 23 171 70s70 104 70 172s-23 125 -70 172s-104 70 -171 70s-124 -23 -171 -70s-70 -104 -70 -172s23 -125 70 -172z" />
    <glyph glyph-name="Hbar" unicode="&#x126;" horiz-adv-x="760" 
d="M630 549h70v-18h-70v-531h-20v351h-460v-351h-20v531h-70v18h70v151h20v-151h460v151h20v-151zM150 369h460v162h-460v-162z" />
    <glyph glyph-name="hbar" unicode="&#x127;" horiz-adv-x="595" 
d="M330 510c57 0 102 -18 137 -53s53 -82 53 -139v-318h-20v318c0 101 -66 174 -171 174c-59 0 -107 -21 -144 -62s-55 -95 -55 -162v-268h-20v595h-80v17h80v88h20v-88h180v-17h-180v-232c27 95 105 147 200 147z" />
    <glyph glyph-name="Imacron" unicode="&#x12a;" horiz-adv-x="220" 
d="M230 801h-240v16h240v-16zM100 0v700h20v-700h-20z" />
    <glyph glyph-name="imacron" unicode="&#x12b;" horiz-adv-x="200" 
d="M180 601h-160v16h160v-16zM110 0h-20v500h20v-500z" />
    <glyph glyph-name="Iogonek" unicode="&#x12e;" horiz-adv-x="220" 
d="M122 -194c17 0 32 3 45 8v-16c-11 -5 -26 -8 -45 -8c-44 0 -72 25 -72 66c0 36 17 84 50 144v700h20v-700c-3 -5 -14 -29 -18 -34l-15 -32c-10 -29 -19 -50 -19 -78c0 -31 22 -50 54 -50z" />
    <glyph glyph-name="iogonek" unicode="&#x12f;" horiz-adv-x="200" 
d="M116 658c-20 -23 -54 13 -33 32c22 22 54 -11 33 -32zM112 -194c17 0 32 3 45 8v-16c-11 -5 -26 -8 -45 -8c-44 0 -72 29 -72 70c0 37 17 86 50 145v495h20v-500l-29 -54c-9 -20 -23 -57 -23 -86c0 -31 22 -54 54 -54z" />
    <glyph glyph-name="Idot" unicode="&#x130;" horiz-adv-x="220" 
d="M131 788c-11 -11 -31 -11 -43 0c-11 12 -11 32 0 43c28 28 71 -15 43 -43zM100 0v700h20v-700h-20z" />
    <glyph glyph-name="dotlessi" unicode="&#x131;" horiz-adv-x="200" 
d="M110 0h-20v500h20v-500z" />
    <glyph glyph-name="Kcommaaccent" unicode="&#x136;" horiz-adv-x="555" 
d="M535 700l-393 -340l403 -360h-27l-398 355v-355h-20v700h20v-335l388 335h27zM315 -240h-16l10 170h20z" />
    <glyph glyph-name="kcommaaccent" unicode="&#x137;" horiz-adv-x="461" 
d="M421 500l-290 -240l300 -260h-28l-293 254v-254h-20v700h20v-434l283 234h28zM253 -240h-16l10 170h20z" />
    <glyph glyph-name="Lacute" unicode="&#x139;" horiz-adv-x="500" 
d="M177 890h21l-83 -120h-18zM120 700v-682h350v-18h-370v700h20z" />
    <glyph glyph-name="lacute" unicode="&#x13a;" horiz-adv-x="200" 
d="M90 770l80 120h21l-83 -120h-18zM90 0h20v730h-20v-730z" />
    <glyph glyph-name="Lcommaaccent" unicode="&#x13b;" horiz-adv-x="500" 
d="M120 700v-682h350v-18h-370v700h20zM283 -240h-16l10 170h20z" />
    <glyph glyph-name="lcommaaccent" unicode="&#x13c;" horiz-adv-x="200" 
d="M110 0h-20v730h20v-730zM97 -240h-16l10 170h20z" />
    <glyph glyph-name="Lcaron" unicode="&#x13d;" horiz-adv-x="500" 
d="M120 700v-682h350v-18h-370v700h20zM286 700h20l-14 -170h-16z" />
    <glyph glyph-name="lcaron" unicode="&#x13e;" horiz-adv-x="226" 
d="M110 0h-20v730h20v-730zM212 560h-16l10 170h20z" />
    <glyph glyph-name="Lslash" unicode="&#x141;" horiz-adv-x="510" 
d="M130 272v-254h350v-18h-370v260l-60 -35v20l60 35v420h20v-408l210 124v-20z" />
    <glyph glyph-name="lslash" unicode="&#x142;" horiz-adv-x="240" 
d="M130 378l90 62v-21l-90 -62v-357h-20v344l-90 -62v21l90 62v365h20v-352z" />
    <glyph glyph-name="Nacute" unicode="&#x143;" horiz-adv-x="700" 
d="M315 770l80 120h21l-83 -120h-18zM580 700v-666l-460 666h-20v-700h20v666l460 -666h20v700h-20z" />
    <glyph glyph-name="nacute" unicode="&#x144;" horiz-adv-x="575" 
d="M350 690h21l-83 -120h-18zM310 510c57 0 102 -18 137 -53s53 -82 53 -139v-318h-20v318c0 101 -66 174 -171 174c-59 0 -107 -21 -144 -62s-55 -95 -55 -162v-268h-20v500h20v-137c27 95 105 147 200 147z" />
    <glyph glyph-name="Ncommaaccent" unicode="&#x145;" horiz-adv-x="700" 
d="M580 34v666h20v-700h-20l-460 666v-666h-20v700h20zM338 -240h-16l10 170h20z" />
    <glyph glyph-name="ncommaaccent" unicode="&#x146;" horiz-adv-x="575" 
d="M310 510c57 0 102 -18 137 -53s53 -82 53 -139v-318h-20v318c0 101 -66 174 -171 174c-59 0 -107 -21 -144 -62s-55 -95 -55 -162v-268h-20v500h20v-137c27 95 105 147 200 147zM296 -240h-16l10 170h20z" />
    <glyph glyph-name="Ncaron" unicode="&#x147;" horiz-adv-x="700" 
d="M462 890l-112 -120h-22l-112 120h22l101 -108l101 108h22zM580 34v666h20v-700h-20l-460 666v-666h-20v700h20z" />
    <glyph glyph-name="ncaron" unicode="&#x148;" horiz-adv-x="575" 
d="M417 690l-112 -120h-22l-112 120h22l101 -108l101 108h22zM310 510c57 0 102 -18 137 -53s53 -82 53 -139v-318h-20v318c0 101 -66 174 -171 174c-59 0 -107 -21 -144 -62s-55 -95 -55 -162v-268h-20v500h20v-137c27 95 105 147 200 147z" />
    <glyph glyph-name="Eng" unicode="&#x14a;" horiz-adv-x="700" 
d="M580 34v666h20v-700c0 -141 -68 -200 -195 -200v18c121 0 175 55 175 182l-460 666v-666h-20v700h20z" />
    <glyph glyph-name="eng" unicode="&#x14b;" horiz-adv-x="575" 
d="M310 510c57 0 102 -18 137 -53s53 -82 53 -139v-408c0 -83 -48 -129 -139 -120v18c79 -9 119 25 119 102v408c0 101 -66 174 -171 174c-59 0 -107 -21 -144 -62s-55 -95 -55 -162v-268h-20v500h20v-137c27 95 105 147 200 147z" />
    <glyph glyph-name="Omacron" unicode="&#x14c;" horiz-adv-x="840" 
d="M540 801h-240v16h240v-16zM674 95c-70 -70 -155 -105 -254 -105s-184 35 -255 105c-70 71 -105 156 -105 255s35 184 105 254c71 71 156 106 255 106s184 -35 254 -106c71 -70 106 -155 106 -254s-35 -184 -106 -255zM179 108c67 -67 147 -100 241 -100s174 33 240 100
c67 67 100 147 100 242s-33 175 -100 242c-66 67 -146 100 -240 100s-174 -33 -241 -100c-66 -67 -99 -147 -99 -242s33 -175 99 -242z" />
    <glyph glyph-name="omacron" unicode="&#x14d;" horiz-adv-x="622" 
d="M423 601h-240v16h240v-16zM496 65c-51 -50 -112 -75 -185 -75s-134 25 -185 75s-76 112 -76 185s25 135 76 185s112 75 185 75s134 -25 185 -75s76 -112 76 -185s-25 -135 -76 -185zM140 78c47 -47 104 -70 171 -70s124 23 171 70s70 104 70 172s-23 125 -70 172
s-104 70 -171 70s-124 -23 -171 -70s-70 -104 -70 -172s23 -125 70 -172z" />
    <glyph glyph-name="Ohungarumlaut" unicode="&#x150;" horiz-adv-x="840" 
d="M310 770l70 130h21l-74 -130h-17zM449 770l80 130h21l-84 -130h-17zM674 95c71 71 106 156 106 255s-35 184 -106 254c-70 71 -155 106 -254 106s-184 -35 -255 -106c-70 -70 -105 -155 -105 -254s35 -184 105 -255c71 -70 156 -105 255 -105s184 35 254 105zM179 108
c-66 67 -99 147 -99 242s33 175 99 242c67 67 147 100 241 100s174 -33 240 -100c67 -67 100 -147 100 -242s-33 -175 -100 -242c-66 -67 -146 -100 -240 -100s-174 33 -241 100z" />
    <glyph glyph-name="ohungarumlaut" unicode="&#x151;" horiz-adv-x="622" 
d="M193 570l70 130h21l-74 -130h-17zM332 570l80 130h21l-84 -130h-17zM496 65c51 50 76 112 76 185s-25 135 -76 185s-112 75 -185 75s-134 -25 -185 -75s-76 -112 -76 -185s25 -135 76 -185s112 -75 185 -75s134 25 185 75zM140 78c-47 47 -70 104 -70 172s23 125 70 172
s104 70 171 70s124 -23 171 -70s70 -104 70 -172s-23 -125 -70 -172s-104 -70 -171 -70s-124 23 -171 70z" />
    <glyph glyph-name="OE" unicode="&#x152;" horiz-adv-x="906" 
d="M526 344v-326h330v-18h-350c-30 -7 -62 -10 -96 -10c-103 0 -187 35 -252 104s-98 155 -98 256s33 187 98 256s149 104 252 104c34 0 66 -3 96 -10h345v-18h-325v-320h300v-18h-300zM506 19v662c-28 7 -60 11 -96 11c-97 0 -177 -33 -238 -99c-61 -65 -92 -146 -92 -243
s31 -178 92 -244c61 -65 141 -98 238 -98c36 0 68 4 96 11z" />
    <glyph glyph-name="oe" unicode="&#x153;" horiz-adv-x="1096" 
d="M800 510c73 0 132 -26 177 -78c46 -51 69 -113 69 -184v-10h-479c3 -68 26 -123 71 -166s101 -64 166 -64c88 0 163 40 196 103l17 -10c-39 -68 -118 -111 -213 -111c-61 0 -115 17 -160 52s-74 82 -87 140c-14 -57 -44 -103 -89 -139c-45 -35 -97 -53 -157 -53
c-73 0 -134 25 -185 75s-76 112 -76 185s25 135 76 185s112 75 185 75c60 0 112 -18 157 -54c45 -35 75 -81 89 -138c14 57 43 103 86 138c44 36 96 54 157 54zM140 78c47 -47 104 -70 171 -70s123 23 168 70s68 104 68 172s-23 125 -68 172s-101 70 -168 70
s-124 -23 -171 -70s-70 -104 -70 -172s23 -125 70 -172zM567 256h461c-4 70 -28 127 -71 170c-43 44 -95 66 -157 66c-65 0 -120 -22 -165 -67c-44 -44 -67 -100 -68 -169z" />
    <glyph glyph-name="Racute" unicode="&#x154;" horiz-adv-x="620" 
d="M375 890h21l-83 -120h-18zM410 304l180 -304h-22l-178 301c-4 -1 -11 -1 -20 -1h-250v-300h-20v700h270c55 0 102 -20 141 -59s59 -86 59 -141c0 -47 -15 -90 -46 -127c-30 -37 -68 -60 -114 -69zM120 682v-364h250c49 0 92 18 127 53c35 36 53 79 53 129s-18 93 -53 128
c-35 36 -78 54 -127 54h-250z" />
    <glyph glyph-name="racute" unicode="&#x155;" horiz-adv-x="325" 
d="M247 690h21l-83 -120h-18zM110 500v-134c24 93 101 140 185 140v-18c-52 0 -96 -19 -132 -56c-35 -37 -53 -89 -53 -154v-278h-20v500h20z" />
    <glyph glyph-name="Rcommaaccent" unicode="&#x156;" horiz-adv-x="620" 
d="M410 304l180 -304h-22l-178 301c-4 -1 -11 -1 -20 -1h-250v-300h-20v700h270c55 0 102 -20 141 -59s59 -86 59 -141c0 -47 -15 -90 -46 -127c-30 -37 -68 -60 -114 -69zM120 682v-364h250c49 0 92 18 127 53c35 36 53 79 53 129s-18 93 -53 128c-35 36 -78 54 -127 54
h-250zM338 -240h-16l10 170h20z" />
    <glyph glyph-name="rcommaaccent" unicode="&#x157;" horiz-adv-x="325" 
d="M110 500v-134c24 93 101 140 185 140v-18c-52 0 -96 -19 -132 -56c-35 -37 -53 -89 -53 -154v-278h-20v500h20zM96 -240h-16l10 170h20z" />
    <glyph glyph-name="Rcaron" unicode="&#x158;" horiz-adv-x="620" 
d="M442 890l-112 -120h-22l-112 120h22l101 -108l101 108h22zM410 304l180 -304h-22l-178 301c-4 -1 -11 -1 -20 -1h-250v-300h-20v700h270c55 0 102 -20 141 -59s59 -86 59 -141c0 -47 -15 -90 -46 -127c-30 -37 -68 -60 -114 -69zM120 682v-364h250c49 0 92 18 127 53
c35 36 53 79 53 129s-18 93 -53 128c-35 36 -78 54 -127 54h-250z" />
    <glyph glyph-name="rcaron" unicode="&#x159;" horiz-adv-x="325" 
d="M314 690l-112 -120h-22l-112 120h22l101 -108l101 108h22zM110 500v-134c24 93 101 140 185 140v-18c-52 0 -96 -19 -132 -56c-35 -37 -53 -89 -53 -154v-278h-20v500h20z" />
    <glyph glyph-name="Sacute" unicode="&#x15a;" 
d="M251 770l80 120h21l-83 -120h-18zM302 -10c135 0 218 74 218 185c0 95 -73 142 -213 187c-29 9 -50 17 -65 22c-14 5 -32 13 -53 23c-21 11 -37 21 -47 31c-20 20 -39 52 -39 91c0 43 16 81 49 114s79 49 137 49c96 0 161 -44 195 -132l16 9c-32 84 -104 141 -211 141
c-61 0 -110 -18 -149 -53c-38 -35 -57 -77 -57 -128c0 -52 20 -92 63 -120s82 -44 153 -64c131 -39 201 -85 201 -170c0 -96 -69 -167 -198 -167c-121 0 -206 59 -230 146l-17 -10c27 -89 118 -154 247 -154z" />
    <glyph glyph-name="sacute" unicode="&#x15b;" horiz-adv-x="465" 
d="M285 690h21l-83 -120h-18zM90 370c0 -57 51 -88 115 -101c92 -18 211 -36 210 -139c0 -39 -16 -73 -49 -100s-75 -40 -126 -40c-99 0 -160 35 -185 105l16 9c21 -64 77 -96 169 -96c91 0 155 51 155 122c0 59 -51 91 -115 104c-90 21 -212 35 -210 136
c0 80 65 140 168 140c77 0 136 -37 160 -96l-16 -9c-21 53 -75 87 -144 87c-89 0 -148 -50 -148 -122z" />
    <glyph glyph-name="Scedilla" unicode="&#x15e;" 
d="M302 -10h-5v-69c44 4 88 -18 88 -61c0 -51 -60 -77 -175 -62v16c105 -13 157 3 157 46c0 35 -29 50 -88 45v86c-117 7 -199 69 -224 153l17 10c24 -87 109 -146 230 -146c129 0 198 71 198 167c0 85 -70 131 -201 170c-71 20 -110 36 -153 64s-63 68 -63 120
c0 51 19 93 57 128c39 35 88 53 149 53c107 0 179 -57 211 -141l-16 -9c-34 88 -99 132 -195 132c-58 0 -104 -16 -137 -49s-49 -71 -49 -114c0 -39 19 -71 39 -91c10 -10 26 -20 47 -31c21 -10 39 -18 53 -23c15 -5 36 -13 65 -22c140 -45 213 -92 213 -187
c0 -111 -83 -185 -218 -185z" />
    <glyph glyph-name="scedilla" unicode="&#x15f;" horiz-adv-x="465" 
d="M415 130c0 -76 -66 -135 -162 -140v-69c44 4 88 -18 88 -61c0 -51 -60 -77 -175 -62v16c105 -13 157 3 157 46c0 35 -29 50 -88 45v85c-95 1 -155 36 -180 105l16 9c21 -64 77 -96 169 -96c91 0 155 51 155 122c0 59 -51 91 -115 104c-90 21 -212 35 -210 136
c0 80 65 140 168 140c77 0 136 -37 160 -96l-16 -9c-21 53 -75 87 -144 87c-89 0 -148 -50 -148 -122c0 -57 51 -88 115 -101c92 -18 211 -36 210 -139z" />
    <glyph glyph-name="Scaron" unicode="&#x160;" 
d="M398 890l-112 -120h-22l-112 120h22l101 -108l101 108h22zM307 362c140 -45 213 -92 213 -187c0 -111 -83 -185 -218 -185c-129 0 -220 65 -247 154l17 10c24 -87 109 -146 230 -146c129 0 198 71 198 167c0 85 -70 131 -201 170c-71 20 -110 36 -153 64s-63 68 -63 120
c0 51 19 93 57 128c39 35 88 53 149 53c107 0 179 -57 211 -141l-16 -9c-34 88 -99 132 -195 132c-58 0 -104 -16 -137 -49s-49 -71 -49 -114c0 -39 19 -71 39 -91c10 -10 26 -20 47 -31c21 -10 39 -18 53 -23c15 -5 36 -13 65 -22z" />
    <glyph glyph-name="scaron" unicode="&#x161;" horiz-adv-x="465" 
d="M352 690l-112 -120h-22l-112 120h22l101 -108l101 108h22zM90 370c0 -57 51 -88 115 -101c92 -18 211 -36 210 -139c0 -39 -16 -73 -49 -100s-75 -40 -126 -40c-99 0 -160 35 -185 105l16 9c21 -64 77 -96 169 -96c91 0 155 51 155 122c0 59 -51 91 -115 104
c-90 21 -212 35 -210 136c0 80 65 140 168 140c77 0 136 -37 160 -96l-16 -9c-21 53 -75 87 -144 87c-89 0 -148 -50 -148 -122z" />
    <glyph glyph-name="uni0162" unicode="&#x162;" horiz-adv-x="540" 
d="M30 700h480v-18h-230v-682h-20v682h-230v18zM268 -240h-16l10 170h20z" />
    <glyph glyph-name="uni0163" unicode="&#x163;" horiz-adv-x="379" 
d="M329 500v-18h-159v-371c0 -88 43 -110 159 -93v-18c-125 -20 -179 12 -179 111v371h-120v18h120v134l20 6v-140h159zM234 -240h-16l10 170h20z" />
    <glyph glyph-name="Tcaron" unicode="&#x164;" horiz-adv-x="540" 
d="M392 890l-112 -120h-22l-112 120h22l101 -108l101 108h22zM30 700h480v-18h-230v-682h-20v682h-230v18z" />
    <glyph glyph-name="tcaron" unicode="&#x165;" horiz-adv-x="379" 
d="M246 712h20l-14 -150h-16zM329 500v-18h-159v-371c0 -88 43 -110 159 -93v-18c-125 -20 -179 12 -179 111v371h-120v18h120v134l20 6v-140h159z" />
    <glyph glyph-name="Tbar" unicode="&#x166;" horiz-adv-x="540" 
d="M510 700v-18h-230v-323h170v-18h-170v-341h-20v341h-170v18h170v323h-230v18h480z" />
    <glyph glyph-name="tbar" unicode="&#x167;" horiz-adv-x="379" 
d="M329 500v-18h-159v-208h105v-17h-105v-146c0 -88 43 -110 159 -93v-18c-125 -20 -179 12 -179 111v146h-75v17h75v208h-120v18h120v134l20 6v-140h159z" />
    <glyph glyph-name="Umacron" unicode="&#x16a;" horiz-adv-x="680" 
d="M455 801h-240v16h240v-16zM90 225v475h20v-475c0 -63 20 -115 59 -156c40 -41 97 -61 171 -61s131 20 170 61c40 41 60 93 60 156v475h20v-475c0 -69 -23 -126 -68 -170c-45 -43 -105 -65 -182 -65s-138 22 -183 65c-45 44 -67 101 -67 170z" />
    <glyph glyph-name="umacron" unicode="&#x16b;" horiz-adv-x="575" 
d="M160 617h240v-16h-240v16zM465 232v268h20v-500h-20v137c-27 -95 -105 -147 -200 -147c-57 0 -103 18 -138 53s-52 82 -52 139v318h20v-318c0 -101 66 -174 171 -174c59 0 106 20 143 61s56 96 56 163z" />
    <glyph glyph-name="Uring" unicode="&#x16e;" horiz-adv-x="680" 
d="M335 720c-56 0 -95 38 -95 90s39 90 95 90c57 0 95 -38 95 -90s-38 -90 -95 -90zM279 756c29 -27 83 -27 111 0c15 14 22 32 22 54s-7 40 -22 53c-28 28 -82 28 -111 0c-28 -27 -28 -79 0 -107zM90 225v475h20v-475c0 -63 20 -115 59 -156c40 -41 97 -61 171 -61
s131 20 170 61c40 41 60 93 60 156v475h20v-475c0 -69 -23 -126 -68 -170c-45 -43 -105 -65 -182 -65s-138 22 -183 65c-45 44 -67 101 -67 170z" />
    <glyph glyph-name="uring" unicode="&#x16f;" horiz-adv-x="575" 
d="M280 560c-56 0 -95 38 -95 90s39 90 95 90c57 0 95 -38 95 -90s-38 -90 -95 -90zM335 703c-28 28 -82 28 -111 0c-28 -27 -28 -79 0 -107c29 -27 83 -27 111 0c15 14 22 32 22 54s-7 40 -22 53zM465 232v268h20v-500h-20v137c-27 -95 -105 -147 -200 -147
c-57 0 -103 18 -138 53s-52 82 -52 139v318h20v-318c0 -101 66 -174 171 -174c59 0 106 20 143 61s56 96 56 163z" />
    <glyph glyph-name="Uhungarumlaut" unicode="&#x170;" horiz-adv-x="680" 
d="M225 770l70 130h21l-74 -130h-17zM364 770l80 130h21l-84 -130h-17zM90 225c0 -69 22 -126 67 -170c45 -43 106 -65 183 -65s137 22 182 65c45 44 68 101 68 170v475h-20v-475c0 -63 -20 -115 -60 -156c-39 -41 -96 -61 -170 -61s-131 20 -171 61c-39 41 -59 93 -59 156
v475h-20v-475z" />
    <glyph glyph-name="uhungarumlaut" unicode="&#x171;" horiz-adv-x="575" 
d="M240 700h21l-74 -130h-17zM389 700h21l-84 -130h-17zM465 232v268h20v-500h-20v137c-27 -95 -105 -147 -200 -147c-57 0 -103 18 -138 53s-52 82 -52 139v318h20v-318c0 -101 66 -174 171 -174c59 0 106 20 143 61s56 96 56 163z" />
    <glyph glyph-name="Uogonek" unicode="&#x172;" horiz-adv-x="680" 
d="M570 225v475h20v-475c0 -79 -29 -141 -86 -185c-57 -49 -96 -86 -115 -110s-28 -49 -28 -74c0 -31 22 -50 54 -50c17 0 32 3 45 8v-16c-11 -5 -26 -8 -45 -8c-44 0 -72 25 -72 66c0 45 34 96 101 151c-32 -11 -67 -17 -104 -17c-77 0 -138 22 -183 65
c-45 44 -67 101 -67 170v475h20v-475c0 -63 20 -115 59 -156c40 -41 97 -61 171 -61s131 20 170 61c40 41 60 93 60 156z" />
    <glyph glyph-name="uogonek" unicode="&#x173;" horiz-adv-x="575" 
d="M485 500v-500c-65 -55 -97 -103 -97 -144c0 -31 21 -50 52 -50c17 0 32 3 45 8v-16c-11 -5 -26 -8 -45 -8c-43 0 -70 26 -70 66c0 43 32 93 95 149v132c-27 -95 -105 -147 -200 -147c-57 0 -103 18 -138 53s-52 82 -52 139v318h20v-318c0 -101 66 -174 171 -174
c59 0 106 20 143 61s56 96 56 163v268h20z" />
    <glyph glyph-name="Wcircumflex" unicode="&#x174;" horiz-adv-x="980" 
d="M521 770l-101 108l-101 -108h-22l112 120h22l112 -120h-22zM725 24l195 676h20l-203 -700h-24l-223 676l-223 -676h-24l-203 700h20l195 -676l223 676h24z" />
    <glyph glyph-name="wcircumflex" unicode="&#x175;" horiz-adv-x="770" 
d="M484 570l-101 108l-101 -108h-22l112 120h22l112 -120h-22zM554 29l155 471h21l-164 -500h-22l-159 473l-159 -473h-22l-164 500h21l155 -471l157 471h24z" />
    <glyph glyph-name="Ycircumflex" unicode="&#x176;" horiz-adv-x="560" 
d="M379 770l-101 108l-101 -108h-22l112 120h22l112 -120h-22zM528 700h22l-260 -410v-290h-20v290l-260 410h22l248 -393z" />
    <glyph glyph-name="ycircumflex" unicode="&#x177;" horiz-adv-x="510" 
d="M367 570l-101 108l-101 -108h-22l112 120h22l112 -120h-22zM270 1l200 499h20l-219 -546c-40 -99 -114 -161 -191 -154v18c69 -5 134 50 173 142l7 18l-240 522h20z" />
    <glyph glyph-name="Ydieresis" unicode="&#x178;" horiz-adv-x="560" 
d="M214 786c-18 -18 -46 10 -28 28s46 -10 28 -28zM374 786c-18 -18 -46 10 -28 28s46 -10 28 -28zM528 700h22l-260 -410v-290h-20v290l-260 410h22l248 -393z" />
    <glyph glyph-name="Zacute" unicode="&#x179;" horiz-adv-x="530" 
d="M325 890h21l-83 -120h-18zM480 682l-408 -664h418v-18h-440v18l409 664h-399v18h420v-18z" />
    <glyph glyph-name="zacute" unicode="&#x17a;" horiz-adv-x="490" 
d="M305 690h21l-83 -120h-18zM430 489l-343 -471h353v-18h-380v11l343 471h-333v18h360v-11z" />
    <glyph glyph-name="Zdotaccent" unicode="&#x17b;" horiz-adv-x="530" 
d="M291 788c-11 -11 -31 -11 -43 0c-11 12 -11 32 0 43c28 28 71 -15 43 -43zM480 682l-408 -664h418v-18h-440v18l409 664h-399v18h420v-18z" />
    <glyph glyph-name="zdotaccent" unicode="&#x17c;" horiz-adv-x="490" 
d="M271 588c-11 -11 -31 -11 -43 0c-11 12 -11 32 0 43c28 28 71 -15 43 -43zM430 489l-343 -471h353v-18h-380v11l343 471h-333v18h360v-11z" />
    <glyph glyph-name="Zcaron" unicode="&#x17d;" horiz-adv-x="530" 
d="M392 890l-112 -120h-22l-112 120h22l101 -108l101 108h22zM480 682l-408 -664h418v-18h-440v18l409 664h-399v18h420v-18z" />
    <glyph glyph-name="zcaron" unicode="&#x17e;" horiz-adv-x="490" 
d="M372 690l-112 -120h-22l-112 120h22l101 -108l101 108h22zM430 489l-343 -471h353v-18h-380v11l343 471h-333v18h360v-11z" />
    <glyph glyph-name="florin" unicode="&#x192;" horiz-adv-x="431" 
d="M224 360l40 230c8 47 28 80 60 101c33 21 68 25 107 11v-20c-35 15 -66 14 -94 -4s-46 -49 -53 -92l-39 -226h131v-19h-134l-75 -435c-8 -47 -28 -80 -61 -101c-32 -21 -67 -25 -106 -11v20c35 -15 66 -14 94 4s46 49 53 92l74 431h-125v19h128z" />
    <glyph glyph-name="Scommaaccent" unicode="&#x218;" 
d="M302 -10c-129 0 -220 65 -247 154l17 10c24 -87 109 -146 230 -146c129 0 198 71 198 167c0 85 -70 131 -201 170c-71 20 -110 36 -153 64s-63 68 -63 120c0 51 19 93 57 128c39 35 88 53 149 53c107 0 179 -57 211 -141l-16 -9c-34 88 -99 132 -195 132
c-58 0 -104 -16 -137 -49s-49 -71 -49 -114c0 -39 19 -71 39 -91c10 -10 26 -20 47 -31c21 -10 39 -18 53 -23c15 -5 36 -13 65 -22c140 -45 213 -92 213 -187c0 -111 -83 -185 -218 -185zM282 -240h-16l10 170h20z" />
    <glyph glyph-name="scommaaccent" unicode="&#x219;" horiz-adv-x="465" 
d="M90 370c0 -57 51 -88 115 -101c92 -18 211 -36 210 -139c0 -39 -16 -73 -49 -100s-75 -40 -126 -40c-99 0 -160 35 -185 105l16 9c21 -64 77 -96 169 -96c91 0 155 51 155 122c0 59 -51 91 -115 104c-90 21 -212 35 -210 136c0 80 65 140 168 140c77 0 136 -37 160 -96
l-16 -9c-21 53 -75 87 -144 87c-89 0 -148 -50 -148 -122zM238 -240h-16l10 170h20z" />
    <glyph glyph-name="uni021A" unicode="&#x21a;" horiz-adv-x="540" 
d="M30 700h480v-18h-230v-682h-20v682h-230v18zM268 -240h-16l10 170h20z" />
    <glyph glyph-name="uni021B" unicode="&#x21b;" horiz-adv-x="379" 
d="M329 500v-18h-159v-371c0 -88 43 -110 159 -93v-18c-125 -20 -179 12 -179 111v371h-120v18h120v134l20 6v-140h159zM234 -240h-16l10 170h20z" />
    <glyph glyph-name="circumflex" unicode="&#x2c6;" horiz-adv-x="286" 
d="M154 690l112 -120h-22l-101 108l-101 -108h-22l112 120h22z" />
    <glyph glyph-name="caron" unicode="&#x2c7;" horiz-adv-x="286" 
d="M144 582l101 108h22l-112 -120h-22l-112 120h22z" />
    <glyph glyph-name="breve" unicode="&#x2d8;" horiz-adv-x="280" 
d="M20 677h18c0 -53 41 -89 102 -89s102 36 102 89h18c0 -63 -48 -105 -120 -105s-120 42 -120 105z" />
    <glyph glyph-name="dotaccent" unicode="&#x2d9;" horiz-adv-x="100" 
d="M71 588c-11 -11 -31 -11 -43 0c-11 12 -11 32 0 43c28 28 71 -15 43 -43z" />
    <glyph glyph-name="ring" unicode="&#x2da;" horiz-adv-x="230" 
d="M115 560c-56 0 -95 38 -95 90s39 90 95 90c57 0 95 -38 95 -90s-38 -90 -95 -90zM59 596c29 -27 83 -27 111 0c15 14 22 32 22 54s-7 40 -22 53c-28 28 -82 28 -111 0c-28 -27 -28 -79 0 -107z" />
    <glyph glyph-name="ogonek" unicode="&#x2db;" horiz-adv-x="157" 
d="M92 -210c-44 0 -72 25 -72 66c0 45 31 93 92 144h23c-65 -55 -97 -103 -97 -144c0 -31 22 -50 54 -50c17 0 32 3 45 8v-16c-11 -5 -26 -8 -45 -8z" />
    <glyph glyph-name="tilde" unicode="&#x2dc;" horiz-adv-x="296" 
d="M37 590h-17c0 47 13 75 40 86s58 -1 93 -38c61 -63 106 -40 106 36h17c0 -45 -14 -74 -41 -85s-57 1 -92 37c-63 63 -106 41 -106 -36z" />
    <glyph glyph-name="hungarumlaut" unicode="&#x2dd;" horiz-adv-x="280" 
d="M20 570l70 130h21l-74 -130h-17zM159 570l80 130h21l-84 -130h-17z" />
    <glyph glyph-name="gravecomb" unicode="&#x300;" horiz-adv-x="0" 
d="M-20 570h-17l-84 120h21z" />
    <glyph glyph-name="acutecomb" unicode="&#x301;" horiz-adv-x="0" 
d="M-121 570l80 120h21l-83 -120h-18z" />
    <glyph glyph-name="uni0302" unicode="&#x302;" horiz-adv-x="0" 
d="M-132 690l112 -120h-22l-101 108l-101 -108h-22l112 120h22z" />
    <glyph glyph-name="tildecomb" unicode="&#x303;" horiz-adv-x="0" 
d="M-259 590h-17c0 47 13 75 40 86s58 -1 93 -38c61 -63 106 -40 106 36h17c0 -45 -13 -74 -40 -85s-58 1 -93 37c-63 63 -106 41 -106 -36z" />
    <glyph glyph-name="uni0304" unicode="&#x304;" horiz-adv-x="0" 
d="M-20 601h-240v16h240v-16z" />
    <glyph glyph-name="uni0306" unicode="&#x306;" horiz-adv-x="0" 
d="M-280 677h18c0 -53 41 -89 102 -89s102 36 102 89h18c0 -63 -48 -105 -120 -105s-120 42 -120 105z" />
    <glyph glyph-name="uni0307" unicode="&#x307;" horiz-adv-x="0" 
d="M-28 588c-12 -11 -32 -11 -43 0c-12 12 -12 32 0 43c11 12 31 12 43 0c11 -11 11 -31 0 -43z" />
    <glyph glyph-name="uni0308" unicode="&#x308;" horiz-adv-x="0" 
d="M-186 586c-18 -18 -46 10 -28 28s46 -10 28 -28zM-26 586c-18 -18 -46 10 -28 28s46 -10 28 -28z" />
    <glyph glyph-name="uni030A" unicode="&#x30a;" horiz-adv-x="0" 
d="M-115 560c-56 0 -95 38 -95 90s39 90 95 90c57 0 95 -38 95 -90s-38 -90 -95 -90zM-170 596c28 -27 82 -27 111 0c28 28 28 80 0 107c-29 28 -83 28 -111 0c-15 -13 -22 -31 -22 -53s7 -40 22 -54z" />
    <glyph glyph-name="uni030B" unicode="&#x30b;" horiz-adv-x="0" 
d="M-250 570l70 130h21l-74 -130h-17zM-111 570l80 130h21l-84 -130h-17z" />
    <glyph glyph-name="uni030C" unicode="&#x30c;" horiz-adv-x="0" 
d="M-142 582l101 108h22l-112 -120h-22l-112 120h22z" />
    <glyph glyph-name="uni0312" unicode="&#x312;" horiz-adv-x="0" 
d="M-36 960h16l-10 -170h-20z" />
    <glyph glyph-name="uni0326" unicode="&#x326;" horiz-adv-x="0" 
d="M-34 -240h-16l10 170h20z" />
    <glyph glyph-name="uni0327" unicode="&#x327;" horiz-adv-x="0" 
d="M-108 0v-79c44 4 88 -18 88 -61c0 -51 -60 -77 -175 -62v16c105 -13 157 3 157 46c0 35 -29 50 -88 45v95h18z" />
    <glyph glyph-name="uni0328" unicode="&#x328;" horiz-adv-x="0" 
d="M-65 -210c-44 0 -72 25 -72 66c0 45 31 93 92 144h23c-65 -55 -97 -103 -97 -144c0 -31 22 -50 54 -50c17 0 32 3 45 8v-16c-11 -5 -26 -8 -45 -8z" />
    <glyph glyph-name="uni0394" unicode="&#x394;" horiz-adv-x="618" 
d="M297 700h24l277 -700h-578zM309 679l-261 -661h522z" />
    <glyph glyph-name="uni03A9" unicode="&#x3a9;" horiz-adv-x="840" 
d="M780 350c0 -75 -21 -142 -64 -203c-42 -60 -97 -103 -164 -129h218v-18h-268v18c75 19 136 59 185 120c49 62 73 133 73 212c0 95 -33 175 -100 242c-66 67 -146 100 -240 100s-174 -33 -241 -100c-66 -67 -99 -147 -99 -242c0 -79 24 -150 73 -212
c49 -61 110 -101 185 -120v-18h-268v18h218c-67 26 -122 69 -165 129c-42 61 -63 128 -63 203c0 99 35 184 105 254c71 71 156 106 255 106s184 -35 254 -106c71 -70 106 -155 106 -254z" />
    <glyph glyph-name="pi" unicode="&#x3c0;" horiz-adv-x="650" 
d="M40 500h570v-18h-83v-482h-20v482h-360v-482h-20v482h-87v18z" />
    <glyph glyph-name="uni0401" unicode="&#x401;" horiz-adv-x="540" 
d="M226 786c-18 -18 -46 10 -28 28s46 -10 28 -28zM386 786c-18 -18 -46 10 -28 28s46 -10 28 -28zM120 344v-326h370v-18h-390v700h385v-18h-365v-320h340v-18h-340z" />
    <glyph glyph-name="uni0402" unicode="&#x402;" horiz-adv-x="700" 
d="M455 470c49 0 91 -15 124 -46c34 -30 51 -72 51 -127v-182c0 -83 -48 -129 -139 -120v18c79 -9 119 25 119 102v182c0 95 -66 155 -155 155c-73 0 -123 -17 -195 -53v-399h-20v682h-210v18h480v-18h-250v-264c37 18 69 31 96 39c27 9 60 13 99 13z" />
    <glyph glyph-name="uni0403" unicode="&#x403;" horiz-adv-x="500" 
d="M331 889h21l-83 -120h-18zM100 700h370v-18h-350v-682h-20v700z" />
    <glyph glyph-name="uni0404" unicode="&#x404;" horiz-adv-x="764" 
d="M701 168l18 -10c-57 -103 -171 -168 -299 -168c-103 0 -189 35 -258 104c-68 70 -102 155 -102 256s34 186 102 255c69 70 155 105 258 105c124 0 235 -62 294 -161l-17 -10c-55 93 -160 153 -277 153c-96 0 -176 -32 -240 -96s-97 -143 -100 -237h418v-18h-418
c3 -94 36 -173 100 -237s144 -96 240 -96c121 0 229 63 281 160z" />
    <glyph glyph-name="uni0405" unicode="&#x405;" 
d="M302 -10c-129 0 -220 65 -247 154l17 10c24 -87 109 -146 230 -146c129 0 198 71 198 167c0 85 -70 131 -201 170c-71 20 -110 36 -153 64s-63 68 -63 120c0 51 19 93 57 128c39 35 88 53 149 53c107 0 179 -57 211 -141l-16 -9c-34 88 -99 132 -195 132
c-58 0 -104 -16 -137 -49s-49 -71 -49 -114c0 -39 19 -71 39 -91c10 -10 26 -20 47 -31c21 -10 39 -18 53 -23c15 -5 36 -13 65 -22c140 -45 213 -92 213 -187c0 -111 -83 -185 -218 -185z" />
    <glyph glyph-name="uni0406" unicode="&#x406;" horiz-adv-x="220" 
d="M100 0v700h20v-700h-20z" />
    <glyph glyph-name="uni0407" unicode="&#x407;" horiz-adv-x="220" 
d="M44 786c-18 -18 -46 10 -28 28s46 -10 28 -28zM204 786c-18 -18 -46 10 -28 28s46 -10 28 -28zM100 0v700h20v-700h-20z" />
    <glyph glyph-name="uni0408" unicode="&#x408;" horiz-adv-x="554" 
d="M249 -10c-97 0 -168 42 -199 113l16 10c29 -70 90 -105 183 -105c121 0 195 71 195 172v520h20v-520c0 -57 -20 -103 -60 -138s-92 -52 -155 -52z" />
    <glyph glyph-name="uni0409" unicode="&#x409;" horiz-adv-x="995" 
d="M565 380h180c56 0 103 -18 142 -54s58 -81 58 -136s-19 -100 -58 -136s-86 -54 -142 -54h-200v682h-340v-412c0 -184 -57 -281 -180 -272v18c99 -8 160 65 160 254v430h380v-320zM565 18h180c50 0 92 16 127 49s53 74 53 123s-18 90 -53 123s-77 49 -127 49h-180v-344z
" />
    <glyph glyph-name="uni040A" unicode="&#x40a;" horiz-adv-x="990" 
d="M560 380h180c56 0 103 -18 142 -54s58 -81 58 -136s-19 -100 -58 -136s-86 -54 -142 -54h-200v362h-420v-362h-20v700h20v-320h420v320h20v-320zM560 18h180c50 0 92 16 127 49s53 74 53 123s-18 90 -53 123s-77 49 -127 49h-180v-344z" />
    <glyph glyph-name="uni040B" unicode="&#x40b;" horiz-adv-x="710" 
d="M455 470c49 0 91 -15 124 -46c34 -30 51 -72 51 -127v-297h-20v297c0 95 -66 155 -155 155c-73 0 -123 -17 -195 -53v-399h-20v682h-210v18h480v-18h-250v-264c37 18 69 31 96 39c27 9 60 13 99 13z" />
    <glyph glyph-name="uni040C" unicode="&#x40c;" horiz-adv-x="555" 
d="M341 889h21l-83 -120h-18zM142 360l403 -360h-27l-398 355v-355h-20v700h20v-335l388 335h27z" />
    <glyph glyph-name="uni040E" unicode="&#x40e;" horiz-adv-x="559" 
d="M166 816h240v-16h-240v16zM306 202l213 498h20l-233 -547c-47 -109 -111 -160 -193 -153v18c74 -6 132 41 175 142l8 19l-256 521h20z" />
    <glyph glyph-name="uni040F" unicode="&#x40f;" horiz-adv-x="700" 
d="M580 18v682h20v-700h-240v-134h-20v134h-240v700h20v-682h460z" />
    <glyph glyph-name="uni0410" unicode="&#x410;" horiz-adv-x="628" 
d="M603 0h-21l-75 191h-386l-75 -191h-21l277 700h24zM314 679l-186 -470h372z" />
    <glyph glyph-name="uni0411" unicode="&#x411;" horiz-adv-x="585" 
d="M120 400h220c55 0 102 -20 141 -59s59 -86 59 -141s-20 -102 -59 -141s-86 -59 -141 -59h-240v700h390v-18h-370v-282zM120 18h220c49 0 92 18 127 53c35 36 53 79 53 129s-18 93 -53 128c-35 36 -78 54 -127 54h-220v-364z" />
    <glyph glyph-name="uni0412" unicode="&#x412;" horiz-adv-x="630" 
d="M434 360c42 -9 77 -30 104 -63c28 -33 42 -71 42 -114c0 -51 -18 -94 -54 -130c-35 -35 -78 -53 -129 -53h-297v700h274c49 0 90 -17 124 -52c35 -35 52 -76 52 -124c0 -75 -47 -140 -116 -164zM374 682h-254v-316h254c43 0 79 15 110 46s46 69 46 112s-15 80 -46 111
s-67 47 -110 47zM120 18h277c45 0 83 16 115 48c32 33 48 72 48 117s-16 84 -48 116c-32 33 -70 49 -115 49h-277v-330z" />
    <glyph glyph-name="uni0413" unicode="&#x413;" horiz-adv-x="500" 
d="M100 700h370v-18h-350v-682h-20v700z" />
    <glyph glyph-name="uni0414" unicode="&#x414;" horiz-adv-x="690" 
d="M575 700v-682h70v-152h-20v134h-580v-134h-20v152h53c51 53 77 137 77 254v428h420zM175 682v-410c0 -113 -24 -198 -71 -254h451v664h-380z" />
    <glyph glyph-name="uni0415" unicode="&#x415;" horiz-adv-x="540" 
d="M120 344v-326h370v-18h-390v700h385v-18h-365v-320h340v-18h-340z" />
    <glyph glyph-name="uni0416" unicode="&#x416;" horiz-adv-x="808" 
d="M435 360l353 -360h-25l-349 355v-355h-20v355l-349 -355h-25l353 360l-343 340h25l339 -335v335h20v-335l339 335h25z" />
    <glyph glyph-name="uni0417" unicode="&#x417;" horiz-adv-x="540" 
d="M348 359c93 -19 152 -90 152 -179c0 -55 -21 -101 -62 -137c-41 -35 -94 -53 -161 -53c-123 0 -202 49 -237 146l17 9c31 -91 104 -137 220 -137c61 0 110 16 147 48c37 33 56 74 56 124c0 48 -17 88 -50 120s-77 48 -132 48h-77v18h59c53 0 96 15 127 46
c32 31 48 69 48 114c0 48 -17 88 -52 119c-34 31 -77 47 -129 47c-98 0 -164 -42 -199 -127l-16 9c38 91 110 136 215 136c58 0 106 -18 144 -53s57 -78 57 -131c0 -79 -48 -143 -127 -167z" />
    <glyph glyph-name="uni0418" unicode="&#x418;" horiz-adv-x="700" 
d="M600 0h-20v666l-460 -666h-20v700h20v-666l460 666h20v-700z" />
    <glyph glyph-name="uni0419" unicode="&#x419;" horiz-adv-x="700" 
d="M470 801h-240v16h240v-16zM600 0h-20v666l-460 -666h-20v700h20v-666l460 666h20v-700z" />
    <glyph glyph-name="uni041A" unicode="&#x41a;" horiz-adv-x="555" 
d="M142 360l403 -360h-27l-398 355v-355h-20v700h20v-335l388 335h27z" />
    <glyph glyph-name="uni041B" unicode="&#x41b;" horiz-adv-x="705" 
d="M25 0v18c99 -9 160 63 160 252v430h420v-700h-20v682h-380v-412c0 -184 -57 -281 -180 -270z" />
    <glyph glyph-name="uni041C" unicode="&#x41c;" horiz-adv-x="820" 
d="M694 700h26v-700h-20v673l-286 -464h-8l-286 464v-673h-20v700h26l284 -462z" />
    <glyph glyph-name="uni041D" unicode="&#x41d;" horiz-adv-x="700" 
d="M580 369v331h20v-700h-20v351h-460v-351h-20v700h20v-331h460z" />
    <glyph glyph-name="uni041E" unicode="&#x41e;" horiz-adv-x="840" 
d="M674 95c-70 -70 -155 -105 -254 -105s-184 35 -255 105c-70 71 -105 156 -105 255s35 184 105 254c71 71 156 106 255 106s184 -35 254 -106c71 -70 106 -155 106 -254s-35 -184 -106 -255zM179 108c67 -67 147 -100 241 -100s174 33 240 100c67 67 100 147 100 242
s-33 175 -100 242c-66 67 -146 100 -240 100s-174 -33 -241 -100c-66 -67 -99 -147 -99 -242s33 -175 99 -242z" />
    <glyph glyph-name="uni041F" unicode="&#x41f;" horiz-adv-x="700" 
d="M100 700h500v-700h-20v682h-460v-682h-20v700z" />
    <glyph glyph-name="uni0420" unicode="&#x420;" horiz-adv-x="580" 
d="M100 700h215c62 0 113 -20 154 -60s61 -90 61 -150s-20 -110 -61 -150s-92 -60 -154 -60h-195v-280h-20v700zM120 298h195c57 0 103 18 140 54c37 37 55 83 55 138s-18 101 -55 137c-37 37 -83 55 -140 55h-195v-384z" />
    <glyph glyph-name="uni0421" unicode="&#x421;" horiz-adv-x="764" 
d="M420 -10c-103 0 -189 35 -258 104c-68 70 -102 155 -102 256s34 186 102 255c69 70 155 105 258 105c124 0 235 -62 294 -161l-17 -10c-55 93 -160 153 -277 153c-98 0 -179 -33 -244 -99c-64 -66 -96 -147 -96 -243s32 -177 96 -243c65 -66 146 -99 244 -99
c121 0 229 63 281 160l18 -10c-57 -103 -171 -168 -299 -168z" />
    <glyph glyph-name="uni0422" unicode="&#x422;" horiz-adv-x="540" 
d="M30 700h480v-18h-230v-682h-20v682h-230v18z" />
    <glyph glyph-name="uni0423" unicode="&#x423;" horiz-adv-x="559" 
d="M306 202l213 498h20l-233 -547c-47 -109 -111 -160 -193 -153v18c74 -6 132 41 175 142l8 19l-256 521h20z" />
    <glyph glyph-name="uni0424" unicode="&#x424;" horiz-adv-x="804" 
d="M412 78v-78h-20v78c-104 1 -189 26 -254 73s-98 114 -98 199s33 152 98 199s150 72 254 73v78h20v-78c104 -1 189 -26 254 -73s98 -114 98 -199s-33 -152 -98 -199s-150 -72 -254 -73zM392 96v508c-102 -1 -183 -25 -243 -70c-59 -45 -89 -107 -89 -184s30 -139 89 -184
c60 -45 141 -69 243 -70zM412 604v-508c102 1 183 25 242 70c60 45 90 107 90 184s-30 139 -90 184c-59 45 -140 69 -242 70z" />
    <glyph glyph-name="uni0425" unicode="&#x425;" horiz-adv-x="560" 
d="M292 357l238 -357h-24l-226 339l-226 -339h-24l238 357l-229 343h24l217 -325l217 325h24z" />
    <glyph glyph-name="uni0426" unicode="&#x426;" horiz-adv-x="690" 
d="M580 700v-682h70v-152h-20v134h-530v700h20v-682h440v682h20z" />
    <glyph glyph-name="uni0427" unicode="&#x427;" horiz-adv-x="630" 
d="M510 337v363h20v-700h-20v317c-67 -31 -137 -47 -210 -47c-70 0 -124 18 -163 53c-38 36 -57 82 -57 137v240h20v-240c0 -103 75 -172 200 -172c70 0 140 16 210 49z" />
    <glyph glyph-name="uni0428" unicode="&#x428;" horiz-adv-x="970" 
d="M850 18v682h20v-700h-770v700h20v-682h355v682h20v-682h355z" />
    <glyph glyph-name="uni0429" unicode="&#x429;" horiz-adv-x="980" 
d="M870 700v-682h70v-152h-20v134h-820v700h20v-682h355v682h20v-682h355v682h20z" />
    <glyph glyph-name="uni042A" unicode="&#x42a;" horiz-adv-x="680" 
d="M415 0h-215v682h-200v18h220v-280h195c62 0 113 -20 154 -60s61 -90 61 -150s-20 -110 -61 -150s-92 -60 -154 -60zM220 402v-384h195c57 0 103 18 140 54c37 37 55 83 55 138s-18 101 -55 137c-37 37 -83 55 -140 55h-195z" />
    <glyph glyph-name="uni042B" unicode="&#x42b;" horiz-adv-x="740" 
d="M315 0h-215v700h20v-280h195c62 0 113 -20 154 -60s61 -90 61 -150s-20 -110 -61 -150s-92 -60 -154 -60zM640 0h-20v700h20v-700zM120 402v-384h195c57 0 103 18 140 54c37 37 55 83 55 138s-18 101 -55 137c-37 37 -83 55 -140 55h-195z" />
    <glyph glyph-name="uni042C" unicode="&#x42c;" horiz-adv-x="580" 
d="M120 420h195c62 0 113 -20 154 -60s61 -90 61 -150s-20 -110 -61 -150s-92 -60 -154 -60h-215v700h20v-280zM120 18h195c57 0 103 18 140 54c37 37 55 83 55 138s-18 101 -55 137c-37 37 -83 55 -140 55h-195v-384z" />
    <glyph glyph-name="uni042D" unicode="&#x42d;" horiz-adv-x="764" 
d="M344 710c103 0 189 -35 257 -105c69 -69 103 -154 103 -255s-34 -186 -103 -256c-68 -69 -154 -104 -257 -104c-128 0 -242 65 -299 168l18 10c52 -97 160 -160 281 -160c96 0 176 32 240 96s97 143 100 237h-418v18h418c-3 94 -36 173 -100 237s-144 96 -240 96
c-117 0 -222 -60 -277 -153l-17 10c59 99 170 161 294 161z" />
    <glyph glyph-name="uni042E" unicode="&#x42e;" horiz-adv-x="1060" 
d="M640 710c99 0 184 -35 254 -106c71 -70 106 -155 106 -254s-35 -184 -106 -255c-70 -70 -155 -105 -254 -105s-184 35 -255 105c-70 71 -105 156 -105 255v1h-160v-351h-20v700h20v-331h160c5 95 43 176 112 242s152 99 248 99zM399 108c67 -67 147 -100 241 -100
s174 33 240 100c67 67 100 147 100 242s-33 175 -100 242c-66 67 -146 100 -240 100s-174 -33 -241 -100c-66 -67 -99 -147 -99 -242s33 -175 99 -242z" />
    <glyph glyph-name="uni042F" unicode="&#x42f;" horiz-adv-x="640" 
d="M270 700h270v-700h-20v300h-242l-206 -300h-22l207 300c-52 3 -96 24 -133 63c-36 39 -54 84 -54 137c0 55 20 102 59 141s86 59 141 59zM270 318h250v364h-250c-49 0 -92 -18 -127 -54c-35 -35 -53 -78 -53 -128s18 -93 53 -129c35 -35 78 -53 127 -53z" />
    <glyph glyph-name="uni0430" unicode="&#x430;" horiz-adv-x="662" 
d="M552 347v153h20v-500h-20v153c-19 -49 -51 -89 -94 -119c-43 -29 -92 -44 -147 -44c-73 0 -134 25 -185 75s-76 112 -76 185s25 135 76 185s112 75 185 75c55 0 104 -15 147 -45c43 -29 75 -69 94 -118zM140 78c47 -47 104 -70 171 -70s124 23 171 70s70 104 70 172
s-23 125 -70 172s-104 70 -171 70s-124 -23 -171 -70s-70 -104 -70 -172s23 -125 70 -172z" />
    <glyph glyph-name="uni0431" unicode="&#x431;" horiz-adv-x="580" 
d="M300 -11c-73 0 -133 23 -180 70s-70 109 -70 186c0 80 11 143 34 188c23 46 71 87 143 123c19 9 41 19 66 29c25 11 46 19 61 26c49 21 96 50 102 97l16 -9c-8 -41 -46 -75 -81 -91l-75 -33c-33 -13 -60 -25 -79 -34c-55 -27 -96 -58 -121 -93s-39 -82 -44 -143
c48 97 138 149 234 149c66 0 121 -22 166 -66s68 -100 68 -168c0 -67 -23 -123 -68 -166s-102 -65 -172 -65zM300 7c65 0 117 20 158 59c41 40 62 91 62 154c0 62 -20 113 -61 154s-92 62 -153 62c-57 0 -108 -18 -151 -54s-72 -82 -85 -137c0 -70 21 -127 64 -172
c43 -44 98 -66 166 -66z" />
    <glyph glyph-name="uni0432" unicode="&#x432;" horiz-adv-x="520" 
d="M376 260c68 -15 104 -63 104 -127c0 -77 -53 -133 -149 -133h-241v500h224c91 0 141 -53 141 -126c0 -58 -26 -96 -79 -114zM314 482h-204v-216h204c76 0 121 41 121 108s-45 108 -121 108zM110 18h221c81 0 129 43 129 115s-48 115 -129 115h-221v-230z" />
    <glyph glyph-name="uni0433" unicode="&#x433;" horiz-adv-x="405" 
d="M90 500h300v-18h-280v-482h-20v500z" />
    <glyph glyph-name="uni0434" unicode="&#x434;" horiz-adv-x="590" 
d="M480 500v-482h70v-152h-20v134h-480v-134h-20v152h53c40 57 60 132 60 225v257h337zM106 18h354v464h-297v-239c0 -92 -19 -167 -57 -225z" />
    <glyph glyph-name="uni0435" unicode="&#x435;" horiz-adv-x="599" 
d="M303 510c73 0 132 -26 177 -78c46 -51 69 -113 69 -184v-10h-479c3 -68 26 -123 71 -166s101 -64 166 -64c88 0 163 40 196 103l17 -10c-39 -68 -118 -111 -213 -111c-74 0 -135 24 -184 73s-73 112 -73 187c0 74 24 136 71 185c48 50 109 75 182 75zM70 256h461
c-4 70 -28 127 -71 170c-43 44 -95 66 -157 66c-65 0 -120 -22 -165 -67c-44 -44 -67 -100 -68 -169z" />
    <glyph glyph-name="uni0436" unicode="&#x436;" horiz-adv-x="642" 
d="M351 260l261 -260h-26l-255 253v-253h-20v253l-255 -253h-26l261 260l-251 240h26l245 -233v233h20v-233l245 233h26z" />
    <glyph glyph-name="uni0437" unicode="&#x437;" horiz-adv-x="445" 
d="M292 260c72 -16 113 -68 113 -132c0 -77 -66 -138 -177 -138c-101 0 -163 38 -188 115l16 9c21 -71 79 -106 172 -106c96 0 157 48 157 120s-54 120 -139 120h-60v18h43c80 0 131 45 131 113c0 67 -59 113 -140 113c-77 0 -133 -36 -154 -92l-16 9c24 61 85 101 170 101
c48 0 87 -13 116 -39c29 -25 44 -56 44 -92c0 -55 -32 -100 -88 -119z" />
    <glyph glyph-name="uni0438" unicode="&#x438;" horiz-adv-x="580" 
d="M110 32l360 468h20v-500h-20v468l-360 -468h-20v500h20v-468z" />
    <glyph glyph-name="uni0439" unicode="&#x439;" horiz-adv-x="580" 
d="M410 601h-240v16h240v-16zM110 32l360 468h20v-500h-20v468l-360 -468h-20v500h20v-468z" />
    <glyph glyph-name="uni043A" unicode="&#x43a;" horiz-adv-x="461" 
d="M131 260l300 -260h-28l-293 254v-254h-20v500h20v-234l283 234h28z" />
    <glyph glyph-name="uni043B" unicode="&#x43b;" horiz-adv-x="580" 
d="M148 500h342v-500h-20v482h-302v-279c0 -156 -59 -211 -148 -203v18c87 -7 128 52 128 185v297z" />
    <glyph glyph-name="uni043C" unicode="&#x43c;" horiz-adv-x="650" 
d="M533 500h27v-500h-20v475l-212 -319h-6l-212 319v-475h-20v500h27l208 -312z" />
    <glyph glyph-name="uni043D" unicode="&#x43d;" horiz-adv-x="580" 
d="M470 259v241h20v-500h-20v241h-360v-241h-20v500h20v-241h360z" />
    <glyph glyph-name="uni043E" unicode="&#x43e;" horiz-adv-x="622" 
d="M496 65c-51 -50 -112 -75 -185 -75s-134 25 -185 75s-76 112 -76 185s25 135 76 185s112 75 185 75s134 -25 185 -75s76 -112 76 -185s-25 -135 -76 -185zM140 78c47 -47 104 -70 171 -70s124 23 171 70s70 104 70 172s-23 125 -70 172s-104 70 -171 70
s-124 -23 -171 -70s-70 -104 -70 -172s23 -125 70 -172z" />
    <glyph glyph-name="uni043F" unicode="&#x43f;" horiz-adv-x="580" 
d="M90 500h400v-500h-20v482h-360v-482h-20v500z" />
    <glyph glyph-name="uni0440" unicode="&#x440;" horiz-adv-x="662" 
d="M351 510c73 0 134 -25 185 -75s76 -112 76 -185s-25 -135 -76 -185s-112 -75 -185 -75c-55 0 -105 15 -149 46c-43 31 -74 71 -92 121v-357h-20v700h20v-157c18 50 49 90 92 121c44 31 94 46 149 46zM180 78c47 -47 104 -70 171 -70s124 23 171 70s70 104 70 172
s-23 125 -70 172s-104 70 -171 70s-124 -23 -171 -70s-70 -104 -70 -172s23 -125 70 -172z" />
    <glyph glyph-name="uni0441" unicode="&#x441;" horiz-adv-x="579" 
d="M311 -10c-74 0 -136 25 -186 75s-75 112 -75 185s25 135 75 185s112 75 186 75c97 0 181 -47 218 -122l-16 -10c-35 69 -111 114 -202 114c-69 0 -127 -23 -173 -70c-45 -46 -68 -103 -68 -172s23 -126 68 -173c46 -46 104 -69 173 -69c91 0 166 45 202 114l16 -10
c-37 -75 -121 -122 -218 -122z" />
    <glyph glyph-name="uni0442" unicode="&#x442;" horiz-adv-x="440" 
d="M20 500h400v-18h-190v-482h-20v482h-190v18z" />
    <glyph glyph-name="uni0443" unicode="&#x443;" horiz-adv-x="510" 
d="M270 1l200 499h20l-219 -546c-40 -99 -114 -161 -191 -154v18c69 -5 134 50 173 142l7 18l-240 522h20z" />
    <glyph glyph-name="uni0444" unicode="&#x444;" horiz-adv-x="670" 
d="M345 -12v-188h-20v188c-81 3 -147 29 -198 78s-77 111 -77 184s26 135 77 184s117 75 198 78v188h20v-188c81 -3 147 -29 198 -78s77 -111 77 -184s-26 -135 -77 -184s-117 -75 -198 -78zM325 6v488c-75 -3 -136 -27 -184 -73c-47 -45 -71 -102 -71 -171s24 -126 71 -172
c48 -45 109 -69 184 -72zM345 494v-488c75 3 136 27 183 72c48 46 72 103 72 172s-24 126 -72 171c-47 46 -108 70 -183 73z" />
    <glyph glyph-name="uni0445" unicode="&#x445;" horiz-adv-x="500" 
d="M262 256l208 -256h-25l-195 241l-195 -241h-25l208 256l-198 244h24l186 -229l186 229h24z" />
    <glyph glyph-name="uni0446" unicode="&#x446;" horiz-adv-x="600" 
d="M480 500v-482h80v-152h-20v134h-450v500h20v-482h350v482h20z" />
    <glyph glyph-name="uni0447" unicode="&#x447;" horiz-adv-x="550" 
d="M440 228v272h20v-500h-20v208c-54 -25 -111 -38 -172 -38c-123 0 -198 60 -198 160v170h20v-170c0 -88 65 -142 178 -142c59 0 117 13 172 40z" />
    <glyph glyph-name="uni0448" unicode="&#x448;" horiz-adv-x="830" 
d="M720 18v482h20v-500h-650v500h20v-482h295v482h20v-482h295z" />
    <glyph glyph-name="uni0449" unicode="&#x449;" horiz-adv-x="850" 
d="M740 500v-482h70v-152h-20v134h-700v500h20v-482h295v482h20v-482h295v482h20z" />
    <glyph glyph-name="uni044A" unicode="&#x44a;" horiz-adv-x="540" 
d="M170 298h168c45 0 83 -14 114 -41c32 -27 48 -62 48 -107s-16 -81 -48 -109c-31 -27 -69 -41 -114 -41h-188v482h-150v18h170v-202zM170 18h168c41 0 74 12 101 37s41 57 41 95c0 76 -59 130 -142 130h-168v-262z" />
    <glyph glyph-name="uni044B" unicode="&#x44b;" horiz-adv-x="640" 
d="M110 298h168c45 0 83 -14 114 -41c32 -27 48 -62 48 -107s-16 -81 -48 -109c-31 -27 -69 -41 -114 -41h-188v500h20v-202zM530 0v500h20v-500h-20zM110 18h168c41 0 74 12 101 37s41 57 41 95c0 76 -59 130 -142 130h-168v-262z" />
    <glyph glyph-name="uni044C" unicode="&#x44c;" horiz-adv-x="480" 
d="M110 298h168c45 0 83 -14 114 -41c32 -27 48 -62 48 -107s-16 -81 -48 -109c-31 -27 -69 -41 -114 -41h-188v500h20v-202zM110 18h168c41 0 74 12 101 37s41 57 41 95c0 76 -59 130 -142 130h-168v-262z" />
    <glyph glyph-name="uni044D" unicode="&#x44d;" horiz-adv-x="569" 
d="M263 510c76 0 138 -25 185 -74s71 -111 71 -186s-24 -137 -71 -186s-109 -74 -185 -74c-101 0 -186 47 -223 122l16 10c36 -71 112 -114 207 -114c69 0 125 22 168 66s66 100 68 167h-277v18h277c-2 67 -25 123 -68 167s-99 66 -168 66c-96 0 -172 -43 -207 -114l-16 10
c37 75 122 122 223 122z" />
    <glyph glyph-name="uni044E" unicode="&#x44e;" horiz-adv-x="810" 
d="M499 510c73 0 134 -25 185 -75s76 -112 76 -185s-25 -135 -76 -185s-112 -75 -185 -75c-71 0 -132 24 -182 72s-76 108 -79 179h-128v-241h-20v500h20v-241h128c3 71 29 131 79 179s111 72 182 72zM328 78c47 -47 104 -70 171 -70s124 23 171 70s70 104 70 172
s-23 125 -70 172s-104 70 -171 70s-124 -23 -171 -70s-70 -104 -70 -172s23 -125 70 -172z" />
    <glyph glyph-name="uni044F" unicode="&#x44f;" horiz-adv-x="500" 
d="M222 500h188v-500h-20v202h-152l-162 -202h-26l165 202c-43 1 -80 15 -110 42s-45 63 -45 106c0 45 16 81 47 108c32 28 70 42 115 42zM222 220h168v262h-168c-41 0 -75 -13 -102 -38s-40 -56 -40 -94c0 -76 59 -130 142 -130z" />
    <glyph glyph-name="uni0451" unicode="&#x451;" horiz-adv-x="599" 
d="M231 586c-18 -18 -46 10 -28 28s46 -10 28 -28zM391 586c-18 -18 -46 10 -28 28s46 -10 28 -28zM303 510c73 0 132 -26 177 -78c46 -51 69 -113 69 -184v-10h-479c3 -68 26 -123 71 -166s101 -64 166 -64c88 0 163 40 196 103l17 -10c-39 -68 -118 -111 -213 -111
c-74 0 -135 24 -184 73s-73 112 -73 187c0 74 24 136 71 185c48 50 109 75 182 75zM70 256h461c-4 70 -28 127 -71 170c-43 44 -95 66 -157 66c-65 0 -120 -22 -165 -67c-44 -44 -67 -100 -68 -169z" />
    <glyph glyph-name="uni0452" unicode="&#x452;" horiz-adv-x="595" 
d="M330 510c57 0 102 -18 137 -53s53 -82 53 -139v-408c0 -83 -48 -129 -139 -120v18c79 -9 119 25 119 102v408c0 101 -66 174 -171 174c-59 0 -107 -21 -144 -62s-55 -95 -55 -162v-268h-20v595h-80v17h80v88h20v-88h180v-17h-180v-232c27 95 105 147 200 147z" />
    <glyph glyph-name="uni0453" unicode="&#x453;" horiz-adv-x="405" 
d="M271 690h21l-83 -120h-18zM90 500h300v-18h-280v-482h-20v500z" />
    <glyph glyph-name="uni0454" unicode="&#x454;" horiz-adv-x="569" 
d="M306 8c95 0 171 43 207 114l16 -10c-37 -75 -122 -122 -223 -122c-76 0 -138 25 -185 74s-71 111 -71 186s24 137 71 186s109 74 185 74c101 0 186 -47 223 -122l-16 -10c-35 71 -111 114 -207 114c-69 0 -126 -22 -169 -66s-65 -100 -67 -167h277v-18h-277
c2 -67 24 -123 67 -167s100 -66 169 -66z" />
    <glyph glyph-name="uni0455" unicode="&#x455;" horiz-adv-x="465" 
d="M90 370c0 -57 51 -88 115 -101c92 -18 211 -36 210 -139c0 -39 -16 -73 -49 -100s-75 -40 -126 -40c-99 0 -160 35 -185 105l16 9c21 -64 77 -96 169 -96c91 0 155 51 155 122c0 59 -51 91 -115 104c-90 21 -212 35 -210 136c0 80 65 140 168 140c77 0 136 -37 160 -96
l-16 -9c-21 53 -75 87 -144 87c-89 0 -148 -50 -148 -122z" />
    <glyph glyph-name="uni0456" unicode="&#x456;" horiz-adv-x="200" 
d="M116 658c-20 -23 -54 13 -33 32c22 22 54 -11 33 -32zM110 0h-20v500h20v-500z" />
    <glyph glyph-name="uni0457" unicode="&#x457;" horiz-adv-x="200" 
d="M34 586c-18 -18 -46 10 -28 28s46 -10 28 -28zM194 586c-18 -18 -46 10 -28 28s46 -10 28 -28zM110 0h-20v500h20v-500z" />
    <glyph glyph-name="uni0458" unicode="&#x458;" horiz-adv-x="209" 
d="M92 690c22 22 54 -11 33 -32c-20 -23 -54 13 -33 32zM99 -90v590h20v-590c0 -83 -48 -129 -139 -120v18c79 -9 119 25 119 102z" />
    <glyph glyph-name="uni0459" unicode="&#x459;" horiz-adv-x="830" 
d="M480 278h158c87 0 152 -50 152 -138s-67 -140 -152 -140h-178v482h-292v-279c0 -156 -59 -211 -148 -203v18c87 -7 128 52 128 185v297h332v-222zM480 18h158c79 0 132 47 132 122s-53 120 -132 120h-158v-242z" />
    <glyph glyph-name="uni045A" unicode="&#x45a;" horiz-adv-x="810" 
d="M460 278h158c87 0 152 -50 152 -138s-67 -140 -152 -140h-178v260h-340v-260h-20v500h20v-222h340v222h20v-222zM460 18h158c79 0 132 47 132 122s-53 120 -132 120h-158v-242z" />
    <glyph glyph-name="uni045B" unicode="&#x45b;" horiz-adv-x="595" 
d="M330 510c57 0 102 -18 137 -53s53 -82 53 -139v-318h-20v318c0 101 -66 174 -171 174c-59 0 -107 -21 -144 -62s-55 -95 -55 -162v-268h-20v595h-80v17h80v88h20v-88h180v-17h-180v-232c27 95 105 147 200 147z" />
    <glyph glyph-name="uni045C" unicode="&#x45c;" horiz-adv-x="461" 
d="M291 690h21l-83 -120h-18zM131 260l300 -260h-28l-293 254v-254h-20v500h20v-234l283 234h28z" />
    <glyph glyph-name="uni045E" unicode="&#x45e;" horiz-adv-x="510" 
d="M148 617h240v-16h-240v16zM270 1l200 499h20l-219 -546c-40 -99 -114 -161 -191 -154v18c69 -5 134 50 173 142l7 18l-240 522h20z" />
    <glyph glyph-name="uni045F" unicode="&#x45f;" horiz-adv-x="580" 
d="M470 18v482h20v-500h-190v-134h-20v134h-190v500h20v-482h360z" />
    <glyph glyph-name="uni0490" unicode="&#x490;" horiz-adv-x="500" 
d="M450 700v120h20v-138h-350v-682h-20v700h350z" />
    <glyph glyph-name="uni0491" unicode="&#x491;" horiz-adv-x="405" 
d="M370 500v104h20v-122h-280v-482h-20v500h280z" />
    <glyph glyph-name="Wgrave" unicode="&#x1e80;" horiz-adv-x="980" 
d="M447 770h-17l-84 120h21zM243 0h24l223 676l223 -676h24l203 700h-20l-195 -676l-223 676h-24l-223 -676l-195 676h-20z" />
    <glyph glyph-name="wgrave" unicode="&#x1e81;" horiz-adv-x="770" 
d="M330 690l80 -120h-17l-84 120h21zM554 29l155 471h21l-164 -500h-22l-159 473l-159 -473h-22l-164 500h21l155 -471l157 471h24z" />
    <glyph glyph-name="Wacute" unicode="&#x1e82;" horiz-adv-x="980" 
d="M397 770l80 120h21l-83 -120h-18zM243 0h24l223 676l223 -676h24l203 700h-20l-195 -676l-223 676h-24l-223 -676l-195 676h-20z" />
    <glyph glyph-name="wacute" unicode="&#x1e83;" horiz-adv-x="770" 
d="M440 690h21l-83 -120h-18zM554 29l155 471h21l-164 -500h-22l-159 473l-159 -473h-22l-164 500h21l155 -471l157 471h24z" />
    <glyph glyph-name="Wdieresis" unicode="&#x1e84;" horiz-adv-x="980" 
d="M356 786c-18 -18 -46 10 -28 28s46 -10 28 -28zM516 786c-18 -18 -46 10 -28 28s46 -10 28 -28zM267 0h-24l-203 700h20l195 -676l223 676h24l223 -676l195 676h20l-203 -700h-24l-223 676z" />
    <glyph glyph-name="wdieresis" unicode="&#x1e85;" horiz-adv-x="770" 
d="M319 586c-18 -18 -46 10 -28 28s46 -10 28 -28zM479 586c-18 -18 -46 10 -28 28s46 -10 28 -28zM554 29l155 471h21l-164 -500h-22l-159 473l-159 -473h-22l-164 500h21l155 -471l157 471h24z" />
    <glyph glyph-name="Ygrave" unicode="&#x1ef2;" horiz-adv-x="560" 
d="M225 890l80 -120h-17l-84 120h21zM528 700h22l-260 -410v-290h-20v290l-260 410h22l248 -393z" />
    <glyph glyph-name="ygrave" unicode="&#x1ef3;" horiz-adv-x="510" 
d="M213 690l80 -120h-17l-84 120h21zM270 1l200 499h20l-219 -546c-40 -99 -114 -161 -191 -154v18c69 -5 134 50 173 142l7 18l-240 522h20z" />
    <glyph glyph-name="endash" unicode="&#x2013;" horiz-adv-x="700" 
d="M600 300h-500v18h500v-18z" />
    <glyph glyph-name="emdash" unicode="&#x2014;" horiz-adv-x="800" 
d="M700 300h-600v18h600v-18z" />
    <glyph glyph-name="quoteleft" unicode="&#x2018;" horiz-adv-x="190" 
d="M91 525h-26l42 175h18z" />
    <glyph glyph-name="quoteright" unicode="&#x2019;" horiz-adv-x="190" 
d="M99 700h26l-42 -175h-18z" />
    <glyph glyph-name="quotesinglbase" unicode="&#x201a;" horiz-adv-x="190" 
d="M99 35h26l-42 -175h-18z" />
    <glyph glyph-name="quotedblleft" unicode="&#x201c;" horiz-adv-x="290" 
d="M91 525h-26l42 175h18zM191 525h-26l42 175h18z" />
    <glyph glyph-name="quotedblright" unicode="&#x201d;" horiz-adv-x="290" 
d="M99 700h26l-42 -175h-18zM199 700h26l-42 -175h-18z" />
    <glyph glyph-name="quotedblbase" unicode="&#x201e;" horiz-adv-x="290" 
d="M99 35h26l-42 -175h-18zM199 35h26l-42 -175h-18z" />
    <glyph glyph-name="dagger" unicode="&#x2020;" horiz-adv-x="460" 
d="M240 512h150v-18h-150v-494h-20v494h-150v18h150v188h20v-188z" />
    <glyph glyph-name="daggerdbl" unicode="&#x2021;" horiz-adv-x="460" 
d="M390 512v-18h-150v-288h150v-18h-150v-188h-20v188h-150v18h150v288h-150v18h150v188h20v-188h150z" />
    <glyph glyph-name="bullet" unicode="&#x2022;" horiz-adv-x="240" 
d="M121 410c33 0 59 -26 59 -59c0 -54 -64 -81 -102 -43s-11 102 43 102z" />
    <glyph glyph-name="ellipsis" unicode="&#x2026;" horiz-adv-x="560" 
d="M107 -3c-22 -22 -58 13 -35 36c22 24 60 -13 35 -36zM297 -3c-22 -22 -58 13 -35 36c22 24 60 -13 35 -36zM487 -3c-22 -22 -58 13 -35 36c22 24 60 -13 35 -36z" />
    <glyph glyph-name="perthousand" unicode="&#x2030;" horiz-adv-x="1099" 
d="M223 414c-44 0 -81 14 -110 42c-29 29 -43 64 -43 106s14 77 43 105c29 29 66 43 110 43s80 -14 109 -43c29 -28 44 -63 44 -105s-14 -77 -43 -106c-29 -28 -65 -42 -110 -42zM223 432c77 0 133 55 133 130c0 37 -13 68 -38 93s-57 37 -95 37s-70 -12 -95 -37
s-38 -56 -38 -93s13 -68 38 -93s57 -37 95 -37zM129 71l-15 9l485 549l16 -9zM615 32c-29 -28 -65 -42 -109 -42s-81 14 -110 42c-29 29 -43 64 -43 106s14 77 43 105c29 29 66 43 110 43s80 -14 109 -43c29 -28 44 -63 44 -105s-15 -77 -44 -106zM985 32
c-29 -28 -65 -42 -109 -42s-81 14 -110 42c-29 29 -43 64 -43 106s14 77 43 105c29 29 66 43 110 43s80 -14 109 -43c29 -28 44 -63 44 -105s-15 -77 -44 -106zM411 45c25 -25 57 -37 95 -37s70 12 95 37s38 56 38 93s-13 68 -38 93s-57 37 -95 37s-70 -12 -95 -37
s-38 -56 -38 -93s13 -68 38 -93zM781 45c25 -25 57 -37 95 -37s70 12 95 37s38 56 38 93s-13 68 -38 93s-57 37 -95 37s-70 -12 -95 -37s-38 -56 -38 -93s13 -68 38 -93z" />
    <glyph glyph-name="guilsinglleft" unicode="&#x2039;" horiz-adv-x="322" 
d="M200 469h22l-100 -160l100 -160h-22l-100 160z" />
    <glyph glyph-name="guilsinglright" unicode="&#x203a;" horiz-adv-x="322" 
d="M100 469h22l100 -160l-100 -160h-22l100 160z" />
    <glyph glyph-name="fraction" unicode="&#x2044;" horiz-adv-x="240" 
d="M340 700l-420 -700h-20l420 700h20z" />
    <glyph glyph-name="Euro" unicode="&#x20ac;" horiz-adv-x="619" 
d="M380 8c85 0 151 45 183 125l16 -8c-33 -85 -106 -135 -199 -135c-140 0 -234 107 -255 282h-95v18h93c-4 37 -4 83 0 120h-93v18h95c21 175 115 282 255 282c93 0 166 -50 199 -134l-17 -9c-31 80 -97 125 -182 125c-125 0 -214 -99 -235 -264h295v-18h-297
c-4 -37 -4 -83 0 -120h297v-18h-295c21 -165 110 -264 235 -264z" />
    <glyph glyph-name="uni20BD" unicode="&#x20bd;" horiz-adv-x="550" 
d="M310 300h-200v-122h280v-18h-280v-160h-20v160h-90v18h90v122h-90v18h90v382h220c55 0 102 -20 141 -59s59 -86 59 -141s-20 -102 -59 -141s-86 -59 -141 -59zM310 682h-200v-364h200c49 0 92 18 127 53c35 36 53 79 53 129s-18 93 -53 128c-35 36 -78 54 -127 54z" />
    <glyph glyph-name="uni2116" unicode="&#x2116;" horiz-adv-x="1026" 
d="M833 430c-41 0 -75 14 -102 41s-41 60 -41 99s14 72 41 99s61 41 102 41s75 -14 102 -41s41 -60 41 -99s-14 -73 -41 -100s-61 -40 -102 -40zM580 34v666h20v-700h-20l-460 666v-666h-20v700h20zM833 448c71 0 123 53 123 122s-54 122 -123 122s-123 -53 -123 -122
s54 -122 123 -122zM966 314h-266v18h266v-18z" />
    <glyph glyph-name="trademark" unicode="&#x2122;" horiz-adv-x="505" 
d="M70 700h142v-19h-62v-181h-20v181h-60v19zM340 578l75 122h20v-200h-20v165l-73 -119h-4l-73 119v-165h-20v200h20z" />
    <glyph glyph-name="estimated" unicode="&#x212e;" horiz-adv-x="860" 
d="M800 350c0 -10 -5 -15 -15 -15h-560c-10 0 -15 -5 -15 -15v-192c0 -7 2 -14 7 -19c56 -59 134 -89 233 -89c97 0 174 32 231 97c5 6 11 9 18 9h37c13 0 18 -10 9 -19c-73 -78 -171 -117 -295 -117c-117 0 -212 34 -283 103s-107 155 -107 257c0 101 34 187 103 256
s158 104 267 104s197 -35 266 -104s104 -155 104 -256zM650 380v192c0 7 -2 14 -7 19c-56 59 -127 89 -213 89s-157 -30 -213 -89c-5 -5 -7 -12 -7 -19v-192c0 -10 5 -15 15 -15h410c10 0 15 5 15 15z" />
    <glyph glyph-name="oneeighth" unicode="&#x215b;" horiz-adv-x="840" 
d="M165 300h-20v374l-119 -44l-6 18l135 52h10v-400zM145 0l420 700h20l-420 -700h-20zM717 210c51 -16 83 -57 83 -109c0 -68 -56 -113 -137 -113s-138 45 -138 113c0 52 33 93 84 109c-43 16 -71 49 -71 93c0 68 54 109 125 109s124 -41 124 -109c0 -44 -29 -77 -70 -93z
M558 303c0 -51 48 -85 105 -85c56 0 104 34 104 85c0 57 -45 91 -104 91c-60 0 -105 -34 -105 -91zM663 6c69 0 117 36 117 95c0 60 -49 99 -117 99s-118 -39 -118 -99c0 -59 47 -95 118 -95z" />
    <glyph glyph-name="threeeighths" unicode="&#x215c;" horiz-adv-x="938" 
d="M298 412c0 -71 -50 -124 -134 -124c-67 0 -110 25 -129 74l16 9c17 -43 55 -65 113 -65c73 0 114 46 114 106s-41 106 -114 106h-3l-9 13l110 151h-217v18h238v-18l-106 -146c76 -5 121 -57 121 -124zM243 0l420 700h20l-420 -700h-20zM815 210c51 -16 83 -57 83 -109
c0 -68 -56 -113 -137 -113s-138 45 -138 113c0 52 33 93 84 109c-43 16 -71 49 -71 93c0 68 54 109 125 109s124 -41 124 -109c0 -44 -29 -77 -70 -93zM656 303c0 -51 48 -85 105 -85c56 0 104 34 104 85c0 57 -45 91 -104 91c-60 0 -105 -34 -105 -91zM761 6
c69 0 117 36 117 95c0 60 -49 99 -117 99s-118 -39 -118 -99c0 -59 47 -95 118 -95z" />
    <glyph glyph-name="fiveeighths" unicode="&#x215d;" horiz-adv-x="931" 
d="M162 288c-63 0 -105 24 -127 71l16 9c18 -41 55 -62 111 -62c68 0 113 41 113 106s-45 106 -113 106h-110l15 182h212v-18h-194l-13 -146h90c80 0 133 -52 133 -124s-53 -124 -133 -124zM236 0l420 700h20l-420 -700h-20zM808 210c51 -16 83 -57 83 -109
c0 -68 -56 -113 -137 -113s-138 45 -138 113c0 52 33 93 84 109c-43 16 -71 49 -71 93c0 68 54 109 125 109s124 -41 124 -109c0 -44 -29 -77 -70 -93zM649 303c0 -51 48 -85 105 -85c56 0 104 34 104 85c0 57 -45 91 -104 91c-60 0 -105 -34 -105 -91zM754 6
c69 0 117 36 117 95c0 60 -49 99 -117 99s-118 -39 -118 -99c0 -59 47 -95 118 -95z" />
    <glyph glyph-name="seveneighths" unicode="&#x215e;" horiz-adv-x="931" 
d="M30 700h266v-16l-168 -384h-22l167 382h-243v18zM236 0l420 700h20l-420 -700h-20zM808 210c51 -16 83 -57 83 -109c0 -68 -56 -113 -137 -113s-138 45 -138 113c0 52 33 93 84 109c-43 16 -71 49 -71 93c0 68 54 109 125 109s124 -41 124 -109c0 -44 -29 -77 -70 -93z
M649 303c0 -51 48 -85 105 -85c56 0 104 34 104 85c0 57 -45 91 -104 91c-60 0 -105 -34 -105 -91zM754 6c69 0 117 36 117 95c0 60 -49 99 -117 99s-118 -39 -118 -99c0 -59 47 -95 118 -95z" />
    <glyph glyph-name="arrowleft" unicode="&#x2190;" horiz-adv-x="840" 
d="M106 359h664v-18h-664l291 -291h-27l-300 300l300 300h27z" />
    <glyph glyph-name="arrowup" unicode="&#x2191;" horiz-adv-x="740" 
d="M370 700l300 -300v-27l-290 290v-663h-20v663l-290 -290v27z" />
    <glyph glyph-name="arrowright" unicode="&#x2192;" horiz-adv-x="840" 
d="M443 650h27l300 -300l-300 -300h-27l291 291h-664v18h664z" />
    <glyph glyph-name="arrowdown" unicode="&#x2193;" horiz-adv-x="740" 
d="M380 700v-663l290 290v-27l-300 -300l-300 300v27l290 -290v663h20z" />
    <glyph glyph-name="arrowboth" unicode="&#x2194;" horiz-adv-x="1020" 
d="M683 590h27l240 -240l-240 -240h-27l231 231h-808l231 -231h-27l-240 240l240 240h27l-231 -231h808z" />
    <glyph glyph-name="arrowupdn" unicode="&#x2195;" horiz-adv-x="640" 
d="M560 550v-27l-230 230v-806l230 230v-27l-240 -240l-240 240v27l230 -230v806l-230 -230v27l240 240z" />
    <glyph glyph-name="uni2196" unicode="&#x2196;" horiz-adv-x="642" 
d="M103 568l469 -468l-15 -15l-468 469v-410l-19 19v424h424l19 -19h-410z" />
    <glyph glyph-name="uni2197" unicode="&#x2197;" horiz-adv-x="642" 
d="M129 568l19 19h424v-424l-19 -19v410l-468 -469l-15 15l469 468h-410z" />
    <glyph glyph-name="uni2198" unicode="&#x2198;" horiz-adv-x="642" 
d="M553 122v410l19 -19v-424h-424l-19 19h410l-469 468l15 15z" />
    <glyph glyph-name="uni2199" unicode="&#x2199;" horiz-adv-x="642" 
d="M557 591l15 -15l-469 -468h410l-19 -19h-424v424l19 19v-410z" />
    <glyph glyph-name="partialdiff" unicode="&#x2202;" horiz-adv-x="580" 
d="M236 710c78 0 143 -33 195 -99c53 -66 79 -153 79 -261c0 -113 -23 -202 -70 -265c-46 -63 -106 -95 -179 -95c-61 0 -109 20 -146 59c-37 40 -55 90 -55 151c0 69 20 124 60 166c41 43 95 64 163 64c77 0 146 -20 207 -60c-3 94 -28 171 -75 231c-46 61 -106 91 -179 91
c-47 0 -87 -11 -120 -33v21c34 20 74 30 120 30zM261 8c69 0 125 30 166 91s62 143 63 247c-63 44 -132 66 -207 66c-61 0 -111 -19 -148 -58c-37 -38 -55 -89 -55 -154c0 -57 17 -103 50 -139c34 -35 78 -53 131 -53z" />
    <glyph glyph-name="emptyset" unicode="&#x2205;" horiz-adv-x="844" 
d="M741 720l-81 -98c77 -68 124 -165 124 -272c0 -100 -35 -185 -106 -255s-156 -105 -256 -105c-84 0 -158 25 -223 76l-72 -86h-24l81 98c-77 68 -124 165 -124 272c0 100 35 185 106 255s156 105 256 105c84 0 158 -25 223 -76l72 86h24zM80 350c0 -101 44 -194 116 -257
l437 526c-61 49 -132 73 -211 73c-95 0 -175 -33 -242 -100s-100 -147 -100 -242zM422 8c95 0 175 33 242 100s100 147 100 242c0 101 -44 194 -116 257l-437 -526c61 -49 132 -73 211 -73z" />
    <glyph glyph-name="product" unicode="&#x220f;" horiz-adv-x="640" 
d="M120 -200h-20v900h440v-900h-20v882h-400v-882z" />
    <glyph glyph-name="summation" unicode="&#x2211;" horiz-adv-x="542" 
d="M502 -200h-432v17l279 443l-266 423v17h404v-18h-382l266 -422l-279 -442h410v-18z" />
    <glyph glyph-name="minus" unicode="&#x2212;" horiz-adv-x="540" 
d="M470 341h-400v18h400v-18z" />
    <glyph glyph-name="radical" unicode="&#x221a;" horiz-adv-x="629" 
d="M336 0h-22l-168 282h-76v18h86l167 -280l256 780h20z" />
    <glyph glyph-name="infinity" unicode="&#x221e;" horiz-adv-x="819" 
d="M603 500c84 0 146 -61 146 -150s-62 -150 -146 -150c-44 0 -82 15 -117 47c-17 17 -30 30 -39 40l-37 47c-15 -21 -28 -36 -37 -47s-22 -24 -39 -40c-35 -32 -74 -47 -118 -47c-84 0 -146 61 -146 150s62 150 146 150c44 0 83 -15 118 -47c17 -16 30 -29 39 -40
s22 -26 37 -47c16 21 28 36 37 46c9 11 22 24 39 40c35 33 73 48 117 48zM216 218c40 0 76 14 108 46c17 16 29 29 38 39s21 26 36 47c-15 21 -27 37 -36 47s-21 23 -38 39c-32 32 -68 46 -108 46c-75 0 -126 -53 -126 -132s51 -132 126 -132zM603 218c75 0 126 53 126 132
s-51 132 -126 132c-40 0 -75 -14 -108 -46c-16 -16 -28 -29 -37 -39s-21 -26 -36 -47c15 -21 27 -37 36 -47s21 -23 37 -39c33 -32 68 -46 108 -46z" />
    <glyph glyph-name="integral" unicode="&#x222b;" horiz-adv-x="431" 
d="M0 -204v20c68 -31 125 8 141 96l117 680c17 96 84 140 173 111v-19c-79 29 -137 -7 -153 -96l-117 -680c-17 -93 -84 -140 -161 -112z" />
    <glyph glyph-name="approxequal" unicode="&#x2248;" horiz-adv-x="572" 
d="M281 422c-141 97 -183 -3 -193 -46l-18 8c5 21 13 43 37 68c31 37 91 51 184 -14c65 -47 118 -53 146 -30c28 24 40 48 47 76l18 -8c-5 -21 -13 -43 -37 -68c-33 -35 -89 -51 -184 14zM88 216l-18 8c5 21 13 43 37 68c31 37 91 51 184 -14c65 -47 118 -53 146 -30
c28 24 40 48 47 76l18 -8c-5 -21 -13 -43 -37 -68c-33 -35 -89 -51 -184 14c-141 97 -183 -3 -193 -46z" />
    <glyph glyph-name="notequal" unicode="&#x2260;" horiz-adv-x="530" 
d="M460 459v-18h-137l-85 -182h222v-18h-230l-78 -166h-20l78 166h-140v18h148l85 182h-233v18h241l78 166h20l-78 -166h129z" />
    <glyph glyph-name="lessequal" unicode="&#x2264;" horiz-adv-x="540" 
d="M70 417l400 163v-20l-378 -152l378 -152v-20l-400 163v18zM470 120h-400v18h400v-18z" />
    <glyph glyph-name="greaterequal" unicode="&#x2265;" horiz-adv-x="540" 
d="M70 560v20l400 -163v-18l-400 -163v20l378 152zM470 120h-400v18h400v-18z" />
    <glyph glyph-name="lozenge" unicode="&#x25ca;" horiz-adv-x="534" 
d="M277 0h-20l-187 350l187 350h20l187 -350zM92 350l175 -327l175 327l-175 327z" />
    <glyph glyph-name="i.loclTRK" horiz-adv-x="200" 
d="M121 588c-11 -11 -31 -11 -43 0c-11 12 -11 32 0 43c28 28 71 -15 43 -43zM110 0h-20v500h20v-500z" />
    <glyph glyph-name="f_f_j" horiz-adv-x="768" 
d="M409 500h269v-590c0 -83 -48 -129 -139 -120v18c79 -9 119 25 119 102v572h-249v-482h-20v482h-249v-482h-20v482h-90v18h90v40c0 115 59 179 179 170v-18c-106 9 -159 -42 -159 -152v-40h249v50c0 113 60 170 179 170c35 0 68 -3 100 -10v-18c-32 7 -65 10 -100 10
c-111 0 -159 -49 -159 -152v-50z" />
    <glyph glyph-name="f_j" horiz-adv-x="499" 
d="M140 500h269v-590c0 -83 -48 -129 -139 -120v18c79 -9 119 25 119 102v572h-249v-482h-20v482h-90v18h90v40c0 113 60 170 179 170c35 0 68 -3 100 -10v-18c-32 7 -65 10 -100 10c-111 0 -159 -49 -159 -152v-40z" />
    <glyph glyph-name="uni0414.loclBGR" horiz-adv-x="710" 
d="M367 700l250 -682h63v-152h-20v134h-610v-134h-20v152h63l250 682h24zM355 679l-241 -661h482z" />
    <glyph glyph-name="uni041B.loclBGR" horiz-adv-x="598" 
d="M20 0l267 700h24l267 -700h-21l-258 678l-258 -678h-21z" />
    <glyph glyph-name="uni0424.loclBGR" horiz-adv-x="864" 
d="M442 -10v-90h-20v90c-106 2 -193 36 -261 101c-67 66 -101 152 -101 259s34 193 101 258c68 66 155 100 261 102v90h20v-90c106 -2 193 -36 260 -102c68 -65 102 -151 102 -258s-34 -193 -102 -259c-67 -65 -154 -99 -260 -101zM422 8v684c-105 -2 -189 -35 -250 -98
s-92 -145 -92 -244s31 -181 92 -244s145 -96 250 -98zM442 692v-684c105 2 189 35 250 98s92 145 92 244s-31 181 -92 244s-145 96 -250 98z" />
    <glyph glyph-name="uni0414.ss01" horiz-adv-x="690" 
d="M575 700v-682h70v-18h-620v18h53c51 53 77 137 77 254v428h420zM175 682v-410c0 -113 -24 -198 -71 -254h451v664h-380z" />
    <glyph glyph-name="uni0426.ss01" horiz-adv-x="690" 
d="M580 700v-682h70v-18h-550v700h20v-682h440v682h20z" />
    <glyph glyph-name="uni0429.ss01" horiz-adv-x="980" 
d="M870 700v-682h70v-18h-840v700h20v-682h355v682h20v-682h355v682h20z" />
    <glyph glyph-name="uni0414.loclBGR.ss01" horiz-adv-x="710" 
d="M367 700l250 -682h63v-18h-650v18h63l250 682h24zM355 679l-241 -661h482z" />
    <glyph glyph-name="uni0432.loclBGR" horiz-adv-x="580" 
d="M364 404c108 -13 166 -91 166 -204c0 -132 -81 -210 -220 -210s-220 89 -220 240v245c0 149 76 235 205 235c51 0 92 -15 121 -45c29 -29 44 -65 44 -106c0 -57 -33 -116 -96 -155zM295 692c-117 0 -185 -78 -185 -217v-102l139 26c29 6 58 8 85 7c69 39 106 97 106 153
c0 72 -54 133 -145 133zM510 200c0 139 -89 213 -261 181l-139 -26v-125c0 -140 73 -222 200 -222s200 71 200 192z" />
    <glyph glyph-name="uni0433.loclBGR" horiz-adv-x="465" 
d="M399 109l16 -9c-24 -68 -88 -110 -185 -110c-52 0 -94 13 -127 38c-32 26 -48 58 -48 97c0 68 50 106 113 122c91 23 207 36 207 128c0 71 -57 117 -138 117c-77 0 -133 -36 -154 -92l-16 9c24 61 85 101 170 101c93 0 158 -58 158 -135c0 -65 -50 -103 -113 -119
c-91 -21 -207 -37 -207 -131c0 -71 64 -117 155 -117s147 34 169 101z" />
    <glyph glyph-name="uni0434.loclBGR" horiz-adv-x="672" 
d="M562 343v157h20v-469c0 -148 -91 -241 -246 -241c-115 0 -201 50 -233 118l16 9c29 -61 109 -109 217 -109c143 0 226 86 226 223v126c-18 -50 -49 -90 -93 -121c-43 -31 -93 -46 -148 -46c-73 0 -134 25 -185 75s-76 112 -76 185s25 135 76 185s112 75 185 75
c55 0 105 -15 148 -46c44 -31 75 -71 93 -121zM150 78c47 -47 104 -70 171 -70s124 23 171 70s70 104 70 172s-23 125 -70 172s-104 70 -171 70s-124 -23 -171 -70s-70 -104 -70 -172s23 -125 70 -172z" />
    <glyph glyph-name="uni0436.loclBGR" horiz-adv-x="642" 
d="M351 260l261 -260h-26l-255 253v-253h-20v253l-255 -253h-26l261 260l-251 240h26l245 -233v433h20v-433l245 233h26z" />
    <glyph glyph-name="uni0438.loclBGR" horiz-adv-x="575" 
d="M465 232v268h20v-500h-20v137c-27 -95 -105 -147 -200 -147c-57 0 -103 18 -138 53s-52 82 -52 139v318h20v-318c0 -101 66 -174 171 -174c59 0 106 20 143 61s56 96 56 163z" />
    <glyph glyph-name="uni0439.loclBGR" horiz-adv-x="575" 
d="M160 617h240v-16h-240v16zM465 232v268h20v-500h-20v137c-27 -95 -105 -147 -200 -147c-57 0 -103 18 -138 53s-52 82 -52 139v318h20v-318c0 -101 66 -174 171 -174c59 0 106 20 143 61s56 96 56 163z" />
    <glyph glyph-name="uni043A.loclBGR" horiz-adv-x="461" 
d="M131 260l300 -260h-28l-293 254v-254h-20v700h20v-434l283 234h28z" />
    <glyph glyph-name="uni043B.loclBGR" horiz-adv-x="512" 
d="M267 500l225 -500h-21l-215 478l-215 -478h-21l225 500h22z" />
    <glyph glyph-name="uni043F.loclBGR" horiz-adv-x="575" 
d="M310 510c57 0 102 -18 137 -53s53 -82 53 -139v-318h-20v318c0 101 -66 174 -171 174c-59 0 -107 -21 -144 -62s-55 -95 -55 -162v-268h-20v500h20v-137c27 95 105 147 200 147z" />
    <glyph glyph-name="uni0442.loclBGR" horiz-adv-x="875" 
d="M627 510c103 0 173 -63 173 -183v-327h-20v327c0 105 -60 165 -153 165c-101 0 -172 -78 -172 -210v-282h-20v327c0 105 -58 165 -149 165c-104 0 -176 -78 -176 -210v-282h-20v500h20v-121c25 88 93 131 176 131c85 0 149 -47 165 -136c25 91 96 136 176 136z" />
    <glyph glyph-name="uni0446.loclBGR" horiz-adv-x="595" 
d="M535 18h20v-152h-20v134c-44 0 -70 26 -70 70v67c-27 -95 -105 -147 -200 -147c-57 0 -103 18 -138 53s-52 82 -52 139v318h20v-318c0 -101 66 -174 171 -174c59 0 106 20 143 61s56 96 56 163v268h20v-430c0 -33 19 -52 50 -52z" />
    <glyph glyph-name="uni0448.loclBGR" horiz-adv-x="875" 
d="M765 218v282h20v-500h-20v121c-25 -88 -93 -131 -176 -131c-85 0 -149 47 -165 136c-25 -91 -96 -136 -176 -136c-103 0 -173 63 -173 183v327h20v-327c0 -105 60 -165 153 -165c101 0 172 78 172 210v282h20v-327c0 -105 58 -165 149 -165c104 0 176 78 176 210z" />
    <glyph glyph-name="uni0449.loclBGR" horiz-adv-x="895" 
d="M835 18h20v-152h-20v134c-44 0 -70 26 -70 70v51c-25 -88 -93 -131 -176 -131c-85 0 -149 47 -165 136c-25 -91 -96 -136 -176 -136c-103 0 -173 63 -173 183v327h20v-327c0 -105 60 -165 153 -165c101 0 172 78 172 210v282h20v-327c0 -105 58 -165 149 -165
c104 0 176 78 176 210v282h20v-430c0 -33 19 -52 50 -52z" />
    <glyph glyph-name="uni044C.loclBGR" horiz-adv-x="485" 
d="M95 320h165c111 0 185 -64 185 -160c0 -49 -17 -89 -52 -122c-34 -32 -78 -48 -133 -48c-121 0 -185 67 -185 170v340h20v-180zM260 8c49 0 88 14 119 43s46 66 46 109c0 85 -66 142 -165 142h-165v-142c0 -91 57 -152 165 -152z" />
    <glyph glyph-name="uni044A.loclBGR" 
d="M180 320h165c111 0 185 -64 185 -160c0 -49 -17 -89 -52 -122c-34 -32 -78 -48 -133 -48c-121 0 -185 67 -185 170v322h-160v18h180v-180zM345 8c49 0 88 14 119 43s46 66 46 109c0 85 -66 142 -165 142h-165v-142c0 -91 57 -152 165 -152z" />
    <glyph glyph-name="uni044E.loclBGR" horiz-adv-x="810" 
d="M499 510c73 0 134 -25 185 -75s76 -112 76 -185s-25 -135 -76 -185s-112 -75 -185 -75c-71 0 -132 24 -182 72s-76 108 -79 179h-128v-241h-20v700h20v-441h128c3 71 29 131 79 179s111 72 182 72zM328 78c47 -47 104 -70 171 -70s124 23 171 70s70 104 70 172
s-23 125 -70 172s-104 70 -171 70s-124 -23 -171 -70s-70 -104 -70 -172s23 -125 70 -172z" />
    <glyph glyph-name="zero.sinf" horiz-adv-x="410" 
d="M325 -113c-30 -39 -70 -59 -120 -59s-90 20 -120 59s-45 90 -45 153s15 114 45 153s70 59 120 59s90 -20 120 -59s45 -90 45 -153s-15 -114 -45 -153zM99 -101c26 -35 61 -53 106 -53s80 18 106 53s39 82 39 141s-13 106 -39 141s-61 53 -106 53s-80 -18 -106 -53
s-39 -82 -39 -141s13 -106 39 -141z" />
    <glyph glyph-name="one.sinf" horiz-adv-x="235" 
d="M20 188l135 52h10v-400h-20v374l-119 -44z" />
    <glyph glyph-name="two.sinf" horiz-adv-x="346" 
d="M306 -160h-266v15l188 180c33 31 50 65 50 101c0 53 -40 98 -107 98c-56 0 -97 -31 -110 -75l-17 9c16 49 63 84 128 84c77 0 126 -51 126 -116c0 -39 -18 -77 -55 -113l-173 -165h236v-18z" />
    <glyph glyph-name="three.sinf" horiz-adv-x="338" 
d="M283 222l-106 -146c76 -5 121 -57 121 -124c0 -71 -50 -124 -134 -124c-67 0 -110 25 -129 74l16 9c17 -43 55 -65 113 -65c73 0 114 46 114 106s-41 106 -114 106h-3l-9 13l110 151h-217v18h238v-18z" />
    <glyph glyph-name="four.sinf" horiz-adv-x="359" 
d="M267 -52h62v-18h-62v-90h-20v90h-227v18l154 292h20l-153 -292h206v121h20v-121z" />
    <glyph glyph-name="five.sinf" horiz-adv-x="320" 
d="M72 76h90c80 0 133 -52 133 -124s-53 -124 -133 -124c-63 0 -105 24 -127 71l16 9c18 -41 55 -62 111 -62c68 0 113 41 113 106s-45 106 -113 106h-110l15 182h212v-18h-194z" />
    <glyph glyph-name="six.sinf" horiz-adv-x="335" 
d="M167 87c79 0 138 -54 138 -129c0 -76 -59 -130 -138 -130c-77 0 -137 54 -137 130c0 24 6 46 18 67l140 215h22l-109 -168c19 10 41 15 66 15zM167 -154c68 0 118 45 118 112c0 65 -51 111 -118 111s-117 -46 -117 -111c0 -67 50 -112 117 -112z" />
    <glyph glyph-name="seven.sinf" horiz-adv-x="336" 
d="M30 222v18h266v-16l-168 -384h-22l167 382h-243z" />
    <glyph glyph-name="eight.sinf" horiz-adv-x="355" 
d="M232 50c51 -16 83 -57 83 -109c0 -68 -56 -113 -137 -113s-138 45 -138 113c0 52 33 93 84 109c-43 16 -71 49 -71 93c0 68 54 109 125 109s124 -41 124 -109c0 -44 -29 -77 -70 -93zM73 143c0 -51 48 -85 105 -85c56 0 104 34 104 85c0 57 -45 91 -104 91
c-60 0 -105 -34 -105 -91zM178 -154c69 0 117 36 117 95c0 60 -49 99 -117 99s-118 -39 -118 -99c0 -59 47 -95 118 -95z" />
    <glyph glyph-name="nine.sinf" horiz-adv-x="335" 
d="M305 122c0 -24 -6 -46 -18 -67l-140 -215h-22l109 168c-19 -10 -41 -15 -66 -15c-79 0 -138 54 -138 129c0 76 59 130 138 130c77 0 137 -54 137 -130zM50 122c0 -65 51 -111 118 -111s117 46 117 111c0 67 -50 112 -117 112c-68 0 -118 -45 -118 -112z" />
    <glyph glyph-name="zero.tf" 
d="M472 88c-45 -65 -108 -98 -187 -98s-142 33 -187 98s-68 153 -68 262s23 197 68 262s108 98 187 98s142 -33 187 -98s68 -153 68 -262s-23 -197 -68 -262zM113 99c43 -61 100 -91 172 -91s129 30 171 91c43 61 64 145 64 251s-21 189 -64 250c-42 61 -99 92 -171 92
s-129 -31 -172 -92c-42 -61 -63 -144 -63 -250s21 -190 63 -251z" />
    <glyph glyph-name="one.tf" 
d="M320 700v-680h225v-20h-500v20h255v659l-171 -58l-5 17l181 62h15z" />
    <glyph glyph-name="two.tf" 
d="M530 0h-470v18l296 264c89 81 134 153 134 218c0 115 -77 192 -205 192c-93 0 -166 -50 -195 -125l-17 10c32 80 116 133 212 133c67 0 121 -19 162 -57c42 -37 63 -88 63 -153c0 -70 -47 -147 -141 -231l-283 -251h444v-18z" />
    <glyph glyph-name="three.tf" 
d="M482 682l-192 -272c69 -3 125 -23 168 -62c43 -38 64 -87 64 -148c0 -63 -23 -113 -68 -152s-104 -58 -177 -58c-108 0 -192 47 -227 123l17 10c31 -71 105 -115 210 -115c71 0 126 18 165 54c40 36 60 82 60 138s-20 102 -60 138c-39 36 -94 54 -165 54h-6l-8 12
l197 278h-398v18h420v-18z" />
    <glyph glyph-name="four.tf" 
d="M440 178h90v-18h-90v-160h-20v160h-390v18l276 522h22l-276 -522h368v232h20v-232z" />
    <glyph glyph-name="five.tf" 
d="M109 410h176c71 0 128 -19 173 -58s67 -89 67 -152s-22 -113 -67 -152s-102 -58 -173 -58c-107 0 -188 47 -223 126l16 9c31 -72 106 -117 207 -117c68 0 122 18 161 54s59 82 59 138s-20 102 -59 138s-93 54 -161 54h-196l21 308h385v-18h-368z" />
    <glyph glyph-name="six.tf" 
d="M285 450c73 0 132 -21 177 -64s68 -98 68 -166s-23 -123 -68 -166s-104 -64 -177 -64s-132 21 -177 64s-68 98 -68 166c0 55 16 103 47 143l251 337h22l-210 -283c40 22 85 33 135 33zM120 68c40 -40 95 -60 165 -60s125 20 165 60s60 91 60 152s-20 112 -60 152
s-95 60 -165 60s-125 -20 -165 -60s-60 -91 -60 -152s20 -112 60 -152z" />
    <glyph glyph-name="seven.tf" 
d="M40 682v18h470v-18l-317 -682h-20l317 682h-450z" />
    <glyph glyph-name="eight.tf" 
d="M364 362c101 -23 161 -89 161 -182c0 -116 -92 -190 -240 -190s-240 74 -240 190c0 93 60 159 161 182c-87 23 -139 86 -139 169c0 53 20 96 60 129s93 50 158 50s118 -17 158 -50s60 -76 60 -129c0 -83 -52 -146 -139 -169zM139 646c-35 -31 -52 -69 -52 -115
s17 -84 52 -115s83 -46 146 -46s111 15 146 46s52 69 52 115s-17 84 -52 115s-83 46 -146 46s-111 -15 -146 -46zM122 55c38 -31 92 -47 163 -47s125 16 163 47c38 32 57 74 57 125s-19 93 -57 124c-38 32 -92 48 -163 48s-125 -16 -163 -48c-38 -31 -57 -73 -57 -124
s19 -93 57 -125z" />
    <glyph glyph-name="nine.tf" 
d="M530 480c0 -55 -16 -103 -47 -143l-251 -337h-22l210 283c-40 -22 -85 -33 -135 -33c-73 0 -132 21 -177 64s-68 98 -68 166s23 123 68 166s104 64 177 64s132 -21 177 -64s68 -98 68 -166zM120 632c-40 -40 -60 -91 -60 -152s20 -112 60 -152s95 -60 165 -60
s125 20 165 60s60 91 60 152s-20 112 -60 152s-95 60 -165 60s-125 -20 -165 -60z" />
    <glyph glyph-name="zero.dnom" horiz-adv-x="410" 
d="M325 46c-30 -39 -70 -58 -120 -58s-90 19 -120 58s-45 91 -45 154s15 114 45 153s70 59 120 59s90 -20 120 -59s45 -90 45 -153s-15 -115 -45 -154zM99 58c26 -35 61 -52 106 -52s80 17 106 52s39 83 39 142s-13 106 -39 141s-61 53 -106 53s-80 -18 -106 -53
s-39 -82 -39 -141s13 -107 39 -142z" />
    <glyph glyph-name="one.dnom" horiz-adv-x="245" 
d="M20 348l135 52h10v-400h-20v374l-119 -44z" />
    <glyph glyph-name="two.dnom" horiz-adv-x="346" 
d="M306 0h-266v15l188 180c33 31 50 65 50 101c0 53 -40 98 -107 98c-56 0 -97 -31 -110 -75l-17 9c16 49 63 84 128 84c77 0 126 -51 126 -116c0 -39 -18 -77 -55 -113l-173 -165h236v-18z" />
    <glyph glyph-name="three.dnom" horiz-adv-x="343" 
d="M283 382l-106 -146c76 -5 121 -57 121 -124c0 -71 -50 -124 -134 -124c-67 0 -110 25 -129 74l16 9c17 -43 55 -65 113 -65c73 0 114 46 114 106s-41 106 -114 106h-3l-9 13l110 151h-217v18h238v-18z" />
    <glyph glyph-name="four.dnom" horiz-adv-x="359" 
d="M267 108h62v-18h-62v-90h-20v90h-227v18l154 292h20l-153 -292h206v121h20v-121z" />
    <glyph glyph-name="five.dnom" horiz-adv-x="336" 
d="M72 236h90c80 0 133 -52 133 -124s-53 -124 -133 -124c-63 0 -105 24 -127 71l16 9c18 -41 55 -62 111 -62c68 0 113 41 113 106s-45 106 -113 106h-110l15 182h212v-18h-194z" />
    <glyph glyph-name="six.dnom" horiz-adv-x="335" 
d="M167 247c79 0 138 -54 138 -129c0 -76 -59 -130 -138 -130c-77 0 -137 54 -137 130c0 24 6 46 18 67l140 215h22l-109 -168c19 10 41 15 66 15zM167 6c68 0 118 45 118 112c0 65 -51 111 -118 111s-117 -46 -117 -111c0 -67 50 -112 117 -112z" />
    <glyph glyph-name="seven.dnom" horiz-adv-x="336" 
d="M30 382v18h266v-16l-168 -384h-22l167 382h-243z" />
    <glyph glyph-name="eight.dnom" horiz-adv-x="355" 
d="M232 210c51 -16 83 -57 83 -109c0 -68 -56 -113 -137 -113s-138 45 -138 113c0 52 33 93 84 109c-43 16 -71 49 -71 93c0 68 54 109 125 109s124 -41 124 -109c0 -44 -29 -77 -70 -93zM73 303c0 -51 48 -85 105 -85c56 0 104 34 104 85c0 57 -45 91 -104 91
c-60 0 -105 -34 -105 -91zM178 6c69 0 117 36 117 95c0 60 -49 99 -117 99s-118 -39 -118 -99c0 -59 47 -95 118 -95z" />
    <glyph glyph-name="nine.dnom" horiz-adv-x="335" 
d="M305 282c0 -24 -6 -46 -18 -67l-140 -215h-22l109 168c-19 -10 -41 -15 -66 -15c-79 0 -138 54 -138 129c0 76 59 130 138 130c77 0 137 -54 137 -130zM50 282c0 -65 51 -111 118 -111s117 46 117 111c0 67 -50 112 -117 112c-68 0 -118 -45 -118 -112z" />
    <glyph glyph-name="zero.numr" horiz-adv-x="410" 
d="M325 346c-30 -39 -70 -58 -120 -58s-90 19 -120 58s-45 91 -45 154s15 114 45 153s70 59 120 59s90 -20 120 -59s45 -90 45 -153s-15 -115 -45 -154zM99 358c26 -35 61 -52 106 -52s80 17 106 52s39 83 39 142s-13 106 -39 141s-61 53 -106 53s-80 -18 -106 -53
s-39 -82 -39 -141s13 -107 39 -142z" />
    <glyph glyph-name="one.numr" horiz-adv-x="245" 
d="M20 648l135 52h10v-400h-20v374l-119 -44z" />
    <glyph glyph-name="two.numr" horiz-adv-x="346" 
d="M306 300h-266v15l188 180c33 31 50 65 50 101c0 53 -40 98 -107 98c-56 0 -97 -31 -110 -75l-17 9c16 49 63 84 128 84c77 0 126 -51 126 -116c0 -39 -18 -77 -55 -113l-173 -165h236v-18z" />
    <glyph glyph-name="three.numr" horiz-adv-x="343" 
d="M283 682l-106 -146c76 -5 121 -57 121 -124c0 -71 -50 -124 -134 -124c-67 0 -110 25 -129 74l16 9c17 -43 55 -65 113 -65c73 0 114 46 114 106s-41 106 -114 106h-3l-9 13l110 151h-217v18h238v-18z" />
    <glyph glyph-name="four.numr" horiz-adv-x="359" 
d="M267 408h62v-18h-62v-90h-20v90h-227v18l154 292h20l-153 -292h206v121h20v-121z" />
    <glyph glyph-name="five.numr" horiz-adv-x="336" 
d="M72 536h90c80 0 133 -52 133 -124s-53 -124 -133 -124c-63 0 -105 24 -127 71l16 9c18 -41 55 -62 111 -62c68 0 113 41 113 106s-45 106 -113 106h-110l15 182h212v-18h-194z" />
    <glyph glyph-name="six.numr" horiz-adv-x="335" 
d="M167 547c79 0 138 -54 138 -129c0 -76 -59 -130 -138 -130c-77 0 -137 54 -137 130c0 24 6 46 18 67l140 215h22l-109 -168c19 10 41 15 66 15zM167 306c68 0 118 45 118 112c0 65 -51 111 -118 111s-117 -46 -117 -111c0 -67 50 -112 117 -112z" />
    <glyph glyph-name="seven.numr" horiz-adv-x="336" 
d="M30 682v18h266v-16l-168 -384h-22l167 382h-243z" />
    <glyph glyph-name="eight.numr" horiz-adv-x="355" 
d="M232 510c51 -16 83 -57 83 -109c0 -68 -56 -113 -137 -113s-138 45 -138 113c0 52 33 93 84 109c-43 16 -71 49 -71 93c0 68 54 109 125 109s124 -41 124 -109c0 -44 -29 -77 -70 -93zM73 603c0 -51 48 -85 105 -85c56 0 104 34 104 85c0 57 -45 91 -104 91
c-60 0 -105 -34 -105 -91zM178 306c69 0 117 36 117 95c0 60 -49 99 -117 99s-118 -39 -118 -99c0 -59 47 -95 118 -95z" />
    <glyph glyph-name="nine.numr" horiz-adv-x="335" 
d="M305 582c0 -24 -6 -46 -18 -67l-140 -215h-22l109 168c-19 -10 -41 -15 -66 -15c-79 0 -138 54 -138 129c0 76 59 130 138 130c77 0 137 -54 137 -130zM50 582c0 -65 51 -111 118 -111s117 46 117 111c0 67 -50 112 -117 112c-68 0 -118 -45 -118 -112z" />
    <glyph glyph-name="zero.sups" horiz-adv-x="410" 
d="M325 506c-30 -39 -70 -58 -120 -58s-90 19 -120 58s-45 91 -45 154s15 114 45 153s70 59 120 59s90 -20 120 -59s45 -90 45 -153s-15 -115 -45 -154zM99 518c26 -35 61 -52 106 -52s80 17 106 52s39 83 39 142s-13 106 -39 141s-61 53 -106 53s-80 -18 -106 -53
s-39 -82 -39 -141s13 -107 39 -142z" />
    <glyph glyph-name="one.sups" horiz-adv-x="245" 
d="M20 808l135 52h10v-400h-20v374l-119 -44z" />
    <glyph glyph-name="two.sups" horiz-adv-x="346" 
d="M306 460h-266v15l188 180c33 31 50 65 50 101c0 53 -40 98 -107 98c-56 0 -97 -31 -110 -75l-17 9c16 49 63 84 128 84c77 0 126 -51 126 -116c0 -39 -18 -77 -55 -113l-173 -165h236v-18z" />
    <glyph glyph-name="three.sups" horiz-adv-x="343" 
d="M283 842l-106 -146c76 -5 121 -57 121 -124c0 -71 -50 -124 -134 -124c-67 0 -110 25 -129 74l16 9c17 -43 55 -65 113 -65c73 0 114 46 114 106s-41 106 -114 106h-3l-9 13l110 151h-217v18h238v-18z" />
    <glyph glyph-name="four.sups" horiz-adv-x="359" 
d="M267 568h62v-18h-62v-90h-20v90h-227v18l154 292h20l-153 -292h206v121h20v-121z" />
    <glyph glyph-name="five.sups" horiz-adv-x="336" 
d="M72 696h90c80 0 133 -52 133 -124s-53 -124 -133 -124c-63 0 -105 24 -127 71l16 9c18 -41 55 -62 111 -62c68 0 113 41 113 106s-45 106 -113 106h-110l15 182h212v-18h-194z" />
    <glyph glyph-name="six.sups" horiz-adv-x="335" 
d="M167 707c79 0 138 -54 138 -129c0 -76 -59 -130 -138 -130c-77 0 -137 54 -137 130c0 24 6 46 18 67l140 215h22l-109 -168c19 10 41 15 66 15zM167 466c68 0 118 45 118 112c0 65 -51 111 -118 111s-117 -46 -117 -111c0 -67 50 -112 117 -112z" />
    <glyph glyph-name="seven.sups" horiz-adv-x="336" 
d="M30 842v18h266v-16l-168 -384h-22l167 382h-243z" />
    <glyph glyph-name="eight.sups" horiz-adv-x="355" 
d="M232 670c51 -16 83 -57 83 -109c0 -68 -56 -113 -137 -113s-138 45 -138 113c0 52 33 93 84 109c-43 16 -71 49 -71 93c0 68 54 109 125 109s124 -41 124 -109c0 -44 -29 -77 -70 -93zM73 763c0 -51 48 -85 105 -85c56 0 104 34 104 85c0 57 -45 91 -104 91
c-60 0 -105 -34 -105 -91zM178 466c69 0 117 36 117 95c0 60 -49 99 -117 99s-118 -39 -118 -99c0 -59 47 -95 118 -95z" />
    <glyph glyph-name="nine.sups" horiz-adv-x="335" 
d="M305 742c0 -24 -6 -46 -18 -67l-140 -215h-22l109 168c-19 -10 -41 -15 -66 -15c-79 0 -138 54 -138 129c0 76 59 130 138 130c77 0 137 -54 137 -130zM50 742c0 -65 51 -111 118 -111s117 46 117 111c0 67 -50 112 -117 112c-68 0 -118 -45 -118 -112z" />
    <glyph glyph-name="cent.tf" 
d="M312 108c91 0 166 45 202 114l16 -10c-37 -75 -121 -122 -218 -122c-30 0 -58 4 -83 13l-35 -103h-20l37 109c-97 39 -160 132 -160 241c0 73 25 135 74 185c50 50 112 75 187 75c19 0 40 -2 65 -7l33 97h20l-35 -102c63 -20 108 -57 135 -110l-16 -10
c-25 51 -67 85 -124 102l-156 -460c24 -8 50 -12 78 -12zM71 350c0 -101 58 -188 146 -224l154 459c-17 5 -36 7 -59 7c-69 0 -127 -23 -173 -70c-45 -46 -68 -103 -68 -172z" />
    <glyph glyph-name="dollar.tf" 
d="M518 166c0 -52 -20 -94 -60 -126c-39 -32 -91 -49 -155 -50v-90h-20v90c-121 5 -207 61 -230 148l17 9c20 -80 96 -134 213 -139v343l-60 21c-14 5 -31 13 -52 24c-20 11 -35 22 -46 33c-20 23 -39 60 -39 105c0 50 19 92 56 125s84 50 141 51v90h20v-90
c103 -5 169 -54 197 -147l-17 -10c-25 87 -85 133 -180 139v-328c1 0 5 -2 6 -2c29 -10 51 -18 66 -24s34 -15 55 -27c22 -11 38 -23 48 -35c21 -23 40 -62 40 -110zM106 534c0 -40 17 -73 34 -93c9 -10 23 -20 41 -30l46 -21c13 -5 31 -11 56 -19v321
c-54 -1 -97 -16 -129 -47s-48 -68 -48 -111zM303 344v-336c123 1 195 67 195 158c0 44 -17 79 -36 100c-9 11 -24 21 -45 32c-20 11 -37 18 -51 23c-13 5 -34 13 -63 23z" />
    <glyph glyph-name="Euro.tf" 
d="M338 8c81 0 147 50 176 137l16 -9c-31 -91 -103 -146 -192 -146c-139 0 -222 106 -241 282h-82v18h80c-1 25 -2 45 -2 60s1 35 2 60h-80v18h82c19 176 102 282 241 282c89 0 161 -54 192 -145l-16 -9c-29 87 -96 136 -176 136c-124 0 -202 -96 -221 -264h276v-18h-278
c-1 -25 -2 -45 -2 -60s1 -35 2 -60h278v-18h-276c19 -168 97 -264 221 -264z" />
    <glyph glyph-name="florin.tf" 
d="M301 360l53 230c21 92 91 140 176 112v-20c-77 29 -136 -9 -156 -96l-52 -226h159v-19h-164l-100 -435c-21 -92 -92 -140 -177 -112v20c77 -29 137 9 157 96l100 431h-156v19h160z" />
    <glyph glyph-name="uni20BD.tf" 
d="M340 300h-220v-122h300v-18h-300v-160h-20v160h-90v18h90v122h-90v18h90v382h240c55 0 102 -20 141 -59s59 -86 59 -141s-20 -102 -59 -141s-86 -59 -141 -59zM340 682h-220v-364h220c49 0 92 18 127 53c35 36 53 79 53 129s-18 93 -53 128c-35 36 -78 54 -127 54z" />
    <glyph glyph-name="sterling.tf" 
d="M170 301v-283h400v-18h-530v18h110v283h-90v18h90v206c0 57 18 102 54 135s81 50 136 50c96 0 161 -48 188 -136l-17 -9c-24 85 -81 127 -171 127c-104 0 -170 -68 -170 -167v-206h260v-18h-260z" />
    <glyph glyph-name="yen.tf" 
d="M523 700h22l-245 -363h191v-18h-196v-110h196v-18h-196v-191h-20v191h-194v18h194v110h-194v18h189l-245 363h22l238 -354z" />
    <glyph glyph-name="brevecy" horiz-adv-x="280" 
d="M260 601h-240v16h240v-16z" />
    </font>
</defs>
</svg>
