<?xml version="1.0" standalone="no"?>
<!DOCTYPE svg PUBLIC "-//W3C//DTD SVG 1.1//EN" "http://www.w3.org/Graphics/SVG/1.1/DTD/svg11.dtd" >
<svg xmlns="http://www.w3.org/2000/svg" xmlns:xlink="http://www.w3.org/1999/xlink" version="1.1">
<metadata>
Created by FontForge 20170924 at Thu Jul 21 23:25:24 2016
 By www-data
Copyright \251 2016 by Radomir Tinkov. All rights reserved.
</metadata>
<defs>
<font id="Gilroy-Heavy" horiz-adv-x="575" >
  <font-face 
    font-family="Gilroy"
    font-weight="1000"
    font-stretch="normal"
    units-per-em="1000"
    panose-1="0 0 10 0 0 0 0 0 0 0"
    ascent="775"
    descent="-225"
    x-height="500"
    cap-height="700"
    bbox="-487 -284 1253 990"
    underline-thickness="50"
    underline-position="-100"
    unicode-range="U+0020-FB02"
  />
<missing-glyph horiz-adv-x="500" 
d="M93 800h317v-1000h-317v1000zM333 700v33h-165v-33h65v-37h-66v-33h166v33h-66v37h66zM267 534v70h-100v-104h166v34h-66zM200 570h33v-36h-33v36zM333 440v33h-166v-33h66v-37h-66v-33h100v70h66zM333 313v100h-33v-66h-133v-34h166zM333 178v113h-100v-56h34v23h33v-47
h-100v80h-33v-113h166zM333 5v113h-166v-113h166zM200 85h100v-47h-100v47zM333 -51v33h-166v-33h70l-70 -47v-33h166v33h-102l70 47h32z" />
    <glyph glyph-name="fi" unicode="fi" 
d="M253 500h282v-500h-185v324h-97v-324h-185v324h-58v176h58c0 141 89 216 262 216c48 0 93 -5 135 -16v-152c-45 7 -85 10 -120 10c-61 0 -92 -19 -92 -58z" />
    <glyph glyph-name="fl" unicode="fl" 
d="M330 716c71 0 139 -5 205 -16v-700h-185v562c-5 1 -14 1 -25 1c-43 0 -72 -22 -72 -63h57v-176h-57v-324h-185v324h-58v176h58c0 141 89 216 262 216z" />
    <glyph glyph-name="f_f" unicode="ff" horiz-adv-x="615" 
d="M615 726v-166c-48 4 -77 -17 -77 -50v-10h77v-176h-77v-324h-185v324h-100v-324h-185v324h-58v176h58c0 144 91 225 262 216v-166c-48 4 -77 -17 -77 -50h100v10c0 144 91 225 262 216z" />
    <glyph glyph-name="f_f_i" unicode="ffi" horiz-adv-x="860" 
d="M538 500h282v-500h-185v324h-97v-324h-185v324h-100v-324h-185v324h-58v176h58c0 144 91 225 262 216v-166c-48 4 -77 -17 -77 -50h100v10c0 141 89 216 262 216c48 0 93 -5 135 -16v-152c-45 7 -85 10 -120 10c-61 0 -92 -19 -92 -58v-10z" />
    <glyph glyph-name="f_f_l" unicode="ffl" horiz-adv-x="860" 
d="M615 726c71 0 139 -5 205 -16v-710h-185v572c-5 1 -14 1 -25 1c-43 0 -72 -22 -72 -63v-10h57v-176h-57v-324h-185v324h-100v-324h-185v324h-58v176h58c0 144 91 225 262 216v-166c-48 4 -77 -17 -77 -50h100v10c0 141 89 216 262 216z" />
    <glyph glyph-name=".notdef" horiz-adv-x="500" 
d="M93 800h317v-1000h-317v1000zM333 700v33h-165v-33h65v-37h-66v-33h166v33h-66v37h66zM267 534v70h-100v-104h166v34h-66zM200 570h33v-36h-33v36zM333 440v33h-166v-33h66v-37h-66v-33h100v70h66zM333 313v100h-33v-66h-133v-34h166zM333 178v113h-100v-56h34v23h33v-47
h-100v80h-33v-113h166zM333 5v113h-166v-113h166zM200 85h100v-47h-100v47zM333 -51v33h-166v-33h70l-70 -47v-33h166v33h-102l70 47h32z" />
    <glyph glyph-name="NULL" horiz-adv-x="0" 
 />
    <glyph glyph-name="CR" horiz-adv-x="333" 
 />
    <glyph glyph-name="space" unicode=" " horiz-adv-x="200" 
 />
    <glyph glyph-name="exclam" unicode="!" horiz-adv-x="310" 
d="M235 260h-160l-35 240v200h230v-200zM236 18c-22 -22 -49 -33 -81 -33s-59 11 -82 33c-22 23 -33 50 -33 82s11 59 33 81c23 23 50 34 82 34s59 -11 81 -34c23 -22 34 -49 34 -81s-11 -59 -34 -82z" />
    <glyph glyph-name="quotedbl" unicode="&#x22;" horiz-adv-x="490" 
d="M200 420h-130l-20 280h170zM420 420h-130l-20 280h170z" />
    <glyph glyph-name="numbersign" unicode="#" horiz-adv-x="643" 
d="M623 510l-21 -130h-95l-10 -60h96l-21 -130h-97l-23 -140h-144l23 140h-72l-23 -140h-144l23 140h-95l21 130h96l10 60h-96l21 130h97l23 140h144l-23 -140h72l23 140h144l-23 -140h94zM281 320h72l10 60h-72z" />
    <glyph glyph-name="dollar" unicode="$" horiz-adv-x="565" 
d="M550 209c0 -129 -88 -211 -225 -223v-86h-70v85c-121 8 -209 69 -240 165l176 95c10 -41 31 -66 64 -75v95l-4 1c-73 25 -114 45 -157 78c-43 35 -62 82 -62 146s21 116 62 156c41 41 95 64 161 69v85h70v-86c100 -11 171 -62 212 -151l-171 -92c-9 29 -23 48 -41 56v-99
c1 0 5 -2 6 -2c68 -25 113 -45 136 -60c55 -36 83 -88 83 -157zM222 491c0 -15 11 -27 33 -37v77c-22 -7 -33 -20 -33 -40zM325 240v-71c23 5 35 17 35 36c0 14 -12 26 -35 35z" />
    <glyph glyph-name="percent" unicode="%" horiz-adv-x="868" 
d="M225 336c-55 0 -102 18 -139 55s-56 82 -56 135s19 97 56 134s84 56 139 56s100 -19 137 -56s56 -81 56 -134s-19 -98 -56 -135s-82 -55 -137 -55zM229 70l-72 41l470 498l73 -42zM273 526c0 28 -21 50 -49 50s-48 -22 -48 -50s20 -50 48 -50s49 23 49 50zM645 -16
c-55 0 -102 18 -139 55s-56 82 -56 135s19 97 56 134s84 56 139 56s100 -19 137 -56s56 -81 56 -134s-19 -98 -56 -135s-82 -55 -137 -55zM693 174c0 28 -21 50 -49 50s-48 -22 -48 -50s20 -50 48 -50s49 23 49 50z" />
    <glyph glyph-name="ampersand" unicode="&#x26;" horiz-adv-x="683" 
d="M592 151l81 -92l-151 -87l-55 61c-55 -33 -116 -49 -183 -49c-79 0 -141 21 -186 62c-45 42 -68 94 -68 156c0 80 38 143 113 189c-24 36 -36 74 -36 115c0 61 22 111 67 150c45 40 101 60 169 60c119 0 204 -54 255 -162l-167 -97c-19 49 -44 73 -76 73
c-29 0 -43 -14 -43 -41c0 -24 21 -45 55 -84l105 -119c14 29 24 60 30 93l156 -91c-15 -49 -37 -95 -66 -137zM308 150c15 0 30 3 45 8l-98 107c-16 -15 -24 -33 -24 -53c0 -35 26 -62 77 -62z" />
    <glyph glyph-name="quotesingle" unicode="'" horiz-adv-x="270" 
d="M200 420h-130l-20 280h170z" />
    <glyph glyph-name="parenleft" unicode="(" horiz-adv-x="335" 
d="M335 -100h-185c-147 293 -147 607 0 900h185c-147 -293 -147 -607 0 -900z" />
    <glyph glyph-name="parenright" unicode=")" horiz-adv-x="335" 
d="M185 -100h-185c147 293 147 607 0 900h185c147 -293 147 -607 0 -900z" />
    <glyph glyph-name="asterisk" unicode="*" horiz-adv-x="410" 
d="M278 591l92 10v-104l-92 10l58 -71l-88 -54l-43 79l-43 -79l-88 54l58 71l-92 -10v104l92 -10l-58 71l88 54l43 -79l43 79l88 -54z" />
    <glyph glyph-name="plus" unicode="+" horiz-adv-x="560" 
d="M370 440h160v-180h-160v-160h-180v160h-160v180h160v160h180v-160z" />
    <glyph glyph-name="comma" unicode="," horiz-adv-x="315" 
d="M70 195h210l-90 -335h-150z" />
    <glyph glyph-name="hyphen" unicode="-" horiz-adv-x="500" 
d="M450 217h-400v174h400v-174z" />
    <glyph glyph-name="period" unicode="." horiz-adv-x="300" 
d="M231 18c-22 -22 -49 -33 -81 -33s-59 11 -82 33c-22 23 -33 50 -33 82s11 59 33 81c23 23 50 34 82 34s59 -11 81 -34c23 -22 34 -49 34 -81s-11 -59 -34 -82z" />
    <glyph glyph-name="slash" unicode="/" horiz-adv-x="520" 
d="M500 800l-400 -900h-80l400 900h80z" />
    <glyph glyph-name="zero" unicode="0" horiz-adv-x="630" 
d="M533 83c-51 -66 -124 -99 -218 -99s-167 33 -218 99c-51 67 -77 156 -77 267s26 200 77 266c51 67 124 100 218 100s167 -33 218 -100c51 -66 77 -155 77 -266s-26 -200 -77 -267zM220 350c0 -115 32 -172 95 -172s95 57 95 172s-32 172 -95 172s-95 -57 -95 -172z" />
    <glyph glyph-name="one" unicode="1" horiz-adv-x="427" 
d="M0 629l197 71h170v-700h-200v491l-121 -29z" />
    <glyph glyph-name="two" unicode="2" horiz-adv-x="546" 
d="M526 0h-506v146l228 247l17 19c16 16 19 19 28 30c13 15 18 26 18 40c0 23 -16 40 -47 40c-37 0 -65 -24 -83 -71l-176 96c47 111 144 169 256 169c69 0 127 -20 176 -59s74 -92 74 -161c0 -42 -9 -79 -28 -110c-18 -31 -47 -69 -86 -113l-71 -79h200v-194z" />
    <glyph glyph-name="three" unicode="3" horiz-adv-x="545" 
d="M487 546l-111 -132c91 -27 149 -94 149 -194c0 -77 -25 -136 -74 -176s-111 -60 -186 -60c-123 0 -220 57 -260 166l176 101c14 -49 42 -73 84 -73c36 0 60 20 60 52c0 33 -20 50 -60 50h-43l-78 116l94 110h-211v194h460v-154z" />
    <glyph glyph-name="four" unicode="4" 
d="M500 282h70v-180h-70v-102h-196v102h-294v180l193 418h227l-196 -418h70v98h196v-98z" />
    <glyph glyph-name="five" unicode="5" horiz-adv-x="550" 
d="M253 455h42c69 0 127 -20 172 -59s68 -95 68 -168c0 -78 -25 -138 -74 -181c-49 -42 -111 -63 -186 -63c-132 0 -230 57 -270 166l176 101c14 -49 45 -73 94 -73c36 0 60 18 60 51s-20 49 -60 49h-230l29 422h421v-194h-238z" />
    <glyph glyph-name="six" unicode="6" horiz-adv-x="560" 
d="M480 700l-143 -226c131 -21 213 -115 213 -243c0 -73 -25 -133 -74 -179c-49 -45 -115 -68 -196 -68c-82 0 -148 23 -197 68c-49 46 -73 106 -73 179c0 52 13 97 38 136l208 333h224zM210 231c0 -45 23 -68 70 -68s70 23 70 68s-23 68 -70 68s-70 -23 -70 -68z" />
    <glyph glyph-name="seven" unicode="7" horiz-adv-x="490" 
d="M-10 506v194h490v-164l-208 -536h-220l196 506h-258z" />
    <glyph glyph-name="eight" unicode="8" horiz-adv-x="564" 
d="M454 366c63 -38 95 -94 95 -169c0 -131 -95 -211 -267 -211s-267 80 -267 211c0 75 32 131 95 169c-47 35 -71 82 -71 140c0 65 23 115 68 152s104 56 175 56s130 -19 175 -56s68 -87 68 -152c0 -58 -24 -105 -71 -140zM282 538c-42 0 -63 -17 -63 -51s21 -51 63 -51
c37 0 63 18 63 51s-26 51 -63 51zM232 181c12 -10 29 -15 50 -15s38 5 49 15c24 21 24 67 0 87c-11 11 -28 16 -49 16s-38 -5 -50 -16c-23 -20 -23 -66 0 -87z" />
    <glyph glyph-name="nine" unicode="9" horiz-adv-x="560" 
d="M550 469c0 -52 -13 -97 -38 -136l-208 -333h-224l143 226c-131 21 -213 115 -213 243c0 73 25 133 74 178c49 46 115 69 196 69c82 0 147 -23 196 -69c49 -45 74 -105 74 -178zM350 469c0 45 -23 68 -70 68s-70 -23 -70 -68s23 -68 70 -68s70 23 70 68z" />
    <glyph glyph-name="colon" unicode=":" horiz-adv-x="300" 
d="M231 318c-22 -22 -49 -33 -81 -33s-59 11 -82 33c-22 23 -33 50 -33 82s11 59 33 81c23 23 50 34 82 34s59 -11 81 -34c23 -22 34 -49 34 -81s-11 -59 -34 -82zM231 18c-22 -22 -49 -33 -81 -33s-59 11 -82 33c-22 23 -33 50 -33 82s11 59 33 81c23 23 50 34 82 34
s59 -11 81 -34c23 -22 34 -49 34 -81s-11 -59 -34 -82z" />
    <glyph glyph-name="semicolon" unicode=";" horiz-adv-x="320" 
d="M251 318c-22 -22 -49 -33 -81 -33s-59 11 -82 33c-22 23 -33 50 -33 82s11 59 33 81c23 23 50 34 82 34s59 -11 81 -34c23 -22 34 -49 34 -81s-11 -59 -34 -82zM70 195h210l-90 -335h-150z" />
    <glyph glyph-name="less" unicode="&#x3c;" horiz-adv-x="510" 
d="M30 435l450 195v-194l-260 -86l260 -86v-194l-450 195v170z" />
    <glyph glyph-name="equal" unicode="=" horiz-adv-x="500" 
d="M470 375h-440v180h440v-180zM470 145h-440v180h440v-180z" />
    <glyph glyph-name="greater" unicode="&#x3e;" horiz-adv-x="510" 
d="M30 436v194l450 -195v-170l-450 -195v194l260 86z" />
    <glyph glyph-name="question" unicode="?" horiz-adv-x="532" 
d="M345 260h-180c0 57 35 110 68 138c35 28 69 62 69 90c0 21 -16 36 -41 36c-33 0 -60 -24 -82 -73l-169 96c48 113 146 169 259 169c67 0 123 -18 167 -54c44 -35 66 -83 66 -143c0 -56 -24 -106 -55 -138c-46 -46 -102 -82 -102 -121zM336 18c-22 -22 -49 -33 -81 -33
s-59 11 -82 33c-22 23 -33 50 -33 82s11 59 33 81c23 23 50 34 82 34s59 -11 81 -34c23 -22 34 -49 34 -81s-11 -59 -34 -82z" />
    <glyph glyph-name="at" unicode="@" horiz-adv-x="764" 
d="M389 612c71 0 133 -17 188 -52c109 -68 162 -177 162 -290c0 -153 -56 -229 -168 -229c-73 0 -125 34 -145 86c-24 -28 -55 -42 -94 -42c-92 0 -152 68 -152 165s60 165 152 165c34 0 63 -11 86 -33v21h152v-236c0 -40 15 -60 44 -60c44 0 75 48 75 163
c0 83 -29 153 -87 210c-57 57 -128 86 -213 86c-89 0 -163 -30 -224 -91c-60 -61 -90 -136 -90 -225c0 -91 31 -167 94 -227c63 -59 142 -89 238 -89c55 0 102 7 143 20v-49c-41 -11 -89 -17 -143 -17c-109 0 -200 34 -273 103c-73 68 -109 154 -109 259
c0 101 35 186 104 256c70 71 157 106 260 106zM344 216c16 -17 46 -17 61 0c16 17 16 51 0 68c-15 17 -45 17 -61 0s-16 -51 0 -68z" />
    <glyph glyph-name="A" unicode="A" horiz-adv-x="660" 
d="M670 0h-215l-24 90h-202l-24 -90h-215l223 700h234zM330 465l-58 -215h116z" />
    <glyph glyph-name="B" unicode="B" horiz-adv-x="605" 
d="M500 361c60 -34 90 -86 90 -155c0 -128 -85 -206 -244 -206h-296v700h278c157 0 242 -70 242 -197c0 -61 -23 -108 -70 -142zM316 528h-66v-94l77 1c29 4 43 19 43 46c0 31 -25 47 -54 47zM250 172h84c32 0 56 21 56 50c0 28 -15 44 -45 49l-95 1v-100z" />
    <glyph glyph-name="C" unicode="C" horiz-adv-x="718" 
d="M391 -16c-105 0 -193 35 -262 105s-104 157 -104 261s35 191 104 261s157 105 262 105c129 0 246 -66 307 -170l-174 -100c-23 45 -74 74 -133 74c-49 0 -89 -16 -120 -48s-46 -73 -46 -122s15 -90 46 -122s71 -48 120 -48c60 0 110 28 133 75l174 -100
c-61 -105 -178 -171 -307 -171z" />
    <glyph glyph-name="D" unicode="D" horiz-adv-x="705" 
d="M50 700h290c97 0 177 -34 242 -101s98 -150 98 -249s-33 -183 -98 -250s-145 -100 -242 -100h-290v700zM260 194h80c81 0 140 64 140 156s-59 156 -140 156h-80v-312z" />
    <glyph glyph-name="E" unicode="E" horiz-adv-x="540" 
d="M250 262v-78h260v-184h-460v700h455v-182h-255v-76h230v-180h-230z" />
    <glyph glyph-name="F" unicode="F" horiz-adv-x="515" 
d="M485 700v-194h-235v-91h230v-194h-230v-221h-200v700h435z" />
    <glyph glyph-name="G" unicode="G" horiz-adv-x="772" 
d="M391 413h356v-83c0 -100 -32 -183 -97 -248c-64 -65 -148 -98 -253 -98c-109 0 -199 35 -268 104c-69 70 -104 157 -104 261s35 191 104 261c69 71 156 106 260 106c131 0 245 -63 308 -163l-170 -97c-28 43 -73 64 -134 64c-50 0 -91 -16 -122 -48s-46 -73 -46 -124
c0 -48 14 -90 43 -126c29 -35 73 -53 133 -53c69 0 116 25 139 74h-149v170z" />
    <glyph glyph-name="H" unicode="H" horiz-adv-x="670" 
d="M420 452v248h200v-700h-200v258h-170v-258h-200v700h200v-248h170z" />
    <glyph glyph-name="I" unicode="I" horiz-adv-x="300" 
d="M50 0v700h200v-700h-200z" />
    <glyph glyph-name="J" unicode="J" horiz-adv-x="567" 
d="M267 -16c-118 0 -200 48 -247 144l168 99c16 -33 42 -49 78 -49c41 0 61 19 61 57v465h200v-470c0 -153 -95 -246 -260 -246z" />
    <glyph glyph-name="K" unicode="K" horiz-adv-x="636" 
d="M428 360l218 -360h-222l-174 300v-300h-200v700h200v-280l164 280h222z" />
    <glyph glyph-name="L" unicode="L" horiz-adv-x="490" 
d="M250 700v-506h230v-194h-430v700h200z" />
    <glyph glyph-name="M" unicode="M" horiz-adv-x="830" 
d="M580 700h200v-700h-200v341l-156 -262h-18l-156 262v-341h-200v700h200l165 -285z" />
    <glyph glyph-name="N" unicode="N" horiz-adv-x="680" 
d="M430 380v320h200v-700h-160l-220 320v-320h-200v700h160z" />
    <glyph glyph-name="O" unicode="O" horiz-adv-x="792" 
d="M659 89c-71 -70 -159 -105 -263 -105s-192 35 -264 105c-71 71 -107 158 -107 261s36 190 107 260c72 71 160 106 264 106s192 -35 263 -106c72 -70 108 -157 108 -260s-36 -190 -108 -261zM273 228c33 -32 74 -48 123 -48s90 16 122 48c33 33 49 73 49 122
s-16 89 -49 121c-32 33 -73 49 -122 49s-90 -16 -123 -49c-32 -32 -48 -72 -48 -121s16 -89 48 -122z" />
    <glyph glyph-name="P" unicode="P" horiz-adv-x="595" 
d="M50 700h280c73 0 133 -23 182 -69c49 -45 73 -106 73 -182s-24 -137 -73 -183c-49 -45 -109 -68 -182 -68h-80v-198h-200v700zM250 392h80c31 0 55 22 55 57s-24 57 -55 57h-80v-114z" />
    <glyph glyph-name="Q" unicode="Q" horiz-adv-x="797" 
d="M767 350c0 -82 -24 -155 -71 -219l56 -61l-137 -120l-62 67c-49 -22 -102 -33 -157 -33c-104 0 -192 35 -264 105c-71 71 -107 158 -107 261s36 190 107 260c72 71 160 106 264 106s192 -35 263 -106c72 -70 108 -157 108 -260zM396 180h7l-86 94l138 119l100 -109
c8 20 12 42 12 66c0 49 -16 89 -49 121c-32 33 -73 49 -122 49s-90 -16 -123 -49c-32 -32 -48 -72 -48 -121s16 -89 48 -122c33 -32 74 -48 123 -48z" />
    <glyph glyph-name="R" unicode="R" horiz-adv-x="625" 
d="M625 1h-214l-111 220h-50v-220h-200v700h280c77 0 140 -23 190 -68s75 -104 75 -178c0 -83 -40 -152 -108 -193zM326 517h-76v-130h76c43 -1 69 23 69 64s-26 66 -69 66z" />
    <glyph glyph-name="S" unicode="S" horiz-adv-x="585" 
d="M302 -16c-152 0 -257 68 -292 176l171 99c23 -59 65 -89 126 -89c45 0 68 12 68 36c0 13 -5 24 -24 32c-9 4 -18 7 -25 9c-7 3 -19 6 -36 11l-39 11c-139 42 -209 117 -209 225c0 64 23 117 69 159c47 42 108 63 183 63c119 0 219 -58 263 -163l-166 -97
c-19 49 -51 74 -96 74c-35 0 -53 -16 -53 -37c0 -15 8 -26 23 -34c16 -8 46 -18 91 -31c67 -20 102 -34 149 -67c47 -32 70 -84 70 -153c0 -143 -105 -224 -273 -224z" />
    <glyph glyph-name="T" unicode="T" horiz-adv-x="550" 
d="M10 700h530v-194h-165v-506h-200v506h-165v194z" />
    <glyph glyph-name="U" unicode="U" horiz-adv-x="650" 
d="M40 234v466h200v-444c0 -52 28 -78 85 -78s85 26 85 78v444h200v-466c0 -75 -26 -135 -79 -181s-121 -69 -206 -69s-153 23 -206 69s-79 106 -79 181z" />
    <glyph glyph-name="V" unicode="V" horiz-adv-x="670" 
d="M447 0h-224l-223 700h220l115 -445l115 445h220z" />
    <glyph glyph-name="W" unicode="W" horiz-adv-x="1010" 
d="M395 0h-197l-198 700h220l95 -385l113 385h154l113 -385l95 385h220l-198 -700h-197l-110 374z" />
    <glyph glyph-name="X" unicode="X" horiz-adv-x="645" 
d="M434 354l211 -354h-222l-100 168l-101 -168h-222l212 354l-207 346h222l96 -160l95 160h222z" />
    <glyph glyph-name="Y" unicode="Y" horiz-adv-x="674" 
d="M452 700h222l-237 -434v-266h-200v266l-237 434h222l115 -246z" />
    <glyph glyph-name="Z" unicode="Z" horiz-adv-x="545" 
d="M515 546l-223 -352h233v-194h-495v154l223 352h-218v194h480v-154z" />
    <glyph glyph-name="bracketleft" unicode="[" horiz-adv-x="340" 
d="M320 800v-176h-95v-548h95v-176h-280v900h280z" />
    <glyph glyph-name="backslash" unicode="\" horiz-adv-x="520" 
d="M500 -100h-80l-400 900h80z" />
    <glyph glyph-name="bracketright" unicode="]" horiz-adv-x="340" 
d="M20 800h280v-900h-280v176h95v548h-95v176z" />
    <glyph glyph-name="asciicircum" unicode="^" horiz-adv-x="580" 
d="M226 700h128l206 -370h-200l-70 147l-70 -147h-200z" />
    <glyph glyph-name="underscore" unicode="_" horiz-adv-x="510" 
d="M490 -191h-470v174h470v-174z" />
    <glyph glyph-name="grave" unicode="`" horiz-adv-x="330" 
d="M310 550h-174l-116 150h210z" />
    <glyph glyph-name="a" unicode="a" horiz-adv-x="606" 
d="M381 455v45h185v-500h-185v45c-32 -39 -77 -59 -134 -59c-67 0 -122 25 -165 75s-64 113 -64 189s21 139 64 189s98 75 165 75c57 0 102 -20 134 -59zM227 183c17 -18 38 -27 65 -27s48 9 64 27c33 36 33 98 0 134c-16 18 -37 27 -64 27s-48 -9 -65 -27
c-32 -36 -32 -98 0 -134z" />
    <glyph glyph-name="b" unicode="b" horiz-adv-x="606" 
d="M359 514c67 0 122 -25 165 -75s64 -113 64 -189s-21 -139 -64 -189s-98 -75 -165 -75c-57 0 -102 20 -134 59v-45h-185v700h185v-245c32 39 77 59 134 59zM249 183c17 -18 38 -27 65 -27s48 9 64 27c33 36 33 98 0 134c-16 18 -37 27 -64 27s-48 -9 -65 -27
c-32 -36 -32 -98 0 -134z" />
    <glyph glyph-name="c" unicode="c" horiz-adv-x="525" 
d="M285 -14c-77 0 -140 25 -191 75c-51 51 -76 114 -76 189s25 138 76 188c51 51 114 76 191 76c99 0 186 -51 230 -131l-156 -89c-17 28 -41 42 -74 42c-47 0 -82 -37 -82 -86s35 -86 82 -86c35 0 59 14 74 43l156 -90c-44 -81 -131 -131 -230 -131z" />
    <glyph glyph-name="d" unicode="d" horiz-adv-x="606" 
d="M381 455v245h185v-700h-185v45c-32 -39 -77 -59 -134 -59c-67 0 -122 25 -165 75s-64 113 -64 189s21 139 64 189s98 75 165 75c57 0 102 -20 134 -59zM227 183c17 -18 38 -27 65 -27s48 9 64 27c33 36 33 98 0 134c-16 18 -37 27 -64 27s-48 -9 -65 -27
c-32 -36 -32 -98 0 -134z" />
    <glyph glyph-name="e" unicode="e" horiz-adv-x="560" 
d="M537 187h-332c16 -33 50 -50 102 -50c31 0 59 11 85 32l121 -102c-50 -54 -121 -81 -212 -81c-85 0 -154 25 -206 74c-51 50 -77 113 -77 188c0 76 25 139 75 190c51 51 114 76 191 76c76 0 138 -25 187 -75c49 -49 74 -112 74 -187c0 -22 -3 -44 -8 -65zM202 306h168
c-11 40 -38 60 -81 60s-72 -20 -87 -60z" />
    <glyph glyph-name="f" unicode="f" horiz-adv-x="330" 
d="M330 716v-166c-48 4 -77 -17 -77 -50h77v-176h-77v-324h-185v324h-58v176h58c0 144 91 225 262 216z" />
    <glyph glyph-name="g" unicode="g" horiz-adv-x="613" 
d="M388 455v45h185v-485c0 -167 -133 -231 -262 -231c-117 0 -213 45 -257 122l150 87c24 -33 56 -49 97 -49c47 0 87 23 87 71v50c-32 -39 -77 -59 -134 -59c-67 0 -122 24 -165 73s-64 109 -64 181s21 132 64 181s98 73 165 73c57 0 102 -20 134 -59zM234 196
c17 -17 38 -26 65 -26s48 9 64 26c33 35 33 93 0 128c-16 17 -37 26 -64 26s-48 -9 -65 -26c-32 -35 -32 -93 0 -128z" />
    <glyph glyph-name="h" unicode="h" 
d="M359 514c109 0 181 -76 181 -225v-289h-185v269c0 45 -21 67 -62 67c-44 0 -68 -30 -68 -79v-257h-185v700h185v-249c31 42 75 63 134 63z" />
    <glyph glyph-name="i" unicode="i" horiz-adv-x="265" 
d="M133 538c-28 0 -52 10 -73 30c-20 21 -30 45 -30 72s10 51 30 71c21 21 45 31 73 31c27 0 51 -10 71 -31c21 -20 31 -44 31 -71s-10 -51 -31 -72c-20 -20 -44 -30 -71 -30zM225 0h-185v500h185v-500z" />
    <glyph glyph-name="j" unicode="j" horiz-adv-x="280" 
d="M148 538c-28 0 -52 10 -73 30c-20 21 -30 45 -30 72s10 51 30 71c21 21 45 31 73 31c27 0 51 -10 71 -31c21 -20 31 -44 31 -71s-10 -51 -31 -72c-20 -20 -44 -30 -71 -30zM55 0v500h185v-500c0 -157 -78 -225 -250 -216v166c43 -4 65 13 65 50z" />
    <glyph glyph-name="k" unicode="k" horiz-adv-x="550" 
d="M388 250l162 -250h-205l-120 200v-200h-185v700h185v-394l105 194h210z" />
    <glyph glyph-name="l" unicode="l" horiz-adv-x="265" 
d="M225 0h-185v730h185v-730z" />
    <glyph glyph-name="m" unicode="m" horiz-adv-x="850" 
d="M630 514c116 0 185 -75 185 -210v-304h-185v279c0 38 -17 57 -51 57c-39 0 -59 -25 -59 -74v-262h-185v279c0 38 -17 57 -51 57c-39 0 -59 -25 -59 -74v-262h-185v500h185v-47c33 41 78 61 136 61c57 0 99 -21 125 -62c36 41 84 62 144 62z" />
    <glyph glyph-name="n" unicode="n" 
d="M359 514c109 0 181 -76 181 -225v-289h-185v269c0 45 -21 67 -62 67c-44 0 -68 -30 -68 -79v-257h-185v500h185v-49c31 42 75 63 134 63z" />
    <glyph glyph-name="o" unicode="o" horiz-adv-x="574" 
d="M287 -14c-75 0 -138 25 -191 76c-52 51 -78 113 -78 188s26 137 78 188s116 76 191 76s139 -25 191 -76s78 -113 78 -188s-26 -137 -78 -188s-116 -76 -191 -76zM226 186c16 -16 36 -24 61 -24s45 8 60 24c16 17 24 38 24 64s-8 47 -24 63c-15 17 -35 25 -60 25
s-45 -8 -61 -25c-15 -16 -23 -37 -23 -63s8 -47 23 -64z" />
    <glyph glyph-name="p" unicode="p" horiz-adv-x="606" 
d="M359 514c67 0 122 -25 165 -75s64 -113 64 -189s-21 -139 -64 -189s-98 -75 -165 -75c-57 0 -102 20 -134 59v-245h-185v700h185v-45c32 39 77 59 134 59zM249 183c17 -18 38 -27 65 -27s48 9 64 27c33 36 33 98 0 134c-16 18 -37 27 -64 27s-48 -9 -65 -27
c-32 -36 -32 -98 0 -134z" />
    <glyph glyph-name="q" unicode="q" horiz-adv-x="606" 
d="M381 455v45h185v-700h-185v245c-32 -39 -77 -59 -134 -59c-67 0 -122 25 -165 75s-64 113 -64 189s21 139 64 189s98 75 165 75c57 0 102 -20 134 -59zM227 183c17 -18 38 -27 65 -27s48 9 64 27c33 36 33 98 0 134c-16 18 -37 27 -64 27s-48 -9 -65 -27
c-32 -36 -32 -98 0 -134z" />
    <glyph glyph-name="r" unicode="r" horiz-adv-x="390" 
d="M225 500v-97c19 68 78 107 150 107v-200c-40 5 -75 -3 -105 -24s-45 -54 -45 -100v-186h-185v500h185z" />
    <glyph glyph-name="s" unicode="s" horiz-adv-x="484" 
d="M219 353c0 -52 250 2 250 -194c0 -64 -31 -114 -78 -138s-95 -35 -147 -35c-121 0 -199 40 -234 119l161 72c13 -34 36 -51 71 -51c23 0 34 7 34 22c0 17 -38 26 -85 37c-67 15 -157 50 -156 157c0 55 21 97 62 127c42 30 90 45 145 45c109 0 182 -42 217 -127l-153 -55
c-12 28 -31 42 -56 42c-21 0 -31 -7 -31 -21z" />
    <glyph glyph-name="t" unicode="t" horiz-adv-x="400" 
d="M370 500v-176h-105v-108c0 -52 37 -54 105 -50v-166c-209 -29 -290 33 -290 206v118h-70v176h70v85l185 55v-140h105z" />
    <glyph glyph-name="u" unicode="u" 
d="M350 243v257h185v-500h-185v49c-31 -42 -75 -63 -134 -63c-109 0 -181 76 -181 225v289h185v-269c0 -45 21 -67 62 -67c44 0 68 30 68 79z" />
    <glyph glyph-name="v" unicode="v" horiz-adv-x="570" 
d="M285 250l80 250h205l-190 -500h-190l-190 500h205z" />
    <glyph glyph-name="w" unicode="w" horiz-adv-x="830" 
d="M557 223l58 277h195l-145 -500h-188l-62 235l-62 -235h-188l-145 500h195l58 -277l72 277h140z" />
    <glyph glyph-name="x" unicode="x" horiz-adv-x="570" 
d="M388 256l182 -256h-205l-80 112l-80 -112h-205l183 256l-175 244h205l72 -101l72 101h205z" />
    <glyph glyph-name="y" unicode="y" horiz-adv-x="570" 
d="M299 233l61 267h210l-170 -499c-49 -145 -150 -208 -321 -201v175c68 0 100 8 121 35l-200 490h210z" />
    <glyph glyph-name="z" unicode="z" horiz-adv-x="495" 
d="M450 370l-164 -200h174v-170h-420v130l164 200h-154v170h400v-130z" />
    <glyph glyph-name="braceleft" unicode="{" horiz-adv-x="365" 
d="M345 59v-166c-160 -9 -240 63 -240 196v125c0 37 -25 54 -75 50v175c50 -4 75 13 75 50v125c0 133 80 205 240 196v-166c-37 4 -55 -6 -55 -30v-125c0 -69 -28 -115 -83 -137c55 -23 83 -69 83 -138v-125c0 -24 18 -34 55 -30z" />
    <glyph glyph-name="bar" unicode="|" horiz-adv-x="285" 
d="M235 -200h-185v920h185v-920z" />
    <glyph glyph-name="braceright" unicode="}" horiz-adv-x="365" 
d="M20 -107v166c37 -4 55 6 55 30v125c0 69 28 115 83 138c-55 22 -83 68 -83 137v125c0 24 -18 34 -55 30v166c160 9 240 -63 240 -196v-125c0 -37 25 -54 75 -50v-175c-50 4 -75 -13 -75 -50v-125c0 -133 -80 -205 -240 -196z" />
    <glyph glyph-name="asciitilde" unicode="~" horiz-adv-x="612" 
d="M438 471l144 -65c-17 -79 -51 -134 -103 -164c-51 -29 -109 -29 -173 2c-46 21 -77 31 -94 28s-29 -18 -38 -47l-144 65c17 79 51 134 102 163c52 30 110 30 174 -1c45 -21 76 -31 93 -28s30 18 39 47z" />
    <glyph glyph-name="exclamdown" unicode="&#xa1;" horiz-adv-x="310" 
d="M73 481c23 23 50 34 82 34s59 -11 81 -34c23 -22 34 -49 34 -81s-11 -59 -34 -82c-22 -22 -49 -33 -81 -33s-59 11 -82 33c-22 23 -33 50 -33 82s11 59 33 81zM40 0l35 240h160l35 -240v-200h-230v200z" />
    <glyph glyph-name="cent" unicode="&#xa2;" horiz-adv-x="525" 
d="M338 418l-50 -154c33 1 56 16 71 43l156 -90c-44 -81 -131 -131 -230 -131c-17 0 -34 2 -53 5l-29 -91h-65l35 109c-95 40 -155 132 -155 241c0 75 25 138 76 188c51 51 114 76 191 76c12 0 29 -1 50 -4l29 90h65l-35 -108c53 -23 93 -60 121 -109l-156 -89
c-5 9 -12 17 -21 24zM203 350c0 -27 9 -49 27 -65l49 151c-44 -3 -76 -38 -76 -86z" />
    <glyph glyph-name="sterling" unicode="&#xa3;" horiz-adv-x="570" 
d="M277 275v-81h293v-194h-550v194h57v81h-47v140h47v67c0 75 23 132 70 173s102 61 165 61c119 0 202 -55 249 -164l-173 -93c-14 46 -36 69 -66 69c-29 0 -45 -24 -45 -59v-54h183v-140h-183z" />
    <glyph glyph-name="currency" unicode="&#xa4;" horiz-adv-x="526" 
d="M436 222l70 -69l-46 -46l-71 71c-37 -25 -79 -38 -126 -38s-89 13 -126 38l-71 -71l-46 46l69 69c-29 37 -43 80 -43 128s14 91 43 128l-69 69l46 46l71 -71c37 25 79 38 126 38s89 -13 126 -38l71 71l46 -46l-70 -69c29 -37 44 -79 44 -128s-15 -91 -44 -128zM231 319
c16 -15 48 -15 63 0c16 16 16 46 0 61c-15 16 -47 16 -63 0c-15 -15 -15 -45 0 -61z" />
    <glyph glyph-name="yen" unicode="&#xa5;" horiz-adv-x="654" 
d="M452 700h222l-176 -323h79v-100h-134l-6 -11v-31h140v-100h-140v-135h-200v135h-160v100h160v31l-6 11h-154v100h99l-176 323h222l115 -246z" />
    <glyph glyph-name="brokenbar" unicode="&#xa6;" horiz-adv-x="285" 
d="M235 350h-185v370h185v-370zM235 -200h-185v370h185v-370z" />
    <glyph glyph-name="section" unicode="&#xa7;" horiz-adv-x="537" 
d="M517 290c0 -49 -17 -89 -52 -119c21 -28 32 -63 32 -106c0 -57 -22 -100 -66 -131s-98 -46 -162 -46c-117 0 -194 42 -231 127l153 78c17 -38 43 -57 78 -57c29 0 44 10 44 29c0 12 -8 22 -27 30c-9 5 -19 9 -28 12c-17 7 -53 19 -74 27c-103 41 -154 103 -154 186
c0 51 18 92 55 122c-17 28 -25 60 -25 97c0 56 21 99 62 130c42 31 91 47 146 47c104 0 178 -44 221 -132l-148 -70c-13 41 -34 62 -63 62c-20 0 -34 -11 -34 -27c0 -15 10 -26 30 -37c10 -5 20 -10 30 -14l81 -31c83 -36 132 -85 132 -177zM210 325c0 -15 12 -29 35 -40
l31 -13c9 -4 25 -9 46 -16c10 7 15 16 15 29s-4 19 -16 26c-8 5 -24 12 -39 18c-7 3 -27 11 -61 23c-7 -7 -11 -16 -11 -27z" />
    <glyph glyph-name="dieresis" unicode="&#xa8;" horiz-adv-x="400" 
d="M165 555c-33 -33 -87 -33 -120 0s-33 87 0 120s87 33 120 0s33 -87 0 -120zM365 555c-33 -33 -87 -33 -120 0s-33 87 0 120s87 33 120 0s33 -87 0 -120z" />
    <glyph glyph-name="copyright" unicode="&#xa9;" horiz-adv-x="774" 
d="M643 94c-71 -71 -156 -106 -256 -106s-185 35 -256 106s-106 156 -106 256s35 185 106 256s156 106 256 106s185 -35 256 -106s106 -156 106 -256s-35 -185 -106 -256zM166 126c61 -61 135 -92 221 -92s159 31 220 92c61 62 92 137 92 224s-31 162 -92 223
c-61 62 -134 93 -220 93s-160 -31 -221 -93c-61 -61 -91 -136 -91 -223s30 -162 91 -224zM390 153c-55 0 -102 19 -141 58s-58 86 -58 139s19 99 58 138s86 59 141 59c69 0 131 -35 167 -98l-127 -73c-10 16 -25 24 -44 24c-65 2 -65 -102 0 -100c19 0 34 8 44 24l128 -73
c-36 -63 -99 -98 -168 -98z" />
    <glyph glyph-name="guillemotleft" unicode="&#xab;" horiz-adv-x="577" 
d="M165 509h152l-115 -200l115 -200h-152l-115 200zM375 509h152l-115 -200l115 -200h-152l-115 200z" />
    <glyph glyph-name="logicalnot" unicode="&#xac;" horiz-adv-x="580" 
d="M30 260v180h520v-300h-190v120h-330z" />
    <glyph glyph-name="registered" unicode="&#xae;" horiz-adv-x="774" 
d="M131 606c71 71 156 106 256 106s185 -35 256 -106s106 -156 106 -256s-35 -185 -106 -256s-156 -106 -256 -106s-185 35 -256 106s-106 156 -106 256s35 185 106 256zM166 126c61 -61 135 -92 221 -92s159 31 220 92c61 62 92 137 92 224s-31 162 -92 223
c-61 62 -134 93 -220 93s-160 -31 -221 -93c-61 -61 -91 -136 -91 -223s30 -162 91 -224zM566 406c0 -49 -17 -87 -51 -116l71 -125h-151l-48 92h-13v-92h-142v370h194c38 0 71 -12 98 -37c28 -24 42 -55 42 -92zM396 415h-22v-48h22c19 0 28 8 28 24s-9 24 -28 24z" />
    <glyph glyph-name="overscore" unicode="&#xaf;" horiz-adv-x="360" 
d="M340 549h-320v140h320v-140z" />
    <glyph glyph-name="degree" unicode="&#xb0;" horiz-adv-x="426" 
d="M213 450c-52 0 -96 17 -131 52s-52 78 -52 128c0 51 17 93 52 128s78 52 131 52s96 -17 131 -52s52 -77 52 -128c0 -50 -17 -93 -52 -128c-34 -35 -78 -52 -131 -52zM213 590c24 0 39 16 39 40c0 34 -42 55 -67 28c-24 -24 -7 -68 28 -68z" />
    <glyph glyph-name="plusminus" unicode="&#xb1;" horiz-adv-x="560" 
d="M370 670v-130h160v-180h-160v-130h-180v130h-160v180h160v130h180zM530 0h-500v180h500v-180z" />
    <glyph glyph-name="acute" unicode="&#xb4;" horiz-adv-x="330" 
d="M20 550l80 150h210l-116 -150h-174z" />
    <glyph glyph-name="uni00B5" unicode="&#xb5;" horiz-adv-x="595" 
d="M570 160h15v-160h-80c-53 0 -93 17 -120 50c-28 -44 -76 -66 -144 -66c-7 0 -13 0 -16 1v-185h-185v700h185v-271c0 -45 21 -67 62 -67c44 0 68 30 68 79v259h185v-310c0 -20 10 -30 30 -30z" />
    <glyph glyph-name="paragraph" unicode="&#xb6;" horiz-adv-x="760" 
d="M250 700h490v-194h-72v-706h-180v706h-58v-706h-180v440c-64 0 -118 22 -163 67s-67 100 -67 163c0 64 22 118 67 163s99 67 163 67z" />
    <glyph glyph-name="middot" unicode="&#xb7;" horiz-adv-x="300" 
d="M231 273c-22 -22 -49 -33 -81 -33s-59 11 -82 33c-22 23 -33 50 -33 82s11 59 33 81c23 23 50 34 82 34s59 -11 81 -34c23 -22 34 -49 34 -81s-11 -59 -34 -82z" />
    <glyph glyph-name="cedilla" unicode="&#xb8;" horiz-adv-x="285" 
d="M212 0v-46c35 -15 53 -40 53 -77c0 -75 -81 -112 -245 -103v114c63 -5 95 0 95 14c0 10 -18 17 -53 20v78h150z" />
    <glyph glyph-name="guillemotright" unicode="&#xbb;" horiz-adv-x="577" 
d="M50 509h152l115 -200l-115 -200h-152l115 200zM260 509h152l115 -200l-115 -200h-152l115 200z" />
    <glyph glyph-name="onequarter" unicode="&#xbc;" horiz-adv-x="825" 
d="M253 300h-142v251l-78 -19l-33 120l132 48h121v-400zM99 0l410 700h130l-410 -700h-130zM782 171h33v-120h-33v-51h-128v51h-190v120l110 229h147l-104 -229h37v66h128v-66z" />
    <glyph glyph-name="onehalf" unicode="&#xbd;" horiz-adv-x="810" 
d="M253 300h-142v251l-78 -19l-33 120l132 48h121v-400zM99 0l410 700h130l-410 -700h-130zM717 157l-36 -32h107v-125h-306v102l140 131c18 17 27 30 27 41c0 12 -7 18 -20 18c-15 0 -28 -14 -39 -42l-116 66c33 65 87 98 162 98c41 0 76 -12 106 -37c30 -24 45 -56 45 -95
c0 -42 -23 -84 -70 -125z" />
    <glyph glyph-name="threequarters" unicode="&#xbe;" horiz-adv-x="869" 
d="M328 429c0 -91 -67 -143 -164 -143c-79 0 -134 33 -164 98l114 65c10 -27 27 -40 50 -40c19 0 28 7 28 20s-8 19 -23 19h-32l-50 75l48 54h-114v123h292v-89l-64 -72c53 -20 79 -57 79 -110zM143 0l410 700h130l-410 -700h-130zM826 171h33v-120h-33v-51h-128v51h-190
v120l110 229h147l-104 -229h37v66h128v-66z" />
    <glyph glyph-name="questiondown" unicode="&#xbf;" horiz-adv-x="532" 
d="M195 481c23 23 50 34 82 34s59 -11 81 -34c23 -22 34 -49 34 -81s-11 -59 -34 -82c-22 -22 -49 -33 -81 -33s-59 11 -82 33c-22 23 -33 50 -33 82s11 59 33 81zM187 240h180c0 -57 -34 -110 -69 -138c-33 -28 -68 -62 -68 -90c0 -21 16 -36 41 -36c33 0 60 24 82 73
l169 -96c-48 -113 -146 -169 -259 -169c-67 0 -123 18 -167 54c-44 35 -66 83 -66 143c0 56 24 106 55 137c45 47 102 83 102 122z" />
    <glyph glyph-name="Agrave" unicode="&#xc0;" horiz-adv-x="660" 
d="M350 900l80 -150h-174l-116 150h210zM670 0h-215l-24 90h-202l-24 -90h-215l223 700h234zM330 465l-58 -215h116z" />
    <glyph glyph-name="Aacute" unicode="&#xc1;" horiz-adv-x="660" 
d="M300 900h210l-116 -150h-174zM670 0h-215l-24 90h-202l-24 -90h-215l223 700h234zM330 465l-58 -215h116z" />
    <glyph glyph-name="Acircumflex" unicode="&#xc2;" horiz-adv-x="660" 
d="M370 740l-45 58l-45 -58h-155l106 160h188l106 -160h-155zM670 0h-215l-24 90h-202l-24 -90h-215l223 700h234zM330 465l-58 -215h116z" />
    <glyph glyph-name="Atilde" unicode="&#xc3;" horiz-adv-x="660" 
d="M326 757c-30 12 -55 37 -55 -14h-120c0 168 103 185 183 153c31 -12 56 -36 56 14h120c0 -81 -25 -135 -62 -154c-37 -17 -78 -16 -122 1zM670 0h-215l-24 90h-202l-24 -90h-215l223 700h234zM330 465l-58 -215h116z" />
    <glyph glyph-name="Adieresis" unicode="&#xc4;" horiz-adv-x="660" 
d="M290 755c-33 -33 -87 -33 -120 0s-33 87 0 120s87 33 120 0s33 -87 0 -120zM490 755c-33 -33 -87 -33 -120 0s-33 87 0 120s87 33 120 0s33 -87 0 -120zM670 0h-215l-24 90h-202l-24 -90h-215l223 700h234zM330 465l-58 -215h116z" />
    <glyph glyph-name="Aring" unicode="&#xc5;" horiz-adv-x="660" 
d="M670 0h-215l-24 90h-202l-24 -90h-215l219 686c-19 24 -28 52 -28 84c0 40 14 73 42 100s64 40 107 40c89 0 149 -59 149 -140c0 -32 -9 -60 -27 -85zM330 800c-41 0 -41 -60 0 -60c21 0 32 10 32 30s-11 30 -32 30zM330 465l-58 -215h116z" />
    <glyph glyph-name="AE" unicode="&#xc6;" horiz-adv-x="890" 
d="M635 262v-78h225v-184h-420v90h-182l-48 -90h-220l389 700h476v-182h-220v-76h195v-180h-195zM440 427l-95 -177h95v177z" />
    <glyph glyph-name="Ccedilla" unicode="&#xc7;" horiz-adv-x="718" 
d="M391 180c60 0 110 28 133 75l174 -100c-51 -87 -128 -141 -230 -163v-38c35 -15 53 -40 53 -77c0 -75 -81 -112 -245 -103v114c63 -5 95 0 95 14c0 10 -18 17 -53 20v69c-87 15 -157 56 -212 123c-54 67 -81 145 -81 236c0 104 35 191 104 261s157 105 262 105
c129 0 246 -66 307 -170l-174 -100c-23 45 -74 74 -133 74c-49 0 -89 -16 -120 -48s-46 -73 -46 -122s15 -90 46 -122s71 -48 120 -48z" />
    <glyph glyph-name="Egrave" unicode="&#xc8;" horiz-adv-x="540" 
d="M298 900l80 -150h-174l-116 150h210zM250 262v-78h260v-184h-460v700h455v-182h-255v-76h230v-180h-230z" />
    <glyph glyph-name="Eacute" unicode="&#xc9;" horiz-adv-x="540" 
d="M248 900h210l-116 -150h-174zM250 262v-78h260v-184h-460v700h455v-182h-255v-76h230v-180h-230z" />
    <glyph glyph-name="Ecircumflex" unicode="&#xca;" horiz-adv-x="540" 
d="M318 740l-45 58l-45 -58h-155l106 160h188l106 -160h-155zM250 262v-78h260v-184h-460v700h455v-182h-255v-76h230v-180h-230z" />
    <glyph glyph-name="Edieresis" unicode="&#xcb;" horiz-adv-x="540" 
d="M238 755c-33 -33 -87 -33 -120 0s-33 87 0 120s87 33 120 0s33 -87 0 -120zM438 755c-33 -33 -87 -33 -120 0s-33 87 0 120s87 33 120 0s33 -87 0 -120zM250 262v-78h260v-184h-460v700h455v-182h-255v-76h230v-180h-230z" />
    <glyph glyph-name="Igrave" unicode="&#xcc;" horiz-adv-x="300" 
d="M250 750h-174l-116 150h210zM50 700v-700h200v700h-200z" />
    <glyph glyph-name="Iacute" unicode="&#xcd;" horiz-adv-x="300" 
d="M40 750l80 150h210l-116 -150h-174zM50 700v-700h200v700h-200z" />
    <glyph glyph-name="Icircumflex" unicode="&#xce;" horiz-adv-x="300" 
d="M190 740l-45 58l-45 -58h-155l106 160h188l106 -160h-155zM250 0h-200v700h200v-700z" />
    <glyph glyph-name="Idieresis" unicode="&#xcf;" horiz-adv-x="300" 
d="M110 755c-33 -33 -87 -33 -120 0s-33 87 0 120s87 33 120 0s33 -87 0 -120zM310 755c-33 -33 -87 -33 -120 0s-33 87 0 120s87 33 120 0s33 -87 0 -120zM50 0v700h200v-700h-200z" />
    <glyph glyph-name="Eth" unicode="&#xd0;" horiz-adv-x="725" 
d="M70 700h290c97 0 177 -34 242 -101s98 -150 98 -249s-33 -183 -98 -250s-145 -100 -242 -100h-290v258h-70v174h70v268zM280 194h80c81 0 140 64 140 156s-59 156 -140 156h-80v-74h120v-174h-120v-64z" />
    <glyph glyph-name="Ntilde" unicode="&#xd1;" horiz-adv-x="680" 
d="M266 743h-120c0 168 103 185 183 153c31 -12 56 -36 56 14h120c0 -81 -25 -135 -62 -154c-37 -17 -78 -16 -122 1c-30 12 -55 37 -55 -14zM430 380v320h200v-700h-160l-220 320v-320h-200v700h160z" />
    <glyph glyph-name="Ograve" unicode="&#xd2;" horiz-adv-x="792" 
d="M496 760h-174l-116 150h210zM659 89c72 71 108 158 108 261s-36 190 -108 260c-71 71 -159 106 -263 106s-192 -35 -264 -106c-71 -70 -107 -157 -107 -260s36 -190 107 -261c72 -70 160 -105 264 -105s192 35 263 105zM273 228c-32 33 -48 73 -48 122s16 89 48 121
c33 33 74 49 123 49s90 -16 122 -49c33 -32 49 -72 49 -121s-16 -89 -49 -122c-32 -32 -73 -48 -122 -48s-90 16 -123 48z" />
    <glyph glyph-name="Oacute" unicode="&#xd3;" horiz-adv-x="792" 
d="M286 760l80 150h210l-116 -150h-174zM659 89c72 71 108 158 108 261s-36 190 -108 260c-71 71 -159 106 -263 106s-192 -35 -264 -106c-71 -70 -107 -157 -107 -260s36 -190 107 -261c72 -70 160 -105 264 -105s192 35 263 105zM273 228c-32 33 -48 73 -48 122
s16 89 48 121c33 33 74 49 123 49s90 -16 122 -49c33 -32 49 -72 49 -121s-16 -89 -49 -122c-32 -32 -73 -48 -122 -48s-90 16 -123 48z" />
    <glyph glyph-name="Ocircumflex" unicode="&#xd4;" horiz-adv-x="792" 
d="M436 750l-45 58l-45 -58h-155l106 160h188l106 -160h-155zM132 610c72 71 160 106 264 106s192 -35 263 -106c72 -70 108 -157 108 -260s-36 -190 -108 -261c-71 -70 -159 -105 -263 -105s-192 35 -264 105c-71 71 -107 158 -107 261s36 190 107 260zM273 228
c33 -32 74 -48 123 -48s90 16 122 48c33 33 49 73 49 122s-16 89 -49 121c-32 33 -73 49 -122 49s-90 -16 -123 -49c-32 -32 -48 -72 -48 -121s16 -89 48 -122z" />
    <glyph glyph-name="Otilde" unicode="&#xd5;" horiz-adv-x="792" 
d="M337 753h-120c0 168 103 185 183 153c31 -12 56 -36 56 14h120c0 -81 -25 -135 -62 -154c-37 -17 -78 -16 -122 1c-30 12 -55 37 -55 -14zM659 89c-71 -70 -159 -105 -263 -105s-192 35 -264 105c-71 71 -107 158 -107 261s36 190 107 260c72 71 160 106 264 106
s192 -35 263 -106c72 -70 108 -157 108 -260s-36 -190 -108 -261zM273 228c33 -32 74 -48 123 -48s90 16 122 48c33 33 49 73 49 122s-16 89 -49 121c-32 33 -73 49 -122 49s-90 -16 -123 -49c-32 -32 -48 -72 -48 -121s16 -89 48 -122z" />
    <glyph glyph-name="Odieresis" unicode="&#xd6;" horiz-adv-x="792" 
d="M356 765c-33 -33 -87 -33 -120 0s-33 87 0 120s87 33 120 0s33 -87 0 -120zM556 765c-33 -33 -87 -33 -120 0s-33 87 0 120s87 33 120 0s33 -87 0 -120zM659 89c-71 -70 -159 -105 -263 -105s-192 35 -264 105c-71 71 -107 158 -107 261s36 190 107 260
c72 71 160 106 264 106s192 -35 263 -106c72 -70 108 -157 108 -260s-36 -190 -108 -261zM273 228c33 -32 74 -48 123 -48s90 16 122 48c33 33 49 73 49 122s-16 89 -49 121c-32 33 -73 49 -122 49s-90 -16 -123 -49c-32 -32 -48 -72 -48 -121s16 -89 48 -122z" />
    <glyph glyph-name="multiply" unicode="&#xd7;" horiz-adv-x="553" 
d="M396 597l127 -128l-119 -119l119 -119l-127 -128l-119 120l-120 -120l-127 128l119 119l-119 119l127 128l120 -119z" />
    <glyph glyph-name="Oslash" unicode="&#xd8;" horiz-adv-x="797" 
d="M720 672l-53 -64c70 -71 105 -157 105 -258c0 -103 -36 -190 -108 -261c-71 -70 -159 -105 -263 -105c-73 0 -140 19 -200 56l-44 -54l-75 42l53 64c-70 71 -105 157 -105 258c0 103 36 190 107 260c72 71 160 106 264 106c73 0 140 -19 200 -56l44 54zM230 350
c0 -38 11 -72 32 -102l212 257c-22 10 -46 15 -73 15c-49 0 -90 -16 -123 -49c-32 -32 -48 -72 -48 -121zM401 180c49 0 90 16 122 48c33 33 49 73 49 122c0 38 -11 72 -32 102l-212 -257c22 -10 46 -15 73 -15z" />
    <glyph glyph-name="Ugrave" unicode="&#xd9;" horiz-adv-x="650" 
d="M425 750h-174l-116 150h210zM40 234c0 -75 26 -135 79 -181s121 -69 206 -69s153 23 206 69s79 106 79 181v466h-200v-444c0 -52 -28 -78 -85 -78s-85 26 -85 78v444h-200v-466z" />
    <glyph glyph-name="Uacute" unicode="&#xda;" horiz-adv-x="650" 
d="M215 750l80 150h210l-116 -150h-174zM40 234c0 -75 26 -135 79 -181s121 -69 206 -69s153 23 206 69s79 106 79 181v466h-200v-444c0 -52 -28 -78 -85 -78s-85 26 -85 78v444h-200v-466z" />
    <glyph glyph-name="Ucircumflex" unicode="&#xdb;" horiz-adv-x="650" 
d="M365 740l-45 58l-45 -58h-155l106 160h188l106 -160h-155zM410 256v444h200v-466c0 -75 -26 -135 -79 -181s-121 -69 -206 -69s-153 23 -206 69s-79 106 -79 181v466h200v-444c0 -52 28 -78 85 -78s85 26 85 78z" />
    <glyph glyph-name="Udieresis" unicode="&#xdc;" horiz-adv-x="650" 
d="M285 755c-33 -33 -87 -33 -120 0s-33 87 0 120s87 33 120 0s33 -87 0 -120zM485 755c-33 -33 -87 -33 -120 0s-33 87 0 120s87 33 120 0s33 -87 0 -120zM40 234v466h200v-444c0 -52 28 -78 85 -78s85 26 85 78v444h200v-466c0 -75 -26 -135 -79 -181s-121 -69 -206 -69
s-153 23 -206 69s-79 106 -79 181z" />
    <glyph glyph-name="Yacute" unicode="&#xdd;" horiz-adv-x="674" 
d="M307 900h210l-116 -150h-174zM452 700h222l-237 -434v-266h-200v266l-237 434h222l115 -246z" />
    <glyph glyph-name="Thorn" unicode="&#xde;" horiz-adv-x="595" 
d="M250 602h80c73 0 133 -23 182 -69c49 -45 73 -106 73 -182s-24 -137 -73 -183c-49 -45 -109 -68 -182 -68h-80v-99h-200v700h200v-99zM250 294h80c31 0 55 22 55 57s-24 57 -55 57h-80v-114z" />
    <glyph glyph-name="germandbls" unicode="&#xdf;" horiz-adv-x="559" 
d="M271 -3v166c65 -9 98 4 98 38c0 21 -14 54 -43 99c-28 45 -42 76 -42 92c0 13 6 30 17 53s17 44 17 61c0 33 -15 50 -44 50c-32 0 -49 -24 -49 -59v-497h-185v488c0 145 96 228 240 228c73 0 130 -19 171 -56s62 -79 62 -127c0 -27 -8 -53 -23 -78s-22 -45 -22 -58
c-4 -44 90 -136 86 -247c0 -59 -22 -103 -66 -132s-116 -36 -217 -21z" />
    <glyph glyph-name="agrave" unicode="&#xe0;" horiz-adv-x="606" 
d="M323 700l80 -150h-174l-116 150h210zM381 455v45h185v-500h-185v45c-32 -39 -77 -59 -134 -59c-67 0 -122 25 -165 75s-64 113 -64 189s21 139 64 189s98 75 165 75c57 0 102 -20 134 -59zM227 183c17 -18 38 -27 65 -27s48 9 64 27c33 36 33 98 0 134
c-16 18 -37 27 -64 27s-48 -9 -65 -27c-32 -36 -32 -98 0 -134z" />
    <glyph glyph-name="aacute" unicode="&#xe1;" horiz-adv-x="606" 
d="M273 700h210l-116 -150h-174zM381 455v45h185v-500h-185v45c-32 -39 -77 -59 -134 -59c-67 0 -122 25 -165 75s-64 113 -64 189s21 139 64 189s98 75 165 75c57 0 102 -20 134 -59zM227 183c17 -18 38 -27 65 -27s48 9 64 27c33 36 33 98 0 134c-16 18 -37 27 -64 27
s-48 -9 -65 -27c-32 -36 -32 -98 0 -134z" />
    <glyph glyph-name="acircumflex" unicode="&#xe2;" horiz-adv-x="606" 
d="M343 540l-45 58l-45 -58h-155l106 160h188l106 -160h-155zM381 455v45h185v-500h-185v45c-32 -39 -77 -59 -134 -59c-67 0 -122 25 -165 75s-64 113 -64 189s21 139 64 189s98 75 165 75c57 0 102 -20 134 -59zM227 183c17 -18 38 -27 65 -27s48 9 64 27
c33 36 33 98 0 134c-16 18 -37 27 -64 27s-48 -9 -65 -27c-32 -36 -32 -98 0 -134z" />
    <glyph glyph-name="atilde" unicode="&#xe3;" horiz-adv-x="606" 
d="M299 557c-30 12 -55 37 -55 -14h-120c0 168 103 185 183 153c31 -12 56 -36 56 14h120c0 -81 -25 -135 -62 -154c-37 -17 -78 -16 -122 1zM381 455v45h185v-500h-185v45c-32 -39 -77 -59 -134 -59c-67 0 -122 25 -165 75s-64 113 -64 189s21 139 64 189s98 75 165 75
c57 0 102 -20 134 -59zM227 183c17 -18 38 -27 65 -27s48 9 64 27c33 36 33 98 0 134c-16 18 -37 27 -64 27s-48 -9 -65 -27c-32 -36 -32 -98 0 -134z" />
    <glyph glyph-name="adieresis" unicode="&#xe4;" horiz-adv-x="606" 
d="M263 555c-33 -33 -87 -33 -120 0s-33 87 0 120s87 33 120 0s33 -87 0 -120zM463 555c-33 -33 -87 -33 -120 0s-33 87 0 120s87 33 120 0s33 -87 0 -120zM381 455v45h185v-500h-185v45c-32 -39 -77 -59 -134 -59c-67 0 -122 25 -165 75s-64 113 -64 189s21 139 64 189
s98 75 165 75c57 0 102 -20 134 -59zM227 183c17 -18 38 -27 65 -27s48 9 64 27c33 36 33 98 0 134c-16 18 -37 27 -64 27s-48 -9 -65 -27c-32 -36 -32 -98 0 -134z" />
    <glyph glyph-name="aring" unicode="&#xe5;" horiz-adv-x="606" 
d="M303 530c-43 0 -79 13 -107 40s-42 60 -42 100s14 73 42 100s64 40 107 40c89 0 149 -59 149 -140s-60 -140 -149 -140zM303 700c-41 0 -41 -60 0 -60c21 0 32 10 32 30s-11 30 -32 30zM381 455v45h185v-500h-185v45c-32 -39 -77 -59 -134 -59c-67 0 -122 25 -165 75
s-64 113 -64 189s21 139 64 189s98 75 165 75c57 0 102 -20 134 -59zM227 183c17 -18 38 -27 65 -27s48 9 64 27c33 36 33 98 0 134c-16 18 -37 27 -64 27s-48 -9 -65 -27c-32 -36 -32 -98 0 -134z" />
    <glyph glyph-name="ae" unicode="&#xe6;" horiz-adv-x="922" 
d="M899 187h-330c18 -40 53 -60 105 -60c37 0 67 13 92 38l115 -93c-47 -57 -109 -86 -185 -86c-61 0 -111 19 -150 57v-43h-165v34c-32 -32 -73 -48 -124 -48c-68 0 -125 25 -171 75c-45 51 -68 114 -68 189s23 138 68 188c46 51 103 76 171 76c51 0 92 -16 124 -48v34h165
v-37c35 34 80 51 134 51c64 0 118 -25 161 -76c44 -50 66 -112 66 -186c0 -22 -3 -44 -8 -65zM564 306h169c-11 40 -39 60 -82 60s-72 -20 -87 -60zM227 185c17 -17 38 -25 65 -25s48 8 64 25c17 17 25 38 25 65s-8 48 -25 65c-16 17 -37 25 -64 25s-48 -8 -65 -25
c-16 -17 -24 -38 -24 -65s8 -48 24 -65z" />
    <glyph glyph-name="ccedilla" unicode="&#xe7;" horiz-adv-x="525" 
d="M285 164c35 0 59 14 74 43l156 -90c-33 -60 -84 -100 -151 -120v-43c35 -15 53 -40 53 -77c0 -75 -81 -112 -245 -103v114c63 -5 95 0 95 14c0 10 -18 17 -53 20v73c-59 15 -106 45 -142 91c-36 47 -54 101 -54 164c0 75 25 138 76 188c51 51 114 76 191 76
c99 0 186 -51 230 -131l-156 -89c-17 28 -41 42 -74 42c-47 0 -82 -37 -82 -86s35 -86 82 -86z" />
    <glyph glyph-name="egrave" unicode="&#xe8;" horiz-adv-x="560" 
d="M310 710l80 -150h-174l-116 150h210zM537 187h-332c16 -33 50 -50 102 -50c31 0 59 11 85 32l121 -102c-50 -54 -121 -81 -212 -81c-85 0 -154 25 -206 74c-51 50 -77 113 -77 188c0 76 25 139 75 190c51 51 114 76 191 76c76 0 138 -25 187 -75c49 -49 74 -112 74 -187
c0 -22 -3 -44 -8 -65zM202 306h168c-11 40 -38 60 -81 60s-72 -20 -87 -60z" />
    <glyph glyph-name="eacute" unicode="&#xe9;" horiz-adv-x="560" 
d="M260 710h210l-116 -150h-174zM537 187h-332c16 -33 50 -50 102 -50c31 0 59 11 85 32l121 -102c-50 -54 -121 -81 -212 -81c-85 0 -154 25 -206 74c-51 50 -77 113 -77 188c0 76 25 139 75 190c51 51 114 76 191 76c76 0 138 -25 187 -75c49 -49 74 -112 74 -187
c0 -22 -3 -44 -8 -65zM202 306h168c-11 40 -38 60 -81 60s-72 -20 -87 -60z" />
    <glyph glyph-name="ecircumflex" unicode="&#xea;" horiz-adv-x="560" 
d="M330 550l-45 58l-45 -58h-155l106 160h188l106 -160h-155zM537 187h-332c16 -33 50 -50 102 -50c31 0 59 11 85 32l121 -102c-50 -54 -121 -81 -212 -81c-85 0 -154 25 -206 74c-51 50 -77 113 -77 188c0 76 25 139 75 190c51 51 114 76 191 76c76 0 138 -25 187 -75
c49 -49 74 -112 74 -187c0 -22 -3 -44 -8 -65zM202 306h168c-11 40 -38 60 -81 60s-72 -20 -87 -60z" />
    <glyph glyph-name="edieresis" unicode="&#xeb;" horiz-adv-x="560" 
d="M250 565c-33 -33 -87 -33 -120 0s-33 87 0 120s87 33 120 0s33 -87 0 -120zM450 565c-33 -33 -87 -33 -120 0s-33 87 0 120s87 33 120 0s33 -87 0 -120zM537 187h-332c16 -33 50 -50 102 -50c31 0 59 11 85 32l121 -102c-50 -54 -121 -81 -212 -81c-85 0 -154 25 -206 74
c-51 50 -77 113 -77 188c0 76 25 139 75 190c51 51 114 76 191 76c76 0 138 -25 187 -75c49 -49 74 -112 74 -187c0 -22 -3 -44 -8 -65zM202 306h168c-11 40 -38 60 -81 60s-72 -20 -87 -60z" />
    <glyph glyph-name="igrave" unicode="&#xec;" horiz-adv-x="265" 
d="M220 550h-174l-76 150h210zM225 0v500h-185v-500h185z" />
    <glyph glyph-name="iacute" unicode="&#xed;" horiz-adv-x="265" 
d="M40 550l40 150h210l-76 -150h-174zM40 0h185v500h-185v-500z" />
    <glyph glyph-name="icircumflex" unicode="&#xee;" horiz-adv-x="265" 
d="M167 540l-35 53l-35 -53h-145l86 160h188l86 -160h-145zM225 0h-185v500h185v-500z" />
    <glyph glyph-name="idieresis" unicode="&#xef;" horiz-adv-x="265" 
d="M98 563c-31 -31 -81 -31 -112 0c-32 32 -32 82 0 113c31 32 81 32 112 0c32 -31 32 -81 0 -113zM278 563c-31 -31 -81 -31 -113 0c-31 32 -31 82 0 113c32 32 82 32 113 0c32 -31 32 -81 0 -113zM225 0h-185v500h185v-500z" />
    <glyph glyph-name="eth" unicode="&#xf0;" horiz-adv-x="562" 
d="M363 551l135 -181c31 -42 46 -89 46 -140c0 -73 -26 -133 -79 -178c-52 -45 -113 -68 -184 -68c-75 0 -137 22 -188 67c-50 45 -75 104 -75 179c0 55 18 104 55 147s83 71 138 82l-25 36l-121 -38v140l39 12l-64 91h212l27 -36l143 45v-140zM359 226c0 16 -5 31 -14 44
c-16 19 -37 29 -64 29c-47 0 -78 -28 -78 -73c0 -49 31 -77 78 -77s78 28 78 77z" />
    <glyph glyph-name="ntilde" unicode="&#xf1;" 
d="M291 567c-30 12 -55 37 -55 -14h-120c0 168 103 185 183 153c31 -12 56 -36 56 14h120c0 -81 -25 -135 -62 -154c-37 -17 -78 -16 -122 1zM359 514c109 0 181 -76 181 -225v-289h-185v269c0 45 -21 67 -62 67c-44 0 -68 -30 -68 -79v-257h-185v500h185v-49
c31 42 75 63 134 63z" />
    <glyph glyph-name="ograve" unicode="&#xf2;" horiz-adv-x="574" 
d="M387 560h-174l-116 150h210zM287 -14c75 0 139 25 191 76s78 113 78 188s-26 137 -78 188s-116 76 -191 76s-139 -25 -191 -76s-78 -113 -78 -188s26 -137 78 -188c53 -51 116 -76 191 -76zM226 186c-15 17 -23 38 -23 64s8 47 23 63c16 17 36 25 61 25s45 -8 60 -25
c16 -16 24 -37 24 -63s-8 -47 -24 -64c-15 -16 -35 -24 -60 -24s-45 8 -61 24z" />
    <glyph glyph-name="oacute" unicode="&#xf3;" horiz-adv-x="574" 
d="M177 560l80 150h210l-116 -150h-174zM287 -14c75 0 139 25 191 76s78 113 78 188s-26 137 -78 188s-116 76 -191 76s-139 -25 -191 -76s-78 -113 -78 -188s26 -137 78 -188c53 -51 116 -76 191 -76zM226 186c-15 17 -23 38 -23 64s8 47 23 63c16 17 36 25 61 25
s45 -8 60 -25c16 -16 24 -37 24 -63s-8 -47 -24 -64c-15 -16 -35 -24 -60 -24s-45 8 -61 24z" />
    <glyph glyph-name="ocircumflex" unicode="&#xf4;" horiz-adv-x="574" 
d="M327 550l-45 58l-45 -58h-155l106 160h188l106 -160h-155zM287 -14c-75 0 -138 25 -191 76c-52 51 -78 113 -78 188s26 137 78 188s116 76 191 76s139 -25 191 -76s78 -113 78 -188s-26 -137 -78 -188s-116 -76 -191 -76zM226 186c16 -16 36 -24 61 -24s45 8 60 24
c16 17 24 38 24 64s-8 47 -24 63c-15 17 -35 25 -60 25s-45 -8 -61 -25c-15 -16 -23 -37 -23 -63s8 -47 23 -64z" />
    <glyph glyph-name="otilde" unicode="&#xf5;" horiz-adv-x="574" 
d="M228 553h-120c0 168 103 185 183 153c31 -12 56 -36 56 14h120c0 -81 -25 -135 -62 -154c-37 -17 -78 -16 -122 1c-30 12 -55 37 -55 -14zM287 -14c-75 0 -138 25 -191 76c-52 51 -78 113 -78 188s26 137 78 188s116 76 191 76s139 -25 191 -76s78 -113 78 -188
s-26 -137 -78 -188s-116 -76 -191 -76zM226 186c16 -16 36 -24 61 -24s45 8 60 24c16 17 24 38 24 64s-8 47 -24 63c-15 17 -35 25 -60 25s-45 -8 -61 -25c-15 -16 -23 -37 -23 -63s8 -47 23 -64z" />
    <glyph glyph-name="odieresis" unicode="&#xf6;" horiz-adv-x="574" 
d="M247 565c-33 -33 -87 -33 -120 0s-33 87 0 120s87 33 120 0s33 -87 0 -120zM447 565c-33 -33 -87 -33 -120 0s-33 87 0 120s87 33 120 0s33 -87 0 -120zM287 -14c-75 0 -138 25 -191 76c-52 51 -78 113 -78 188s26 137 78 188s116 76 191 76s139 -25 191 -76
s78 -113 78 -188s-26 -137 -78 -188s-116 -76 -191 -76zM226 186c16 -16 36 -24 61 -24s45 8 60 24c16 17 24 38 24 64s-8 47 -24 63c-15 17 -35 25 -60 25s-45 -8 -61 -25c-15 -16 -23 -37 -23 -63s8 -47 23 -64z" />
    <glyph glyph-name="divide" unicode="&#xf7;" horiz-adv-x="540" 
d="M341 490c-19 -19 -42 -28 -71 -28s-53 9 -72 28s-28 43 -28 72s9 52 28 71s43 29 72 29s52 -10 71 -29s29 -42 29 -71s-10 -53 -29 -72zM510 260h-480v180h480v-180zM341 66c-19 -19 -42 -28 -71 -28s-53 9 -72 28s-28 43 -28 72s9 52 28 71s43 29 72 29s52 -10 71 -29
s29 -42 29 -71s-10 -53 -29 -72z" />
    <glyph glyph-name="oslash" unicode="&#xf8;" horiz-adv-x="574" 
d="M519 479l-37 -45c49 -51 74 -112 74 -184c0 -75 -26 -137 -78 -188s-116 -76 -191 -76c-49 0 -96 12 -140 37l-30 -37l-61 34l37 46c-50 51 -75 113 -75 184c0 75 26 137 78 188s116 76 191 76c50 0 97 -12 141 -37l30 37zM203 250c0 -14 3 -27 8 -40l101 125
c-8 2 -16 3 -25 3c-49 0 -84 -36 -84 -88zM287 162c49 0 84 36 84 88c0 13 -2 25 -7 38l-101 -123c8 -2 16 -3 24 -3z" />
    <glyph glyph-name="ugrave" unicode="&#xf9;" 
d="M305 700l80 -150h-174l-116 150h210zM350 243v257h185v-500h-185v49c-31 -42 -75 -63 -134 -63c-109 0 -181 76 -181 225v289h185v-269c0 -45 21 -67 62 -67c44 0 68 30 68 79z" />
    <glyph glyph-name="uacute" unicode="&#xfa;" 
d="M255 700h210l-116 -150h-174zM350 243v257h185v-500h-185v49c-31 -42 -75 -63 -134 -63c-109 0 -181 76 -181 225v289h185v-269c0 -45 21 -67 62 -67c44 0 68 30 68 79z" />
    <glyph glyph-name="ucircumflex" unicode="&#xfb;" 
d="M325 540l-45 58l-45 -58h-155l106 160h188l106 -160h-155zM350 243v257h185v-500h-185v49c-31 -42 -75 -63 -134 -63c-109 0 -181 76 -181 225v289h185v-269c0 -45 21 -67 62 -67c44 0 68 30 68 79z" />
    <glyph glyph-name="udieresis" unicode="&#xfc;" 
d="M245 555c-33 -33 -87 -33 -120 0s-33 87 0 120s87 33 120 0s33 -87 0 -120zM445 555c-33 -33 -87 -33 -120 0s-33 87 0 120s87 33 120 0s33 -87 0 -120zM350 243v257h185v-500h-185v49c-31 -42 -75 -63 -134 -63c-109 0 -181 76 -181 225v289h185v-269
c0 -45 21 -67 62 -67c44 0 68 30 68 79z" />
    <glyph glyph-name="yacute" unicode="&#xfd;" horiz-adv-x="570" 
d="M261 700h210l-116 -150h-174zM299 233l61 267h210l-170 -499c-49 -145 -150 -208 -321 -201v175c68 0 100 8 121 35l-200 490h210z" />
    <glyph glyph-name="thorn" unicode="&#xfe;" horiz-adv-x="606" 
d="M359 514c67 0 122 -25 165 -75s64 -113 64 -189s-21 -139 -64 -189s-98 -75 -165 -75c-57 0 -102 20 -134 59v-245h-185v900h185v-245c32 39 77 59 134 59zM249 183c17 -18 38 -27 65 -27s48 9 64 27c33 36 33 98 0 134c-16 18 -37 27 -64 27s-48 -9 -65 -27
c-32 -36 -32 -98 0 -134z" />
    <glyph glyph-name="ydieresis" unicode="&#xff;" horiz-adv-x="570" 
d="M251 555c-33 -33 -87 -33 -120 0s-33 87 0 120s87 33 120 0s33 -87 0 -120zM451 555c-33 -33 -87 -33 -120 0s-33 87 0 120s87 33 120 0s33 -87 0 -120zM299 233l61 267h210l-170 -499c-49 -145 -150 -208 -321 -201v175c68 0 100 8 121 35l-200 490h210z" />
    <glyph glyph-name="Amacron" unicode="&#x100;" horiz-adv-x="660" 
d="M170 889h320v-140h-320v140zM670 0h-215l-24 90h-202l-24 -90h-215l223 700h234zM330 465l-58 -215h116z" />
    <glyph glyph-name="amacron" unicode="&#x101;" horiz-adv-x="606" 
d="M143 689h320v-140h-320v140zM381 455v45h185v-500h-185v45c-32 -39 -77 -59 -134 -59c-67 0 -122 25 -165 75s-64 113 -64 189s21 139 64 189s98 75 165 75c57 0 102 -20 134 -59zM227 183c17 -18 38 -27 65 -27s48 9 64 27c33 36 33 98 0 134c-16 18 -37 27 -64 27
s-48 -9 -65 -27c-32 -36 -32 -98 0 -134z" />
    <glyph glyph-name="Abreve" unicode="&#x102;" horiz-adv-x="660" 
d="M145 902h150c0 -27 12 -40 35 -40s35 13 35 40h150c0 -112 -66 -170 -185 -170s-185 58 -185 170zM670 0h-215l-24 90h-202l-24 -90h-215l223 700h234zM330 465l-58 -215h116z" />
    <glyph glyph-name="abreve" unicode="&#x103;" horiz-adv-x="606" 
d="M118 702h150c0 -27 12 -40 35 -40s35 13 35 40h150c0 -112 -66 -170 -185 -170s-185 58 -185 170zM381 455v45h185v-500h-185v45c-32 -39 -77 -59 -134 -59c-67 0 -122 25 -165 75s-64 113 -64 189s21 139 64 189s98 75 165 75c57 0 102 -20 134 -59zM227 183
c17 -18 38 -27 65 -27s48 9 64 27c33 36 33 98 0 134c-16 18 -37 27 -64 27s-48 -9 -65 -27c-32 -36 -32 -98 0 -134z" />
    <glyph glyph-name="Aogonek" unicode="&#x104;" horiz-adv-x="660" 
d="M630 -71c0 -13 7 -19 21 -19c7 0 13 1 19 3v-110c-28 -11 -57 -17 -88 -17c-64 0 -110 31 -110 91c0 41 20 82 59 123h-76l-24 90h-202l-24 -90h-215l223 700h234l223 -700c-27 -27 -40 -51 -40 -71zM330 465l-58 -215h116z" />
    <glyph glyph-name="aogonek" unicode="&#x105;" horiz-adv-x="606" 
d="M381 500h185v-500c-27 -27 -40 -51 -40 -71c0 -13 7 -19 21 -19c7 0 13 1 19 3v-110c-28 -11 -57 -17 -88 -17c-64 0 -110 31 -110 91c0 41 20 82 59 123h-46v45c-32 -39 -77 -59 -134 -59c-67 0 -122 25 -165 75s-64 113 -64 189s21 139 64 189s98 75 165 75
c57 0 102 -20 134 -59v45zM227 183c17 -18 38 -27 65 -27s48 9 64 27c33 36 33 98 0 134c-16 18 -37 27 -64 27s-48 -9 -65 -27c-32 -36 -32 -98 0 -134z" />
    <glyph glyph-name="Cacute" unicode="&#x106;" horiz-adv-x="718" 
d="M281 760l80 150h210l-116 -150h-174zM391 -16c129 0 246 66 307 171l-174 100c-23 -47 -73 -75 -133 -75c-49 0 -89 16 -120 48s-46 73 -46 122s15 90 46 122s71 48 120 48c59 0 110 -29 133 -74l174 100c-61 104 -178 170 -307 170c-105 0 -193 -35 -262 -105
s-104 -157 -104 -261s35 -191 104 -261s157 -105 262 -105z" />
    <glyph glyph-name="cacute" unicode="&#x107;" horiz-adv-x="525" 
d="M174 560l80 150h210l-116 -150h-174zM285 -14c99 0 186 50 230 131l-156 90c-15 -29 -39 -43 -74 -43c-47 0 -82 37 -82 86s35 86 82 86c33 0 57 -14 74 -42l156 89c-44 80 -131 131 -230 131c-77 0 -140 -25 -191 -76c-51 -50 -76 -113 -76 -188s25 -138 76 -189
c51 -50 114 -75 191 -75z" />
    <glyph glyph-name="Cdotaccent" unicode="&#x10a;" horiz-adv-x="718" 
d="M458 778c-37 -37 -97 -37 -134 0s-37 97 0 134s97 37 134 0s37 -97 0 -134zM391 -16c-105 0 -193 35 -262 105s-104 157 -104 261s35 191 104 261s157 105 262 105c129 0 246 -66 307 -170l-174 -100c-23 45 -74 74 -133 74c-49 0 -89 -16 -120 -48s-46 -73 -46 -122
s15 -90 46 -122s71 -48 120 -48c60 0 110 28 133 75l174 -100c-61 -105 -178 -171 -307 -171z" />
    <glyph glyph-name="cdotaccent" unicode="&#x10b;" horiz-adv-x="525" 
d="M351 578c-37 -37 -97 -37 -134 0s-37 97 0 134s97 37 134 0s37 -97 0 -134zM285 -14c-77 0 -140 25 -191 75c-51 51 -76 114 -76 189s25 138 76 188c51 51 114 76 191 76c99 0 186 -51 230 -131l-156 -89c-17 28 -41 42 -74 42c-47 0 -82 -37 -82 -86s35 -86 82 -86
c35 0 59 14 74 43l156 -90c-44 -81 -131 -131 -230 -131z" />
    <glyph glyph-name="Ccaron" unicode="&#x10c;" horiz-adv-x="718" 
d="M480 750h-188l-106 160h155l45 -58l45 58h155zM391 180c60 0 110 28 133 75l174 -100c-61 -105 -178 -171 -307 -171c-105 0 -193 35 -262 105s-104 157 -104 261s35 191 104 261s157 105 262 105c129 0 246 -66 307 -170l-174 -100c-23 45 -74 74 -133 74
c-49 0 -89 -16 -120 -48s-46 -73 -46 -122s15 -90 46 -122s71 -48 120 -48z" />
    <glyph glyph-name="ccaron" unicode="&#x10d;" horiz-adv-x="525" 
d="M373 550h-188l-106 160h155l45 -58l45 58h155zM285 164c35 0 59 14 74 43l156 -90c-44 -81 -131 -131 -230 -131c-77 0 -140 25 -191 75c-51 51 -76 114 -76 189s25 138 76 188c51 51 114 76 191 76c99 0 186 -51 230 -131l-156 -89c-17 28 -41 42 -74 42
c-47 0 -82 -37 -82 -86s35 -86 82 -86z" />
    <glyph glyph-name="Dcaron" unicode="&#x10e;" horiz-adv-x="705" 
d="M419 740h-188l-106 160h155l45 -58l45 58h155zM50 700h290c97 0 177 -34 242 -101s98 -150 98 -249s-33 -183 -98 -250s-145 -100 -242 -100h-290v700zM260 194h80c81 0 140 64 140 156s-59 156 -140 156h-80v-312z" />
    <glyph glyph-name="dcaron" unicode="&#x10f;" horiz-adv-x="766" 
d="M381 455v245h185v-700h-185v45c-32 -39 -77 -59 -134 -59c-67 0 -122 25 -165 75s-64 113 -64 189s21 139 64 189s98 75 165 75c57 0 102 -20 134 -59zM606 470l10 230h170l-40 -230h-140zM227 183c17 -18 38 -27 65 -27s48 9 64 27c33 36 33 98 0 134
c-16 18 -37 27 -64 27s-48 -9 -65 -27c-32 -36 -32 -98 0 -134z" />
    <glyph glyph-name="Dcroat" unicode="&#x110;" horiz-adv-x="725" 
d="M70 700h290c97 0 177 -34 242 -101s98 -150 98 -249s-33 -183 -98 -250s-145 -100 -242 -100h-290v258h-70v174h70v268zM280 194h80c81 0 140 64 140 156s-59 156 -140 156h-80v-74h120v-174h-120v-64z" />
    <glyph glyph-name="dslash" unicode="&#x111;" horiz-adv-x="621" 
d="M566 645h55v-119h-55v-526h-185v33c-33 -31 -74 -47 -124 -47c-67 0 -124 25 -170 74s-69 109 -69 180s23 131 69 180s103 74 170 74c50 0 91 -16 124 -47v79h-130v119h130v55h185v-55zM228 177c33 -35 95 -35 128 0s33 91 0 126s-95 35 -128 0s-33 -91 0 -126z" />
    <glyph glyph-name="Emacron" unicode="&#x112;" horiz-adv-x="540" 
d="M118 889h320v-140h-320v140zM250 262v-78h260v-184h-460v700h455v-182h-255v-76h230v-180h-230z" />
    <glyph glyph-name="emacron" unicode="&#x113;" horiz-adv-x="560" 
d="M130 699h320v-140h-320v140zM537 187h-332c16 -33 50 -50 102 -50c31 0 59 11 85 32l121 -102c-50 -54 -121 -81 -212 -81c-85 0 -154 25 -206 74c-51 50 -77 113 -77 188c0 76 25 139 75 190c51 51 114 76 191 76c76 0 138 -25 187 -75c49 -49 74 -112 74 -187
c0 -22 -3 -44 -8 -65zM202 306h168c-11 40 -38 60 -81 60s-72 -20 -87 -60z" />
    <glyph glyph-name="Edotaccent" unicode="&#x116;" horiz-adv-x="540" 
d="M345 768c-37 -37 -97 -37 -134 0s-37 97 0 134s97 37 134 0s37 -97 0 -134zM250 262v-78h260v-184h-460v700h455v-182h-255v-76h230v-180h-230z" />
    <glyph glyph-name="edotaccent" unicode="&#x117;" horiz-adv-x="560" 
d="M357 578c-37 -37 -97 -37 -134 0s-37 97 0 134s97 37 134 0s37 -97 0 -134zM537 187h-332c16 -33 50 -50 102 -50c31 0 59 11 85 32l121 -102c-50 -54 -121 -81 -212 -81c-85 0 -154 25 -206 74c-51 50 -77 113 -77 188c0 76 25 139 75 190c51 51 114 76 191 76
c76 0 138 -25 187 -75c49 -49 74 -112 74 -187c0 -22 -3 -44 -8 -65zM202 306h168c-11 40 -38 60 -81 60s-72 -20 -87 -60z" />
    <glyph glyph-name="Eogonek" unicode="&#x118;" horiz-adv-x="540" 
d="M250 184h260v-184c-27 -27 -40 -51 -40 -71c0 -13 7 -19 21 -19c7 0 13 1 19 3v-110c-28 -11 -57 -17 -88 -17c-64 0 -110 31 -110 91c0 41 20 82 59 123h-321v700h455v-182h-255v-76h230v-180h-230v-78z" />
    <glyph glyph-name="eogonek" unicode="&#x119;" horiz-adv-x="560" 
d="M537 187h-332c16 -33 50 -50 102 -50c31 0 59 11 85 32l113 -96l8 4l-5 -6l5 -4c-11 -11 -19 -18 -25 -23c-45 -61 -68 -99 -68 -115c0 -13 7 -19 21 -19c7 0 13 1 19 3v-110c-28 -11 -57 -17 -88 -17c-64 0 -110 31 -110 91c0 37 24 73 72 110c-7 -1 -18 -1 -33 -1
c-85 0 -154 25 -206 74c-51 50 -77 113 -77 188c0 76 25 139 75 190c51 51 114 76 191 76c76 0 138 -25 187 -75c49 -49 74 -112 74 -187c0 -22 -3 -44 -8 -65zM202 306h168c-11 40 -38 60 -81 60s-72 -20 -87 -60z" />
    <glyph glyph-name="Ecaron" unicode="&#x11a;" horiz-adv-x="540" 
d="M367 740h-188l-106 160h155l45 -58l45 58h155zM250 262v-78h260v-184h-460v700h455v-182h-255v-76h230v-180h-230z" />
    <glyph glyph-name="ecaron" unicode="&#x11b;" horiz-adv-x="560" 
d="M379 550h-188l-106 160h155l45 -58l45 58h155zM537 187h-332c16 -33 50 -50 102 -50c31 0 59 11 85 32l121 -102c-50 -54 -121 -81 -212 -81c-85 0 -154 25 -206 74c-51 50 -77 113 -77 188c0 76 25 139 75 190c51 51 114 76 191 76c76 0 138 -25 187 -75
c49 -49 74 -112 74 -187c0 -22 -3 -44 -8 -65zM202 306h168c-11 40 -38 60 -81 60s-72 -20 -87 -60z" />
    <glyph glyph-name="Gbreve" unicode="&#x11e;" horiz-adv-x="772" 
d="M206 912h150c0 -27 12 -40 35 -40s35 13 35 40h150c0 -112 -66 -170 -185 -170s-185 58 -185 170zM391 413h356v-83c0 -100 -32 -183 -97 -248c-64 -65 -148 -98 -253 -98c-109 0 -199 35 -268 104c-69 70 -104 157 -104 261s35 191 104 261c69 71 156 106 260 106
c131 0 245 -63 308 -163l-170 -97c-28 43 -73 64 -134 64c-50 0 -91 -16 -122 -48s-46 -73 -46 -124c0 -48 14 -90 43 -126c29 -35 73 -53 133 -53c69 0 116 25 139 74h-149v170z" />
    <glyph glyph-name="gbreve" unicode="&#x11f;" horiz-adv-x="613" 
d="M124 712h150c0 -27 12 -40 35 -40s35 13 35 40h150c0 -112 -66 -170 -185 -170s-185 58 -185 170zM388 455v45h185v-485c0 -167 -133 -231 -262 -231c-117 0 -213 45 -257 122l150 87c24 -33 56 -49 97 -49c47 0 87 23 87 71v50c-32 -39 -77 -59 -134 -59
c-67 0 -122 24 -165 73s-64 109 -64 181s21 132 64 181s98 73 165 73c57 0 102 -20 134 -59zM234 196c17 -17 38 -26 65 -26s48 9 64 26c33 35 33 93 0 128c-16 17 -37 26 -64 26s-48 -9 -65 -26c-32 -35 -32 -93 0 -128z" />
    <glyph glyph-name="Gdotaccent" unicode="&#x120;" horiz-adv-x="772" 
d="M458 778c-37 -37 -97 -37 -134 0s-37 97 0 134s97 37 134 0s37 -97 0 -134zM391 413h356v-83c0 -100 -32 -183 -97 -248c-64 -65 -148 -98 -253 -98c-109 0 -199 35 -268 104c-69 70 -104 157 -104 261s35 191 104 261c69 71 156 106 260 106c131 0 245 -63 308 -163
l-170 -97c-28 43 -73 64 -134 64c-50 0 -91 -16 -122 -48s-46 -73 -46 -124c0 -48 14 -90 43 -126c29 -35 73 -53 133 -53c69 0 116 25 139 74h-149v170z" />
    <glyph glyph-name="gdotaccent" unicode="&#x121;" horiz-adv-x="613" 
d="M376 578c-37 -37 -97 -37 -134 0s-37 97 0 134s97 37 134 0s37 -97 0 -134zM388 455v45h185v-485c0 -167 -133 -231 -262 -231c-117 0 -213 45 -257 122l150 87c24 -33 56 -49 97 -49c47 0 87 23 87 71v50c-32 -39 -77 -59 -134 -59c-67 0 -122 24 -165 73
s-64 109 -64 181s21 132 64 181s98 73 165 73c57 0 102 -20 134 -59zM234 196c17 -17 38 -26 65 -26s48 9 64 26c33 35 33 93 0 128c-16 17 -37 26 -64 26s-48 -9 -65 -26c-32 -35 -32 -93 0 -128z" />
    <glyph glyph-name="Gcommaaccent" unicode="&#x122;" horiz-adv-x="772" 
d="M391 413h356v-83c0 -100 -32 -183 -97 -248c-64 -65 -148 -98 -253 -98c-109 0 -199 35 -268 104c-69 70 -104 157 -104 261s35 191 104 261c69 71 156 106 260 106c131 0 245 -63 308 -163l-170 -97c-28 43 -73 64 -134 64c-50 0 -91 -16 -122 -48s-46 -73 -46 -124
c0 -48 14 -90 43 -126c29 -35 73 -53 133 -53c69 0 116 25 139 74h-149v170zM450 -284h-140l10 230h170z" />
    <glyph glyph-name="gcommaaccent" unicode="&#x123;" horiz-adv-x="613" 
d="M246 800h140l-10 -230h-170zM388 455v45h185v-485c0 -167 -133 -231 -262 -231c-117 0 -213 45 -257 122l150 87c24 -33 56 -49 97 -49c47 0 87 23 87 71v50c-32 -39 -77 -59 -134 -59c-67 0 -122 24 -165 73s-64 109 -64 181s21 132 64 181s98 73 165 73
c57 0 102 -20 134 -59zM234 196c17 -17 38 -26 65 -26s48 9 64 26c33 35 33 93 0 128c-16 17 -37 26 -64 26s-48 -9 -65 -26c-32 -35 -32 -93 0 -128z" />
    <glyph glyph-name="Hbar" unicode="&#x126;" horiz-adv-x="710" 
d="M640 603h60v-146h-60v-457h-200v183h-170v-183h-200v457h-60v146h60v97h200v-97h170v97h200v-97zM270 377h170v80h-170v-80z" />
    <glyph glyph-name="hbar" unicode="&#x127;" horiz-adv-x="590" 
d="M374 489c109 0 181 -76 181 -225v-264h-185v244c0 45 -21 67 -62 67c-44 0 -68 -30 -68 -79v-232h-185v526h-55v119h55v55h185v-55h130v-119h-130v-100c31 42 75 63 134 63z" />
    <glyph glyph-name="Imacron" unicode="&#x12a;" horiz-adv-x="300" 
d="M310 749h-320v140h320v-140zM50 0v700h200v-700h-200z" />
    <glyph glyph-name="imacron" unicode="&#x12b;" horiz-adv-x="265" 
d="M273 549h-280v140h280v-140zM225 0h-185v500h185v-500z" />
    <glyph glyph-name="Iogonek" unicode="&#x12e;" horiz-adv-x="300" 
d="M50 700h200v-700c-27 -27 -40 -51 -40 -71c0 -13 7 -19 21 -19c7 0 13 1 19 3v-110c-28 -11 -57 -17 -88 -17c-64 0 -110 31 -110 91c0 41 20 82 59 123h-61v700z" />
    <glyph glyph-name="iogonek" unicode="&#x12f;" horiz-adv-x="265" 
d="M133 538c-28 0 -52 10 -73 30c-20 21 -30 45 -30 72s10 51 30 71c21 21 45 31 73 31c27 0 51 -10 71 -31c21 -20 31 -44 31 -71s-10 -51 -31 -72c-20 -20 -44 -30 -71 -30zM193 -71c0 -13 7 -19 21 -19c7 0 13 1 19 3v-110c-28 -11 -57 -17 -88 -17
c-64 0 -110 31 -110 91c0 43 14 84 41 123h-36v500h185v-500c-21 -27 -32 -50 -32 -71z" />
    <glyph glyph-name="Idot" unicode="&#x130;" horiz-adv-x="300" 
d="M217 768c-37 -37 -97 -37 -134 0s-37 97 0 134s97 37 134 0s37 -97 0 -134zM50 0v700h200v-700h-200z" />
    <glyph glyph-name="dotlessi" unicode="&#x131;" horiz-adv-x="265" 
d="M225 0h-185v500h185v-500z" />
    <glyph glyph-name="Kcommaaccent" unicode="&#x136;" horiz-adv-x="636" 
d="M636 700l-208 -340l218 -360h-222l-174 300v-300h-200v700h200v-280l164 280h222zM366 -284h-140l10 230h170z" />
    <glyph glyph-name="kcommaaccent" unicode="&#x137;" horiz-adv-x="550" 
d="M345 0l-120 200v-200h-185v700h185v-394l105 194h210l-152 -250l162 -250h-205zM334 -284h-140l10 230h170z" />
    <glyph glyph-name="Lacute" unicode="&#x139;" horiz-adv-x="490" 
d="M122 900h210l-116 -150h-174zM250 700v-506h230v-194h-430v700h200z" />
    <glyph glyph-name="lacute" unicode="&#x13a;" horiz-adv-x="265" 
d="M40 760l80 150h210l-116 -150h-174zM40 0h185v730h-185v-730z" />
    <glyph glyph-name="Lcommaaccent" unicode="&#x13b;" horiz-adv-x="490" 
d="M250 700v-506h230v-194h-430v700h200zM314 -284h-140l10 230h170z" />
    <glyph glyph-name="lcommaaccent" unicode="&#x13c;" horiz-adv-x="265" 
d="M225 0h-185v730h185v-730zM175 -284h-140l10 230h170z" />
    <glyph glyph-name="Lcaron" unicode="&#x13d;" horiz-adv-x="490" 
d="M50 700h200v-506h230v-194h-430v700zM301 700h179l-39 -210h-150z" />
    <glyph glyph-name="lcaron" unicode="&#x13e;" horiz-adv-x="421" 
d="M225 0h-185v730h185v-730zM401 500h-140l10 230h170z" />
    <glyph glyph-name="Lslash" unicode="&#x141;" horiz-adv-x="510" 
d="M270 309v-115h230v-194h-430v197l-60 -34v193l60 34v310h200v-198l120 67v-193z" />
    <glyph glyph-name="lslash" unicode="&#x142;" horiz-adv-x="290" 
d="M238 484l52 31v-173l-52 -31v-311h-185v202l-53 -31v173l53 31v355h185v-246z" />
    <glyph glyph-name="Nacute" unicode="&#x143;" horiz-adv-x="680" 
d="M215 750l80 150h210l-116 -150h-174zM430 700v-320l-220 320h-160v-700h200v320l220 -320h160v700h-200z" />
    <glyph glyph-name="nacute" unicode="&#x144;" 
d="M265 710h210l-116 -150h-174zM359 514c109 0 181 -76 181 -225v-289h-185v269c0 45 -21 67 -62 67c-44 0 -68 -30 -68 -79v-257h-185v500h185v-49c31 42 75 63 134 63z" />
    <glyph glyph-name="Ncommaaccent" unicode="&#x145;" horiz-adv-x="680" 
d="M430 380v320h200v-700h-160l-220 320v-320h-200v700h160zM404 -284h-140l10 230h170z" />
    <glyph glyph-name="ncommaaccent" unicode="&#x146;" 
d="M359 514c109 0 181 -76 181 -225v-289h-185v269c0 45 -21 67 -62 67c-44 0 -68 -30 -68 -79v-257h-185v500h185v-49c31 42 75 63 134 63zM347 -284h-140l10 230h170z" />
    <glyph glyph-name="Ncaron" unicode="&#x147;" horiz-adv-x="680" 
d="M414 740h-188l-106 160h155l45 -58l45 58h155zM430 380v320h200v-700h-160l-220 320v-320h-200v700h160z" />
    <glyph glyph-name="ncaron" unicode="&#x148;" 
d="M384 550h-188l-106 160h155l45 -58l45 58h155zM359 514c109 0 181 -76 181 -225v-289h-185v269c0 45 -21 67 -62 67c-44 0 -68 -30 -68 -79v-257h-185v500h185v-49c31 42 75 63 134 63z" />
    <glyph glyph-name="Eng" unicode="&#x14a;" horiz-adv-x="680" 
d="M430 380v320h200v-700c0 -157 -78 -225 -250 -216v166c43 -4 65 13 65 50v36l-195 284v-320h-200v700h160z" />
    <glyph glyph-name="eng" unicode="&#x14b;" 
d="M359 514c109 0 181 -76 181 -225v-289c0 -152 -71 -215 -230 -203v157c29 -1 45 11 45 46v269c0 45 -21 67 -62 67c-44 0 -68 -30 -68 -79v-257h-185v500h185v-49c31 42 75 63 134 63z" />
    <glyph glyph-name="Omacron" unicode="&#x14c;" horiz-adv-x="792" 
d="M556 759h-320v140h320v-140zM659 89c-71 -70 -159 -105 -263 -105s-192 35 -264 105c-71 71 -107 158 -107 261s36 190 107 260c72 71 160 106 264 106s192 -35 263 -106c72 -70 108 -157 108 -260s-36 -190 -108 -261zM273 228c33 -32 74 -48 123 -48s90 16 122 48
c33 33 49 73 49 122s-16 89 -49 121c-32 33 -73 49 -122 49s-90 -16 -123 -49c-32 -32 -48 -72 -48 -121s16 -89 48 -122z" />
    <glyph glyph-name="omacron" unicode="&#x14d;" horiz-adv-x="574" 
d="M447 559h-320v140h320v-140zM287 -14c-75 0 -138 25 -191 76c-52 51 -78 113 -78 188s26 137 78 188s116 76 191 76s139 -25 191 -76s78 -113 78 -188s-26 -137 -78 -188s-116 -76 -191 -76zM226 186c16 -16 36 -24 61 -24s45 8 60 24c16 17 24 38 24 64s-8 47 -24 63
c-15 17 -35 25 -60 25s-45 -8 -61 -25c-15 -16 -23 -37 -23 -63s8 -47 23 -64z" />
    <glyph glyph-name="Ohungarumlaut" unicode="&#x150;" horiz-adv-x="792" 
d="M186 750l80 160h174l-86 -160h-168zM389 750l90 160h174l-96 -160h-168zM659 89c72 71 108 158 108 261s-36 190 -108 260c-71 71 -159 106 -263 106s-192 -35 -264 -106c-71 -70 -107 -157 -107 -260s36 -190 107 -261c72 -70 160 -105 264 -105s192 35 263 105z
M273 228c-32 33 -48 73 -48 122s16 89 48 121c33 33 74 49 123 49s90 -16 122 -49c33 -32 49 -72 49 -121s-16 -89 -49 -122c-32 -32 -73 -48 -122 -48s-90 16 -123 48z" />
    <glyph glyph-name="ohungarumlaut" unicode="&#x151;" horiz-adv-x="574" 
d="M77 550l80 160h174l-86 -160h-168zM280 550l90 160h174l-96 -160h-168zM287 -14c75 0 139 25 191 76s78 113 78 188s-26 137 -78 188s-116 76 -191 76s-139 -25 -191 -76s-78 -113 -78 -188s26 -137 78 -188c53 -51 116 -76 191 -76zM226 186c-15 17 -23 38 -23 64
s8 47 23 63c16 17 36 25 61 25s45 -8 60 -25c16 -16 24 -37 24 -63s-8 -47 -24 -64c-15 -16 -35 -24 -60 -24s-45 8 -61 24z" />
    <glyph glyph-name="OE" unicode="&#x152;" horiz-adv-x="955" 
d="M705 262v-78h220v-184h-420c-34 -11 -70 -16 -109 -16c-104 0 -192 35 -264 105c-71 71 -107 158 -107 261s36 190 107 260c72 71 160 106 264 106c39 0 75 -5 109 -16h415v-182h-215v-76h190v-180h-190zM505 201v298c-31 14 -68 21 -109 21c-49 0 -90 -16 -123 -49
c-32 -32 -48 -72 -48 -121s16 -89 48 -122c33 -32 74 -48 123 -48c41 0 78 7 109 21z" />
    <glyph glyph-name="oe" unicode="&#x153;" horiz-adv-x="910" 
d="M887 187h-332c16 -33 50 -50 102 -50c31 0 59 11 85 32l121 -102c-50 -54 -121 -81 -212 -81c-77 0 -140 26 -187 79c-45 -53 -108 -79 -187 -79c-77 0 -139 26 -187 79s-72 114 -72 183c0 71 24 133 71 186c48 53 111 80 188 80c79 0 142 -26 187 -79
c49 53 112 79 190 79c69 0 126 -25 172 -75s69 -112 69 -187c0 -22 -3 -44 -8 -65zM552 306h168c-11 40 -38 60 -81 60s-72 -20 -87 -60zM226 186c16 -16 36 -24 61 -24s45 8 60 24c16 17 24 38 24 64s-8 47 -24 63c-15 17 -35 25 -60 25s-45 -8 -61 -25
c-15 -16 -23 -37 -23 -63s8 -47 23 -64z" />
    <glyph glyph-name="Racute" unicode="&#x154;" horiz-adv-x="625" 
d="M260 900h210l-116 -150h-174zM625 1h-214l-111 220h-50v-220h-200v700h280c77 0 140 -23 190 -68s75 -104 75 -178c0 -83 -40 -152 -108 -193zM326 517h-76v-130h76c43 -1 69 23 69 64s-26 66 -69 66z" />
    <glyph glyph-name="racute" unicode="&#x155;" horiz-adv-x="390" 
d="M162 700h210l-116 -150h-174zM225 500v-97c19 68 78 107 150 107v-200c-40 5 -75 -3 -105 -24s-45 -54 -45 -100v-186h-185v500h185z" />
    <glyph glyph-name="Rcommaaccent" unicode="&#x156;" horiz-adv-x="625" 
d="M300 221h-50v-220h-200v700h280c77 0 140 -23 190 -68s75 -104 75 -178c0 -83 -40 -152 -108 -193l138 -261h-214zM326 517h-76v-130h76c43 -1 69 23 69 64s-26 66 -69 66zM374 -284h-140l10 230h170z" />
    <glyph glyph-name="rcommaaccent" unicode="&#x157;" horiz-adv-x="390" 
d="M225 500v-97c19 68 78 107 150 107v-200c-40 5 -75 -3 -105 -24s-45 -54 -45 -100v-186h-185v500h185zM172 -284h-140l10 230h170z" />
    <glyph glyph-name="Rcaron" unicode="&#x158;" horiz-adv-x="625" 
d="M379 740h-188l-106 160h155l45 -58l45 58h155zM625 1h-214l-111 220h-50v-220h-200v700h280c77 0 140 -23 190 -68s75 -104 75 -178c0 -83 -40 -152 -108 -193zM326 517h-76v-130h76c43 -1 69 23 69 64s-26 66 -69 66z" />
    <glyph glyph-name="rcaron" unicode="&#x159;" horiz-adv-x="390" 
d="M281 540h-188l-106 160h155l45 -58l45 58h155zM225 500v-97c19 68 78 107 150 107v-200c-40 5 -75 -3 -105 -24s-45 -54 -45 -100v-186h-185v500h185z" />
    <glyph glyph-name="Sacute" unicode="&#x15a;" horiz-adv-x="585" 
d="M176 760l80 150h210l-116 -150h-174zM302 -16c168 0 273 81 273 224c0 69 -23 121 -70 153c-47 33 -82 47 -149 67c-45 13 -75 23 -91 31c-15 8 -23 19 -23 34c0 21 18 37 53 37c45 0 77 -25 96 -74l166 97c-44 105 -144 163 -263 163c-75 0 -136 -21 -183 -63
c-46 -42 -69 -95 -69 -159c0 -108 70 -183 209 -225l39 -11c17 -5 29 -8 36 -11c7 -2 16 -5 25 -9c19 -8 24 -19 24 -32c0 -24 -23 -36 -68 -36c-61 0 -103 30 -126 89l-171 -99c35 -108 140 -176 292 -176z" />
    <glyph glyph-name="sacute" unicode="&#x15b;" horiz-adv-x="484" 
d="M209 710h210l-116 -150h-174zM219 353c0 -52 250 2 250 -194c0 -64 -31 -114 -78 -138s-95 -35 -147 -35c-121 0 -199 40 -234 119l161 72c13 -34 36 -51 71 -51c23 0 34 7 34 22c0 17 -38 26 -85 37c-67 15 -157 50 -156 157c0 55 21 97 62 127c42 30 90 45 145 45
c109 0 182 -42 217 -127l-153 -55c-12 28 -31 42 -56 42c-21 0 -31 -7 -31 -21z" />
    <glyph glyph-name="Scedilla" unicode="&#x15e;" horiz-adv-x="585" 
d="M575 208c0 -119 -71 -194 -194 -217v-37c35 -15 53 -40 53 -77c0 -75 -81 -112 -245 -103v114c63 -5 95 0 95 14c0 10 -18 17 -53 20v67c-113 19 -192 82 -221 171l171 99c23 -59 65 -89 126 -89c45 0 68 12 68 36c0 13 -5 24 -24 32c-9 4 -18 7 -25 9c-7 3 -19 6 -36 11
l-39 11c-139 42 -209 117 -209 225c0 64 23 117 69 159c47 42 108 63 183 63c119 0 219 -58 263 -163l-166 -97c-19 49 -51 74 -96 74c-35 0 -53 -16 -53 -37c0 -15 8 -26 23 -34c16 -8 46 -18 91 -31c67 -20 102 -34 149 -67c47 -32 70 -84 70 -153z" />
    <glyph glyph-name="scedilla" unicode="&#x15f;" horiz-adv-x="484" 
d="M469 159c0 -84 -46 -138 -138 -162v-43c35 -15 53 -40 53 -77c0 -75 -81 -112 -245 -103v114c63 -5 95 0 95 14c0 10 -18 17 -53 20v68c-85 11 -142 49 -171 115l161 72c13 -34 36 -51 71 -51c23 0 34 7 34 22c0 17 -38 26 -85 37c-67 15 -157 50 -156 157
c0 55 21 97 62 127c42 30 90 45 145 45c109 0 182 -42 217 -127l-153 -55c-12 28 -31 42 -56 42c-21 0 -31 -7 -31 -21c0 -52 250 2 250 -194z" />
    <glyph glyph-name="Scaron" unicode="&#x160;" horiz-adv-x="585" 
d="M375 750h-188l-106 160h155l45 -58l45 58h155zM356 428c67 -20 102 -34 149 -67c47 -32 70 -84 70 -153c0 -143 -105 -224 -273 -224c-152 0 -257 68 -292 176l171 99c23 -59 65 -89 126 -89c45 0 68 12 68 36c0 13 -5 24 -24 32c-9 4 -18 7 -25 9c-7 3 -19 6 -36 11
l-39 11c-139 42 -209 117 -209 225c0 64 23 117 69 159c47 42 108 63 183 63c119 0 219 -58 263 -163l-166 -97c-19 49 -51 74 -96 74c-35 0 -53 -16 -53 -37c0 -15 8 -26 23 -34c16 -8 46 -18 91 -31z" />
    <glyph glyph-name="scaron" unicode="&#x161;" horiz-adv-x="484" 
d="M328 550h-188l-106 160h155l45 -58l45 58h155zM219 353c0 -52 250 2 250 -194c0 -64 -31 -114 -78 -138s-95 -35 -147 -35c-121 0 -199 40 -234 119l161 72c13 -34 36 -51 71 -51c23 0 34 7 34 22c0 17 -38 26 -85 37c-67 15 -157 50 -156 157c0 55 21 97 62 127
c42 30 90 45 145 45c109 0 182 -42 217 -127l-153 -55c-12 28 -31 42 -56 42c-21 0 -31 -7 -31 -21z" />
    <glyph glyph-name="uni0162" unicode="&#x162;" horiz-adv-x="550" 
d="M10 700h530v-194h-165v-506h-200v506h-165v194zM317 -284h-140l10 230h170z" />
    <glyph glyph-name="uni0163" unicode="&#x163;" horiz-adv-x="400" 
d="M370 500v-176h-105v-108c0 -52 37 -54 105 -50v-166c-209 -29 -290 33 -290 206v118h-70v176h70v85l185 55v-140h105zM279 -274h-140l10 230h170z" />
    <glyph glyph-name="Tcaron" unicode="&#x164;" horiz-adv-x="550" 
d="M364 740h-188l-106 160h155l45 -58l45 58h155zM10 700h530v-194h-165v-506h-200v506h-165v194z" />
    <glyph glyph-name="tcaron" unicode="&#x165;" horiz-adv-x="446" 
d="M296 532l10 190h160l-40 -190h-130zM80 585l185 55v-140h105v-176h-105v-108c0 -52 37 -54 105 -50v-166c-209 -29 -290 33 -290 206v118h-70v176h70v85z" />
    <glyph glyph-name="Tbar" unicode="&#x166;" horiz-adv-x="550" 
d="M540 700v-194h-165v-94h100v-174h-100v-238h-200v238h-100v174h100v94h-165v194h530z" />
    <glyph glyph-name="tbar" unicode="&#x167;" horiz-adv-x="400" 
d="M370 500v-146h-105v-34h70v-120h-69c8 -33 36 -38 104 -34v-166c-207 -29 -287 31 -290 200h-45v120h45v34h-70v146h70v85l185 55v-140h105z" />
    <glyph glyph-name="Umacron" unicode="&#x16a;" horiz-adv-x="650" 
d="M485 749h-320v140h320v-140zM40 234v466h200v-444c0 -52 28 -78 85 -78s85 26 85 78v444h200v-466c0 -75 -26 -135 -79 -181s-121 -69 -206 -69s-153 23 -206 69s-79 106 -79 181z" />
    <glyph glyph-name="umacron" unicode="&#x16b;" 
d="M125 689h320v-140h-320v140zM350 243v257h185v-500h-185v49c-31 -42 -75 -63 -134 -63c-109 0 -181 76 -181 225v289h185v-269c0 -45 21 -67 62 -67c44 0 68 30 68 79z" />
    <glyph glyph-name="Uring" unicode="&#x16e;" horiz-adv-x="650" 
d="M325 710c-43 0 -79 13 -107 40s-42 60 -42 100s14 73 42 100s64 40 107 40c89 0 149 -59 149 -140s-60 -140 -149 -140zM325 820c21 0 32 10 32 30s-11 30 -32 30c-41 0 -41 -60 0 -60zM40 234v466h200v-444c0 -52 28 -78 85 -78s85 26 85 78v444h200v-466
c0 -75 -26 -135 -79 -181s-121 -69 -206 -69s-153 23 -206 69s-79 106 -79 181z" />
    <glyph glyph-name="uring" unicode="&#x16f;" 
d="M285 530c-43 0 -79 13 -107 40s-42 60 -42 100s14 73 42 100s64 40 107 40c89 0 149 -59 149 -140s-60 -140 -149 -140zM285 700c-41 0 -41 -60 0 -60c21 0 32 10 32 30s-11 30 -32 30zM350 243v257h185v-500h-185v49c-31 -42 -75 -63 -134 -63c-109 0 -181 76 -181 225
v289h185v-269c0 -45 21 -67 62 -67c44 0 68 30 68 79z" />
    <glyph glyph-name="Uhungarumlaut" unicode="&#x170;" horiz-adv-x="650" 
d="M115 740l80 160h174l-86 -160h-168zM318 740l90 160h174l-96 -160h-168zM40 234c0 -75 26 -135 79 -181s121 -69 206 -69s153 23 206 69s79 106 79 181v466h-200v-444c0 -52 -28 -78 -85 -78s-85 26 -85 78v444h-200v-466z" />
    <glyph glyph-name="uhungarumlaut" unicode="&#x171;" 
d="M155 700h174l-86 -160h-168zM542 700l-96 -160h-168l90 160h174zM350 243v257h185v-500h-185v49c-31 -42 -75 -63 -134 -63c-109 0 -181 76 -181 225v289h185v-269c0 -45 21 -67 62 -67c44 0 68 30 68 79z" />
    <glyph glyph-name="Uogonek" unicode="&#x172;" horiz-adv-x="650" 
d="M410 256v444h200v-466c0 -79 -30 -142 -89 -189c-63 -55 -85 -84 -85 -116c0 -13 7 -19 21 -19c7 0 13 1 19 3v-110c-28 -11 -57 -17 -88 -17c-64 0 -110 31 -110 91c0 34 15 70 45 107c-84 1 -152 24 -205 70c-52 46 -78 106 -78 180v466h200v-444c0 -52 28 -78 85 -78
s85 26 85 78z" />
    <glyph glyph-name="uogonek" unicode="&#x173;" 
d="M350 500h185v-500c-27 -27 -40 -51 -40 -71c0 -13 7 -19 21 -19c7 0 13 1 19 3v-110c-28 -11 -57 -17 -88 -17c-64 0 -110 31 -110 91c0 41 20 82 59 123h-46v49c-31 -42 -75 -63 -134 -63c-109 0 -181 76 -181 225v289h185v-269c0 -45 21 -67 62 -67c44 0 68 30 68 79
v257z" />
    <glyph glyph-name="Wcircumflex" unicode="&#x174;" horiz-adv-x="1010" 
d="M570 740l-45 58l-45 -58h-155l106 160h188l106 -160h-155zM695 315l95 385h220l-198 -700h-197l-110 374l-110 -374h-197l-198 700h220l95 -385l113 385h154z" />
    <glyph glyph-name="wcircumflex" unicode="&#x175;" horiz-adv-x="830" 
d="M455 540l-45 58l-45 -58h-155l106 160h188l106 -160h-155zM557 223l58 277h195l-145 -500h-188l-62 235l-62 -235h-188l-145 500h195l58 -277l72 277h140z" />
    <glyph glyph-name="Ycircumflex" unicode="&#x176;" horiz-adv-x="674" 
d="M377 740l-45 58l-45 -58h-155l106 160h188l106 -160h-155zM452 700h222l-237 -434v-266h-200v266l-237 434h222l115 -246z" />
    <glyph glyph-name="ycircumflex" unicode="&#x177;" horiz-adv-x="570" 
d="M331 540l-45 58l-45 -58h-155l106 160h188l106 -160h-155zM299 233l61 267h210l-170 -499c-49 -145 -150 -208 -321 -201v175c68 0 100 8 121 35l-200 490h210z" />
    <glyph glyph-name="Ydieresis" unicode="&#x178;" horiz-adv-x="674" 
d="M297 755c-33 -33 -87 -33 -120 0s-33 87 0 120s87 33 120 0s33 -87 0 -120zM497 755c-33 -33 -87 -33 -120 0s-33 87 0 120s87 33 120 0s33 -87 0 -120zM452 700h222l-237 -434v-266h-200v266l-237 434h222l115 -246z" />
    <glyph glyph-name="Zacute" unicode="&#x179;" horiz-adv-x="545" 
d="M251 900h210l-116 -150h-174zM515 546l-223 -352h233v-194h-495v154l223 352h-218v194h480v-154z" />
    <glyph glyph-name="zacute" unicode="&#x17a;" horiz-adv-x="495" 
d="M220 700h210l-116 -150h-174zM450 370l-164 -200h174v-170h-420v130l164 200h-154v170h400v-130z" />
    <glyph glyph-name="Zdotaccent" unicode="&#x17b;" horiz-adv-x="545" 
d="M348 768c-37 -37 -97 -37 -134 0s-37 97 0 134s97 37 134 0s37 -97 0 -134zM515 546l-223 -352h233v-194h-495v154l223 352h-218v194h480v-154z" />
    <glyph glyph-name="zdotaccent" unicode="&#x17c;" horiz-adv-x="495" 
d="M317 568c-37 -37 -97 -37 -134 0s-37 97 0 134s97 37 134 0s37 -97 0 -134zM450 370l-164 -200h174v-170h-420v130l164 200h-154v170h400v-130z" />
    <glyph glyph-name="Zcaron" unicode="&#x17d;" horiz-adv-x="545" 
d="M370 740h-188l-106 160h155l45 -58l45 58h155zM515 546l-223 -352h233v-194h-495v154l223 352h-218v194h480v-154z" />
    <glyph glyph-name="zcaron" unicode="&#x17e;" horiz-adv-x="495" 
d="M339 540h-188l-106 160h155l45 -58l45 58h155zM450 370l-164 -200h174v-170h-420v130l164 200h-154v170h400v-130z" />
    <glyph glyph-name="florin" unicode="&#x192;" horiz-adv-x="482" 
d="M169 438l17 100c27 156 156 200 296 169v-180c-45 19 -91 -3 -100 -52l-6 -37h65v-176h-95l-50 -292c-27 -156 -156 -200 -296 -169v180c45 -19 91 3 100 52l39 229h-58v176h88z" />
    <glyph glyph-name="Scommaaccent" unicode="&#x218;" horiz-adv-x="585" 
d="M302 -16c-152 0 -257 68 -292 176l171 99c23 -59 65 -89 126 -89c45 0 68 12 68 36c0 13 -5 24 -24 32c-9 4 -18 7 -25 9c-7 3 -19 6 -36 11l-39 11c-139 42 -209 117 -209 225c0 64 23 117 69 159c47 42 108 63 183 63c119 0 219 -58 263 -163l-166 -97
c-19 49 -51 74 -96 74c-35 0 -53 -16 -53 -37c0 -15 8 -26 23 -34c16 -8 46 -18 91 -31c67 -20 102 -34 149 -67c47 -32 70 -84 70 -153c0 -143 -105 -224 -273 -224zM363 -284h-140l10 230h170z" />
    <glyph glyph-name="scommaaccent" unicode="&#x219;" horiz-adv-x="484" 
d="M219 353c0 -52 250 2 250 -194c0 -64 -31 -114 -78 -138s-95 -35 -147 -35c-121 0 -199 40 -234 119l161 72c13 -34 36 -51 71 -51c23 0 34 7 34 22c0 17 -38 26 -85 37c-67 15 -157 50 -156 157c0 55 21 97 62 127c42 30 90 45 145 45c109 0 182 -42 217 -127l-153 -55
c-12 28 -31 42 -56 42c-21 0 -31 -7 -31 -21zM313 -284h-140l10 230h170z" />
    <glyph glyph-name="uni021A" unicode="&#x21a;" horiz-adv-x="550" 
d="M10 700h530v-194h-165v-506h-200v506h-165v194zM317 -284h-140l10 230h170z" />
    <glyph glyph-name="uni021B" unicode="&#x21b;" horiz-adv-x="400" 
d="M370 500v-176h-105v-108c0 -52 37 -54 105 -50v-166c-209 -29 -290 33 -290 206v118h-70v176h70v85l185 55v-140h105zM279 -274h-140l10 230h170z" />
    <glyph glyph-name="circumflex" unicode="&#x2c6;" horiz-adv-x="440" 
d="M314 700l106 -160h-155l-45 58l-45 -58h-155l106 160h188z" />
    <glyph glyph-name="caron" unicode="&#x2c7;" horiz-adv-x="440" 
d="M220 642l45 58h155l-106 -160h-188l-106 160h155z" />
    <glyph glyph-name="breve" unicode="&#x2d8;" horiz-adv-x="410" 
d="M20 702h150c0 -27 12 -40 35 -40s35 13 35 40h150c0 -112 -66 -170 -185 -170s-185 58 -185 170z" />
    <glyph glyph-name="dotaccent" unicode="&#x2d9;" horiz-adv-x="230" 
d="M182 568c-37 -37 -97 -37 -134 0s-37 97 0 134s97 37 134 0s37 -97 0 -134z" />
    <glyph glyph-name="ring" unicode="&#x2da;" horiz-adv-x="338" 
d="M169 530c-43 0 -79 13 -107 40s-42 60 -42 100s14 73 42 100s64 40 107 40c89 0 149 -59 149 -140s-60 -140 -149 -140zM169 640c21 0 32 10 32 30s-11 30 -32 30c-41 0 -41 -60 0 -60z" />
    <glyph glyph-name="ogonek" unicode="&#x2db;" horiz-adv-x="238" 
d="M130 -214c-64 0 -110 31 -110 91c0 41 20 82 59 123h139c-27 -27 -40 -51 -40 -71c0 -13 7 -19 21 -19c7 0 13 1 19 3v-110c-28 -11 -57 -17 -88 -17z" />
    <glyph glyph-name="tilde" unicode="&#x2dc;" horiz-adv-x="399" 
d="M140 543h-120c0 168 103 185 183 153c31 -12 56 -36 56 14h120c0 -81 -25 -135 -62 -154c-37 -17 -78 -16 -122 1c-30 12 -55 37 -55 -14z" />
    <glyph glyph-name="hungarumlaut" unicode="&#x2dd;" horiz-adv-x="507" 
d="M20 540l80 160h174l-86 -160h-168zM223 540l90 160h174l-96 -160h-168z" />
    <glyph glyph-name="gravecomb" unicode="&#x300;" horiz-adv-x="0" 
d="M-20 550h-174l-116 150h210z" />
    <glyph glyph-name="acutecomb" unicode="&#x301;" horiz-adv-x="0" 
d="M-280 550l80 150h210l-116 -150h-174z" />
    <glyph glyph-name="uni0302" unicode="&#x302;" horiz-adv-x="0" 
d="M-126 700l106 -160h-155l-45 58l-45 -58h-155l106 160h188z" />
    <glyph glyph-name="tildecomb" unicode="&#x303;" horiz-adv-x="0" 
d="M-259 543h-120c0 168 103 185 183 153c31 -12 56 -36 56 14h120c0 -81 -25 -135 -62 -154c-37 -17 -78 -16 -122 1c-30 12 -55 37 -55 -14z" />
    <glyph glyph-name="uni0304" unicode="&#x304;" horiz-adv-x="0" 
d="M-20 549h-320v140h320v-140z" />
    <glyph glyph-name="uni0306" unicode="&#x306;" horiz-adv-x="0" 
d="M-400 702h150c0 -27 12 -40 35 -40s35 13 35 40h150c0 -112 -66 -170 -185 -170s-185 58 -185 170z" />
    <glyph glyph-name="uni0307" unicode="&#x307;" horiz-adv-x="0" 
d="M-48 568c-37 -37 -97 -37 -134 0s-37 97 0 134s97 37 134 0s37 -97 0 -134z" />
    <glyph glyph-name="uni0308" unicode="&#x308;" horiz-adv-x="0" 
d="M-245 555c-33 -33 -87 -33 -120 0s-33 87 0 120s87 33 120 0s33 -87 0 -120zM-45 555c-33 -33 -87 -33 -120 0s-33 87 0 120s87 33 120 0s33 -87 0 -120z" />
    <glyph glyph-name="uni030A" unicode="&#x30a;" horiz-adv-x="0" 
d="M-169 530c-43 0 -79 13 -107 40s-42 60 -42 100s14 73 42 100s64 40 107 40c89 0 149 -59 149 -140s-60 -140 -149 -140zM-169 640c21 0 32 10 32 30s-11 30 -32 30c-41 0 -41 -60 0 -60z" />
    <glyph glyph-name="uni030B" unicode="&#x30b;" horiz-adv-x="0" 
d="M-487 540l80 160h174l-86 -160h-168zM-284 540l90 160h174l-96 -160h-168z" />
    <glyph glyph-name="uni030C" unicode="&#x30c;" horiz-adv-x="0" 
d="M-220 642l45 58h155l-106 -160h-188l-106 160h155z" />
    <glyph glyph-name="uni0312" unicode="&#x312;" horiz-adv-x="0" 
d="M-160 990h140l-10 -230h-170z" />
    <glyph glyph-name="uni0326" unicode="&#x326;" horiz-adv-x="0" 
d="M-60 -284h-140l10 230h170z" />
    <glyph glyph-name="uni0327" unicode="&#x327;" horiz-adv-x="0" 
d="M-73 0v-46c35 -15 53 -40 53 -77c0 -75 -81 -112 -245 -103v114c63 -5 95 0 95 14c0 10 -18 17 -53 20v78h150z" />
    <glyph glyph-name="uni0328" unicode="&#x328;" horiz-adv-x="0" 
d="M-108 -214c-64 0 -110 31 -110 91c0 41 20 82 59 123h139c-27 -27 -40 -51 -40 -71c0 -13 7 -19 21 -19c7 0 13 1 19 3v-110c-28 -11 -57 -17 -88 -17z" />
    <glyph glyph-name="uni0394" unicode="&#x394;" horiz-adv-x="660" 
d="M218 700h224l228 -700h-680zM330 465l-82 -305h164z" />
    <glyph glyph-name="uni03A9" unicode="&#x3a9;" horiz-adv-x="782" 
d="M762 370c0 -72 -23 -134 -70 -186h54v-184h-284v194c61 27 100 85 100 156c0 49 -16 89 -49 121c-32 33 -73 49 -122 49s-90 -16 -123 -49c-32 -32 -48 -72 -48 -121c0 -71 39 -129 100 -156v-194h-284v184h54c-47 52 -70 114 -70 186c0 102 35 185 106 249
c71 65 160 97 265 97s193 -32 264 -97c71 -64 107 -147 107 -249z" />
    <glyph glyph-name="pi" unicode="&#x3c0;" horiz-adv-x="650" 
d="M10 500h630v-176h-70v-324h-185v324h-120v-324h-185v324h-70v176z" />
    <glyph glyph-name="uni0401" unicode="&#x401;" horiz-adv-x="540" 
d="M238 755c-33 -33 -87 -33 -120 0s-33 87 0 120s87 33 120 0s33 -87 0 -120zM438 755c-33 -33 -87 -33 -120 0s-33 87 0 120s87 33 120 0s33 -87 0 -120zM250 262v-78h260v-184h-460v700h455v-182h-255v-76h230v-180h-230z" />
    <glyph glyph-name="uni0402" unicode="&#x402;" horiz-adv-x="705" 
d="M494 434c113 0 176 -66 176 -195v-39c0 -157 -77 -225 -240 -216v171c33 -4 45 10 45 45v14c0 28 -15 42 -45 42c-20 0 -42 -4 -65 -12v-244h-200v506h-155v194h530v-194h-175v-89c49 11 92 17 129 17z" />
    <glyph glyph-name="uni0403" unicode="&#x403;" horiz-adv-x="480" 
d="M216 899h210l-116 -150h-174zM50 700h430v-194h-230v-506h-200v700z" />
    <glyph glyph-name="uni0404" unicode="&#x404;" horiz-adv-x="718" 
d="M386 175c63 0 114 31 138 80l174 -100c-60 -105 -178 -171 -307 -171c-107 0 -195 35 -264 104c-68 70 -102 157 -102 262s34 192 102 261c69 70 157 105 264 105c64 0 123 -16 178 -47s98 -72 129 -123l-174 -100c-24 47 -77 79 -138 79c-69 0 -118 -28 -146 -85h211
v-180h-211c28 -57 77 -85 146 -85z" />
    <glyph glyph-name="uni0405" unicode="&#x405;" horiz-adv-x="585" 
d="M302 -16c-152 0 -257 68 -292 176l171 99c23 -59 65 -89 126 -89c45 0 68 12 68 36c0 13 -5 24 -24 32c-9 4 -18 7 -25 9c-7 3 -19 6 -36 11l-39 11c-139 42 -209 117 -209 225c0 64 23 117 69 159c47 42 108 63 183 63c119 0 219 -58 263 -163l-166 -97
c-19 49 -51 74 -96 74c-35 0 -53 -16 -53 -37c0 -15 8 -26 23 -34c16 -8 46 -18 91 -31c67 -20 102 -34 149 -67c47 -32 70 -84 70 -153c0 -143 -105 -224 -273 -224z" />
    <glyph glyph-name="uni0406" unicode="&#x406;" horiz-adv-x="300" 
d="M50 0v700h200v-700h-200z" />
    <glyph glyph-name="uni0407" unicode="&#x407;" horiz-adv-x="300" 
d="M110 755c-33 -33 -87 -33 -120 0s-33 87 0 120s87 33 120 0s33 -87 0 -120zM310 755c-33 -33 -87 -33 -120 0s-33 87 0 120s87 33 120 0s33 -87 0 -120zM50 0v700h200v-700h-200z" />
    <glyph glyph-name="uni0408" unicode="&#x408;" horiz-adv-x="567" 
d="M267 -16c-118 0 -200 48 -247 144l168 99c16 -33 42 -49 78 -49c41 0 61 19 61 57v465h200v-470c0 -153 -95 -246 -260 -246z" />
    <glyph glyph-name="uni0409" unicode="&#x409;" horiz-adv-x="925" 
d="M600 481h60c70 0 130 -22 180 -65s75 -101 75 -176s-25 -134 -75 -177s-110 -64 -180 -64h-200v1h-60v506h-104v-246c0 -111 -34 -187 -93 -223s-123 -47 -203 -39v186c71 -4 96 16 96 100v416h504v-219zM600 193h60c37 0 55 16 55 47s-18 47 -55 47h-60v-94z" />
    <glyph glyph-name="uni040A" unicode="&#x40a;" horiz-adv-x="935" 
d="M610 482h60c70 0 130 -22 180 -65s75 -101 75 -176s-25 -134 -75 -177s-110 -64 -180 -64h-260v288h-160v-288h-200v700h200v-218h160v218h200v-218zM610 194h60c37 0 55 16 55 47s-18 47 -55 47h-60v-94z" />
    <glyph glyph-name="uni040B" unicode="&#x40b;" horiz-adv-x="710" 
d="M494 444c113 0 176 -66 176 -195v-249h-195v224c0 28 -15 42 -45 42c-20 0 -42 -4 -65 -12v-254h-200v506h-155v194h530v-194h-175v-79c49 11 92 17 129 17z" />
    <glyph glyph-name="uni040C" unicode="&#x40c;" horiz-adv-x="636" 
d="M286 899h210l-116 -150h-174zM428 360l218 -360h-222l-174 300v-300h-200v700h200v-280l164 280h222z" />
    <glyph glyph-name="uni040E" unicode="&#x40e;" horiz-adv-x="650" 
d="M160 898h350v-150h-350v150zM341 434l99 266h210l-202 -474c-67 -156 -169 -233 -344 -226v186c61 -5 107 7 138 35l-232 479h210z" />
    <glyph glyph-name="uni040F" unicode="&#x40f;" horiz-adv-x="650" 
d="M400 194v506h200v-700h-175v-134h-200v134h-175v700h200v-506h150z" />
    <glyph glyph-name="uni0410" unicode="&#x410;" horiz-adv-x="660" 
d="M670 0h-215l-24 90h-202l-24 -90h-215l223 700h234zM330 465l-58 -215h116z" />
    <glyph glyph-name="uni0411" unicode="&#x411;" horiz-adv-x="600" 
d="M250 444h110c143 0 230 -86 230 -219c0 -67 -21 -122 -62 -163s-97 -62 -168 -62h-310v700h480v-194h-280v-62zM250 180h95c59 -7 59 97 0 90h-95v-90z" />
    <glyph glyph-name="uni0412" unicode="&#x412;" horiz-adv-x="605" 
d="M500 361c60 -34 90 -86 90 -155c0 -128 -85 -206 -244 -206h-296v700h278c157 0 242 -70 242 -197c0 -61 -23 -108 -70 -142zM316 528h-66v-94l77 1c29 4 43 19 43 46c0 31 -25 47 -54 47zM250 172h84c32 0 56 21 56 50c0 28 -15 44 -45 49l-95 1v-100z" />
    <glyph glyph-name="uni0413" unicode="&#x413;" horiz-adv-x="480" 
d="M50 700h430v-194h-230v-506h-200v700z" />
    <glyph glyph-name="uni0414" unicode="&#x414;" horiz-adv-x="715" 
d="M630 700v-506h75v-328h-200v134h-300v-134h-200v328h74c28 51 42 121 42 212v294h509zM286 194h144v322h-109v-112c0 -87 -12 -157 -35 -210z" />
    <glyph glyph-name="uni0415" unicode="&#x415;" horiz-adv-x="540" 
d="M250 262v-78h260v-184h-460v700h455v-182h-255v-76h230v-180h-230z" />
    <glyph glyph-name="uni0416" unicode="&#x416;" horiz-adv-x="932" 
d="M739 352l193 -352h-222l-144 298v-298h-200v298l-144 -298h-222l193 352l-183 348h222l134 -295v295h200v-295l134 295h222z" />
    <glyph glyph-name="uni0417" unicode="&#x417;" horiz-adv-x="561" 
d="M452 359c63 -35 94 -89 94 -163c0 -63 -24 -115 -71 -154s-112 -58 -195 -58c-147 0 -236 64 -275 161l169 99c21 -47 56 -70 106 -70c44 0 66 16 66 48c0 27 -17 42 -50 45l-106 1v170l83 1c35 2 52 17 52 45c0 31 -20 46 -61 46c-43 0 -73 -21 -88 -62l-166 97
c40 96 143 151 259 151c76 0 138 -20 185 -59s71 -90 71 -154c0 -63 -24 -111 -73 -144z" />
    <glyph glyph-name="uni0418" unicode="&#x418;" horiz-adv-x="680" 
d="M630 0h-200v320l-220 -320h-160v700h200v-320l220 320h160v-700z" />
    <glyph glyph-name="uni0419" unicode="&#x419;" horiz-adv-x="680" 
d="M515 749h-350v150h350v-150zM630 0h-200v320l-220 -320h-160v700h200v-320l220 320h160v-700z" />
    <glyph glyph-name="uni041A" unicode="&#x41a;" horiz-adv-x="636" 
d="M428 360l218 -360h-222l-174 300v-300h-200v700h200v-280l164 280h222z" />
    <glyph glyph-name="uni041B" unicode="&#x41b;" horiz-adv-x="660" 
d="M0 0v186c71 -7 96 14 96 98v416h514v-700h-200v506h-114v-246c0 -111 -34 -187 -93 -223c-57 -35 -123 -45 -203 -37z" />
    <glyph glyph-name="uni041C" unicode="&#x41c;" horiz-adv-x="830" 
d="M580 700h200v-700h-200v341l-156 -262h-18l-156 262v-341h-200v700h200l165 -285z" />
    <glyph glyph-name="uni041D" unicode="&#x41d;" horiz-adv-x="670" 
d="M420 452v248h200v-700h-200v258h-170v-258h-200v700h200v-248h170z" />
    <glyph glyph-name="uni041E" unicode="&#x41e;" horiz-adv-x="792" 
d="M659 89c-71 -70 -159 -105 -263 -105s-192 35 -264 105c-71 71 -107 158 -107 261s36 190 107 260c72 71 160 106 264 106s192 -35 263 -106c72 -70 108 -157 108 -260s-36 -190 -108 -261zM273 228c33 -32 74 -48 123 -48s90 16 122 48c33 33 49 73 49 122
s-16 89 -49 121c-32 33 -73 49 -122 49s-90 -16 -123 -49c-32 -32 -48 -72 -48 -121s16 -89 48 -122z" />
    <glyph glyph-name="uni041F" unicode="&#x41f;" horiz-adv-x="650" 
d="M50 700h550v-700h-200v506h-150v-506h-200v700z" />
    <glyph glyph-name="uni0420" unicode="&#x420;" horiz-adv-x="595" 
d="M50 700h280c73 0 133 -23 182 -69c49 -45 73 -106 73 -182s-24 -137 -73 -183c-49 -45 -109 -68 -182 -68h-80v-198h-200v700zM250 392h80c31 0 55 22 55 57s-24 57 -55 57h-80v-114z" />
    <glyph glyph-name="uni0421" unicode="&#x421;" horiz-adv-x="718" 
d="M391 -16c-105 0 -193 35 -262 105s-104 157 -104 261s35 191 104 261s157 105 262 105c129 0 246 -66 307 -170l-174 -100c-23 45 -74 74 -133 74c-49 0 -89 -16 -120 -48s-46 -73 -46 -122s15 -90 46 -122s71 -48 120 -48c60 0 110 28 133 75l174 -100
c-61 -105 -178 -171 -307 -171z" />
    <glyph glyph-name="uni0422" unicode="&#x422;" horiz-adv-x="550" 
d="M10 700h530v-194h-165v-506h-200v506h-165v194z" />
    <glyph glyph-name="uni0423" unicode="&#x423;" horiz-adv-x="650" 
d="M341 434l99 266h210l-202 -474c-67 -156 -169 -233 -344 -226v186c61 -5 107 7 138 35l-232 479h210z" />
    <glyph glyph-name="uni0424" unicode="&#x424;" horiz-adv-x="844" 
d="M517 64v-84h-190v84c-196 25 -307 130 -307 286s111 261 307 286v84h190v-84c196 -25 307 -130 307 -286s-111 -261 -307 -286zM220 350c0 -59 31 -90 107 -103v212c-76 -13 -107 -48 -107 -109zM517 459v-212c76 13 107 44 107 103c0 61 -31 96 -107 109z" />
    <glyph glyph-name="uni0425" unicode="&#x425;" horiz-adv-x="645" 
d="M434 354l211 -354h-222l-100 168l-101 -168h-222l212 354l-207 346h222l96 -160l95 160h222z" />
    <glyph glyph-name="uni0426" unicode="&#x426;" horiz-adv-x="715" 
d="M620 700v-506h85v-328h-200v134h-455v700h210v-506h150v506h210z" />
    <glyph glyph-name="uni0427" unicode="&#x427;" horiz-adv-x="660" 
d="M410 409v291h200v-700h-200v218c-39 -11 -78 -16 -119 -16c-156 0 -251 92 -251 248v250h200v-236c0 -43 30 -68 75 -68c33 0 64 4 95 13z" />
    <glyph glyph-name="uni0428" unicode="&#x428;" horiz-adv-x="960" 
d="M710 194v506h200v-700h-860v700h200v-506h130v506h200v-506h130z" />
    <glyph glyph-name="uni0429" unicode="&#x429;" horiz-adv-x="1005" 
d="M910 700v-506h85v-328h-200v134h-745v700h200v-506h130v506h200v-506h130v506h200z" />
    <glyph glyph-name="uni042A" unicode="&#x42a;" horiz-adv-x="705" 
d="M440 -1h-280v507h-160v194l360 -1v-198h80c73 0 133 -23 182 -69c49 -45 73 -106 73 -182s-24 -137 -73 -183c-49 -45 -109 -68 -182 -68zM360 307v-114h80c31 0 55 22 55 57s-24 57 -55 57h-80z" />
    <glyph glyph-name="uni042B" unicode="&#x42b;" horiz-adv-x="890" 
d="M330 -1h-280v700h200v-198h80c73 0 133 -23 182 -69c49 -45 73 -106 73 -182s-24 -137 -73 -183c-49 -45 -109 -68 -182 -68zM840 -1h-200v700h200v-700zM250 307v-114h80c31 0 55 22 55 57s-24 57 -55 57h-80z" />
    <glyph glyph-name="uni042C" unicode="&#x42c;" horiz-adv-x="595" 
d="M250 502h80c73 0 133 -23 182 -69c49 -45 73 -106 73 -182s-24 -137 -73 -183c-49 -45 -109 -68 -182 -68h-280v700h200v-198zM250 194h80c31 0 55 22 55 57s-24 57 -55 57h-80v-114z" />
    <glyph glyph-name="uni042D" unicode="&#x42d;" horiz-adv-x="718" 
d="M327 716c107 0 195 -35 263 -105c69 -69 103 -156 103 -261s-34 -192 -103 -262c-68 -69 -156 -104 -263 -104c-129 0 -247 66 -307 171l174 100c24 -49 75 -80 138 -80c69 0 118 28 146 85h-211v180h211c-28 57 -77 85 -146 85c-61 0 -114 -32 -138 -79l-174 100
c31 51 73 92 128 123s115 47 179 47z" />
    <glyph glyph-name="uni042E" unicode="&#x42e;" horiz-adv-x="1077" 
d="M681 716c104 0 192 -35 263 -106c72 -70 108 -157 108 -260s-36 -190 -108 -261c-71 -70 -159 -105 -263 -105c-87 0 -163 26 -228 77c-64 52 -105 119 -124 202h-79v-263h-200v700h200v-243h85c21 77 63 140 126 187c63 48 136 72 220 72zM558 228
c33 -32 74 -48 123 -48s90 16 122 48c33 33 49 73 49 122s-16 89 -49 121c-32 33 -73 49 -122 49s-90 -16 -123 -49c-32 -32 -48 -72 -48 -121s16 -89 48 -122z" />
    <glyph glyph-name="uni042F" unicode="&#x42f;" horiz-adv-x="635" 
d="M305 701h280v-700h-200v220h-25l-130 -220h-220l155 252c-77 39 -125 111 -125 202c0 74 25 133 75 178s113 68 190 68zM385 517h-76c-43 0 -69 -25 -69 -66s26 -65 69 -64h76v130z" />
    <glyph glyph-name="uni0430" unicode="&#x430;" horiz-adv-x="606" 
d="M381 455v45h185v-500h-185v45c-32 -39 -77 -59 -134 -59c-67 0 -122 25 -165 75s-64 113 -64 189s21 139 64 189s98 75 165 75c57 0 102 -20 134 -59zM227 183c17 -18 38 -27 65 -27s48 9 64 27c33 36 33 98 0 134c-16 18 -37 27 -64 27s-48 -9 -65 -27
c-32 -36 -32 -98 0 -134z" />
    <glyph glyph-name="uni0431" unicode="&#x431;" horiz-adv-x="572" 
d="M300 -16c-85 0 -153 25 -204 76s-76 119 -76 206c0 167 57 265 178 324c67 33 113 57 137 74s41 37 52 62l149 -85c-11 -36 -29 -64 -55 -85c-25 -20 -65 -41 -118 -63c-47 -19 -81 -35 -100 -48c-19 -12 -34 -27 -43 -46c32 26 72 39 121 39c60 0 112 -20 155 -61
c44 -40 66 -93 66 -159c0 -68 -24 -124 -71 -168s-111 -66 -191 -66zM296 139c47 0 81 32 81 76c0 45 -36 78 -83 78c-44 0 -82 -30 -82 -75c0 -47 36 -79 84 -79z" />
    <glyph glyph-name="uni0432" unicode="&#x432;" horiz-adv-x="525" 
d="M437 255c49 -22 73 -58 73 -109c0 -91 -61 -146 -180 -146h-290v500h275c119 0 180 -54 180 -145c0 -44 -19 -77 -58 -100zM281 371h-61v-62h61c23 0 34 10 34 30c0 21 -11 32 -34 32zM220 129h70c23 0 34 11 34 32c0 20 -11 30 -34 30h-70v-62z" />
    <glyph glyph-name="uni0433" unicode="&#x433;" horiz-adv-x="420" 
d="M40 500h370v-176h-185v-324h-185v500z" />
    <glyph glyph-name="uni0434" unicode="&#x434;" horiz-adv-x="600" 
d="M525 500v-324h65v-310h-175v134h-240v-134h-175v310h56c24 39 36 95 36 167v157h433zM245 176h100v160h-73c-1 -63 -10 -117 -27 -160z" />
    <glyph glyph-name="uni0435" unicode="&#x435;" horiz-adv-x="560" 
d="M537 187h-332c16 -33 50 -50 102 -50c31 0 59 11 85 32l121 -102c-50 -54 -121 -81 -212 -81c-85 0 -154 25 -206 74c-51 50 -77 113 -77 188c0 76 25 139 75 190c51 51 114 76 191 76c76 0 138 -25 187 -75c49 -49 74 -112 74 -187c0 -22 -3 -44 -8 -65zM202 306h168
c-11 40 -38 60 -81 60s-72 -20 -87 -60z" />
    <glyph glyph-name="uni0436" unicode="&#x436;" horiz-adv-x="789" 
d="M645 250l144 -250h-202l-100 192v-192h-185v192l-100 -192h-202l144 250l-134 250h202l90 -187v187h185v-187l90 187h202z" />
    <glyph glyph-name="uni0437" unicode="&#x437;" horiz-adv-x="460" 
d="M368 256c51 -25 77 -65 77 -120c0 -45 -20 -81 -60 -110c-39 -28 -91 -42 -156 -42c-107 0 -180 33 -224 121l139 81c16 -36 42 -54 77 -54c19 0 38 10 38 27c0 18 -11 27 -34 27h-50v134h50c13 0 25 13 25 26c0 19 -13 28 -39 28c-31 0 -51 -17 -62 -51l-139 74
c51 84 116 117 221 117c57 0 105 -14 142 -43c38 -29 57 -64 57 -106c0 -49 -21 -86 -62 -109z" />
    <glyph glyph-name="uni0438" unicode="&#x438;" horiz-adv-x="580" 
d="M220 285l171 215h149v-500h-180v215l-171 -215h-149v500h180v-215z" />
    <glyph glyph-name="uni0439" unicode="&#x439;" horiz-adv-x="580" 
d="M465 549h-350v150h350v-150zM220 285l171 215h149v-500h-180v215l-171 -215h-149v500h180v-215z" />
    <glyph glyph-name="uni043A" unicode="&#x43a;" horiz-adv-x="550" 
d="M388 250l162 -250h-205l-120 200v-200h-185v500h185v-194l105 194h210z" />
    <glyph glyph-name="uni043B" unicode="&#x43b;" horiz-adv-x="582" 
d="M82 500h460v-500h-185v324h-90v-117c0 -163 -77 -226 -257 -207v170c49 -13 72 10 72 77v253z" />
    <glyph glyph-name="uni043C" unicode="&#x43c;" horiz-adv-x="658" 
d="M438 500h180v-500h-180v220l-100 -155h-18l-100 155v-220h-180v500h180l109 -170z" />
    <glyph glyph-name="uni043D" unicode="&#x43d;" horiz-adv-x="570" 
d="M345 338v162h185v-500h-185v162h-120v-162h-185v500h185v-162h120z" />
    <glyph glyph-name="uni043E" unicode="&#x43e;" horiz-adv-x="574" 
d="M287 -14c-75 0 -138 25 -191 76c-52 51 -78 113 -78 188s26 137 78 188s116 76 191 76s139 -25 191 -76s78 -113 78 -188s-26 -137 -78 -188s-116 -76 -191 -76zM226 186c16 -16 36 -24 61 -24s45 8 60 24c16 17 24 38 24 64s-8 47 -24 63c-15 17 -35 25 -60 25
s-45 -8 -61 -25c-15 -16 -23 -37 -23 -63s8 -47 23 -64z" />
    <glyph glyph-name="uni043F" unicode="&#x43f;" horiz-adv-x="570" 
d="M40 500h490v-500h-185v324h-120v-324h-185v500z" />
    <glyph glyph-name="uni0440" unicode="&#x440;" horiz-adv-x="606" 
d="M359 514c67 0 122 -25 165 -75s64 -113 64 -189s-21 -139 -64 -189s-98 -75 -165 -75c-57 0 -102 20 -134 59v-245h-185v700h185v-45c32 39 77 59 134 59zM249 183c17 -18 38 -27 65 -27s48 9 64 27c33 36 33 98 0 134c-16 18 -37 27 -64 27s-48 -9 -65 -27
c-32 -36 -32 -98 0 -134z" />
    <glyph glyph-name="uni0441" unicode="&#x441;" horiz-adv-x="525" 
d="M285 -14c-77 0 -140 25 -191 75c-51 51 -76 114 -76 189s25 138 76 188c51 51 114 76 191 76c99 0 186 -51 230 -131l-156 -89c-17 28 -41 42 -74 42c-47 0 -82 -37 -82 -86s35 -86 82 -86c35 0 59 14 74 43l156 -90c-44 -81 -131 -131 -230 -131z" />
    <glyph glyph-name="uni0442" unicode="&#x442;" horiz-adv-x="470" 
d="M5 500h460v-176h-136v-324h-186v324h-138v176z" />
    <glyph glyph-name="uni0443" unicode="&#x443;" horiz-adv-x="570" 
d="M299 233l61 267h210l-166 -485c-52 -153 -169 -222 -325 -215v175c68 0 100 8 121 35l-200 490h210z" />
    <glyph glyph-name="uni0444" unicode="&#x444;" horiz-adv-x="730" 
d="M712 250c0 -135 -86 -235 -257 -260v-190h-180v190c-171 25 -257 125 -257 260c0 133 86 233 257 258v192h180v-192c171 -25 257 -125 257 -258zM275 164v172c-49 -13 -73 -42 -73 -86s24 -73 73 -86zM455 336v-172c49 13 73 42 73 86s-24 73 -73 86z" />
    <glyph glyph-name="uni0445" unicode="&#x445;" horiz-adv-x="570" 
d="M388 256l182 -256h-205l-80 112l-80 -112h-205l183 256l-175 244h205l72 -101l72 101h205z" />
    <glyph glyph-name="uni0446" unicode="&#x446;" horiz-adv-x="615" 
d="M520 500v-324h85v-310h-175v134h-390v500h185v-324h110v324h185z" />
    <glyph glyph-name="uni0447" unicode="&#x447;" horiz-adv-x="540" 
d="M315 295v205h185v-500h-185v130c-31 -7 -61 -11 -90 -11c-121 0 -205 71 -205 191v190h185v-150c0 -41 22 -61 65 -61c16 0 31 2 45 6z" />
    <glyph glyph-name="uni0448" unicode="&#x448;" horiz-adv-x="830" 
d="M605 176v324h185v-500h-750v500h185v-324h100v324h180v-324h100z" />
    <glyph glyph-name="uni0449" unicode="&#x449;" horiz-adv-x="875" 
d="M780 500v-324h85v-310h-175v134h-650v500h185v-324h95v324h180v-324h95v324h185z" />
    <glyph glyph-name="uni044A" unicode="&#x44a;" horiz-adv-x="580" 
d="M295 370h79c121 0 196 -70 196 -185s-75 -185 -196 -185h-264v324h-110v176h295v-130zM295 150h56c26 0 39 12 39 35s-13 35 -39 35h-56v-70z" />
    <glyph glyph-name="uni044B" unicode="&#x44b;" horiz-adv-x="755" 
d="M225 370h79c121 0 196 -70 196 -185s-75 -185 -196 -185h-264v500h185v-130zM530 0v500h185v-500h-185zM225 150h56c26 0 39 12 39 35s-13 35 -39 35h-56v-70z" />
    <glyph glyph-name="uni044C" unicode="&#x44c;" horiz-adv-x="510" 
d="M225 370h79c121 0 196 -70 196 -185s-75 -185 -196 -185h-264v500h185v-130zM225 150h56c26 0 39 12 39 35s-13 35 -39 35h-56v-70z" />
    <glyph glyph-name="uni044D" unicode="&#x44d;" horiz-adv-x="520" 
d="M235 514c78 0 142 -25 192 -75s75 -113 75 -189s-25 -139 -75 -189s-114 -75 -192 -75c-99 0 -186 50 -230 131l146 84c8 -39 38 -58 89 -58c36 0 63 12 81 37h-130v140h130c-18 25 -45 37 -81 37c-48 0 -79 -25 -88 -57l-147 83c44 80 133 131 230 131z" />
    <glyph glyph-name="uni044E" unicode="&#x44e;" horiz-adv-x="798" 
d="M511 514c75 0 139 -25 191 -76s78 -113 78 -188s-26 -137 -78 -188s-116 -76 -191 -76c-116 0 -210 71 -245 176h-41v-162h-185v500h185v-162h40c35 105 129 176 246 176zM450 186c16 -16 36 -24 61 -24s45 8 60 24c16 17 24 38 24 64s-8 47 -24 63c-15 17 -35 25 -60 25
s-45 -8 -61 -25c-15 -16 -23 -37 -23 -63s8 -47 23 -64z" />
    <glyph glyph-name="uni044F" unicode="&#x44f;" horiz-adv-x="541" 
d="M237 500h264v-500h-185v140h-13l-88 -140h-210l117 170c-54 34 -81 82 -81 145c0 115 75 185 196 185zM316 350h-56c-26 0 -39 -12 -39 -35s13 -35 39 -35h56v70z" />
    <glyph glyph-name="uni0451" unicode="&#x451;" horiz-adv-x="560" 
d="M250 565c-33 -33 -87 -33 -120 0s-33 87 0 120s87 33 120 0s33 -87 0 -120zM450 565c-33 -33 -87 -33 -120 0s-33 87 0 120s87 33 120 0s33 -87 0 -120zM537 187h-332c16 -33 50 -50 102 -50c31 0 59 11 85 32l121 -102c-50 -54 -121 -81 -212 -81c-85 0 -154 25 -206 74
c-51 50 -77 113 -77 188c0 76 25 139 75 190c51 51 114 76 191 76c76 0 138 -25 187 -75c49 -49 74 -112 74 -187c0 -22 -3 -44 -8 -65zM202 306h168c-11 40 -38 60 -81 60s-72 -20 -87 -60z" />
    <glyph glyph-name="uni0452" unicode="&#x452;" horiz-adv-x="590" 
d="M374 489c109 0 181 -76 181 -225v-264c0 -157 -78 -225 -250 -216v166c43 -4 65 13 65 50v244c0 45 -21 67 -62 67c-44 0 -68 -30 -68 -79v-232h-185v531h-55v119h55v50h185v-50h130v-119h-130v-105c31 42 75 63 134 63z" />
    <glyph glyph-name="uni0453" unicode="&#x453;" horiz-adv-x="420" 
d="M166 700h210l-116 -150h-174zM40 500h370v-176h-185v-324h-185v500z" />
    <glyph glyph-name="uni0454" unicode="&#x454;" horiz-adv-x="520" 
d="M280 143c51 0 81 19 89 58l146 -84c-44 -81 -131 -131 -230 -131c-78 0 -142 25 -192 75s-75 113 -75 189s25 139 75 189s114 75 192 75c97 0 186 -51 230 -131l-147 -83c-9 32 -40 57 -88 57c-36 0 -63 -12 -81 -37h130v-140h-130c18 -25 45 -37 81 -37z" />
    <glyph glyph-name="uni0455" unicode="&#x455;" horiz-adv-x="484" 
d="M219 353c0 -52 250 2 250 -194c0 -64 -31 -114 -78 -138s-95 -35 -147 -35c-121 0 -199 40 -234 119l161 72c13 -34 36 -51 71 -51c23 0 34 7 34 22c0 17 -38 26 -85 37c-67 15 -157 50 -156 157c0 55 21 97 62 127c42 30 90 45 145 45c109 0 182 -42 217 -127l-153 -55
c-12 28 -31 42 -56 42c-21 0 -31 -7 -31 -21z" />
    <glyph glyph-name="uni0456" unicode="&#x456;" horiz-adv-x="265" 
d="M133 538c-28 0 -52 10 -73 30c-20 21 -30 45 -30 72s10 51 30 71c21 21 45 31 73 31c27 0 51 -10 71 -31c21 -20 31 -44 31 -71s-10 -51 -31 -72c-20 -20 -44 -30 -71 -30zM225 0h-185v500h185v-500z" />
    <glyph glyph-name="uni0457" unicode="&#x457;" horiz-adv-x="265" 
d="M91 555c-33 -33 -87 -33 -120 0s-33 87 0 120s87 33 120 0s33 -87 0 -120zM291 555c-33 -33 -87 -33 -120 0s-33 87 0 120s87 33 120 0s33 -87 0 -120zM225 0h-185v500h185v-500z" />
    <glyph glyph-name="uni0458" unicode="&#x458;" horiz-adv-x="280" 
d="M148 538c-28 0 -52 10 -73 30c-20 21 -30 45 -30 72s10 51 30 71c21 21 45 31 73 31c27 0 51 -10 71 -31c21 -20 31 -44 31 -71s-10 -51 -31 -72c-20 -20 -44 -30 -71 -30zM55 0v500h185v-500c0 -157 -78 -225 -250 -216v166c43 -4 65 13 65 50z" />
    <glyph glyph-name="uni0459" unicode="&#x459;" horiz-adv-x="802" 
d="M537 360h69c53 0 97 -16 132 -49c36 -32 54 -76 54 -131s-18 -99 -54 -132c-35 -32 -79 -48 -132 -48h-254v324h-85v-117c0 -161 -77 -226 -257 -215v170c51 -7 72 20 72 85v253h455v-140zM537 150h46c37 0 37 60 0 60h-46v-60z" />
    <glyph glyph-name="uni045A" unicode="&#x45a;" horiz-adv-x="775" 
d="M510 360h69c53 0 97 -16 132 -49c36 -32 54 -76 54 -131s-18 -99 -54 -132c-35 -32 -79 -48 -132 -48h-254v194h-110v-194h-185v500h185v-140h110v140h185v-140zM510 150h46c37 0 37 60 0 60h-46v-60z" />
    <glyph glyph-name="uni045B" unicode="&#x45b;" horiz-adv-x="590" 
d="M374 489c109 0 181 -76 181 -225v-264h-185v244c0 45 -21 67 -62 67c-44 0 -68 -30 -68 -79v-232h-185v526h-55v119h55v55h185v-55h130v-119h-130v-100c31 42 75 63 134 63z" />
    <glyph glyph-name="uni045C" unicode="&#x45c;" horiz-adv-x="550" 
d="M226 700h210l-116 -150h-174zM388 250l162 -250h-205l-120 200v-200h-185v500h185v-194l105 194h210z" />
    <glyph glyph-name="uni045E" unicode="&#x45e;" horiz-adv-x="570" 
d="M116 699h350v-150h-350v150zM299 233l61 267h210l-166 -485c-52 -153 -169 -222 -325 -215v175c68 0 100 8 121 35l-200 490h210z" />
    <glyph glyph-name="uni045F" unicode="&#x45f;" horiz-adv-x="570" 
d="M345 176v324h185v-500h-157v-134h-175v134h-158v500h185v-324h120z" />
    <glyph glyph-name="uni0490" unicode="&#x490;" horiz-adv-x="480" 
d="M280 700v120h200v-314h-230v-506h-200v700h230z" />
    <glyph glyph-name="uni0491" unicode="&#x491;" horiz-adv-x="420" 
d="M235 500v104h175v-280h-185v-324h-185v500h195z" />
    <glyph glyph-name="Wgrave" unicode="&#x1e80;" horiz-adv-x="1010" 
d="M630 750h-174l-116 150h210zM198 0h197l110 374l110 -374h197l198 700h-220l-95 -385l-113 385h-154l-113 -385l-95 385h-220z" />
    <glyph glyph-name="wgrave" unicode="&#x1e81;" horiz-adv-x="830" 
d="M435 700l80 -150h-174l-116 150h210zM557 223l58 277h195l-145 -500h-188l-62 235l-62 -235h-188l-145 500h195l58 -277l72 277h140z" />
    <glyph glyph-name="Wacute" unicode="&#x1e82;" horiz-adv-x="1010" 
d="M420 750l80 150h210l-116 -150h-174zM198 0h197l110 374l110 -374h197l198 700h-220l-95 -385l-113 385h-154l-113 -385l-95 385h-220z" />
    <glyph glyph-name="wacute" unicode="&#x1e83;" horiz-adv-x="830" 
d="M385 700h210l-116 -150h-174zM557 223l58 277h195l-145 -500h-188l-62 235l-62 -235h-188l-145 500h195l58 -277l72 277h140z" />
    <glyph glyph-name="Wdieresis" unicode="&#x1e84;" horiz-adv-x="1010" 
d="M490 755c-33 -33 -87 -33 -120 0s-33 87 0 120s87 33 120 0s33 -87 0 -120zM690 755c-33 -33 -87 -33 -120 0s-33 87 0 120s87 33 120 0s33 -87 0 -120zM395 0h-197l-198 700h220l95 -385l113 385h154l113 -385l95 385h220l-198 -700h-197l-110 374z" />
    <glyph glyph-name="wdieresis" unicode="&#x1e85;" horiz-adv-x="830" 
d="M375 555c-33 -33 -87 -33 -120 0s-33 87 0 120s87 33 120 0s33 -87 0 -120zM575 555c-33 -33 -87 -33 -120 0s-33 87 0 120s87 33 120 0s33 -87 0 -120zM557 223l58 277h195l-145 -500h-188l-62 235l-62 -235h-188l-145 500h195l58 -277l72 277h140z" />
    <glyph glyph-name="Ygrave" unicode="&#x1ef2;" horiz-adv-x="674" 
d="M357 900l80 -150h-174l-116 150h210zM452 700h222l-237 -434v-266h-200v266l-237 434h222l115 -246z" />
    <glyph glyph-name="ygrave" unicode="&#x1ef3;" horiz-adv-x="570" 
d="M311 700l80 -150h-174l-116 150h210zM299 233l61 267h210l-170 -499c-49 -145 -150 -208 -321 -201v175c68 0 100 8 121 35l-200 490h210z" />
    <glyph glyph-name="endash" unicode="&#x2013;" horiz-adv-x="640" 
d="M590 217h-540v174h540v-174z" />
    <glyph glyph-name="emdash" unicode="&#x2014;" horiz-adv-x="740" 
d="M690 217h-640v174h640v-174z" />
    <glyph glyph-name="quoteleft" unicode="&#x2018;" horiz-adv-x="315" 
d="M245 365h-210l90 335h150z" />
    <glyph glyph-name="quoteright" unicode="&#x2019;" horiz-adv-x="315" 
d="M70 700h210l-90 -335h-150z" />
    <glyph glyph-name="quotesinglbase" unicode="&#x201a;" horiz-adv-x="315" 
d="M70 195h210l-90 -335h-150z" />
    <glyph glyph-name="quotedblleft" unicode="&#x201c;" horiz-adv-x="565" 
d="M245 365h-210l90 335h150zM495 365h-210l90 335h150z" />
    <glyph glyph-name="quotedblright" unicode="&#x201d;" horiz-adv-x="565" 
d="M70 700h210l-90 -335h-150zM320 700h210l-90 -335h-150z" />
    <glyph glyph-name="quotedblbase" unicode="&#x201e;" horiz-adv-x="565" 
d="M70 195h210l-90 -335h-150zM320 195h210l-90 -335h-150z" />
    <glyph glyph-name="dagger" unicode="&#x2020;" horiz-adv-x="460" 
d="M323 590h107v-174h-107v-416h-185v416h-108v174h108v110h185v-110z" />
    <glyph glyph-name="daggerdbl" unicode="&#x2021;" horiz-adv-x="460" 
d="M430 590v-174h-107v-132h107v-174h-107v-110h-185v110h-108v174h108v132h-108v174h108v110h185v-110h107z" />
    <glyph glyph-name="bullet" unicode="&#x2022;" horiz-adv-x="420" 
d="M211 170c-50 0 -93 18 -128 53s-53 78 -53 128c0 49 18 91 53 126s78 53 128 53c49 0 91 -18 126 -53s53 -77 53 -126c0 -50 -18 -93 -53 -128s-77 -53 -126 -53z" />
    <glyph glyph-name="ellipsis" unicode="&#x2026;" horiz-adv-x="820" 
d="M231 18c-22 -22 -49 -33 -81 -33s-59 11 -82 33c-22 23 -33 50 -33 82s11 59 33 81c23 23 50 34 82 34s59 -11 81 -34c23 -22 34 -49 34 -81s-11 -59 -34 -82zM491 18c-22 -22 -49 -33 -81 -33s-59 11 -82 33c-22 23 -33 50 -33 82s11 59 33 81c23 23 50 34 82 34
s59 -11 81 -34c23 -22 34 -49 34 -81s-11 -59 -34 -82zM751 18c-22 -22 -49 -33 -81 -33s-59 11 -82 33c-22 23 -33 50 -33 82s11 59 33 81c23 23 50 34 82 34s59 -11 81 -34c23 -22 34 -49 34 -81s-11 -59 -34 -82z" />
    <glyph glyph-name="perthousand" unicode="&#x2030;" horiz-adv-x="1283" 
d="M225 336c-55 0 -102 18 -139 55s-56 82 -56 135s19 97 56 134s84 56 139 56s100 -19 137 -56s56 -81 56 -134s-19 -98 -56 -135s-82 -55 -137 -55zM229 70l-72 41l470 498l73 -42zM273 526c0 28 -21 50 -49 50s-48 -22 -48 -50s20 -50 48 -50s49 23 49 50zM645 -16
c-55 0 -102 18 -139 55s-56 82 -56 135s19 97 56 134s84 56 139 56s100 -19 137 -56s56 -81 56 -134s-19 -98 -56 -135s-82 -55 -137 -55zM1060 -16c-55 0 -102 18 -139 55s-56 82 -56 135s19 97 56 134s84 56 139 56s100 -19 137 -56s56 -81 56 -134s-19 -98 -56 -135
s-82 -55 -137 -55zM693 174c0 28 -21 50 -49 50s-48 -22 -48 -50s20 -50 48 -50s49 23 49 50zM1108 174c0 28 -21 50 -49 50s-48 -22 -48 -50s20 -50 48 -50s49 23 49 50z" />
    <glyph glyph-name="guilsinglleft" unicode="&#x2039;" horiz-adv-x="367" 
d="M165 509h152l-115 -200l115 -200h-152l-115 200z" />
    <glyph glyph-name="guilsinglright" unicode="&#x203a;" horiz-adv-x="367" 
d="M50 509h152l115 -200l-115 -200h-152l115 200z" />
    <glyph glyph-name="fraction" unicode="&#x2044;" horiz-adv-x="180" 
d="M360 700l-410 -700h-130l410 700h130z" />
    <glyph glyph-name="Euro" unicode="&#x20ac;" horiz-adv-x="643" 
d="M462 246l171 -97c-53 -110 -139 -165 -258 -165c-156 0 -263 99 -295 262h-70v84h60v20v18h-60v84h69c32 164 139 264 296 264c117 0 202 -52 253 -157l-167 -96c-21 39 -50 59 -86 59c-43 0 -73 -23 -90 -70h140v-84h-155v-18v-20h155v-84h-139c17 -45 46 -68 89 -68
c37 0 66 23 87 68z" />
    <glyph glyph-name="uni20BD" unicode="&#x20bd;" horiz-adv-x="615" 
d="M350 233h-80v-39h200v-100h-200v-93h-200v93h-60v100h60v39h-60v180h60v288h280c73 0 133 -21 182 -63c49 -41 73 -97 73 -168c0 -79 -24 -138 -71 -178c-47 -39 -109 -59 -184 -59zM350 507h-80v-94h80c37 0 55 16 55 47s-18 47 -55 47z" />
    <glyph glyph-name="uni2116" unicode="&#x2116;" horiz-adv-x="1066" 
d="M863 356c-52 0 -96 17 -131 52s-52 78 -52 128c0 51 17 93 52 128s78 52 131 52s96 -17 131 -52s52 -77 52 -128c0 -50 -17 -93 -52 -128c-34 -35 -78 -52 -131 -52zM430 380v320h200v-700h-160l-220 320v-320h-200v700h160zM863 496c24 0 39 16 39 40
c0 34 -42 55 -67 28c-24 -24 -7 -68 28 -68zM1030 146h-334v180h334v-180z" />
    <glyph glyph-name="trademark" unicode="&#x2122;" horiz-adv-x="486" 
d="M30 700h173v-77h-46v-123h-80v123h-47v77zM338 636l41 64h77v-200h-77v87l-37 -58h-8l-37 58v-87h-77v200h77z" />
    <glyph glyph-name="estimated" unicode="&#x212e;" horiz-adv-x="780" 
d="M760 350c0 -10 -5 -15 -15 -15h-560c-10 0 -15 -5 -15 -15v-192c0 -7 2 -14 7 -19c56 -59 134 -89 233 -89c97 0 174 32 231 97c5 6 11 9 18 9h37c13 0 18 -10 9 -19c-73 -78 -171 -117 -295 -117c-117 0 -212 34 -283 103s-107 155 -107 257c0 101 34 187 103 256
s158 104 267 104s197 -35 266 -104s104 -155 104 -256zM610 380v192c0 7 -2 14 -7 19c-56 59 -127 89 -213 89s-157 -30 -213 -89c-5 -5 -7 -12 -7 -19v-192c0 -10 5 -15 15 -15h410c10 0 15 5 15 15z" />
    <glyph glyph-name="oneeighth" unicode="&#x215b;" horiz-adv-x="803" 
d="M253 300h-142v251l-78 -19l-33 120l132 48h121v-400zM99 0l410 700h130l-410 -700h-130zM734 209c39 -23 59 -56 59 -99c0 -76 -62 -124 -162 -124s-162 48 -162 124c0 43 20 76 59 99c-30 21 -45 48 -45 83c0 75 63 122 148 122s148 -47 148 -122c0 -35 -15 -62 -45 -83
zM606 280c0 -14 8 -21 25 -21s25 7 25 21c0 15 -8 23 -25 23s-25 -8 -25 -23zM663 127c0 19 -11 28 -32 28s-32 -9 -32 -28s11 -29 32 -29s32 10 32 29z" />
    <glyph glyph-name="threeeighths" unicode="&#x215c;" horiz-adv-x="847" 
d="M328 429c0 -91 -67 -143 -164 -143c-79 0 -134 33 -164 98l114 65c10 -27 27 -40 50 -40c19 0 28 7 28 20s-8 19 -23 19h-32l-50 75l48 54h-114v123h292v-89l-64 -72c53 -20 79 -57 79 -110zM143 0l410 700h130l-410 -700h-130zM778 209c39 -23 59 -56 59 -99
c0 -76 -62 -124 -162 -124s-162 48 -162 124c0 43 20 76 59 99c-30 21 -45 48 -45 83c0 75 63 122 148 122s148 -47 148 -122c0 -35 -15 -62 -45 -83zM650 280c0 -14 8 -21 25 -21s25 7 25 21c0 15 -8 23 -25 23s-25 -8 -25 -23zM707 127c0 19 -11 28 -32 28s-32 -9 -32 -28
s11 -29 32 -29s32 10 32 29z" />
    <glyph glyph-name="fiveeighths" unicode="&#x215d;" horiz-adv-x="854" 
d="M320 423c0 -91 -65 -137 -158 -137c-79 0 -133 33 -162 98l115 55c9 -23 24 -35 45 -35c19 0 29 7 29 21s-9 21 -26 21h-136l17 254h261v-123h-144l-1 -24h8c93 0 152 -43 152 -130zM150 0l410 700h130l-410 -700h-130zM785 209c39 -23 59 -56 59 -99
c0 -76 -62 -124 -162 -124s-162 48 -162 124c0 43 20 76 59 99c-30 21 -45 48 -45 83c0 75 63 122 148 122s148 -47 148 -122c0 -35 -15 -62 -45 -83zM657 280c0 -14 8 -21 25 -21s25 7 25 21c0 15 -8 23 -25 23s-25 -8 -25 -23zM714 127c0 19 -11 28 -32 28s-32 -9 -32 -28
s11 -29 32 -29s32 10 32 29z" />
    <glyph glyph-name="seveneighths" unicode="&#x215e;" horiz-adv-x="834" 
d="M300 594l-107 -294h-145l101 277h-149v123h300v-106zM130 0l410 700h130l-410 -700h-130zM765 209c39 -23 59 -56 59 -99c0 -76 -62 -124 -162 -124s-162 48 -162 124c0 43 20 76 59 99c-30 21 -45 48 -45 83c0 75 63 122 148 122s148 -47 148 -122
c0 -35 -15 -62 -45 -83zM637 280c0 -14 8 -21 25 -21s25 7 25 21c0 15 -8 23 -25 23s-25 -8 -25 -23zM694 127c0 19 -11 28 -32 28s-32 -9 -32 -28s11 -29 32 -29s32 10 32 29z" />
    <glyph glyph-name="arrowleft" unicode="&#x2190;" horiz-adv-x="780" 
d="M355 437h395v-175h-394l212 -212h-238l-300 300l300 300h238z" />
    <glyph glyph-name="arrowup" unicode="&#x2191;" horiz-adv-x="660" 
d="M330 700l300 -300v-238l-207 207v-369h-185v370l-208 -208v238z" />
    <glyph glyph-name="arrowright" unicode="&#x2192;" horiz-adv-x="780" 
d="M212 650h238l300 -300l-300 -300h-238l212 212h-394v175h395z" />
    <glyph glyph-name="arrowdown" unicode="&#x2193;" horiz-adv-x="660" 
d="M423 700v-369l207 207v-238l-300 -300l-300 300v238l208 -208v370h185z" />
    <glyph glyph-name="arrowboth" unicode="&#x2194;" horiz-adv-x="1180" 
d="M622 640h238l290 -290l-290 -290h-238l202 202h-468l202 -202h-238l-290 290l290 290h238l-203 -203h470z" />
    <glyph glyph-name="arrowupdn" unicode="&#x2195;" horiz-adv-x="640" 
d="M610 610v-238l-197 197v-438l197 197v-238l-290 -290l-290 290v238l198 -198v440l-198 -198v238l290 290z" />
    <glyph glyph-name="uni2196" unicode="&#x2196;" horiz-adv-x="660" 
d="M328 464l302 -301l-131 -131l-301 301v-293l-168 168v424h424l168 -168h-294z" />
    <glyph glyph-name="uni2197" unicode="&#x2197;" horiz-adv-x="660" 
d="M38 464l168 168h424v-424l-168 -168v293l-301 -301l-131 131l302 301h-294z" />
    <glyph glyph-name="uni2198" unicode="&#x2198;" horiz-adv-x="660" 
d="M462 361v293l168 -168v-424h-424l-168 168h294l-302 301l131 131z" />
    <glyph glyph-name="uni2199" unicode="&#x2199;" horiz-adv-x="660" 
d="M499 662l131 -131l-302 -301h294l-168 -168h-424v424l168 168v-293z" />
    <glyph glyph-name="partialdiff" unicode="&#x2202;" horiz-adv-x="581" 
d="M237 716c86 0 158 -34 216 -101c59 -67 88 -155 88 -265c0 -237 -114 -366 -295 -366c-69 0 -124 21 -165 62s-61 93 -61 154c0 69 21 125 63 169c43 44 99 66 168 66c32 0 63 -6 94 -18c-15 81 -58 123 -129 125c-42 1 -82 -10 -120 -31v169c37 24 84 36 141 36z
M260 154c44 0 72 35 84 104c-23 11 -47 17 -73 17c-39 0 -66 -26 -66 -65c0 -32 24 -56 55 -56z" />
    <glyph glyph-name="emptyset" unicode="&#x2205;" horiz-adv-x="804" 
d="M744 720l-85 -115c70 -71 105 -156 105 -255c0 -100 -35 -185 -106 -256s-156 -106 -256 -106c-59 0 -114 13 -166 40l-36 -48h-140l85 115c-70 71 -105 156 -105 255c0 100 35 185 106 256s156 106 256 106c59 0 114 -13 166 -40l36 48h140zM170 350
c0 -57 18 -106 53 -149l268 365c-27 12 -57 18 -89 18c-65 0 -120 -23 -165 -68s-67 -101 -67 -166zM402 116c65 0 119 23 164 68s68 101 68 166c0 57 -18 106 -53 149l-268 -365c27 -12 56 -18 89 -18z" />
    <glyph glyph-name="product" unicode="&#x220f;" horiz-adv-x="620" 
d="M235 -200h-185v900h520v-900h-185v724h-150v-724z" />
    <glyph glyph-name="summation" unicode="&#x2211;" horiz-adv-x="550" 
d="M520 -200h-500v155l186 305l-171 284v156h470v-184h-238l154 -256l-168 -276h267v-184z" />
    <glyph glyph-name="minus" unicode="&#x2212;" horiz-adv-x="560" 
d="M530 260h-500v180h500v-180z" />
    <glyph glyph-name="radical" unicode="&#x221a;" horiz-adv-x="700" 
d="M420 0h-179l-108 172h-113v172h218l77 -133l195 589h190z" />
    <glyph glyph-name="infinity" unicode="&#x221e;" horiz-adv-x="830" 
d="M597 555c59 0 107 -19 145 -58c39 -38 58 -87 58 -147s-19 -109 -58 -148c-38 -38 -86 -57 -145 -57c-66 0 -127 30 -182 91c-55 -61 -116 -91 -182 -91c-59 0 -107 19 -146 57c-38 39 -57 88 -57 148s19 109 57 147c39 39 87 58 146 58c66 0 127 -30 182 -91
c55 61 116 91 182 91zM258 315c23 0 45 12 68 35c-23 23 -45 35 -68 35c-20 0 -38 -12 -38 -35s18 -35 38 -35zM572 315c20 0 38 12 38 35s-18 35 -38 35c-23 0 -45 -12 -68 -35c23 -23 45 -35 68 -35z" />
    <glyph glyph-name="integral" unicode="&#x222b;" horiz-adv-x="482" 
d="M0 -204v180c45 -19 91 3 100 52l86 505c27 156 156 200 296 169v-180c-45 19 -91 -3 -100 -52l-86 -505c-27 -156 -156 -200 -296 -169z" />
    <glyph glyph-name="approxequal" unicode="&#x2248;" horiz-adv-x="578" 
d="M289 372c-92 37 -138 28 -192 -9l-67 50c29 152 131 207 259 147c97 -42 108 -43 129 17l130 -59c-29 -152 -131 -206 -259 -146zM160 119l-130 59c29 152 131 206 259 146c92 -38 138 -28 192 9l67 -50c-29 -152 -131 -207 -259 -147c-97 42 -109 43 -129 -17z" />
    <glyph glyph-name="notequal" unicode="&#x2260;" horiz-adv-x="500" 
d="M470 555v-180h-169l-22 -50h191v-180h-269l-41 -95h-80l41 95h-91v180h169l22 50h-191v180h269l41 95h80l-41 -95h91z" />
    <glyph glyph-name="lessequal" unicode="&#x2264;" horiz-adv-x="510" 
d="M30 555l450 145v-194l-280 -56l280 -56v-194l-450 145v210zM480 0h-450v180h450v-180z" />
    <glyph glyph-name="greaterequal" unicode="&#x2265;" horiz-adv-x="510" 
d="M30 506v194l450 -145v-210l-450 -145v194l280 56zM480 0h-450v180h450v-180z" />
    <glyph glyph-name="lozenge" unicode="&#x25ca;" horiz-adv-x="620" 
d="M404 0h-188l-186 350l186 350h188l186 -350zM237 350l73 -138l73 138l-73 138z" />
    <glyph glyph-name="i.loclTRK" horiz-adv-x="265" 
d="M198 568c-37 -37 -97 -37 -134 0s-37 97 0 134s97 37 134 0s37 -97 0 -134zM225 0h-185v500h185v-500z" />
    <glyph glyph-name="f_f_j" horiz-adv-x="860" 
d="M538 500h282v-500c0 -157 -78 -225 -250 -216v166c43 -4 65 13 65 50v324h-97v-324h-185v324h-100v-324h-185v324h-58v176h58c0 144 91 225 262 216v-166c-48 4 -77 -17 -77 -50h100v10c0 141 89 216 262 216c48 0 93 -5 135 -16v-152c-45 7 -85 10 -120 10
c-61 0 -92 -19 -92 -58v-10z" />
    <glyph glyph-name="f_j" 
d="M253 500h282v-500c0 -157 -78 -225 -250 -216v166c43 -4 65 13 65 50v324h-97v-324h-185v324h-58v176h58c0 141 89 216 262 216c48 0 93 -5 135 -16v-152c-45 7 -85 10 -120 10c-61 0 -92 -19 -92 -58z" />
    <glyph glyph-name="uni0414.loclBGR" horiz-adv-x="740" 
d="M482 700l172 -506h81v-328h-200v134h-330v-134h-200v328h81l172 506h224zM370 475l-80 -281h160z" />
    <glyph glyph-name="uni041B.loclBGR" horiz-adv-x="670" 
d="M0 0l223 700h224l223 -700h-220l-115 445l-115 -445h-220z" />
    <glyph glyph-name="uni0424.loclBGR" horiz-adv-x="874" 
d="M532 -4v-96h-190v96c-97 16 -174 55 -231 118s-86 142 -86 236s29 172 86 235s134 103 231 119v96h190v-96c97 -16 174 -56 231 -119s86 -141 86 -235s-29 -173 -86 -236s-134 -102 -231 -118zM342 186v328c-78 -23 -117 -78 -117 -164s39 -141 117 -164zM532 514v-328
c78 23 117 78 117 164s-39 141 -117 164z" />
    <glyph glyph-name="uni0414.ss01" horiz-adv-x="715" 
d="M630 700v-506h75v-194h-700v194h74c28 51 42 121 42 212v294h509zM286 194h144v322h-109v-112c0 -87 -12 -157 -35 -210z" />
    <glyph glyph-name="uni0426.ss01" horiz-adv-x="715" 
d="M620 700v-506h85v-194h-655v700h210v-506h150v506h210z" />
    <glyph glyph-name="uni0429.ss01" horiz-adv-x="1005" 
d="M910 700v-506h85v-194h-945v700h200v-506h130v506h200v-506h130v506h200z" />
    <glyph glyph-name="uni0414.loclBGR.ss01" horiz-adv-x="740" 
d="M482 700l172 -506h81v-194h-730v194h81l172 506h224zM370 475l-80 -281h160z" />
    <glyph glyph-name="uni0432.loclBGR" horiz-adv-x="558" 
d="M440 405c67 -35 100 -97 100 -187c0 -71 -23 -128 -69 -170c-45 -41 -107 -62 -186 -62c-74 0 -133 22 -178 65c-45 44 -67 103 -67 177v239c0 76 22 136 65 180c44 45 103 67 176 67c129 0 209 -74 209 -186c0 -47 -17 -88 -50 -123zM270 544c-30 0 -45 -21 -45 -62v-61
l9 2c13 3 26 5 39 6c24 22 36 45 36 68c0 31 -13 47 -39 47zM355 218c0 47 -35 69 -92 57l-38 -8v-39c0 -41 25 -68 65 -68s65 22 65 58z" />
    <glyph glyph-name="uni0433.loclBGR" horiz-adv-x="479" 
d="M318 177l151 -72c-35 -79 -113 -119 -234 -119c-95 0 -214 38 -215 173c0 196 245 142 245 194c0 14 -10 21 -31 21c-25 0 -44 -14 -56 -42l-153 55c35 85 109 127 221 127c55 0 102 -15 142 -45c41 -30 61 -72 61 -127c0 -68 -37 -114 -84 -134
c-66 -27 -152 -35 -152 -60c0 -15 11 -22 34 -22c35 0 58 17 71 51z" />
    <glyph glyph-name="uni0434.loclBGR" horiz-adv-x="613" 
d="M388 455v45h185v-485c0 -167 -133 -231 -262 -231c-117 0 -213 45 -257 122l150 87c24 -33 56 -49 97 -49c47 0 87 23 87 71v50c-32 -39 -77 -59 -134 -59c-67 0 -122 24 -165 73s-64 109 -64 181s21 132 64 181s98 73 165 73c57 0 102 -20 134 -59zM234 196
c17 -17 38 -26 65 -26s48 9 64 26c33 35 33 93 0 128c-16 17 -37 26 -64 26s-48 -9 -65 -26c-32 -35 -32 -93 0 -128z" />
    <glyph glyph-name="uni0436.loclBGR" horiz-adv-x="789" 
d="M645 250l144 -250h-202l-100 192v-192h-185v192l-100 -192h-202l144 250l-134 250h202l90 -187v387h185v-387l90 187h202z" />
    <glyph glyph-name="uni0438.loclBGR" 
d="M350 243v257h185v-500h-185v49c-31 -42 -75 -63 -134 -63c-109 0 -181 76 -181 225v289h185v-269c0 -45 21 -67 62 -67c44 0 68 30 68 79z" />
    <glyph glyph-name="uni0439.loclBGR" 
d="M110 699h350v-150h-350v150zM350 243v257h185v-500h-185v49c-31 -42 -75 -63 -134 -63c-109 0 -181 76 -181 225v289h185v-269c0 -45 21 -67 62 -67c44 0 68 30 68 79z" />
    <glyph glyph-name="uni043A.loclBGR" horiz-adv-x="550" 
d="M388 250l162 -250h-205l-120 200v-200h-185v700h185v-394l105 194h210z" />
    <glyph glyph-name="uni043B.loclBGR" horiz-adv-x="570" 
d="M380 500l190 -500h-205l-80 250l-80 -250h-205l190 500h190z" />
    <glyph glyph-name="uni043F.loclBGR" 
d="M359 514c109 0 181 -76 181 -225v-289h-185v269c0 45 -21 67 -62 67c-44 0 -68 -30 -68 -79v-257h-185v500h185v-49c31 42 75 63 134 63z" />
    <glyph glyph-name="uni0442.loclBGR" horiz-adv-x="850" 
d="M630 514c116 0 185 -75 185 -210v-304h-185v279c0 38 -17 57 -51 57c-39 0 -59 -25 -59 -74v-262h-185v279c0 38 -17 57 -51 57c-39 0 -59 -25 -59 -74v-262h-185v500h185v-47c33 41 78 61 136 61c57 0 99 -21 125 -62c36 41 84 62 144 62z" />
    <glyph glyph-name="uni0446.loclBGR" horiz-adv-x="620" 
d="M565 166h45v-300h-170v148c-25 10 -45 25 -60 46c-35 -49 -89 -74 -164 -74c-109 0 -181 76 -181 225v289h185v-269c0 -45 21 -67 62 -67c44 0 68 30 68 79v257h185v-304c0 -20 10 -30 30 -30z" />
    <glyph glyph-name="uni0448.loclBGR" horiz-adv-x="850" 
d="M625 238v262h185v-500h-185v47c-33 -41 -78 -61 -136 -61c-57 0 -99 21 -125 62c-36 -41 -84 -62 -144 -62c-116 0 -185 75 -185 210v304h185v-279c0 -38 17 -57 51 -57c39 0 59 25 59 74v262h185v-279c0 -38 17 -57 51 -57c39 0 59 25 59 74z" />
    <glyph glyph-name="uni0449.loclBGR" horiz-adv-x="895" 
d="M840 166h45v-300h-170v148c-25 10 -44 25 -59 44c-37 -48 -89 -72 -157 -72c-59 0 -104 22 -133 65c-35 -43 -84 -65 -146 -65c-116 0 -185 75 -185 210v304h185v-279c0 -38 17 -57 51 -57c39 0 59 25 59 74v262h185v-279c0 -38 17 -57 51 -57c39 0 59 25 59 74v262h185
v-304c0 -20 10 -30 30 -30z" />
    <glyph glyph-name="uni044C.loclBGR" horiz-adv-x="495" 
d="M215 378h55c140 0 215 -78 215 -198c0 -57 -20 -104 -60 -141s-95 -55 -165 -55c-147 0 -225 77 -225 206v310h180v-122zM305 187c0 27 -15 40 -45 40h-45v-32c0 -31 15 -46 45 -46s45 13 45 38z" />
    <glyph glyph-name="uni044A.loclBGR" horiz-adv-x="570" 
d="M290 378h55c140 0 215 -78 215 -198c0 -57 -20 -104 -60 -141s-95 -55 -165 -55c-147 0 -225 77 -225 206v140h-110v170h290v-122zM380 187c0 27 -15 40 -45 40h-45v-32c0 -31 15 -46 45 -46s45 13 45 38z" />
    <glyph glyph-name="uni044E.loclBGR" horiz-adv-x="798" 
d="M511 514c75 0 139 -25 191 -76s78 -113 78 -188s-26 -137 -78 -188s-116 -76 -191 -76c-116 0 -210 71 -245 176h-41v-162h-185v700h185v-362h40c35 105 129 176 246 176zM450 186c16 -16 36 -24 61 -24s45 8 60 24c16 17 24 38 24 64s-8 47 -24 63c-15 17 -35 25 -60 25
s-45 -8 -61 -25c-15 -16 -23 -37 -23 -63s8 -47 23 -64z" />
    <glyph glyph-name="zero.sinf" horiz-adv-x="410" 
d="M342 -116c-35 -39 -80 -58 -137 -58s-103 19 -138 58s-52 91 -52 156s17 117 52 156s81 58 138 58s102 -19 137 -58s53 -91 53 -156s-18 -117 -53 -156zM162 40c0 -49 14 -73 43 -73s43 24 43 73s-14 73 -43 73s-43 -24 -43 -73z" />
    <glyph glyph-name="one.sinf" horiz-adv-x="283" 
d="M0 192l132 48h121v-400h-142v251l-78 -19z" />
    <glyph glyph-name="two.sinf" horiz-adv-x="349" 
d="M329 -160h-306v102l140 131c18 17 27 30 27 41c0 12 -7 18 -20 18c-15 0 -28 -14 -39 -42l-116 66c33 65 87 98 162 98c41 0 76 -12 106 -37c30 -24 45 -56 45 -95c0 -42 -23 -84 -70 -125l-36 -32h107v-125z" />
    <glyph glyph-name="three.sinf" horiz-adv-x="338" 
d="M313 151l-64 -72c53 -20 79 -57 79 -110c0 -91 -67 -143 -164 -143c-79 0 -134 33 -164 98l114 65c10 -27 27 -40 50 -40c19 0 28 7 28 20s-8 19 -23 19h-32l-50 75l48 54h-114v123h292v-89z" />
    <glyph glyph-name="four.sinf" horiz-adv-x="366" 
d="M323 11h33v-120h-33v-51h-128v51h-190v120l110 229h147l-104 -229h37v66h128v-66z" />
    <glyph glyph-name="five.sinf" horiz-adv-x="330" 
d="M160 93h8c93 0 152 -43 152 -130c0 -91 -65 -137 -158 -137c-79 0 -133 33 -162 98l115 55c9 -23 24 -35 45 -35c19 0 29 7 29 21s-9 21 -26 21h-136l17 254h261v-123h-144z" />
    <glyph glyph-name="six.sinf" horiz-adv-x="344" 
d="M290 240l-72 -125c73 -16 116 -70 116 -142c0 -88 -62 -147 -162 -147s-162 59 -162 147c0 30 7 57 22 81l110 186h148zM141 -27c0 -20 10 -30 31 -30s31 10 31 30s-10 30 -31 30s-31 -10 -31 -30z" />
    <glyph glyph-name="seven.sinf" horiz-adv-x="310" 
d="M0 117v123h300v-106l-107 -294h-145l101 277h-149z" />
    <glyph glyph-name="eight.sinf" horiz-adv-x="344" 
d="M275 49c39 -23 59 -56 59 -99c0 -76 -62 -124 -162 -124s-162 48 -162 124c0 43 20 76 59 99c-30 21 -45 48 -45 83c0 75 63 122 148 122s148 -47 148 -122c0 -35 -15 -62 -45 -83zM147 120c0 -14 8 -21 25 -21s25 7 25 21c0 15 -8 23 -25 23s-25 -8 -25 -23zM204 -33
c0 19 -11 28 -32 28s-32 -9 -32 -28s11 -29 32 -29s32 10 32 29z" />
    <glyph glyph-name="nine.sinf" horiz-adv-x="344" 
d="M334 107c0 -30 -7 -57 -22 -81l-110 -186h-148l72 125c-73 16 -116 70 -116 142c0 88 62 147 162 147s162 -59 162 -147zM203 107c0 20 -10 30 -31 30s-31 -10 -31 -30s10 -30 31 -30s31 10 31 30z" />
    <glyph glyph-name="zero.tf" horiz-adv-x="600" 
d="M518 83c-51 -66 -124 -99 -218 -99s-167 33 -218 99c-51 67 -77 156 -77 267s26 200 77 266c51 67 124 100 218 100s167 -33 218 -100c51 -66 77 -155 77 -266s-26 -200 -77 -267zM205 350c0 -115 32 -172 95 -172s95 57 95 172s-32 172 -95 172s-95 -57 -95 -172z" />
    <glyph glyph-name="one.tf" horiz-adv-x="600" 
d="M417 700v-506h168v-194h-560v194h192v297l-121 -29l-46 167l197 71h170z" />
    <glyph glyph-name="two.tf" horiz-adv-x="600" 
d="M573 0h-541v146l268 237c39 35 58 64 58 87c0 32 -26 52 -63 52c-47 0 -81 -30 -102 -89l-173 100c43 120 150 183 275 183c72 0 134 -21 185 -63c52 -42 78 -100 78 -175c0 -80 -32 -136 -104 -200l-94 -84h213v-194z" />
    <glyph glyph-name="three.tf" horiz-adv-x="600" 
d="M537 546l-118 -132c99 -25 156 -93 156 -194c0 -156 -108 -236 -275 -236c-137 0 -248 64 -285 188l176 100c16 -63 52 -94 109 -94c50 0 75 17 75 52s-24 50 -80 50h-37l-81 119l99 107h-229v194h490v-154z" />
    <glyph glyph-name="four.tf" horiz-adv-x="600" 
d="M515 282h70v-180h-70v-102h-196v102h-314v180l213 418h227l-213 -418h87v108h196v-108z" />
    <glyph glyph-name="five.tf" horiz-adv-x="600" 
d="M268 453h42c168 0 270 -72 270 -229c0 -77 -26 -136 -78 -178c-51 -41 -119 -62 -202 -62c-132 0 -240 60 -281 175l178 96c15 -51 49 -77 103 -77c53 0 80 17 80 51c0 31 -27 47 -80 47h-243l29 424h449v-194h-264z" />
    <glyph glyph-name="six.tf" horiz-adv-x="600" 
d="M500 700l-145 -216c71 -9 127 -37 168 -82s62 -100 62 -166c0 -74 -26 -135 -77 -182s-120 -70 -208 -70s-158 23 -209 70s-76 108 -76 182c0 53 13 99 39 138l1 2l2 2l218 322h225zM237 182c15 -13 36 -19 63 -19s47 6 62 19s23 31 23 54s-8 40 -23 53s-35 20 -62 20
s-48 -7 -63 -20s-22 -30 -22 -53s7 -41 22 -54z" />
    <glyph glyph-name="seven.tf" horiz-adv-x="600" 
d="M20 506v194h550v-164l-238 -536h-220l222 506h-314z" />
    <glyph glyph-name="eight.tf" horiz-adv-x="600" 
d="M482 366c67 -39 100 -95 100 -169c0 -131 -101 -211 -282 -211s-282 80 -282 211c0 74 33 130 100 169c-51 34 -76 81 -76 140c0 65 24 115 72 152s110 56 186 56s138 -19 186 -56s72 -87 72 -152c0 -59 -25 -106 -76 -140zM378 487c0 34 -26 51 -78 51s-78 -17 -78 -51
s26 -51 78 -51s78 17 78 51zM218 225c0 -39 27 -59 82 -59s82 20 82 59s-27 59 -82 59s-82 -20 -82 -59z" />
    <glyph glyph-name="nine.tf" horiz-adv-x="600" 
d="M546 326l-1 -2l-2 -2l-218 -322h-225l145 216c-71 9 -128 36 -169 81s-61 101 -61 167c0 74 25 134 76 181s121 71 209 71s157 -24 208 -71s77 -107 77 -181c0 -53 -13 -99 -39 -138zM237 517c-15 -13 -22 -30 -22 -53s7 -41 22 -54s36 -19 63 -19s47 6 62 19
s23 31 23 54s-8 40 -23 53s-35 20 -62 20s-48 -7 -63 -20z" />
    <glyph glyph-name="zero.dnom" horiz-adv-x="410" 
d="M342 44c-35 -39 -80 -58 -137 -58s-103 19 -138 58s-52 91 -52 156s17 117 52 156s81 58 138 58s102 -19 137 -58s53 -91 53 -156s-18 -117 -53 -156zM162 200c0 -49 14 -73 43 -73s43 24 43 73s-14 73 -43 73s-43 -24 -43 -73z" />
    <glyph glyph-name="one.dnom" horiz-adv-x="279" 
d="M0 352l132 48h121v-400h-142v251l-78 -19z" />
    <glyph glyph-name="two.dnom" horiz-adv-x="351" 
d="M329 0h-306v102l140 131c18 17 27 30 27 41c0 12 -7 18 -20 18c-15 0 -28 -14 -39 -42l-116 66c33 65 87 98 162 98c41 0 76 -12 106 -37c30 -24 45 -56 45 -95c0 -42 -23 -84 -70 -125l-36 -32h107v-125z" />
    <glyph glyph-name="three.dnom" horiz-adv-x="323" 
d="M313 311l-64 -72c53 -20 79 -57 79 -110c0 -91 -67 -143 -164 -143c-79 0 -134 33 -164 98l114 65c10 -27 27 -40 50 -40c19 0 28 7 28 20s-8 19 -23 19h-32l-50 75l48 54h-114v123h292v-89z" />
    <glyph glyph-name="four.dnom" horiz-adv-x="366" 
d="M323 171h33v-120h-33v-51h-128v51h-190v120l110 229h147l-104 -229h37v66h128v-66z" />
    <glyph glyph-name="five.dnom" horiz-adv-x="330" 
d="M160 253h8c93 0 152 -43 152 -130c0 -91 -65 -137 -158 -137c-79 0 -133 33 -162 98l115 55c9 -23 24 -35 45 -35c19 0 29 7 29 21s-9 21 -26 21h-136l17 254h261v-123h-144z" />
    <glyph glyph-name="six.dnom" horiz-adv-x="344" 
d="M290 400l-72 -125c73 -16 116 -70 116 -142c0 -88 -62 -147 -162 -147s-162 59 -162 147c0 30 7 57 22 81l110 186h148zM141 133c0 -20 10 -30 31 -30s31 10 31 30s-10 30 -31 30s-31 -10 -31 -30z" />
    <glyph glyph-name="seven.dnom" horiz-adv-x="310" 
d="M0 277v123h300v-106l-107 -294h-145l101 277h-149z" />
    <glyph glyph-name="eight.dnom" horiz-adv-x="344" 
d="M275 209c39 -23 59 -56 59 -99c0 -76 -62 -124 -162 -124s-162 48 -162 124c0 43 20 76 59 99c-30 21 -45 48 -45 83c0 75 63 122 148 122s148 -47 148 -122c0 -35 -15 -62 -45 -83zM147 280c0 -14 8 -21 25 -21s25 7 25 21c0 15 -8 23 -25 23s-25 -8 -25 -23zM204 127
c0 19 -11 28 -32 28s-32 -9 -32 -28s11 -29 32 -29s32 10 32 29z" />
    <glyph glyph-name="nine.dnom" horiz-adv-x="344" 
d="M329 267c0 -30 -7 -57 -22 -81l-110 -186h-148l72 125c-73 16 -116 70 -116 142c0 88 62 147 162 147s162 -59 162 -147zM198 267c0 20 -10 30 -31 30s-31 -10 -31 -30s10 -30 31 -30s31 10 31 30z" />
    <glyph glyph-name="zero.numr" horiz-adv-x="410" 
d="M342 344c-35 -39 -80 -58 -137 -58s-103 19 -138 58s-52 91 -52 156s17 117 52 156s81 58 138 58s102 -19 137 -58s53 -91 53 -156s-18 -117 -53 -156zM162 500c0 -49 14 -73 43 -73s43 24 43 73s-14 73 -43 73s-43 -24 -43 -73z" />
    <glyph glyph-name="one.numr" horiz-adv-x="279" 
d="M0 652l132 48h121v-400h-142v251l-78 -19z" />
    <glyph glyph-name="two.numr" horiz-adv-x="351" 
d="M329 300h-306v102l140 131c18 17 27 30 27 41c0 12 -7 18 -20 18c-15 0 -28 -14 -39 -42l-116 66c33 65 87 98 162 98c41 0 76 -12 106 -37c30 -24 45 -56 45 -95c0 -42 -23 -84 -70 -125l-36 -32h107v-125z" />
    <glyph glyph-name="three.numr" horiz-adv-x="323" 
d="M313 611l-64 -72c53 -20 79 -57 79 -110c0 -91 -67 -143 -164 -143c-79 0 -134 33 -164 98l114 65c10 -27 27 -40 50 -40c19 0 28 7 28 20s-8 19 -23 19h-32l-50 75l48 54h-114v123h292v-89z" />
    <glyph glyph-name="four.numr" horiz-adv-x="366" 
d="M323 471h33v-120h-33v-51h-128v51h-190v120l110 229h147l-104 -229h37v66h128v-66z" />
    <glyph glyph-name="five.numr" horiz-adv-x="330" 
d="M160 553h8c93 0 152 -43 152 -130c0 -91 -65 -137 -158 -137c-79 0 -133 33 -162 98l115 55c9 -23 24 -35 45 -35c19 0 29 7 29 21s-9 21 -26 21h-136l17 254h261v-123h-144z" />
    <glyph glyph-name="six.numr" horiz-adv-x="344" 
d="M290 700l-72 -125c73 -16 116 -70 116 -142c0 -88 -62 -147 -162 -147s-162 59 -162 147c0 30 7 57 22 81l110 186h148zM141 433c0 -20 10 -30 31 -30s31 10 31 30s-10 30 -31 30s-31 -10 -31 -30z" />
    <glyph glyph-name="seven.numr" horiz-adv-x="310" 
d="M0 577v123h300v-106l-107 -294h-145l101 277h-149z" />
    <glyph glyph-name="eight.numr" horiz-adv-x="344" 
d="M275 509c39 -23 59 -56 59 -99c0 -76 -62 -124 -162 -124s-162 48 -162 124c0 43 20 76 59 99c-30 21 -45 48 -45 83c0 75 63 122 148 122s148 -47 148 -122c0 -35 -15 -62 -45 -83zM147 580c0 -14 8 -21 25 -21s25 7 25 21c0 15 -8 23 -25 23s-25 -8 -25 -23zM204 427
c0 19 -11 28 -32 28s-32 -9 -32 -28s11 -29 32 -29s32 10 32 29z" />
    <glyph glyph-name="nine.numr" horiz-adv-x="344" 
d="M329 567c0 -30 -7 -57 -22 -81l-110 -186h-148l72 125c-73 16 -116 70 -116 142c0 88 62 147 162 147s162 -59 162 -147zM198 567c0 20 -10 30 -31 30s-31 -10 -31 -30s10 -30 31 -30s31 10 31 30z" />
    <glyph glyph-name="zero.sups" horiz-adv-x="410" 
d="M342 504c-35 -39 -80 -58 -137 -58s-103 19 -138 58s-52 91 -52 156s17 117 52 156s81 58 138 58s102 -19 137 -58s53 -91 53 -156s-18 -117 -53 -156zM162 660c0 -49 14 -73 43 -73s43 24 43 73s-14 73 -43 73s-43 -24 -43 -73z" />
    <glyph glyph-name="one.sups" horiz-adv-x="279" 
d="M0 812l132 48h121v-400h-142v251l-78 -19z" />
    <glyph glyph-name="two.sups" horiz-adv-x="351" 
d="M329 460h-306v102l140 131c18 17 27 30 27 41c0 12 -7 18 -20 18c-15 0 -28 -14 -39 -42l-116 66c33 65 87 98 162 98c41 0 76 -12 106 -37c30 -24 45 -56 45 -95c0 -42 -23 -84 -70 -125l-36 -32h107v-125z" />
    <glyph glyph-name="three.sups" horiz-adv-x="323" 
d="M313 771l-64 -72c53 -20 79 -57 79 -110c0 -91 -67 -143 -164 -143c-79 0 -134 33 -164 98l114 65c10 -27 27 -40 50 -40c19 0 28 7 28 20s-8 19 -23 19h-32l-50 75l48 54h-114v123h292v-89z" />
    <glyph glyph-name="four.sups" horiz-adv-x="366" 
d="M323 631h33v-120h-33v-51h-128v51h-190v120l110 229h147l-104 -229h37v66h128v-66z" />
    <glyph glyph-name="five.sups" horiz-adv-x="330" 
d="M160 713h8c93 0 152 -43 152 -130c0 -91 -65 -137 -158 -137c-79 0 -133 33 -162 98l115 55c9 -23 24 -35 45 -35c19 0 29 7 29 21s-9 21 -26 21h-136l17 254h261v-123h-144z" />
    <glyph glyph-name="six.sups" horiz-adv-x="344" 
d="M290 860l-72 -125c73 -16 116 -70 116 -142c0 -88 -62 -147 -162 -147s-162 59 -162 147c0 30 7 57 22 81l110 186h148zM141 593c0 -20 10 -30 31 -30s31 10 31 30s-10 30 -31 30s-31 -10 -31 -30z" />
    <glyph glyph-name="seven.sups" horiz-adv-x="310" 
d="M0 737v123h300v-106l-107 -294h-145l101 277h-149z" />
    <glyph glyph-name="eight.sups" horiz-adv-x="344" 
d="M275 669c39 -23 59 -56 59 -99c0 -76 -62 -124 -162 -124s-162 48 -162 124c0 43 20 76 59 99c-30 21 -45 48 -45 83c0 75 63 122 148 122s148 -47 148 -122c0 -35 -15 -62 -45 -83zM147 740c0 -14 8 -21 25 -21s25 7 25 21c0 15 -8 23 -25 23s-25 -8 -25 -23zM204 587
c0 19 -11 28 -32 28s-32 -9 -32 -28s11 -29 32 -29s32 10 32 29z" />
    <glyph glyph-name="nine.sups" horiz-adv-x="344" 
d="M329 727c0 -30 -7 -57 -22 -81l-110 -186h-148l72 125c-73 16 -116 70 -116 142c0 88 62 147 162 147s162 -59 162 -147zM198 727c0 20 -10 30 -31 30s-31 -10 -31 -30s10 -30 31 -30s31 10 31 30z" />
    <glyph glyph-name="cent.tf" horiz-adv-x="600" 
d="M383 418l-50 -154c33 1 56 16 71 43l156 -90c-44 -81 -131 -131 -230 -131c-17 0 -34 2 -53 5l-29 -91h-65l35 109c-95 40 -155 132 -155 241c0 75 25 138 76 188c51 51 114 76 191 76c12 0 29 -1 50 -4l29 90h65l-35 -108c53 -23 93 -60 121 -109l-156 -89
c-5 9 -12 17 -21 24zM248 350c0 -27 9 -49 27 -65l49 151c-44 -3 -76 -38 -76 -86z" />
    <glyph glyph-name="dollar.tf" horiz-adv-x="600" 
d="M580 208c0 -131 -91 -211 -240 -223v-85h-70v85c-133 9 -222 71 -255 170l176 95c13 -41 39 -67 79 -78v95c-81 26 -140 55 -177 87c-37 33 -56 79 -56 138c0 65 21 118 63 157c43 39 99 61 170 66v85h70v-86c107 -11 182 -65 227 -161l-171 -92c-9 33 -28 55 -56 66v-99
c1 0 5 -2 6 -2c60 -20 96 -33 139 -58c61 -35 95 -82 95 -160zM232 493c0 -16 13 -30 38 -41v80c-25 -6 -38 -19 -38 -39zM340 244v-77c30 4 45 16 45 35c0 16 -15 30 -45 42z" />
    <glyph glyph-name="Euro.tf" horiz-adv-x="600" 
d="M426 236l169 -97c-41 -95 -127 -155 -240 -155c-148 0 -250 99 -281 262h-69v84h60v20v18h-60v84h69c29 163 131 264 276 264c111 0 191 -53 240 -160l-169 -97c-16 43 -35 63 -71 63c-34 0 -58 -23 -72 -70h117v-84h-130v-18v-20h130v-84h-116c15 -45 40 -68 76 -68
c30 0 54 19 71 58z" />
    <glyph glyph-name="florin.tf" horiz-adv-x="600" 
d="M590 707v-180c-75 19 -126 -2 -138 -51l-9 -38h107v-176h-147l-68 -292c-37 -155 -184 -199 -325 -169v180c73 -18 116 -1 129 52l57 229h-106v176h150l25 100c19 73 59 124 120 151c61 28 130 34 205 18z" />
    <glyph glyph-name="uni20BD.tf" horiz-adv-x="600" 
d="M335 233h-70v-39h190v-100h-190v-93h-200v93h-55v100h55v39h-55v180h55v288h270c73 0 133 -21 182 -63c49 -41 73 -97 73 -168c0 -79 -24 -138 -71 -178c-47 -39 -109 -59 -184 -59zM335 507h-70v-94h70c37 0 55 16 55 47s-18 47 -55 47z" />
    <glyph glyph-name="sterling.tf" horiz-adv-x="600" 
d="M277 275v-81h313v-194h-570v194h57v81h-47v140h47v62c0 75 24 134 71 176c48 42 105 63 172 63c125 0 208 -51 261 -164l-173 -93c-15 48 -35 69 -72 69c-40 0 -59 -28 -59 -64v-49h203v-140h-203z" />
    <glyph glyph-name="yen.tf" horiz-adv-x="600" 
d="M378 700h222l-166 -323h116v-100h-150v-42h150v-100h-150v-135h-200v135h-150v100h150v42h-150v100h116l-166 323h222l78 -190z" />
    <glyph glyph-name="brevecy" horiz-adv-x="430" 
d="M390 549h-350v150h350v-150z" />
    </font>
</defs>
</svg>
