<?xml version="1.0" standalone="no"?>
<!DOCTYPE svg PUBLIC "-//W3C//DTD SVG 1.1//EN" "http://www.w3.org/Graphics/SVG/1.1/DTD/svg11.dtd" >
<svg xmlns="http://www.w3.org/2000/svg" xmlns:xlink="http://www.w3.org/1999/xlink" version="1.1">
<metadata>
Created by FontForge 20170924 at Thu Jul 21 23:26:37 2016
 By www-data
Copyright \251 2016 by Radomir Tinkov. All rights reserved.
</metadata>
<defs>
<font id="Gilroy-Bold" horiz-adv-x="626" >
  <font-face 
    font-family="Gilroy"
    font-weight="700"
    font-stretch="normal"
    units-per-em="1000"
    panose-1="0 0 8 0 0 0 0 0 0 0"
    ascent="773"
    descent="-227"
    x-height="500"
    cap-height="700"
    bbox="-415 -263 1094 975"
    underline-thickness="50"
    underline-position="-100"
    unicode-range="U+0020-FB02"
  />
<missing-glyph horiz-adv-x="500" 
d="M93 800h317v-1000h-317v1000zM333 700v33h-165v-33h65v-37h-66v-33h166v33h-66v37h66zM267 534v70h-100v-104h166v34h-66zM200 570h33v-36h-33v36zM333 440v33h-166v-33h66v-37h-66v-33h100v70h66zM333 313v100h-33v-66h-133v-34h166zM333 178v113h-100v-56h34v23h33v-47
h-100v80h-33v-113h166zM333 5v113h-166v-113h166zM200 85h100v-47h-100v47zM333 -51v33h-166v-33h70l-70 -47v-33h166v33h-102l70 47h32z" />
    <glyph glyph-name="fi" unicode="fi" horiz-adv-x="557" 
d="M222 500h276v-500h-129v376h-147v-376h-129v376h-72v124h72v5c0 139 78 209 235 209c35 0 74 -5 117 -14v-118c-45 5 -84 8 -117 8c-72 0 -106 -21 -106 -85v-5z" />
    <glyph glyph-name="fl" unicode="fl" horiz-adv-x="557" 
d="M328 714c43 0 100 -7 170 -21v-693h-129v600c-9 1 -23 1 -41 1c-71 0 -106 -32 -106 -96v-5h83v-124h-83v-376h-129v376h-72v124h72v5c0 139 78 209 235 209z" />
    <glyph glyph-name="f_f" unicode="ff" horiz-adv-x="605" 
d="M605 724v-124c-71 5 -106 -23 -106 -85v-15h106v-124h-106v-376h-129v376h-148v-376h-129v376h-72v124h72v5c0 141 79 218 235 209v-124c-71 5 -106 -23 -106 -85v-5h148v15c0 141 80 218 235 209z" />
    <glyph glyph-name="f_f_i" unicode="ffi" horiz-adv-x="834" 
d="M499 500h276v-500h-129v376h-147v-376h-129v376h-148v-376h-129v376h-72v124h72v5c0 141 79 218 235 209v-124c-71 5 -106 -23 -106 -85v-5h148v15c0 139 78 209 235 209c36 0 75 -5 118 -14v-118c-46 5 -85 8 -118 8c-71 0 -106 -21 -106 -85v-15z" />
    <glyph glyph-name="f_f_l" unicode="ffl" horiz-adv-x="834" 
d="M605 724c45 0 101 -7 170 -21v-703h-129v610c-9 1 -23 1 -41 1c-71 0 -106 -32 -106 -96v-15h84v-124h-84v-376h-129v376h-148v-376h-129v376h-72v124h72v5c0 141 79 218 235 209v-124c-71 5 -106 -23 -106 -85v-5h148v15c0 139 78 209 235 209z" />
    <glyph glyph-name=".notdef" horiz-adv-x="500" 
d="M93 800h317v-1000h-317v1000zM333 700v33h-165v-33h65v-37h-66v-33h166v33h-66v37h66zM267 534v70h-100v-104h166v34h-66zM200 570h33v-36h-33v36zM333 440v33h-166v-33h66v-37h-66v-33h100v70h66zM333 313v100h-33v-66h-133v-34h166zM333 178v113h-100v-56h34v23h33v-47
h-100v80h-33v-113h166zM333 5v113h-166v-113h166zM200 85h100v-47h-100v47zM333 -51v33h-166v-33h70l-70 -47v-33h166v33h-102l70 47h32z" />
    <glyph glyph-name="NULL" horiz-adv-x="0" 
 />
    <glyph glyph-name="CR" horiz-adv-x="333" 
 />
    <glyph glyph-name="space" unicode=" " horiz-adv-x="250" 
 />
    <glyph glyph-name="exclam" unicode="!" horiz-adv-x="268" 
d="M185 235h-102l-27 265v200h155v-200zM194 12c-33 -33 -87 -33 -120 0s-33 87 0 120s87 33 120 0s33 -87 0 -120z" />
    <glyph glyph-name="quotedbl" unicode="&#x22;" horiz-adv-x="378" 
d="M148 470h-88l-17 230h122zM318 470h-88l-17 230h122z" />
    <glyph glyph-name="numbersign" unicode="#" horiz-adv-x="616" 
d="M593 493l-16 -98h-108l-15 -90h109l-16 -97h-110l-26 -158h-102l26 158h-102l-26 -158h-101l26 158h-109l16 97h110l15 90h-111l16 98h111l26 157h101l-26 -157h102l26 157h102l-26 -157h108zM250 305h102l15 90h-102z" />
    <glyph glyph-name="dollar" unicode="$" horiz-adv-x="549" 
d="M524 196c0 -117 -82 -193 -202 -208v-88h-67v87c-112 8 -195 65 -230 158l119 69c21 -53 58 -84 111 -91v173h-1l-2 1c-47 17 -69 27 -109 52c-54 34 -83 82 -87 162c0 59 19 106 57 141c39 35 86 56 142 61v87h67v-89c91 -11 155 -58 192 -141l-116 -68
c-16 40 -41 64 -76 73v-167c62 -25 104 -44 125 -59c51 -37 77 -88 77 -153zM193 510c0 -29 17 -49 62 -72v140c-40 -8 -62 -33 -62 -68zM322 269v-144c43 9 64 33 64 70c0 33 -20 54 -64 74z" />
    <glyph glyph-name="percent" unicode="%" horiz-adv-x="765" 
d="M334 431c-32 -31 -72 -47 -120 -47s-88 16 -121 48c-32 32 -48 71 -48 117s16 85 48 117c33 32 73 48 121 48s88 -16 120 -48c32 -31 48 -70 48 -117s-16 -86 -48 -118zM176 71l-60 35l456 507l61 -34zM168 503c24 -24 66 -24 90 0c24 25 24 67 0 91s-66 24 -90 0
c-23 -24 -23 -66 0 -91zM672 36c-32 -32 -72 -48 -120 -48s-88 16 -120 48s-48 71 -48 117s16 85 48 117s72 48 120 48s88 -16 120 -48s48 -71 48 -117s-16 -85 -48 -117zM614 153c0 36 -26 64 -62 64s-62 -28 -62 -64s26 -64 62 -64s62 29 62 64z" />
    <glyph glyph-name="ampersand" unicode="&#x26;" horiz-adv-x="673" 
d="M562 139l90 -99l-110 -63l-64 69c-54 -40 -117 -60 -188 -60c-72 0 -131 19 -177 56c-45 38 -68 89 -68 152c0 83 41 157 117 201c-23 36 -34 75 -34 117c0 59 21 108 62 145c41 38 94 57 157 57c100 0 184 -53 223 -150l-118 -68c-19 56 -54 84 -103 84
c-48 0 -83 -31 -83 -74c0 -37 17 -63 57 -106l150 -164c15 31 26 70 34 116l116 -66c-13 -54 -33 -103 -61 -147zM299 113c35 0 66 8 93 25l-151 164c-1 1 -2 2 -2 3c-37 -23 -55 -55 -55 -97c0 -57 40 -95 115 -95z" />
    <glyph glyph-name="quotesingle" unicode="'" horiz-adv-x="208" 
d="M148 470h-88l-17 230h122z" />
    <glyph glyph-name="parenleft" unicode="(" horiz-adv-x="307" 
d="M292 -100h-129c-147 293 -147 607 0 900h129c-147 -293 -147 -607 0 -900z" />
    <glyph glyph-name="parenright" unicode=")" horiz-adv-x="307" 
d="M144 -100h-129c147 293 147 607 0 900h129c147 -293 147 -607 0 -900z" />
    <glyph glyph-name="asterisk" unicode="*" horiz-adv-x="398" 
d="M255 601l91 8v-80l-91 7l55 -70l-68 -42l-43 84l-43 -84l-67 42l54 70l-90 -7v80l90 -8l-54 71l67 42l43 -84l43 84l68 -42z" />
    <glyph glyph-name="plus" unicode="+" horiz-adv-x="555" 
d="M338 411h165v-121h-165v-165h-121v165h-164v121h164v164h121v-164z" />
    <glyph glyph-name="comma" unicode="," horiz-adv-x="278" 
d="M89 138h140l-75 -278h-105z" />
    <glyph glyph-name="hyphen" unicode="-" horiz-adv-x="505" 
d="M440 240h-375v124h375v-124z" />
    <glyph glyph-name="period" unicode="." horiz-adv-x="268" 
d="M194 12c-33 -33 -87 -33 -120 0s-33 87 0 120s87 33 120 0s33 -87 0 -120z" />
    <glyph glyph-name="slash" unicode="/" horiz-adv-x="523" 
d="M490 800l-400 -900h-57l400 900h57z" />
    <glyph glyph-name="zero" unicode="0" horiz-adv-x="630" 
d="M315 -14c-87 0 -156 33 -206 99c-49 67 -74 155 -74 265s25 198 74 264c50 67 119 100 206 100c88 0 157 -33 206 -100c49 -66 74 -154 74 -264s-25 -198 -74 -265c-49 -66 -118 -99 -206 -99zM458 350c0 149 -50 230 -143 230s-142 -81 -142 -230s49 -229 142 -229
s143 81 143 229z" />
    <glyph glyph-name="one" unicode="1" horiz-adv-x="387" 
d="M11 635l184 65h120v-700h-138v554l-132 -37z" />
    <glyph glyph-name="two" unicode="2" horiz-adv-x="531" 
d="M495 0h-468v103l239 246c53 56 80 103 80 140c0 55 -38 91 -91 91s-92 -27 -117 -82l-116 68c44 96 132 148 231 148c63 0 118 -20 163 -60c45 -39 68 -93 68 -160c0 -73 -38 -147 -115 -224l-137 -137h263v-133z" />
    <glyph glyph-name="three" unicode="3" horiz-adv-x="545" 
d="M484 586l-131 -170c95 -28 160 -101 160 -200c0 -72 -24 -128 -73 -169c-48 -41 -107 -61 -177 -61c-109 0 -201 51 -240 148l118 68c17 -54 58 -81 122 -81c71 0 112 36 112 95c0 57 -41 95 -112 95h-30l-53 80l138 180h-274v129h440v-114z" />
    <glyph glyph-name="four" unicode="4" horiz-adv-x="580" 
d="M491 247h75v-128h-75v-119h-139v119h-331v128l233 453h148l-232 -453h182v166h139v-166z" />
    <glyph glyph-name="five" unicode="5" horiz-adv-x="548" 
d="M208 445h72c67 0 124 -20 170 -61c46 -40 69 -96 69 -168s-24 -128 -73 -169c-48 -41 -107 -61 -177 -61c-113 0 -205 51 -244 150l118 69c17 -56 59 -84 126 -84c71 0 112 36 112 95c0 57 -41 95 -108 95h-212l28 389h397v-129h-269z" />
    <glyph glyph-name="six" unicode="6" horiz-adv-x="553" 
d="M440 700l-155 -227c73 -2 132 -26 177 -71s68 -102 68 -172c0 -71 -24 -130 -71 -176c-47 -45 -108 -68 -183 -68s-136 23 -183 68s-70 104 -70 176c0 53 14 100 41 141l218 329h158zM393 230c0 68 -50 113 -117 113s-116 -44 -116 -113s49 -114 116 -114s117 45 117 114
z" />
    <glyph glyph-name="seven" unicode="7" horiz-adv-x="490" 
d="M13 568v132h452v-117l-237 -583h-146l230 568h-299z" />
    <glyph glyph-name="eight" unicode="8" horiz-adv-x="568" 
d="M438 364c65 -39 97 -95 97 -169c0 -129 -96 -209 -251 -209c-156 0 -251 80 -251 209c0 74 32 130 96 169c-49 35 -73 84 -73 145c0 65 22 115 65 151c44 36 98 54 163 54s119 -18 162 -54s65 -86 65 -151c0 -62 -24 -110 -73 -145zM349 562c-17 15 -38 22 -65 22
s-48 -7 -65 -22s-25 -35 -25 -60s8 -46 25 -61s38 -22 65 -22s48 7 65 22s25 36 25 61s-8 45 -25 60zM398 213c0 60 -46 96 -114 96s-114 -36 -114 -96c0 -61 46 -97 114 -97s114 36 114 97z" />
    <glyph glyph-name="nine" unicode="9" horiz-adv-x="553" 
d="M530 471c0 -54 -14 -101 -42 -142h1l-218 -329h-158l156 228c-73 1 -132 24 -178 69c-45 45 -68 103 -68 174s23 130 70 175s108 68 183 68s136 -23 183 -68s71 -103 71 -175zM160 471c0 -69 51 -114 116 -114c68 0 117 45 117 114s-49 113 -117 113
c-65 0 -116 -45 -116 -113z" />
    <glyph glyph-name="colon" unicode=":" horiz-adv-x="268" 
d="M194 370c-33 -33 -87 -33 -120 0s-33 87 0 120s87 33 120 0s33 -87 0 -120zM194 12c-33 -33 -87 -33 -120 0s-33 87 0 120s87 33 120 0s33 -87 0 -120z" />
    <glyph glyph-name="semicolon" unicode=";" horiz-adv-x="279" 
d="M205 370c-33 -33 -87 -33 -120 0s-33 87 0 120s87 33 120 0s33 -87 0 -120zM89 138h140l-75 -278h-105z" />
    <glyph glyph-name="less" unicode="&#x3c;" horiz-adv-x="528" 
d="M45 408l438 190v-134l-291 -114l291 -113v-134l-438 190v115z" />
    <glyph glyph-name="equal" unicode="=" horiz-adv-x="525" 
d="M480 393h-435v121h435v-121zM480 186h-435v121h435v-121z" />
    <glyph glyph-name="greater" unicode="&#x3e;" horiz-adv-x="528" 
d="M45 464v134l438 -190v-115l-438 -190v134l291 113z" />
    <glyph glyph-name="question" unicode="?" horiz-adv-x="553" 
d="M333 235h-138c0 59 43 116 84 148c41 33 84 80 84 124c0 47 -34 73 -91 73c-56 0 -96 -30 -119 -89l-118 68c40 99 134 155 242 155c61 0 113 -18 157 -53c45 -35 67 -83 67 -144c0 -149 -168 -195 -168 -282zM324 12c-33 -33 -87 -33 -120 0s-33 87 0 120s87 33 120 0
s33 -87 0 -120z" />
    <glyph glyph-name="at" unicode="@" horiz-adv-x="779" 
d="M397 612c71 0 133 -17 188 -52c109 -68 162 -177 162 -290c0 -139 -67 -217 -159 -217c-67 0 -111 26 -132 79c-25 -31 -58 -46 -99 -46c-43 0 -78 15 -106 46c-27 31 -41 71 -41 118s14 86 41 117c28 31 63 47 106 47c36 0 66 -12 91 -37v26h107v-231
c0 -49 19 -73 58 -73c57 0 96 58 96 171c0 87 -30 160 -90 219s-134 89 -222 89c-92 0 -170 -32 -233 -95s-94 -140 -94 -233c0 -95 33 -173 98 -235s148 -93 247 -93c63 0 117 8 162 25v-36c-45 -15 -99 -23 -162 -23c-109 0 -200 34 -273 103c-73 68 -109 154 -109 259
c0 101 35 186 104 256c70 71 157 106 260 106zM384 182c37 0 63 28 63 68c0 41 -26 68 -63 68c-39 0 -65 -27 -65 -68c0 -40 26 -68 65 -68z" />
    <glyph glyph-name="A" unicode="A" horiz-adv-x="668" 
d="M665 0h-150l-42 126h-279l-42 -126h-149l245 700h171zM334 541l-96 -286h192z" />
    <glyph glyph-name="B" unicode="B" horiz-adv-x="605" 
d="M488 363c61 -35 92 -89 92 -160c0 -59 -21 -108 -63 -146s-94 -57 -155 -57h-297v700h276c60 0 110 -19 151 -56s62 -84 62 -141c0 -58 -22 -105 -66 -140zM341 571h-138v-154h138c43 0 75 33 75 77s-31 77 -75 77zM203 129h159c47 0 81 35 81 83c0 47 -34 82 -81 82
h-159v-165z" />
    <glyph glyph-name="C" unicode="C" horiz-adv-x="726" 
d="M397 -14c-105 0 -192 35 -261 105s-103 156 -103 259s34 190 103 259c69 70 156 105 261 105c127 0 241 -64 301 -165l-119 -69c-35 63 -102 100 -182 100c-68 0 -123 -21 -165 -64c-41 -43 -62 -98 -62 -166c0 -67 21 -122 62 -165c42 -43 97 -64 165 -64
c80 0 149 38 182 99l119 -69c-60 -101 -173 -165 -301 -165z" />
    <glyph glyph-name="D" unicode="D" horiz-adv-x="713" 
d="M65 700h278c96 0 176 -34 240 -101c65 -67 97 -150 97 -249s-32 -182 -97 -249c-64 -67 -144 -101 -240 -101h-278v700zM203 132h140c61 0 110 20 148 60c38 41 57 93 57 158s-19 117 -57 157c-38 41 -87 61 -148 61h-140v-436z" />
    <glyph glyph-name="E" unicode="E" horiz-adv-x="530" 
d="M203 289v-157h295v-132h-433v700h428v-132h-290v-149h265v-130h-265z" />
    <glyph glyph-name="F" unicode="F" horiz-adv-x="519" 
d="M483 700v-132h-280v-166h272v-132h-272v-270h-138v700h418z" />
    <glyph glyph-name="G" unicode="G" horiz-adv-x="785" 
d="M401 376h351v-54c0 -100 -32 -181 -96 -243s-147 -93 -248 -93c-108 0 -198 35 -269 105c-71 71 -106 157 -106 258c0 102 35 188 105 259c71 71 158 106 262 106c131 0 245 -64 305 -163l-118 -68c-33 57 -105 97 -188 97c-67 0 -122 -22 -165 -66
c-43 -43 -64 -98 -64 -165c0 -66 22 -121 65 -164c44 -43 102 -64 174 -64c107 0 179 50 204 133h-212v122z" />
    <glyph glyph-name="H" unicode="H" horiz-adv-x="665" 
d="M463 422v278h137v-700h-137v290h-260v-290h-138v700h138v-278h260z" />
    <glyph glyph-name="I" unicode="I" horiz-adv-x="268" 
d="M65 0v700h138v-700h-138z" />
    <glyph glyph-name="J" unicode="J" horiz-adv-x="569" 
d="M264 -14c-110 0 -187 44 -231 133l119 68c22 -44 59 -66 112 -66c73 0 109 37 109 97v482h137v-482c0 -73 -23 -130 -69 -171s-105 -61 -177 -61z" />
    <glyph glyph-name="K" unicode="K" horiz-adv-x="615" 
d="M343 360l269 -360h-159l-250 328v-328h-138v700h138v-309l240 309h159z" />
    <glyph glyph-name="L" unicode="L" horiz-adv-x="483" 
d="M203 700v-568h267v-132h-405v700h138z" />
    <glyph glyph-name="M" unicode="M" horiz-adv-x="815" 
d="M608 700h142v-700h-137v454l-197 -325h-16l-197 324v-453h-138v700h142l201 -331z" />
    <glyph glyph-name="N" unicode="N" horiz-adv-x="673" 
d="M470 273v427h138v-700h-105l-300 428v-428h-138v700h105z" />
    <glyph glyph-name="O" unicode="O" horiz-adv-x="792" 
d="M654 91c-71 -70 -157 -105 -258 -105s-187 35 -258 105c-70 71 -105 157 -105 259s35 188 105 258c71 71 157 106 258 106s187 -35 258 -106c71 -70 106 -156 106 -258s-35 -188 -106 -259zM235 185c43 -43 97 -64 161 -64s118 21 161 64s65 98 65 165s-22 122 -65 165
s-97 65 -161 65s-118 -22 -161 -65s-65 -98 -65 -165s22 -122 65 -165z" />
    <glyph glyph-name="P" unicode="P" horiz-adv-x="590" 
d="M65 700h261c67 0 124 -23 170 -68s69 -101 69 -167s-23 -122 -69 -167s-103 -68 -170 -68h-123v-230h-138v700zM203 359h123c59 0 102 46 102 106c0 61 -43 106 -102 106h-123v-212z" />
    <glyph glyph-name="Q" unicode="Q" horiz-adv-x="797" 
d="M760 350c0 -91 -29 -169 -86 -236l72 -75l-98 -87l-76 79c-54 -30 -113 -45 -176 -45c-101 0 -186 35 -257 105c-71 71 -106 157 -106 259s35 188 106 258c71 71 156 106 257 106s186 -35 257 -106c71 -70 107 -156 107 -258zM396 121c26 0 52 4 78 13l-115 120l98 87
l123 -128c28 40 42 86 42 137c0 67 -22 122 -65 165s-97 65 -161 65s-118 -22 -161 -65s-65 -98 -65 -165c0 -66 22 -121 65 -164s97 -65 161 -65z" />
    <glyph glyph-name="R" unicode="R" horiz-adv-x="614" 
d="M598 0h-149l-141 243h-105v-243h-138v700h280c65 0 120 -23 165 -68s68 -100 68 -164c0 -87 -54 -167 -135 -204zM345 571h-142v-207h142c52 0 95 47 95 104s-43 103 -95 103z" />
    <glyph glyph-name="S" unicode="S" horiz-adv-x="583" 
d="M304 -14c-139 0 -236 66 -275 173l118 69c27 -71 81 -107 161 -107c77 0 112 31 112 74c0 25 -11 44 -33 57c-22 14 -61 29 -118 45c-63 19 -101 34 -145 65c-43 32 -66 80 -66 144c0 63 22 114 67 151c45 38 100 57 163 57c113 0 202 -58 250 -157l-116 -67
c-28 60 -73 90 -134 90c-57 0 -92 -29 -92 -70c0 -22 9 -40 27 -54c19 -13 54 -28 106 -44l48 -16c11 -3 26 -9 45 -17c19 -7 34 -14 44 -21c21 -13 53 -38 66 -62c15 -24 26 -59 26 -99c0 -65 -24 -116 -71 -154s-108 -57 -183 -57z" />
    <glyph glyph-name="T" unicode="T" horiz-adv-x="540" 
d="M13 700h515v-132h-189v-568h-138v568h-188v132z" />
    <glyph glyph-name="U" unicode="U" horiz-adv-x="653" 
d="M326 -14c-78 0 -142 22 -192 66s-75 103 -75 177v471h137v-460c0 -73 41 -119 130 -119s130 46 130 119v460h138v-471c0 -74 -25 -133 -75 -177s-114 -66 -193 -66z" />
    <glyph glyph-name="V" unicode="V" horiz-adv-x="647" 
d="M409 0h-171l-235 700h150l171 -538l170 538h151z" />
    <glyph glyph-name="W" unicode="W" horiz-adv-x="999" 
d="M368 0h-157l-196 700h145l134 -519l146 519h118l147 -519l134 519h145l-196 -700h-157l-132 462z" />
    <glyph glyph-name="X" unicode="X" horiz-adv-x="610" 
d="M383 360l215 -360h-157l-136 228l-136 -228h-156l214 359l-203 341h156l125 -210l125 210h156z" />
    <glyph glyph-name="Y" unicode="Y" horiz-adv-x="621" 
d="M463 700h156l-240 -427v-273h-137v273l-239 427h156l152 -292z" />
    <glyph glyph-name="Z" unicode="Z" horiz-adv-x="535" 
d="M503 591l-291 -459h297v-132h-473v110l291 458h-284v132h460v-109z" />
    <glyph glyph-name="bracketleft" unicode="[" horiz-adv-x="310" 
d="M290 800v-124h-108v-652h108v-124h-237v900h237z" />
    <glyph glyph-name="backslash" unicode="\" horiz-adv-x="523" 
d="M490 -100h-57l-400 900h57z" />
    <glyph glyph-name="bracketright" unicode="]" horiz-adv-x="310" 
d="M20 800h237v-900h-237v124h108v652h-108v124z" />
    <glyph glyph-name="asciicircum" unicode="^" horiz-adv-x="560" 
d="M231 700h98l191 -330h-139l-101 182l-101 -182h-139z" />
    <glyph glyph-name="underscore" unicode="_" horiz-adv-x="520" 
d="M488 -171h-455v124h455v-124z" />
    <glyph glyph-name="grave" unicode="`" horiz-adv-x="275" 
d="M255 563h-124l-111 137h155z" />
    <glyph glyph-name="a" unicode="a" 
d="M439 441v59h129v-500h-129v59c-39 -49 -93 -73 -163 -73c-67 0 -124 25 -172 76c-47 51 -71 114 -71 188s24 136 71 187c48 51 105 77 172 77c70 0 124 -24 163 -73zM201 148c26 -26 59 -39 99 -39s73 13 99 39c27 27 40 61 40 102s-13 75 -40 101c-26 27 -59 40 -99 40
s-73 -13 -99 -40c-26 -26 -39 -60 -39 -101s13 -75 39 -102z" />
    <glyph glyph-name="b" unicode="b" 
d="M350 514c67 0 125 -26 172 -77c48 -51 72 -113 72 -187s-24 -137 -72 -188c-47 -51 -105 -76 -172 -76c-70 0 -124 24 -162 73v-59h-129v700h129v-259c38 49 92 73 162 73zM227 148c26 -26 59 -39 99 -39s73 13 99 39c27 27 40 61 40 102s-13 75 -40 101
c-26 27 -59 40 -99 40s-73 -13 -99 -40c-26 -26 -39 -60 -39 -101s13 -75 39 -102z" />
    <glyph glyph-name="c" unicode="c" horiz-adv-x="536" 
d="M297 -14c-75 0 -138 25 -189 76c-50 51 -75 113 -75 188s25 137 75 188c51 51 114 76 189 76c97 0 183 -50 224 -129l-111 -65c-20 41 -63 67 -114 67c-77 0 -134 -57 -134 -137c0 -39 13 -72 38 -98c25 -25 57 -38 96 -38c52 0 95 25 115 66l112 -64
c-44 -79 -129 -130 -226 -130z" />
    <glyph glyph-name="d" unicode="d" 
d="M438 441v259h129v-700h-129v59c-38 -49 -92 -73 -162 -73c-67 0 -125 25 -173 76c-47 51 -71 114 -71 188s24 136 71 187c48 51 106 77 173 77c70 0 124 -24 162 -73zM200 148c27 -26 60 -39 100 -39s73 13 99 39c26 27 39 61 39 102s-13 75 -39 101
c-26 27 -59 40 -99 40s-73 -13 -100 -40c-26 -26 -39 -60 -39 -101s13 -75 39 -102z" />
    <glyph glyph-name="e" unicode="e" horiz-adv-x="581" 
d="M545 197h-377c17 -63 64 -94 141 -94c49 0 87 17 112 50l104 -60c-49 -71 -122 -107 -218 -107c-83 0 -149 25 -199 75s-75 113 -75 189c0 75 25 138 74 188c49 51 113 76 190 76c73 0 134 -25 181 -76c48 -51 72 -113 72 -188c0 -17 -2 -34 -5 -53zM166 297h255
c-15 68 -65 101 -124 101c-69 0 -116 -37 -131 -101z" />
    <glyph glyph-name="f" unicode="f" horiz-adv-x="328" 
d="M328 714v-124c-71 5 -106 -23 -106 -85v-5h106v-124h-106v-376h-129v376h-72v124h72v5c0 141 79 218 235 209z" />
    <glyph glyph-name="g" unicode="g" 
d="M442 438v62h126v-476c0 -77 -26 -136 -77 -177s-112 -61 -184 -61c-108 0 -193 42 -237 122l110 63c25 -47 69 -70 131 -70c81 0 131 44 131 123v54c-38 -51 -91 -76 -160 -76c-71 0 -130 25 -178 74c-47 50 -71 111 -71 182s24 131 72 181s107 75 177 75
c69 0 122 -25 160 -76zM442 258c0 39 -13 72 -40 97c-26 26 -59 39 -100 39s-74 -13 -101 -39c-26 -25 -39 -58 -39 -97c0 -80 59 -137 140 -137s140 57 140 137z" />
    <glyph glyph-name="h" unicode="h" horiz-adv-x="577" 
d="M337 514c55 0 100 -18 135 -55c36 -37 54 -87 54 -152v-307h-129v291c0 67 -39 103 -99 103c-67 0 -110 -41 -110 -124v-270h-129v700h129v-256c31 47 81 70 149 70z" />
    <glyph glyph-name="i" unicode="i" horiz-adv-x="247" 
d="M123 560c-43 0 -79 36 -79 79s36 80 79 80c44 0 80 -37 80 -80s-36 -79 -80 -79zM188 0h-129v500h129v-500z" />
    <glyph glyph-name="j" unicode="j" horiz-adv-x="264" 
d="M141 560c-44 0 -80 36 -80 79s36 80 80 80c43 0 79 -37 79 -80s-36 -79 -79 -79zM76 -10v510h129v-510c0 -147 -70 -213 -218 -204v124c61 -4 89 20 89 80z" />
    <glyph glyph-name="k" unicode="k" horiz-adv-x="525" 
d="M313 253l207 -253h-150l-182 227v-227h-129v700h129v-420l172 220h154z" />
    <glyph glyph-name="l" unicode="l" horiz-adv-x="247" 
d="M188 0h-129v730h129v-730z" />
    <glyph glyph-name="m" unicode="m" horiz-adv-x="852" 
d="M612 514c115 0 189 -81 189 -206v-308h-129v299c0 60 -31 95 -84 95c-59 0 -93 -40 -93 -113v-281h-129v299c0 60 -31 95 -84 95c-57 0 -94 -40 -94 -113v-281h-129v500h129v-53c30 45 76 67 139 67c61 0 107 -24 136 -72c33 48 83 72 149 72z" />
    <glyph glyph-name="n" unicode="n" horiz-adv-x="577" 
d="M337 514c55 0 100 -18 135 -55c36 -37 54 -87 54 -152v-307h-129v291c0 67 -39 103 -99 103c-67 0 -110 -41 -110 -124v-270h-129v500h129v-56c31 47 81 70 149 70z" />
    <glyph glyph-name="o" unicode="o" horiz-adv-x="594" 
d="M485 62c-51 -51 -114 -76 -188 -76s-137 25 -188 76s-76 114 -76 188s25 136 76 187s114 77 188 77s137 -26 188 -77s77 -113 77 -187s-26 -137 -77 -188zM200 151c26 -26 58 -39 97 -39s71 13 97 39s39 59 39 99s-13 73 -39 99s-58 39 -97 39s-71 -13 -97 -39
c-25 -26 -38 -59 -38 -99s13 -73 38 -99z" />
    <glyph glyph-name="p" unicode="p" 
d="M350 514c67 0 125 -26 172 -77c48 -51 72 -113 72 -187s-24 -137 -72 -188c-47 -51 -105 -76 -172 -76c-70 0 -124 24 -162 73v-259h-129v700h129v-59c38 49 92 73 162 73zM227 148c26 -26 59 -39 99 -39s73 13 99 39c27 27 40 61 40 102s-13 75 -40 101
c-26 27 -59 40 -99 40s-73 -13 -99 -40c-26 -26 -39 -60 -39 -101s13 -75 39 -102z" />
    <glyph glyph-name="q" unicode="q" 
d="M438 441v59h129v-700h-129v259c-38 -49 -92 -73 -162 -73c-67 0 -125 25 -173 76c-47 51 -71 114 -71 188s24 136 71 187c48 51 106 77 173 77c70 0 124 -24 162 -73zM200 148c27 -26 60 -39 100 -39s73 13 99 39c26 27 39 61 39 102s-13 75 -39 101
c-26 27 -59 40 -99 40s-73 -13 -100 -40c-26 -26 -39 -60 -39 -101s13 -75 39 -102z" />
    <glyph glyph-name="r" unicode="r" horiz-adv-x="356" 
d="M188 500v-86c24 64 84 96 152 96v-144c-39 5 -75 -3 -106 -24s-46 -55 -46 -103v-239h-129v500h129z" />
    <glyph glyph-name="s" unicode="s" horiz-adv-x="465" 
d="M178 358c0 -27 40 -42 91 -55c73 -15 168 -50 167 -157c0 -51 -19 -91 -58 -119c-38 -27 -86 -41 -143 -41c-103 0 -173 40 -210 119l112 63c15 -43 47 -65 98 -65c46 0 69 14 69 43c0 27 -40 42 -91 55c-74 19 -167 50 -167 154c0 49 18 88 54 116c37 29 82 43 136 43
c81 0 151 -38 190 -106l-110 -60c-16 34 -43 51 -80 51c-33 0 -58 -16 -58 -41z" />
    <glyph glyph-name="t" unicode="t" horiz-adv-x="385" 
d="M345 500v-124h-113v-208c0 -54 39 -55 113 -51v-117c-177 -20 -242 31 -242 168v208h-87v124h87v101l129 39v-140h113z" />
    <glyph glyph-name="u" unicode="u" horiz-adv-x="577" 
d="M389 230v270h129v-500h-129v56c-31 -47 -81 -70 -149 -70c-55 0 -100 18 -136 55c-35 37 -53 87 -53 152v307h129v-291c0 -67 39 -103 99 -103c67 0 110 41 110 124z" />
    <glyph glyph-name="v" unicode="v" horiz-adv-x="533" 
d="M266 150l122 350h142l-190 -500h-147l-190 500h142z" />
    <glyph glyph-name="w" unicode="w" horiz-adv-x="770" 
d="M537 192l85 308h137l-159 -500h-123l-92 303l-92 -303h-123l-159 500h137l85 -307l91 307h122z" />
    <glyph glyph-name="x" unicode="x" horiz-adv-x="525" 
d="M337 256l183 -256h-149l-108 152l-109 -152h-149l183 255l-175 245h149l101 -141l101 141h148z" />
    <glyph glyph-name="y" unicode="y" horiz-adv-x="525" 
d="M274 164l111 336h138l-182 -500c-52 -144 -136 -207 -264 -200v120c69 -1 107 28 131 96l-205 484h141z" />
    <glyph glyph-name="z" unicode="z" horiz-adv-x="474" 
d="M428 414l-212 -293h222v-121h-395v86l211 293h-201v121h375v-86z" />
    <glyph glyph-name="braceleft" unicode="{" horiz-adv-x="359" 
d="M339 17v-124c-140 -10 -210 52 -210 186v148c0 55 -24 66 -79 62v125c55 -4 79 7 79 62v148c0 134 70 196 210 186v-124c-56 7 -81 -7 -81 -62v-148c0 -61 -20 -102 -60 -124c40 -23 60 -64 60 -125v-148c0 -55 25 -69 81 -62z" />
    <glyph glyph-name="bar" unicode="|" horiz-adv-x="259" 
d="M194 -200h-129v920h129v-920z" />
    <glyph glyph-name="braceright" unicode="}" horiz-adv-x="359" 
d="M20 -107v124c56 -7 81 7 81 62v148c0 61 20 102 60 125c-40 22 -60 63 -60 124v148c0 55 -25 69 -81 62v124c140 10 210 -52 210 -186v-148c0 -55 24 -66 79 -62v-125c-55 4 -79 -7 -79 -62v-148c0 -134 -70 -196 -210 -186z" />
    <glyph glyph-name="asciitilde" unicode="~" horiz-adv-x="599" 
d="M449 443l105 -51c-35 -132 -135 -172 -250 -113c-102 49 -128 46 -154 -24l-105 50c35 131 135 171 250 114c105 -48 124 -47 154 24z" />
    <glyph glyph-name="exclamdown" unicode="&#xa1;" horiz-adv-x="268" 
d="M74 488c33 33 87 33 120 0s33 -87 0 -120s-87 -33 -120 0s-33 87 0 120zM56 0l27 265h102l26 -265v-200h-155v200z" />
    <glyph glyph-name="cent" unicode="&#xa2;" horiz-adv-x="536" 
d="M411 280l112 -64c-44 -79 -129 -130 -226 -130c-23 0 -43 2 -61 7l-30 -93h-58l35 110c-92 41 -150 132 -150 240c0 75 25 137 75 188c51 51 114 76 189 76c18 0 34 -1 48 -4l29 90h58l-34 -106c55 -22 96 -58 123 -109l-111 -65c-11 23 -29 41 -52 52l-82 -257
c4 -1 11 -1 20 -1c52 0 95 25 115 66zM162 350c0 -52 20 -91 61 -116l82 253h-9c-77 0 -134 -57 -134 -137z" />
    <glyph glyph-name="sterling" unicode="&#xa3;" horiz-adv-x="581" 
d="M243 274v-141h327v-133h-537v133h73v141h-61v121h61v100c0 71 22 125 65 162c44 38 96 57 155 57c101 0 180 -54 217 -146l-119 -68c-17 53 -49 80 -95 80c-49 0 -86 -31 -86 -90v-95h203v-121h-203z" />
    <glyph glyph-name="currency" unicode="&#xa4;" horiz-adv-x="543" 
d="M486 350c0 -50 -15 -94 -45 -131l70 -70l-38 -38l-71 71c-36 -28 -79 -42 -130 -42c-49 0 -93 14 -131 41l-70 -70l-38 38l69 70c-30 37 -45 81 -45 131c0 49 15 93 45 132l-69 69l38 38l70 -70c39 28 82 42 131 42c48 0 91 -14 130 -42l71 70l38 -38l-70 -70
c30 -39 45 -82 45 -131zM272 262c51 0 87 37 87 88c0 52 -36 88 -87 88c-52 0 -87 -36 -87 -88s35 -88 87 -88z" />
    <glyph glyph-name="yen" unicode="&#xa5;" horiz-adv-x="601" 
d="M463 700h156l-190 -338h102v-80h-147l-5 -9v-36h152v-81h-152v-156h-137v156h-171v81h171v36l-5 9h-166v80h121l-189 338h156l152 -292z" />
    <glyph glyph-name="brokenbar" unicode="&#xa6;" horiz-adv-x="259" 
d="M194 350h-129v370h129v-370zM194 -200h-129v370h129v-370z" />
    <glyph glyph-name="section" unicode="&#xa7;" horiz-adv-x="542" 
d="M505 284c0 -51 -20 -94 -59 -128c22 -27 33 -61 33 -100c0 -53 -19 -95 -57 -124s-86 -44 -144 -44c-112 0 -186 42 -221 126l115 66c18 -52 53 -78 106 -78c48 0 72 18 72 54c0 18 -14 33 -34 46c-12 8 -36 17 -52 24c-15 7 -46 18 -62 25c-93 40 -153 86 -153 174
c0 52 21 94 62 125c-20 26 -30 59 -30 99c0 51 18 92 55 121s83 44 136 44c88 0 164 -43 200 -126l-106 -58c-21 47 -53 70 -94 70c-37 0 -62 -19 -62 -51c0 -13 6 -25 18 -36c13 -11 25 -20 38 -26l61 -25c9 -3 15 -6 20 -8c45 -19 74 -33 107 -60s51 -65 51 -110zM178 332
c0 -31 27 -57 81 -78l40 -15l54 -20c15 13 23 30 23 50c0 39 -29 58 -89 82l-85 32c-16 -12 -24 -29 -24 -51z" />
    <glyph glyph-name="dieresis" unicode="&#xa8;" horiz-adv-x="365" 
d="M135 568c-25 -25 -68 -25 -95 0c-27 27 -27 69 0 96s70 27 95 0c27 -27 27 -69 0 -96zM325 568c-25 -25 -68 -25 -95 0c-27 27 -27 69 0 96s70 27 95 0c27 -27 27 -69 0 -96z" />
    <glyph glyph-name="copyright" unicode="&#xa9;" horiz-adv-x="789" 
d="M651 94c-71 -71 -156 -106 -256 -106s-185 35 -256 106s-106 156 -106 256s35 185 106 256s156 106 256 106s185 -35 256 -106s106 -156 106 -256s-35 -185 -106 -256zM395 22c89 0 166 32 229 96s95 141 95 232s-32 168 -95 232s-140 96 -229 96
c-90 0 -167 -32 -230 -96s-95 -141 -95 -232s32 -168 95 -232s140 -96 230 -96zM398 154c-55 0 -101 19 -140 58s-58 85 -58 138s19 99 58 138s85 58 140 58c69 0 134 -36 167 -96l-96 -56c-14 27 -39 41 -74 41c-51 0 -84 -38 -84 -85s33 -85 84 -85c35 0 59 14 74 42
l97 -57c-33 -59 -99 -96 -168 -96z" />
    <glyph glyph-name="guillemotleft" unicode="&#xab;" horiz-adv-x="545" 
d="M173 497h119l-110 -188l110 -187h-119l-110 187zM363 497h119l-110 -188l110 -187h-119l-110 187z" />
    <glyph glyph-name="logicalnot" unicode="&#xac;" horiz-adv-x="550" 
d="M45 290v121h460v-240h-129v119h-331z" />
    <glyph glyph-name="registered" unicode="&#xae;" horiz-adv-x="789" 
d="M139 606c71 71 156 106 256 106s185 -35 256 -106s106 -156 106 -256s-35 -185 -106 -256s-156 -106 -256 -106s-185 35 -256 106s-106 156 -106 256s35 185 106 256zM395 22c89 0 166 32 229 96s95 141 95 232s-32 168 -95 232s-140 96 -229 96c-90 0 -167 -32 -230 -96
s-95 -141 -95 -232s32 -168 95 -232s140 -96 230 -96zM550 412c0 -48 -18 -85 -55 -111l76 -136h-115l-53 110h-38v-110h-107v370h149c81 0 143 -51 143 -123zM398 438h-33v-73h33c28 0 45 15 45 36c0 25 -15 37 -45 37z" />
    <glyph glyph-name="overscore" unicode="&#xaf;" horiz-adv-x="330" 
d="M310 564h-290v105h290v-105z" />
    <glyph glyph-name="degree" unicode="&#xb0;" horiz-adv-x="401" 
d="M201 480c-48 0 -88 16 -120 48c-32 33 -48 72 -48 117c0 46 16 85 48 117s72 48 120 48s88 -16 120 -48s48 -71 48 -117s-16 -85 -48 -117c-31 -32 -71 -48 -120 -48zM158 602c23 -23 64 -23 85 0c23 23 23 63 0 86c-21 23 -62 23 -85 0c-21 -23 -21 -63 0 -86z" />
    <glyph glyph-name="plusminus" unicode="&#xb1;" horiz-adv-x="555" 
d="M338 648v-146h165v-121h-165v-146h-121v146h-164v121h164v146h121zM503 53h-450v121h450v-121z" />
    <glyph glyph-name="acute" unicode="&#xb4;" horiz-adv-x="275" 
d="M20 563l80 137h155l-111 -137h-124z" />
    <glyph glyph-name="uni00B5" unicode="&#xb5;" horiz-adv-x="617" 
d="M558 121h36v-121h-60c-50 0 -87 17 -111 50c-31 -43 -80 -64 -145 -64c-35 0 -65 7 -90 22v-208h-129v700h129v-290c0 -67 39 -104 99 -104c67 0 110 41 110 124v270h129v-347c0 -21 11 -32 32 -32z" />
    <glyph glyph-name="paragraph" unicode="&#xb6;" horiz-adv-x="669" 
d="M240 700h383v-113h-62v-787h-121v787h-79v-787h-121v470c-59 0 -110 21 -152 63s-63 93 -63 152s21 110 63 152s93 63 152 63z" />
    <glyph glyph-name="middot" unicode="&#xb7;" horiz-adv-x="268" 
d="M194 287c-33 -33 -87 -33 -120 0s-33 87 0 120s87 33 120 0s33 -87 0 -120z" />
    <glyph glyph-name="cedilla" unicode="&#xb8;" horiz-adv-x="260" 
d="M170 0v-46c39 -9 70 -35 70 -78c0 -70 -73 -101 -220 -92v91c72 -5 108 2 108 20c0 13 -21 22 -63 25v80h105z" />
    <glyph glyph-name="guillemotright" unicode="&#xbb;" horiz-adv-x="545" 
d="M63 497h119l110 -188l-110 -187h-119l110 187zM253 497h119l110 -188l-110 -187h-119l110 187z" />
    <glyph glyph-name="onequarter" unicode="&#xbc;" horiz-adv-x="814" 
d="M217 700v-400h-107v292l-82 -23l-25 88l120 43h94zM117 0l400 700h90l-400 -700h-90zM757 162h41v-98h-41v-64h-102v64h-187v98l129 238h114l-123 -238h67v69h102v-69z" />
    <glyph glyph-name="onehalf" unicode="&#xbd;" horiz-adv-x="813" 
d="M217 700v-400h-107v292l-82 -23l-25 88l120 43h94zM117 0l400 700h90l-400 -700h-90zM706 159l-65 -62h139v-97h-299v70l150 149c23 22 35 42 35 61c0 21 -16 36 -41 36c-27 0 -48 -17 -62 -51l-87 50c28 66 78 99 150 99c85 0 148 -53 148 -126c0 -41 -23 -84 -68 -129z
" />
    <glyph glyph-name="threequarters" unicode="&#xbe;" horiz-adv-x="895" 
d="M321 421c0 -87 -58 -135 -155 -135c-77 0 -129 30 -156 89l90 52c11 -31 33 -47 66 -47c32 0 48 14 48 41c0 24 -20 40 -51 40h-19l-40 58l69 84h-145v97h275v-79l-72 -86c57 -16 90 -57 90 -114zM198 0l400 700h90l-400 -700h-90zM838 162h41v-98h-41v-64h-102v64h-187
v98l129 238h114l-123 -238h67v69h102v-69z" />
    <glyph glyph-name="questiondown" unicode="&#xbf;" horiz-adv-x="553" 
d="M229 488c33 33 87 33 120 0s33 -87 0 -120s-87 -33 -120 0s-33 87 0 120zM220 265h138c0 -48 -27 -93 -60 -125c-46 -46 -108 -90 -108 -147c0 -47 34 -73 91 -73c56 0 96 30 119 89l118 -68c-40 -99 -134 -155 -242 -155c-61 0 -113 18 -158 53c-44 35 -66 83 -66 144
c0 149 168 195 168 282z" />
    <glyph glyph-name="Agrave" unicode="&#xc0;" horiz-adv-x="668" 
d="M336 900l80 -137h-124l-111 137h155zM665 0h-150l-42 126h-279l-42 -126h-149l245 700h171zM334 541l-96 -286h192z" />
    <glyph glyph-name="Aacute" unicode="&#xc1;" horiz-adv-x="668" 
d="M334 900h155l-111 -137h-124zM665 0h-150l-42 126h-279l-42 -126h-149l245 700h171zM334 541l-96 -286h192z" />
    <glyph glyph-name="Acircumflex" unicode="&#xc2;" horiz-adv-x="668" 
d="M374 755l-43 65l-44 -65h-128l106 145h131l106 -145h-128zM665 0h-150l-42 126h-279l-42 -126h-149l245 700h171zM334 541l-96 -286h192z" />
    <glyph glyph-name="Atilde" unicode="&#xc3;" horiz-adv-x="668" 
d="M321 784c-39 27 -53 24 -53 -24h-104c0 157 96 177 182 121c39 -27 52 -24 52 24h105c0 -160 -97 -175 -182 -121zM665 0h-150l-42 126h-279l-42 -126h-149l245 700h171zM334 541l-96 -286h192z" />
    <glyph glyph-name="Adieresis" unicode="&#xc4;" horiz-adv-x="668" 
d="M286 768c-25 -25 -68 -25 -95 0c-27 27 -27 69 0 96s70 27 95 0c27 -27 27 -69 0 -96zM476 768c-25 -25 -68 -25 -95 0c-27 27 -27 69 0 96s70 27 95 0c27 -27 27 -69 0 -96zM665 0h-150l-42 126h-279l-42 -126h-149l245 700h171zM334 541l-96 -286h192z" />
    <glyph glyph-name="Aring" unicode="&#xc5;" horiz-adv-x="668" 
d="M665 0h-150l-42 126h-279l-42 -126h-149l239 684c-23 23 -34 51 -34 84c0 68 53 118 126 118c75 0 126 -50 126 -118c0 -35 -12 -63 -35 -85zM334 805c-24 0 -39 -16 -39 -37c0 -23 15 -38 39 -38c27 0 40 13 40 38s-13 37 -40 37zM334 541l-96 -286h192z" />
    <glyph glyph-name="AE" unicode="&#xc6;" horiz-adv-x="880" 
d="M584 289v-157h264v-132h-398v126h-221l-74 -126h-155l414 700h429v-132h-259v-149h236v-130h-236zM450 501l-145 -246h145v246z" />
    <glyph glyph-name="Ccedilla" unicode="&#xc7;" horiz-adv-x="726" 
d="M397 121c80 0 149 38 182 99l119 -69c-51 -85 -139 -144 -243 -161v-36c39 -9 70 -35 70 -78c0 -70 -73 -101 -220 -92v91c72 -5 108 2 108 20c0 13 -21 22 -63 25v69c-93 11 -170 50 -229 117c-59 68 -88 149 -88 244c0 103 34 190 103 259c69 70 156 105 261 105
c127 0 241 -64 301 -165l-119 -69c-35 63 -102 100 -182 100c-68 0 -123 -21 -165 -64c-41 -43 -62 -98 -62 -166c0 -67 21 -122 62 -165c42 -43 97 -64 165 -64z" />
    <glyph glyph-name="Egrave" unicode="&#xc8;" horiz-adv-x="530" 
d="M281 900l80 -137h-124l-111 137h155zM203 289v-157h295v-132h-433v700h428v-132h-290v-149h265v-130h-265z" />
    <glyph glyph-name="Eacute" unicode="&#xc9;" horiz-adv-x="530" 
d="M279 900h155l-111 -137h-124zM203 289v-157h295v-132h-433v700h428v-132h-290v-149h265v-130h-265z" />
    <glyph glyph-name="Ecircumflex" unicode="&#xca;" horiz-adv-x="530" 
d="M319 755l-43 65l-44 -65h-128l106 145h131l106 -145h-128zM203 289v-157h295v-132h-433v700h428v-132h-290v-149h265v-130h-265z" />
    <glyph glyph-name="Edieresis" unicode="&#xcb;" horiz-adv-x="530" 
d="M231 768c-25 -25 -68 -25 -95 0c-27 27 -27 69 0 96s70 27 95 0c27 -27 27 -69 0 -96zM421 768c-25 -25 -68 -25 -95 0c-27 27 -27 69 0 96s70 27 95 0c27 -27 27 -69 0 -96zM203 289v-157h295v-132h-433v700h428v-132h-290v-149h265v-130h-265z" />
    <glyph glyph-name="Igrave" unicode="&#xcc;" horiz-adv-x="268" 
d="M216 763h-124l-111 137h155zM65 700v-700h138v700h-138z" />
    <glyph glyph-name="Iacute" unicode="&#xcd;" horiz-adv-x="268" 
d="M54 763l80 137h155l-111 -137h-124zM65 700v-700h138v700h-138z" />
    <glyph glyph-name="Icircumflex" unicode="&#xce;" horiz-adv-x="268" 
d="M174 755l-43 65l-44 -65h-128l106 145h131l106 -145h-128zM203 0h-138v700h138v-700z" />
    <glyph glyph-name="Idieresis" unicode="&#xcf;" horiz-adv-x="268" 
d="M86 768c-25 -25 -68 -25 -95 0c-27 27 -27 69 0 96s70 27 95 0c27 -27 27 -69 0 -96zM276 768c-25 -25 -68 -25 -95 0c-27 27 -27 69 0 96s70 27 95 0c27 -27 27 -69 0 -96zM65 0v700h138v-700h-138z" />
    <glyph glyph-name="Eth" unicode="&#xd0;" horiz-adv-x="748" 
d="M100 700h278c96 0 176 -34 240 -101c65 -67 97 -150 97 -249s-32 -182 -97 -249c-64 -67 -144 -101 -240 -101h-278v281h-78v124h78v295zM238 132h140c61 0 110 20 148 60c38 41 57 93 57 158s-19 117 -57 157c-38 41 -87 61 -148 61h-140v-163h159v-124h-159v-149z" />
    <glyph glyph-name="Ntilde" unicode="&#xd1;" horiz-adv-x="673" 
d="M263 760h-104c0 157 96 177 182 121c39 -27 52 -24 52 24h105c0 -160 -97 -175 -182 -121c-39 27 -53 24 -53 -24zM470 273v427h138v-700h-105l-300 428v-428h-138v700h105z" />
    <glyph glyph-name="Ograve" unicode="&#xd2;" horiz-adv-x="792" 
d="M478 771h-124l-111 137h155zM654 91c71 71 106 157 106 259s-35 188 -106 258c-71 71 -157 106 -258 106s-187 -35 -258 -106c-70 -70 -105 -156 -105 -258s35 -188 105 -259c71 -70 157 -105 258 -105s187 35 258 105zM235 185c-43 43 -65 98 -65 165s22 122 65 165
s97 65 161 65s118 -22 161 -65s65 -98 65 -165s-22 -122 -65 -165s-97 -64 -161 -64s-118 21 -161 64z" />
    <glyph glyph-name="Oacute" unicode="&#xd3;" horiz-adv-x="792" 
d="M316 771l80 137h155l-111 -137h-124zM654 91c71 71 106 157 106 259s-35 188 -106 258c-71 71 -157 106 -258 106s-187 -35 -258 -106c-70 -70 -105 -156 -105 -258s35 -188 105 -259c71 -70 157 -105 258 -105s187 35 258 105zM235 185c-43 43 -65 98 -65 165
s22 122 65 165s97 65 161 65s118 -22 161 -65s65 -98 65 -165s-22 -122 -65 -165s-97 -64 -161 -64s-118 21 -161 64z" />
    <glyph glyph-name="Ocircumflex" unicode="&#xd4;" horiz-adv-x="792" 
d="M436 763l-43 65l-44 -65h-128l106 145h131l106 -145h-128zM138 608c71 71 157 106 258 106s187 -35 258 -106c71 -70 106 -156 106 -258s-35 -188 -106 -259c-71 -70 -157 -105 -258 -105s-187 35 -258 105c-70 71 -105 157 -105 259s35 188 105 258zM235 185
c43 -43 97 -64 161 -64s118 21 161 64s65 98 65 165s-22 122 -65 165s-97 65 -161 65s-118 -22 -161 -65s-65 -98 -65 -165s22 -122 65 -165z" />
    <glyph glyph-name="Otilde" unicode="&#xd5;" horiz-adv-x="792" 
d="M330 768h-104c0 157 96 177 182 121c39 -27 52 -24 52 24h105c0 -160 -97 -175 -182 -121c-39 27 -53 24 -53 -24zM654 91c-71 -70 -157 -105 -258 -105s-187 35 -258 105c-70 71 -105 157 -105 259s35 188 105 258c71 71 157 106 258 106s187 -35 258 -106
c71 -70 106 -156 106 -258s-35 -188 -106 -259zM235 185c43 -43 97 -64 161 -64s118 21 161 64s65 98 65 165s-22 122 -65 165s-97 65 -161 65s-118 -22 -161 -65s-65 -98 -65 -165s22 -122 65 -165z" />
    <glyph glyph-name="Odieresis" unicode="&#xd6;" horiz-adv-x="792" 
d="M348 776c-25 -25 -68 -25 -95 0c-27 27 -27 69 0 96s70 27 95 0c27 -27 27 -69 0 -96zM538 776c-25 -25 -68 -25 -95 0c-27 27 -27 69 0 96s70 27 95 0c27 -27 27 -69 0 -96zM654 91c-71 -70 -157 -105 -258 -105s-187 35 -258 105c-70 71 -105 157 -105 259
s35 188 105 258c71 71 157 106 258 106s187 -35 258 -106c71 -70 106 -156 106 -258s-35 -188 -106 -259zM235 185c43 -43 97 -64 161 -64s118 21 161 64s65 98 65 165s-22 122 -65 165s-97 65 -161 65s-118 -22 -161 -65s-65 -98 -65 -165s22 -122 65 -165z" />
    <glyph glyph-name="multiply" unicode="&#xd7;" horiz-adv-x="512" 
d="M376 555l86 -84l-121 -121l121 -121l-86 -84l-120 120l-120 -120l-86 84l121 121l-121 121l86 84l120 -120z" />
    <glyph glyph-name="Oslash" unicode="&#xd8;" horiz-adv-x="798" 
d="M719 672l-55 -67c68 -70 102 -155 102 -255c0 -102 -35 -188 -106 -259c-71 -70 -157 -105 -258 -105c-74 0 -141 20 -201 60l-47 -57l-68 40l55 66c-68 71 -102 156 -102 255c0 102 35 188 105 258c71 71 157 106 258 106c73 0 141 -20 202 -60l47 57zM176 350
c0 -59 17 -109 52 -150l290 350c-36 20 -75 30 -116 30c-64 0 -118 -22 -161 -65s-65 -98 -65 -165zM402 121c64 0 118 21 161 64s65 98 65 165c0 59 -17 109 -51 150l-290 -350c35 -19 73 -29 115 -29z" />
    <glyph glyph-name="Ugrave" unicode="&#xd9;" horiz-adv-x="653" 
d="M408 763h-124l-111 137h155zM326 -14c79 0 143 22 193 66s75 103 75 177v471h-138v-460c0 -73 -41 -119 -130 -119s-130 46 -130 119v460h-137v-471c0 -74 25 -133 75 -177s114 -66 192 -66z" />
    <glyph glyph-name="Uacute" unicode="&#xda;" horiz-adv-x="653" 
d="M246 763l80 137h155l-111 -137h-124zM326 -14c79 0 143 22 193 66s75 103 75 177v471h-138v-460c0 -73 -41 -119 -130 -119s-130 46 -130 119v460h-137v-471c0 -74 25 -133 75 -177s114 -66 192 -66z" />
    <glyph glyph-name="Ucircumflex" unicode="&#xdb;" horiz-adv-x="653" 
d="M366 755l-43 65l-44 -65h-128l106 145h131l106 -145h-128zM456 240v460h138v-471c0 -74 -25 -133 -75 -177s-114 -66 -193 -66c-78 0 -142 22 -192 66s-75 103 -75 177v471h137v-460c0 -73 41 -119 130 -119s130 46 130 119z" />
    <glyph glyph-name="Udieresis" unicode="&#xdc;" horiz-adv-x="653" 
d="M278 768c-25 -25 -68 -25 -95 0c-27 27 -27 69 0 96s70 27 95 0c27 -27 27 -69 0 -96zM468 768c-25 -25 -68 -25 -95 0c-27 27 -27 69 0 96s70 27 95 0c27 -27 27 -69 0 -96zM326 -14c-78 0 -142 22 -192 66s-75 103 -75 177v471h137v-460c0 -73 41 -119 130 -119
s130 46 130 119v460h138v-471c0 -74 -25 -133 -75 -177s-114 -66 -193 -66z" />
    <glyph glyph-name="Yacute" unicode="&#xdd;" horiz-adv-x="621" 
d="M310 900h155l-111 -137h-124zM463 700h156l-240 -427v-273h-137v273l-239 427h156l152 -292z" />
    <glyph glyph-name="Thorn" unicode="&#xde;" horiz-adv-x="590" 
d="M203 585h127c65 0 121 -23 166 -69c46 -45 69 -101 69 -166s-23 -121 -69 -167c-45 -45 -101 -68 -166 -68h-127v-115h-138v700h138v-115zM203 244h127c55 0 98 46 98 106s-43 106 -98 106h-127v-212z" />
    <glyph glyph-name="germandbls" unicode="&#xdf;" horiz-adv-x="537" 
d="M279 -6v114c75 -7 113 12 113 59c0 19 -10 42 -30 69l-60 83c-19 28 -29 52 -29 71c0 18 10 41 31 70s32 53 32 72c0 36 -27 64 -68 64c-47 0 -80 -30 -80 -87v-509h-129v508c0 63 19 113 58 150s91 56 156 56c59 0 105 -16 140 -48c35 -31 52 -69 52 -114
c0 -73 -60 -123 -60 -154c0 -25 29 -68 58 -104s58 -96 58 -149c0 -51 -19 -91 -57 -120c-37 -29 -99 -39 -185 -31z" />
    <glyph glyph-name="agrave" unicode="&#xe0;" 
d="M311 700l80 -137h-124l-111 137h155zM439 441v59h129v-500h-129v59c-39 -49 -93 -73 -163 -73c-67 0 -124 25 -172 76c-47 51 -71 114 -71 188s24 136 71 187c48 51 105 77 172 77c70 0 124 -24 163 -73zM201 148c26 -26 59 -39 99 -39s73 13 99 39c27 27 40 61 40 102
s-13 75 -40 101c-26 27 -59 40 -99 40s-73 -13 -99 -40c-26 -26 -39 -60 -39 -101s13 -75 39 -102z" />
    <glyph glyph-name="aacute" unicode="&#xe1;" 
d="M309 700h155l-111 -137h-124zM439 441v59h129v-500h-129v59c-39 -49 -93 -73 -163 -73c-67 0 -124 25 -172 76c-47 51 -71 114 -71 188s24 136 71 187c48 51 105 77 172 77c70 0 124 -24 163 -73zM201 148c26 -26 59 -39 99 -39s73 13 99 39c27 27 40 61 40 102
s-13 75 -40 101c-26 27 -59 40 -99 40s-73 -13 -99 -40c-26 -26 -39 -60 -39 -101s13 -75 39 -102z" />
    <glyph glyph-name="acircumflex" unicode="&#xe2;" 
d="M349 555l-43 65l-44 -65h-128l106 145h131l106 -145h-128zM439 441v59h129v-500h-129v59c-39 -49 -93 -73 -163 -73c-67 0 -124 25 -172 76c-47 51 -71 114 -71 188s24 136 71 187c48 51 105 77 172 77c70 0 124 -24 163 -73zM201 148c26 -26 59 -39 99 -39s73 13 99 39
c27 27 40 61 40 102s-13 75 -40 101c-26 27 -59 40 -99 40s-73 -13 -99 -40c-26 -26 -39 -60 -39 -101s13 -75 39 -102z" />
    <glyph glyph-name="atilde" unicode="&#xe3;" 
d="M296 584c-39 27 -53 24 -53 -24h-104c0 157 96 177 182 121c39 -27 52 -24 52 24h105c0 -160 -97 -175 -182 -121zM439 441v59h129v-500h-129v59c-39 -49 -93 -73 -163 -73c-67 0 -124 25 -172 76c-47 51 -71 114 -71 188s24 136 71 187c48 51 105 77 172 77
c70 0 124 -24 163 -73zM201 148c26 -26 59 -39 99 -39s73 13 99 39c27 27 40 61 40 102s-13 75 -40 101c-26 27 -59 40 -99 40s-73 -13 -99 -40c-26 -26 -39 -60 -39 -101s13 -75 39 -102z" />
    <glyph glyph-name="adieresis" unicode="&#xe4;" 
d="M261 568c-25 -25 -68 -25 -95 0c-27 27 -27 69 0 96s70 27 95 0c27 -27 27 -69 0 -96zM451 568c-25 -25 -68 -25 -95 0c-27 27 -27 69 0 96s70 27 95 0c27 -27 27 -69 0 -96zM439 441v59h129v-500h-129v59c-39 -49 -93 -73 -163 -73c-67 0 -124 25 -172 76
c-47 51 -71 114 -71 188s24 136 71 187c48 51 105 77 172 77c70 0 124 -24 163 -73zM201 148c26 -26 59 -39 99 -39s73 13 99 39c27 27 40 61 40 102s-13 75 -40 101c-26 27 -59 40 -99 40s-73 -13 -99 -40c-26 -26 -39 -60 -39 -101s13 -75 39 -102z" />
    <glyph glyph-name="aring" unicode="&#xe5;" 
d="M309 539c-73 0 -126 51 -126 119s53 118 126 118c75 0 126 -50 126 -118c0 -69 -51 -119 -126 -119zM309 695c-24 0 -39 -16 -39 -37c0 -23 15 -38 39 -38c27 0 40 13 40 38s-13 37 -40 37zM439 441v59h129v-500h-129v59c-39 -49 -93 -73 -163 -73c-67 0 -124 25 -172 76
c-47 51 -71 114 -71 188s24 136 71 187c48 51 105 77 172 77c70 0 124 -24 163 -73zM201 148c26 -26 59 -39 99 -39s73 13 99 39c27 27 40 61 40 102s-13 75 -40 101c-26 27 -59 40 -99 40s-73 -13 -99 -40c-26 -26 -39 -60 -39 -101s13 -75 39 -102z" />
    <glyph glyph-name="ae" unicode="&#xe6;" horiz-adv-x="988" 
d="M952 197h-377c19 -63 71 -94 140 -94c50 0 88 17 113 50l104 -60c-49 -71 -117 -107 -202 -107c-71 0 -127 26 -170 77v-63h-121v59c-39 -49 -93 -73 -163 -73c-67 0 -124 25 -172 76c-47 51 -71 114 -71 188s24 136 71 187c48 51 105 77 172 77c70 0 124 -24 163 -73v59
h121v-62c42 51 97 76 166 76c72 0 128 -25 169 -75s62 -113 62 -189c0 -17 -2 -34 -5 -53zM573 298h255c-15 68 -63 100 -123 100c-68 0 -116 -36 -132 -100zM201 148c26 -26 59 -39 99 -39s73 13 99 39c27 27 40 61 40 102s-13 75 -40 101c-26 27 -59 40 -99 40
s-73 -13 -99 -40c-26 -26 -39 -60 -39 -101s13 -75 39 -102z" />
    <glyph glyph-name="ccedilla" unicode="&#xe7;" horiz-adv-x="536" 
d="M411 180l112 -64c-35 -63 -96 -108 -168 -124v-38c39 -9 70 -35 70 -78c0 -70 -73 -101 -220 -92v91c72 -5 108 2 108 20c0 13 -21 22 -63 25v70c-64 11 -116 40 -157 88c-40 48 -60 105 -60 172c0 75 25 137 75 188c51 51 114 76 189 76c97 0 183 -50 224 -129l-111 -65
c-20 41 -63 67 -114 67c-77 0 -134 -57 -134 -137c0 -39 13 -72 38 -98c25 -25 57 -38 96 -38c52 0 95 25 115 66z" />
    <glyph glyph-name="egrave" unicode="&#xe8;" horiz-adv-x="581" 
d="M293 704l80 -137h-124l-111 137h155zM545 197h-377c17 -63 64 -94 141 -94c49 0 87 17 112 50l104 -60c-49 -71 -122 -107 -218 -107c-83 0 -149 25 -199 75s-75 113 -75 189c0 75 25 138 74 188c49 51 113 76 190 76c73 0 134 -25 181 -76c48 -51 72 -113 72 -188
c0 -17 -2 -34 -5 -53zM166 297h255c-15 68 -65 101 -124 101c-69 0 -116 -37 -131 -101z" />
    <glyph glyph-name="eacute" unicode="&#xe9;" horiz-adv-x="581" 
d="M291 704h155l-111 -137h-124zM545 197h-377c17 -63 64 -94 141 -94c49 0 87 17 112 50l104 -60c-49 -71 -122 -107 -218 -107c-83 0 -149 25 -199 75s-75 113 -75 189c0 75 25 138 74 188c49 51 113 76 190 76c73 0 134 -25 181 -76c48 -51 72 -113 72 -188
c0 -17 -2 -34 -5 -53zM166 297h255c-15 68 -65 101 -124 101c-69 0 -116 -37 -131 -101z" />
    <glyph glyph-name="ecircumflex" unicode="&#xea;" horiz-adv-x="581" 
d="M331 559l-43 65l-44 -65h-128l106 145h131l106 -145h-128zM545 197h-377c17 -63 64 -94 141 -94c49 0 87 17 112 50l104 -60c-49 -71 -122 -107 -218 -107c-83 0 -149 25 -199 75s-75 113 -75 189c0 75 25 138 74 188c49 51 113 76 190 76c73 0 134 -25 181 -76
c48 -51 72 -113 72 -188c0 -17 -2 -34 -5 -53zM166 297h255c-15 68 -65 101 -124 101c-69 0 -116 -37 -131 -101z" />
    <glyph glyph-name="edieresis" unicode="&#xeb;" horiz-adv-x="581" 
d="M243 572c-25 -25 -68 -25 -95 0c-27 27 -27 69 0 96s70 27 95 0c27 -27 27 -69 0 -96zM433 572c-25 -25 -68 -25 -95 0c-27 27 -27 69 0 96s70 27 95 0c27 -27 27 -69 0 -96zM545 197h-377c17 -63 64 -94 141 -94c49 0 87 17 112 50l104 -60c-49 -71 -122 -107 -218 -107
c-83 0 -149 25 -199 75s-75 113 -75 189c0 75 25 138 74 188c49 51 113 76 190 76c73 0 134 -25 181 -76c48 -51 72 -113 72 -188c0 -17 -2 -34 -5 -53zM166 297h255c-15 68 -65 101 -124 101c-69 0 -116 -37 -131 -101z" />
    <glyph glyph-name="igrave" unicode="&#xec;" horiz-adv-x="247" 
d="M184 555h-124l-67 145h148zM188 0v500h-129v-500h129z" />
    <glyph glyph-name="iacute" unicode="&#xed;" horiz-adv-x="247" 
d="M60 555l42 145h148l-66 -145h-124zM59 0h129v500h-129v-500z" />
    <glyph glyph-name="icircumflex" unicode="&#xee;" horiz-adv-x="247" 
d="M155 555l-31 54l-32 -54h-128l94 145h131l93 -145h-127zM188 0h-129v500h129v-500z" />
    <glyph glyph-name="idieresis" unicode="&#xef;" horiz-adv-x="247" 
d="M86 572c-27 -25 -70 -25 -95 0c-27 27 -27 69 0 96c25 27 68 27 95 0s27 -69 0 -96zM256 572c-27 -25 -69 -25 -96 0c-25 27 -25 69 0 96c27 27 69 27 96 0s27 -69 0 -96zM188 0h-129v500h129v-500z" />
    <glyph glyph-name="eth" unicode="&#xf0;" horiz-adv-x="571" 
d="M329 590l164 -220c31 -42 46 -89 46 -140c0 -73 -25 -132 -74 -176s-109 -66 -179 -66s-130 22 -179 66s-74 103 -74 176c0 66 24 121 71 165c48 45 105 65 172 60l-58 80l-127 -63v90l79 39l-72 99h149l33 -44l118 58v-90zM286 109c72 0 124 46 124 121
c0 27 -7 50 -21 70c-25 31 -59 47 -103 47c-73 0 -124 -46 -124 -117c0 -75 51 -121 124 -121z" />
    <glyph glyph-name="ntilde" unicode="&#xf1;" horiz-adv-x="577" 
d="M285 592c-39 27 -53 24 -53 -24h-104c0 157 96 177 182 121c39 -27 52 -24 52 24h105c0 -160 -97 -175 -182 -121zM337 514c55 0 100 -18 135 -55c36 -37 54 -87 54 -152v-307h-129v291c0 67 -39 103 -99 103c-67 0 -110 -41 -110 -124v-270h-129v500h129v-56
c31 47 81 70 149 70z" />
    <glyph glyph-name="ograve" unicode="&#xf2;" horiz-adv-x="594" 
d="M379 571h-124l-111 137h155zM485 62c51 51 77 114 77 188s-26 136 -77 187s-114 77 -188 77s-137 -26 -188 -77s-76 -113 -76 -187s25 -137 76 -188s114 -76 188 -76s137 25 188 76zM200 151c-25 26 -38 59 -38 99s13 73 38 99c26 26 58 39 97 39s71 -13 97 -39
s39 -59 39 -99s-13 -73 -39 -99s-58 -39 -97 -39s-71 13 -97 39z" />
    <glyph glyph-name="oacute" unicode="&#xf3;" horiz-adv-x="594" 
d="M217 571l80 137h155l-111 -137h-124zM485 62c51 51 77 114 77 188s-26 136 -77 187s-114 77 -188 77s-137 -26 -188 -77s-76 -113 -76 -187s25 -137 76 -188s114 -76 188 -76s137 25 188 76zM200 151c-25 26 -38 59 -38 99s13 73 38 99c26 26 58 39 97 39s71 -13 97 -39
s39 -59 39 -99s-13 -73 -39 -99s-58 -39 -97 -39s-71 13 -97 39z" />
    <glyph glyph-name="ocircumflex" unicode="&#xf4;" horiz-adv-x="594" 
d="M337 563l-43 65l-44 -65h-128l106 145h131l106 -145h-128zM109 437c51 51 114 77 188 77s137 -26 188 -77s77 -113 77 -187s-26 -137 -77 -188s-114 -76 -188 -76s-137 25 -188 76s-76 114 -76 188s25 136 76 187zM200 151c26 -26 58 -39 97 -39s71 13 97 39s39 59 39 99
s-13 73 -39 99s-58 39 -97 39s-71 -13 -97 -39c-25 -26 -38 -59 -38 -99s13 -73 38 -99z" />
    <glyph glyph-name="otilde" unicode="&#xf5;" horiz-adv-x="594" 
d="M231 568h-104c0 157 96 177 182 121c39 -27 52 -24 52 24h105c0 -160 -97 -175 -182 -121c-39 27 -53 24 -53 -24zM485 62c-51 -51 -114 -76 -188 -76s-137 25 -188 76s-76 114 -76 188s25 136 76 187s114 77 188 77s137 -26 188 -77s77 -113 77 -187s-26 -137 -77 -188z
M200 151c26 -26 58 -39 97 -39s71 13 97 39s39 59 39 99s-13 73 -39 99s-58 39 -97 39s-71 -13 -97 -39c-25 -26 -38 -59 -38 -99s13 -73 38 -99z" />
    <glyph glyph-name="odieresis" unicode="&#xf6;" horiz-adv-x="594" 
d="M249 576c-25 -25 -68 -25 -95 0c-27 27 -27 69 0 96s70 27 95 0c27 -27 27 -69 0 -96zM439 576c-25 -25 -68 -25 -95 0c-27 27 -27 69 0 96s70 27 95 0c27 -27 27 -69 0 -96zM485 62c-51 -51 -114 -76 -188 -76s-137 25 -188 76s-76 114 -76 188s25 136 76 187
s114 77 188 77s137 -26 188 -77s77 -113 77 -187s-26 -137 -77 -188zM200 151c26 -26 58 -39 97 -39s71 13 97 39s39 59 39 99s-13 73 -39 99s-58 39 -97 39s-71 -13 -97 -39c-25 -26 -38 -59 -38 -99s13 -73 38 -99z" />
    <glyph glyph-name="divide" unicode="&#xf7;" horiz-adv-x="565" 
d="M283 463c-47 0 -82 35 -82 82c-6 70 94 108 140 58c50 -46 12 -146 -58 -140zM520 290h-475v121h475v-121zM283 74c-72 -5 -109 94 -59 139c48 52 146 13 140 -57c0 -47 -36 -82 -81 -82z" />
    <glyph glyph-name="oslash" unicode="&#xf8;" horiz-adv-x="594" 
d="M530 477l-39 -46c47 -51 71 -111 71 -181c0 -74 -26 -137 -77 -188s-114 -76 -188 -76c-54 0 -102 14 -145 42l-32 -37l-55 32l39 46c-47 49 -71 110 -71 181c0 74 25 136 76 187s114 77 188 77c53 0 101 -14 146 -43l32 38zM162 250c0 -31 8 -59 25 -83l174 206
c-19 10 -41 15 -64 15c-77 0 -135 -58 -135 -138zM297 112c39 0 71 13 97 39s39 59 39 99c0 32 -8 59 -25 82l-174 -205c19 -10 40 -15 63 -15z" />
    <glyph glyph-name="ugrave" unicode="&#xf9;" horiz-adv-x="577" 
d="M286 700l80 -137h-124l-111 137h155zM389 230v270h129v-500h-129v56c-31 -47 -81 -70 -149 -70c-55 0 -100 18 -136 55c-35 37 -53 87 -53 152v307h129v-291c0 -67 39 -103 99 -103c67 0 110 41 110 124z" />
    <glyph glyph-name="uacute" unicode="&#xfa;" horiz-adv-x="577" 
d="M284 700h155l-111 -137h-124zM389 230v270h129v-500h-129v56c-31 -47 -81 -70 -149 -70c-55 0 -100 18 -136 55c-35 37 -53 87 -53 152v307h129v-291c0 -67 39 -103 99 -103c67 0 110 41 110 124z" />
    <glyph glyph-name="ucircumflex" unicode="&#xfb;" horiz-adv-x="577" 
d="M324 555l-43 65l-44 -65h-128l106 145h131l106 -145h-128zM389 230v270h129v-500h-129v56c-31 -47 -81 -70 -149 -70c-55 0 -100 18 -136 55c-35 37 -53 87 -53 152v307h129v-291c0 -67 39 -103 99 -103c67 0 110 41 110 124z" />
    <glyph glyph-name="udieresis" unicode="&#xfc;" horiz-adv-x="577" 
d="M236 568c-25 -25 -68 -25 -95 0c-27 27 -27 69 0 96s70 27 95 0c27 -27 27 -69 0 -96zM426 568c-25 -25 -68 -25 -95 0c-27 27 -27 69 0 96s70 27 95 0c27 -27 27 -69 0 -96zM389 230v270h129v-500h-129v56c-31 -47 -81 -70 -149 -70c-55 0 -100 18 -136 55
c-35 37 -53 87 -53 152v307h129v-291c0 -67 39 -103 99 -103c67 0 110 41 110 124z" />
    <glyph glyph-name="yacute" unicode="&#xfd;" horiz-adv-x="525" 
d="M263 700h155l-111 -137h-124zM274 164l111 336h138l-182 -500c-52 -144 -136 -207 -264 -200v120c69 -1 107 28 131 96l-205 484h141z" />
    <glyph glyph-name="thorn" unicode="&#xfe;" 
d="M350 514c67 0 125 -26 172 -77c48 -51 72 -113 72 -187s-24 -137 -72 -188c-47 -51 -105 -76 -172 -76c-70 0 -124 24 -162 73v-259h-129v900h129v-259c38 49 92 73 162 73zM227 148c26 -26 59 -39 99 -39s73 13 99 39c27 27 40 61 40 102s-13 75 -40 101
c-26 27 -59 40 -99 40s-73 -13 -99 -40c-26 -26 -39 -60 -39 -101s13 -75 39 -102z" />
    <glyph glyph-name="ydieresis" unicode="&#xff;" horiz-adv-x="525" 
d="M215 568c-25 -25 -68 -25 -95 0c-27 27 -27 69 0 96s70 27 95 0c27 -27 27 -69 0 -96zM405 568c-25 -25 -68 -25 -95 0c-27 27 -27 69 0 96s70 27 95 0c27 -27 27 -69 0 -96zM274 164l111 336h138l-182 -500c-52 -144 -136 -207 -264 -200v120c69 -1 107 28 131 96
l-205 484h141z" />
    <glyph glyph-name="Amacron" unicode="&#x100;" horiz-adv-x="668" 
d="M189 869h290v-105h-290v105zM665 0h-150l-42 126h-279l-42 -126h-149l245 700h171zM334 541l-96 -286h192z" />
    <glyph glyph-name="amacron" unicode="&#x101;" 
d="M164 669h290v-105h-290v105zM439 441v59h129v-500h-129v59c-39 -49 -93 -73 -163 -73c-67 0 -124 25 -172 76c-47 51 -71 114 -71 188s24 136 71 187c48 51 105 77 172 77c70 0 124 -24 163 -73zM201 148c26 -26 59 -39 99 -39s73 13 99 39c27 27 40 61 40 102
s-13 75 -40 101c-26 27 -59 40 -99 40s-73 -13 -99 -40c-26 -26 -39 -60 -39 -101s13 -75 39 -102z" />
    <glyph glyph-name="Abreve" unicode="&#x102;" horiz-adv-x="668" 
d="M334 747c-105 0 -166 53 -166 145h115c0 -35 17 -52 51 -52c35 0 52 17 52 52h115c0 -92 -60 -145 -167 -145zM665 0h-150l-42 126h-279l-42 -126h-149l245 700h171zM334 541l-96 -286h192z" />
    <glyph glyph-name="abreve" unicode="&#x103;" 
d="M309 547c-105 0 -166 53 -166 145h115c0 -35 17 -52 51 -52c35 0 52 17 52 52h115c0 -92 -60 -145 -167 -145zM439 441v59h129v-500h-129v59c-39 -49 -93 -73 -163 -73c-67 0 -124 25 -172 76c-47 51 -71 114 -71 188s24 136 71 187c48 51 105 77 172 77
c70 0 124 -24 163 -73zM201 148c26 -26 59 -39 99 -39s73 13 99 39c27 27 40 61 40 102s-13 75 -40 101c-26 27 -59 40 -99 40s-73 -13 -99 -40c-26 -26 -39 -60 -39 -101s13 -75 39 -102z" />
    <glyph glyph-name="Aogonek" unicode="&#x104;" horiz-adv-x="668" 
d="M637 -122c8 -1 17 1 28 5v-81c-25 -11 -52 -16 -81 -16c-56 0 -95 31 -95 88c0 38 22 80 66 126h-40l-42 126h-279l-42 -126h-149l245 700h171l246 -700c-35 -37 -53 -69 -53 -95c0 -18 8 -27 25 -27zM334 541l-96 -286h192z" />
    <glyph glyph-name="aogonek" unicode="&#x105;" 
d="M568 500v-500c-35 -37 -53 -68 -53 -95c-1 -18 7 -27 25 -27c7 -1 17 1 28 5v-81c-27 -11 -54 -16 -81 -16c-57 0 -96 31 -96 88c0 37 21 79 64 126h-16v59c-39 -49 -93 -73 -163 -73c-67 0 -124 25 -172 76c-47 51 -71 114 -71 188s24 136 71 187c48 51 105 77 172 77
c70 0 124 -24 163 -73v59h129zM201 148c26 -26 59 -39 99 -39s73 13 99 39c27 27 40 61 40 102s-13 75 -40 101c-26 27 -59 40 -99 40s-73 -13 -99 -40c-26 -26 -39 -60 -39 -101s13 -75 39 -102z" />
    <glyph glyph-name="Cacute" unicode="&#x106;" horiz-adv-x="726" 
d="M317 771l80 137h155l-111 -137h-124zM397 -14c128 0 241 64 301 165l-119 69c-33 -61 -102 -99 -182 -99c-68 0 -123 21 -165 64c-41 43 -62 98 -62 165c0 68 21 123 62 166c42 43 97 64 165 64c80 0 147 -37 182 -100l119 69c-60 101 -174 165 -301 165
c-105 0 -192 -35 -261 -105c-69 -69 -103 -156 -103 -259s34 -189 103 -259s156 -105 261 -105z" />
    <glyph glyph-name="cacute" unicode="&#x107;" horiz-adv-x="536" 
d="M216 563l80 137h155l-111 -137h-124zM297 -14c97 0 182 51 226 130l-112 64c-20 -41 -63 -66 -115 -66c-39 0 -71 13 -96 38c-25 26 -38 59 -38 98c0 80 57 137 134 137c51 0 94 -26 114 -67l111 65c-41 79 -127 129 -224 129c-75 0 -138 -25 -189 -76
c-50 -51 -75 -113 -75 -188s25 -137 75 -188c51 -51 114 -76 189 -76z" />
    <glyph glyph-name="Cdotaccent" unicode="&#x10a;" horiz-adv-x="726" 
d="M397 759c-43 0 -78 35 -78 78s35 77 78 77c41 0 77 -36 77 -77c0 -43 -36 -78 -77 -78zM397 -14c-105 0 -192 35 -261 105s-103 156 -103 259s34 190 103 259c69 70 156 105 261 105c127 0 241 -64 301 -165l-119 -69c-35 63 -102 100 -182 100c-68 0 -123 -21 -165 -64
c-41 -43 -62 -98 -62 -166c0 -67 21 -122 62 -165c42 -43 97 -64 165 -64c80 0 149 38 182 99l119 -69c-60 -101 -173 -165 -301 -165z" />
    <glyph glyph-name="cdotaccent" unicode="&#x10b;" horiz-adv-x="536" 
d="M296 551c-66 -4 -106 89 -55 132c45 51 136 10 132 -54c0 -43 -36 -78 -77 -78zM297 -14c-75 0 -138 25 -189 76c-50 51 -75 113 -75 188s25 137 75 188c51 51 114 76 189 76c97 0 183 -50 224 -129l-111 -65c-20 41 -63 67 -114 67c-77 0 -134 -57 -134 -137
c0 -39 13 -72 38 -98c25 -25 57 -38 96 -38c52 0 95 25 115 66l112 -64c-44 -79 -129 -130 -226 -130z" />
    <glyph glyph-name="Ccaron" unicode="&#x10c;" horiz-adv-x="726" 
d="M459 763h-131l-106 145h128l44 -65l43 65h128zM397 121c80 0 149 38 182 99l119 -69c-60 -101 -173 -165 -301 -165c-105 0 -192 35 -261 105s-103 156 -103 259s34 190 103 259c69 70 156 105 261 105c127 0 241 -64 301 -165l-119 -69c-35 63 -102 100 -182 100
c-68 0 -123 -21 -165 -64c-41 -43 -62 -98 -62 -166c0 -67 21 -122 62 -165c42 -43 97 -64 165 -64z" />
    <glyph glyph-name="ccaron" unicode="&#x10d;" horiz-adv-x="536" 
d="M358 555h-131l-106 145h128l44 -65l43 65h128zM411 180l112 -64c-44 -79 -129 -130 -226 -130c-75 0 -138 25 -189 76c-50 51 -75 113 -75 188s25 137 75 188c51 51 114 76 189 76c97 0 183 -50 224 -129l-111 -65c-20 41 -63 67 -114 67c-77 0 -134 -57 -134 -137
c0 -39 13 -72 38 -98c25 -25 57 -38 96 -38c52 0 95 25 115 66z" />
    <glyph glyph-name="Dcaron" unicode="&#x10e;" horiz-adv-x="713" 
d="M397 755h-131l-106 145h128l44 -65l43 65h128zM65 700h278c96 0 176 -34 240 -101c65 -67 97 -150 97 -249s-32 -182 -97 -249c-64 -67 -144 -101 -240 -101h-278v700zM203 132h140c61 0 110 20 148 60c38 41 57 93 57 158s-19 117 -57 157c-38 41 -87 61 -148 61h-140
v-436z" />
    <glyph glyph-name="dcaron" unicode="&#x10f;" horiz-adv-x="735" 
d="M438 441v259h129v-700h-129v59c-38 -49 -92 -73 -162 -73c-67 0 -125 25 -173 76c-47 51 -71 114 -71 188s24 136 71 187c48 51 106 77 173 77c70 0 124 -24 162 -73zM614 500l10 200h121l-30 -200h-101zM200 148c27 -26 60 -39 100 -39s73 13 99 39c26 27 39 61 39 102
s-13 75 -39 101c-26 27 -59 40 -99 40s-73 -13 -100 -40c-26 -26 -39 -60 -39 -101s13 -75 39 -102z" />
    <glyph glyph-name="Dcroat" unicode="&#x110;" horiz-adv-x="748" 
d="M100 700h278c96 0 176 -34 240 -101c65 -67 97 -150 97 -249s-32 -182 -97 -249c-64 -67 -144 -101 -240 -101h-278v281h-78v124h78v295zM238 132h140c61 0 110 20 148 60c38 41 57 93 57 158s-19 117 -57 157c-38 41 -87 61 -148 61h-140v-163h159v-124h-159v-149z" />
    <glyph glyph-name="dslash" unicode="&#x111;" horiz-adv-x="633" 
d="M568 638h62v-84h-62v-554h-129v59c-39 -49 -93 -73 -163 -73c-67 0 -124 25 -172 76c-47 51 -71 114 -71 188s24 136 71 187c48 51 105 77 172 77c70 0 124 -24 163 -73v113h-151v84h151v62h129v-62zM201 148c26 -26 59 -39 99 -39s73 13 99 39c27 27 40 61 40 102
s-13 75 -40 101c-26 27 -59 40 -99 40s-73 -13 -99 -40c-26 -26 -39 -60 -39 -101s13 -75 39 -102z" />
    <glyph glyph-name="Emacron" unicode="&#x112;" horiz-adv-x="530" 
d="M134 869h290v-105h-290v105zM203 289v-157h295v-132h-433v700h428v-132h-290v-149h265v-130h-265z" />
    <glyph glyph-name="emacron" unicode="&#x113;" horiz-adv-x="581" 
d="M146 673h290v-105h-290v105zM545 197h-377c17 -63 64 -94 141 -94c49 0 87 17 112 50l104 -60c-49 -71 -122 -107 -218 -107c-83 0 -149 25 -199 75s-75 113 -75 189c0 75 25 138 74 188c49 51 113 76 190 76c73 0 134 -25 181 -76c48 -51 72 -113 72 -188
c0 -17 -2 -34 -5 -53zM166 297h255c-15 68 -65 101 -124 101c-69 0 -116 -37 -131 -101z" />
    <glyph glyph-name="Edotaccent" unicode="&#x116;" horiz-adv-x="530" 
d="M279 751c-43 0 -78 35 -78 78s35 77 78 77c41 0 77 -36 77 -77c0 -43 -36 -78 -77 -78zM203 289v-157h295v-132h-433v700h428v-132h-290v-149h265v-130h-265z" />
    <glyph glyph-name="edotaccent" unicode="&#x117;" horiz-adv-x="581" 
d="M291 555c-43 0 -78 35 -78 78s35 77 78 77c41 0 77 -36 77 -77c0 -43 -36 -78 -77 -78zM545 197h-377c17 -63 64 -94 141 -94c49 0 87 17 112 50l104 -60c-49 -71 -122 -107 -218 -107c-83 0 -149 25 -199 75s-75 113 -75 189c0 75 25 138 74 188c49 51 113 76 190 76
c73 0 134 -25 181 -76c48 -51 72 -113 72 -188c0 -17 -2 -34 -5 -53zM166 297h255c-15 68 -65 101 -124 101c-69 0 -116 -37 -131 -101z" />
    <glyph glyph-name="Eogonek" unicode="&#x118;" horiz-adv-x="530" 
d="M203 289v-157h295v-132h-1c-35 -37 -52 -68 -52 -95c-1 -18 7 -27 25 -27c7 -1 16 1 27 5v-81c-25 -11 -52 -16 -80 -16c-57 0 -96 31 -96 88c0 38 22 80 66 126h-322v700h428v-132h-290v-149h265v-130h-265z" />
    <glyph glyph-name="eogonek" unicode="&#x119;" horiz-adv-x="581" 
d="M545 197h-377c17 -63 64 -94 141 -94c49 0 87 17 112 50l104 -60c-9 -13 -21 -27 -37 -43c-56 -60 -84 -108 -84 -145c0 -18 8 -27 25 -27c8 -1 17 1 28 5v-81c-27 -11 -54 -16 -81 -16c-57 0 -95 31 -95 88c0 39 22 77 65 114c-17 -1 -30 -2 -39 -2
c-83 0 -149 25 -199 75s-75 113 -75 189c0 75 25 138 74 188c49 51 113 76 190 76c73 0 134 -25 181 -76c48 -51 72 -113 72 -188c0 -17 -2 -34 -5 -53zM166 297h255c-15 68 -65 101 -124 101c-69 0 -116 -37 -131 -101z" />
    <glyph glyph-name="Ecaron" unicode="&#x11a;" horiz-adv-x="530" 
d="M341 755h-131l-106 145h128l44 -65l43 65h128zM203 289v-157h295v-132h-433v700h428v-132h-290v-149h265v-130h-265z" />
    <glyph glyph-name="ecaron" unicode="&#x11b;" horiz-adv-x="581" 
d="M353 559h-131l-106 145h128l44 -65l43 65h128zM545 197h-377c17 -63 64 -94 141 -94c49 0 87 17 112 50l104 -60c-49 -71 -122 -107 -218 -107c-83 0 -149 25 -199 75s-75 113 -75 189c0 75 25 138 74 188c49 51 113 76 190 76c73 0 134 -25 181 -76
c48 -51 72 -113 72 -188c0 -17 -2 -34 -5 -53zM166 297h255c-15 68 -65 101 -124 101c-69 0 -116 -37 -131 -101z" />
    <glyph glyph-name="Gbreve" unicode="&#x11e;" horiz-adv-x="785" 
d="M397 755c-105 0 -166 53 -166 145h115c0 -35 17 -52 51 -52c35 0 52 17 52 52h115c0 -92 -60 -145 -167 -145zM401 376h351v-54c0 -100 -32 -181 -96 -243s-147 -93 -248 -93c-108 0 -198 35 -269 105c-71 71 -106 157 -106 258c0 102 35 188 105 259
c71 71 158 106 262 106c131 0 245 -64 305 -163l-118 -68c-33 57 -105 97 -188 97c-67 0 -122 -22 -165 -66c-43 -43 -64 -98 -64 -165c0 -66 22 -121 65 -164c44 -43 102 -64 174 -64c107 0 179 50 204 133h-212v122z" />
    <glyph glyph-name="gbreve" unicode="&#x11f;" 
d="M297 555c-105 0 -166 53 -166 145h115c0 -35 17 -52 51 -52c35 0 52 17 52 52h115c0 -92 -60 -145 -167 -145zM442 438v62h126v-476c0 -77 -26 -136 -77 -177s-112 -61 -184 -61c-108 0 -193 42 -237 122l110 63c25 -47 69 -70 131 -70c81 0 131 44 131 123v54
c-38 -51 -91 -76 -160 -76c-71 0 -130 25 -178 74c-47 50 -71 111 -71 182s24 131 72 181s107 75 177 75c69 0 122 -25 160 -76zM442 258c0 39 -13 72 -40 97c-26 26 -59 39 -100 39s-74 -13 -101 -39c-26 -25 -39 -58 -39 -97c0 -80 59 -137 140 -137s140 57 140 137z" />
    <glyph glyph-name="Gdotaccent" unicode="&#x120;" horiz-adv-x="785" 
d="M397 759c-43 0 -78 35 -78 78s35 77 78 77c41 0 77 -36 77 -77c0 -43 -36 -78 -77 -78zM401 376h351v-54c0 -100 -32 -181 -96 -243s-147 -93 -248 -93c-108 0 -198 35 -269 105c-71 71 -106 157 -106 258c0 102 35 188 105 259c71 71 158 106 262 106
c131 0 245 -64 305 -163l-118 -68c-33 57 -105 97 -188 97c-67 0 -122 -22 -165 -66c-43 -43 -64 -98 -64 -165c0 -66 22 -121 65 -164c44 -43 102 -64 174 -64c107 0 179 50 204 133h-212v122z" />
    <glyph glyph-name="gdotaccent" unicode="&#x121;" 
d="M297 559c-43 0 -78 35 -78 78s35 77 78 77c41 0 77 -36 77 -77c0 -43 -36 -78 -77 -78zM442 438v62h126v-476c0 -77 -26 -136 -77 -177s-112 -61 -184 -61c-108 0 -193 42 -237 122l110 63c25 -47 69 -70 131 -70c81 0 131 44 131 123v54c-38 -51 -91 -76 -160 -76
c-71 0 -130 25 -178 74c-47 50 -71 111 -71 182s24 131 72 181s107 75 177 75c69 0 122 -25 160 -76zM442 258c0 39 -13 72 -40 97c-26 26 -59 39 -100 39s-74 -13 -101 -39c-26 -25 -39 -58 -39 -97c0 -80 59 -137 140 -137s140 57 140 137z" />
    <glyph glyph-name="Gcommaaccent" unicode="&#x122;" horiz-adv-x="785" 
d="M401 376h351v-54c0 -100 -32 -181 -96 -243s-147 -93 -248 -93c-108 0 -198 35 -269 105c-71 71 -106 157 -106 258c0 102 35 188 105 259c71 71 158 106 262 106c131 0 245 -64 305 -163l-118 -68c-33 57 -105 97 -188 97c-67 0 -122 -22 -165 -66
c-43 -43 -64 -98 -64 -165c0 -66 22 -121 65 -164c44 -43 102 -64 174 -64c107 0 179 50 204 133h-212v122zM443 -263h-102l10 200h122z" />
    <glyph glyph-name="gcommaaccent" unicode="&#x123;" 
d="M259 783h102l-10 -200h-122zM442 438v62h126v-476c0 -77 -26 -136 -77 -177s-112 -61 -184 -61c-108 0 -193 42 -237 122l110 63c25 -47 69 -70 131 -70c81 0 131 44 131 123v54c-38 -51 -91 -76 -160 -76c-71 0 -130 25 -178 74c-47 50 -71 111 -71 182s24 131 72 181
s107 75 177 75c69 0 122 -25 160 -76zM442 258c0 39 -13 72 -40 97c-26 26 -59 39 -100 39s-74 -13 -101 -39c-26 -25 -39 -58 -39 -97c0 -80 59 -137 140 -137s140 57 140 137z" />
    <glyph glyph-name="Hbar" unicode="&#x126;" horiz-adv-x="708" 
d="M621 602h62v-101h-62v-501h-137v272h-260v-272h-138v501h-61v101h61v98h138v-98h260v98h137v-98zM224 404h260v97h-260v-97z" />
    <glyph glyph-name="hbar" unicode="&#x127;" horiz-adv-x="583" 
d="M343 514c55 0 101 -18 136 -55c36 -37 54 -87 54 -152v-307h-129v291c0 67 -40 103 -100 103c-67 0 -110 -41 -110 -124v-270h-129v554h-62v84h62v62h129v-62h141v-84h-141v-111c31 47 80 71 149 71z" />
    <glyph glyph-name="Imacron" unicode="&#x12a;" horiz-adv-x="268" 
d="M279 764h-290v105h290v-105zM65 0v700h138v-700h-138z" />
    <glyph glyph-name="imacron" unicode="&#x12b;" horiz-adv-x="247" 
d="M238 564h-230v112h230v-112zM188 0h-129v500h129v-500z" />
    <glyph glyph-name="Iogonek" unicode="&#x12e;" horiz-adv-x="268" 
d="M194 -122c7 -1 17 1 28 5v-81c-27 -11 -54 -16 -81 -16c-57 0 -96 31 -96 88c0 37 15 79 46 126h-26v700h138v-700c-23 -37 -34 -69 -34 -95c-1 -18 7 -27 25 -27z" />
    <glyph glyph-name="iogonek" unicode="&#x12f;" horiz-adv-x="247" 
d="M123 560c-43 0 -79 36 -79 79s36 80 79 80c44 0 80 -37 80 -80s-36 -79 -80 -79zM179 -122c7 -1 16 1 27 5v-81c-25 -11 -52 -16 -80 -16c-57 0 -96 34 -96 90c0 35 14 77 43 124h-14v500h129v-500c-23 -37 -34 -67 -34 -92c-1 -20 7 -30 25 -30z" />
    <glyph glyph-name="Idot" unicode="&#x130;" horiz-adv-x="268" 
d="M134 751c-66 -4 -106 89 -55 132c45 51 136 10 132 -54c0 -43 -36 -78 -77 -78zM65 0v700h138v-700h-138z" />
    <glyph glyph-name="dotlessi" unicode="&#x131;" horiz-adv-x="247" 
d="M188 0h-129v500h129v-500z" />
    <glyph glyph-name="Kcommaaccent" unicode="&#x136;" horiz-adv-x="615" 
d="M602 700l-259 -340l269 -360h-159l-250 328v-328h-138v700h138v-309l240 309h159zM344 -263h-102l10 200h122z" />
    <glyph glyph-name="kcommaaccent" unicode="&#x137;" horiz-adv-x="525" 
d="M514 500l-201 -247l207 -253h-150l-182 227v-227h-129v700h129v-420l172 220h154zM317 -263h-102l10 200h122z" />
    <glyph glyph-name="Lacute" unicode="&#x139;" horiz-adv-x="483" 
d="M147 900h155l-111 -137h-124zM203 700v-568h267v-132h-405v700h138z" />
    <glyph glyph-name="lacute" unicode="&#x13a;" horiz-adv-x="247" 
d="M57 763l80 137h155l-111 -137h-124zM59 0h129v730h-129v-730z" />
    <glyph glyph-name="Lcommaaccent" unicode="&#x13b;" horiz-adv-x="483" 
d="M203 700v-568h267v-132h-405v700h138zM311 -263h-102l10 200h122z" />
    <glyph glyph-name="lcommaaccent" unicode="&#x13c;" horiz-adv-x="247" 
d="M188 0h-129v730h129v-730zM157 -263h-102l10 200h122z" />
    <glyph glyph-name="Lcaron" unicode="&#x13d;" horiz-adv-x="483" 
d="M203 700v-568h267v-132h-405v700h138zM277 700h129l-30 -185h-109z" />
    <glyph glyph-name="lcaron" unicode="&#x13e;" horiz-adv-x="354" 
d="M188 0h-129v730h129v-730zM334 530h-102l10 200h122z" />
    <glyph glyph-name="Lslash" unicode="&#x141;" horiz-adv-x="503" 
d="M223 293v-161h267v-132h-405v211l-60 -36v138l60 36v351h138v-269l132 78v-138z" />
    <glyph glyph-name="lslash" unicode="&#x142;" horiz-adv-x="263" 
d="M196 453l54 37v-123l-54 -37v-330h-129v242l-54 -37v123l54 37v365h129v-277z" />
    <glyph glyph-name="Nacute" unicode="&#x143;" horiz-adv-x="673" 
d="M249 763l80 137h155l-111 -137h-124zM470 700v-427l-300 427h-105v-700h138v428l300 -428h105v700h-138z" />
    <glyph glyph-name="nacute" unicode="&#x144;" horiz-adv-x="577" 
d="M298 708h155l-111 -137h-124zM337 514c55 0 100 -18 135 -55c36 -37 54 -87 54 -152v-307h-129v291c0 67 -39 103 -99 103c-67 0 -110 -41 -110 -124v-270h-129v500h129v-56c31 47 81 70 149 70z" />
    <glyph glyph-name="Ncommaaccent" unicode="&#x145;" horiz-adv-x="673" 
d="M470 273v427h138v-700h-105l-300 428v-428h-138v700h105zM373 -263h-102l10 200h122z" />
    <glyph glyph-name="ncommaaccent" unicode="&#x146;" horiz-adv-x="577" 
d="M337 514c55 0 100 -18 135 -55c36 -37 54 -87 54 -152v-307h-129v291c0 67 -39 103 -99 103c-67 0 -110 -41 -110 -124v-270h-129v500h129v-56c31 47 81 70 149 70zM330 -263h-102l10 200h122z" />
    <glyph glyph-name="Ncaron" unicode="&#x147;" horiz-adv-x="673" 
d="M391 755h-131l-106 145h128l44 -65l43 65h128zM470 273v427h138v-700h-105l-300 428v-428h-138v700h105z" />
    <glyph glyph-name="ncaron" unicode="&#x148;" horiz-adv-x="577" 
d="M360 563h-131l-106 145h128l44 -65l43 65h128zM337 514c55 0 100 -18 135 -55c36 -37 54 -87 54 -152v-307h-129v291c0 67 -39 103 -99 103c-67 0 -110 -41 -110 -124v-270h-129v500h129v-56c31 47 81 70 149 70z" />
    <glyph glyph-name="Eng" unicode="&#x14a;" horiz-adv-x="673" 
d="M470 273v427h138v-700c0 -136 -85 -208 -233 -200v126c64 0 95 19 95 82v39l-267 381v-428h-138v700h105z" />
    <glyph glyph-name="eng" unicode="&#x14b;" horiz-adv-x="577" 
d="M337 514c55 0 100 -18 135 -55c36 -37 54 -87 54 -152v-317c0 -139 -70 -213 -210 -204v124c55 -5 81 17 81 80v301c0 67 -39 103 -99 103c-67 0 -110 -41 -110 -124v-270h-129v500h129v-56c31 47 81 70 149 70z" />
    <glyph glyph-name="Omacron" unicode="&#x14c;" horiz-adv-x="792" 
d="M541 772h-290v105h290v-105zM654 91c-71 -70 -157 -105 -258 -105s-187 35 -258 105c-70 71 -105 157 -105 259s35 188 105 258c71 71 157 106 258 106s187 -35 258 -106c71 -70 106 -156 106 -258s-35 -188 -106 -259zM235 185c43 -43 97 -64 161 -64s118 21 161 64
s65 98 65 165s-22 122 -65 165s-97 65 -161 65s-118 -22 -161 -65s-65 -98 -65 -165s22 -122 65 -165z" />
    <glyph glyph-name="omacron" unicode="&#x14d;" horiz-adv-x="594" 
d="M442 572h-290v105h290v-105zM485 62c-51 -51 -114 -76 -188 -76s-137 25 -188 76s-76 114 -76 188s25 136 76 187s114 77 188 77s137 -26 188 -77s77 -113 77 -187s-26 -137 -77 -188zM200 151c26 -26 58 -39 97 -39s71 13 97 39s39 59 39 99s-13 73 -39 99
s-58 39 -97 39s-71 -13 -97 -39c-25 -26 -38 -59 -38 -99s13 -73 38 -99z" />
    <glyph glyph-name="Ohungarumlaut" unicode="&#x150;" horiz-adv-x="792" 
d="M221 763l78 138h134l-84 -138h-128zM394 763l88 138h134l-94 -138h-128zM654 91c71 71 106 157 106 259s-35 188 -106 258c-71 71 -157 106 -258 106s-187 -35 -258 -106c-70 -70 -105 -156 -105 -258s35 -188 105 -259c71 -70 157 -105 258 -105s187 35 258 105z
M235 185c-43 43 -65 98 -65 165s22 122 65 165s97 65 161 65s118 -22 161 -65s65 -98 65 -165s-22 -122 -65 -165s-97 -64 -161 -64s-118 21 -161 64z" />
    <glyph glyph-name="ohungarumlaut" unicode="&#x151;" horiz-adv-x="594" 
d="M122 563l78 138h134l-84 -138h-128zM295 563l88 138h134l-94 -138h-128zM485 62c51 51 77 114 77 188s-26 136 -77 187s-114 77 -188 77s-137 -26 -188 -77s-76 -113 -76 -187s25 -137 76 -188s114 -76 188 -76s137 25 188 76zM200 151c-25 26 -38 59 -38 99s13 73 38 99
c26 26 58 39 97 39s71 -13 97 -39s39 -59 39 -99s-13 -73 -39 -99s-58 -39 -97 -39s-71 13 -97 39z" />
    <glyph glyph-name="OE" unicode="&#x152;" horiz-adv-x="916" 
d="M623 289v-157h260v-132h-397c-32 -9 -65 -14 -100 -14c-101 0 -185 35 -252 105s-101 156 -101 259s34 189 101 259s151 105 252 105c35 0 68 -5 100 -14h392v-132h-255v-149h233v-130h-233zM486 136v429c-30 10 -63 15 -100 15c-63 0 -115 -22 -156 -65
c-40 -43 -60 -98 -60 -165s20 -122 60 -165c41 -43 93 -64 156 -64c39 0 73 5 100 15z" />
    <glyph glyph-name="oe" unicode="&#x153;" horiz-adv-x="981" 
d="M945 197h-377c19 -64 73 -94 137 -94c52 0 91 17 116 50l104 -60c-49 -71 -122 -107 -218 -107s-166 37 -210 112c-46 -75 -114 -112 -204 -112c-74 0 -136 25 -186 76c-49 51 -74 113 -74 188s25 137 74 188c50 51 112 76 186 76c88 0 162 -42 203 -111
c43 74 112 111 207 111c73 0 132 -25 178 -76s69 -113 69 -188c0 -17 -2 -34 -5 -53zM566 298h255c-15 68 -64 100 -123 100c-68 0 -116 -37 -132 -100zM297 112c39 0 71 13 97 39s39 59 39 99s-13 73 -39 99s-58 39 -97 39c-79 0 -135 -57 -135 -138s56 -138 135 -138z" />
    <glyph glyph-name="Racute" unicode="&#x154;" horiz-adv-x="614" 
d="M295 900h155l-111 -137h-124zM598 0h-149l-141 243h-105v-243h-138v700h280c65 0 120 -23 165 -68s68 -100 68 -164c0 -87 -54 -167 -135 -204zM345 571h-142v-207h142c52 0 95 47 95 104s-43 103 -95 103z" />
    <glyph glyph-name="racute" unicode="&#x155;" horiz-adv-x="356" 
d="M193 700h155l-111 -137h-124zM188 500v-86c24 64 84 96 152 96v-144c-39 5 -75 -3 -106 -24s-46 -55 -46 -103v-239h-129v500h129z" />
    <glyph glyph-name="Rcommaaccent" unicode="&#x156;" horiz-adv-x="614" 
d="M443 264l155 -264h-149l-141 243h-105v-243h-138v700h280c65 0 120 -23 165 -68s68 -100 68 -164c0 -87 -54 -167 -135 -204zM345 571h-142v-207h142c52 0 95 47 95 104s-43 103 -95 103zM360 -263h-102l10 200h122z" />
    <glyph glyph-name="rcommaaccent" unicode="&#x157;" horiz-adv-x="356" 
d="M188 500v-86c24 64 84 96 152 96v-144c-39 5 -75 -3 -106 -24s-46 -55 -46 -103v-239h-129v500h129zM157 -263h-102l10 200h122z" />
    <glyph glyph-name="Rcaron" unicode="&#x158;" horiz-adv-x="614" 
d="M357 755h-131l-106 145h128l44 -65l43 65h128zM598 0h-149l-141 243h-105v-243h-138v700h280c65 0 120 -23 165 -68s68 -100 68 -164c0 -87 -54 -167 -135 -204zM345 571h-142v-207h142c52 0 95 47 95 104s-43 103 -95 103z" />
    <glyph glyph-name="rcaron" unicode="&#x159;" horiz-adv-x="356" 
d="M255 555h-131l-106 145h128l44 -65l43 65h128zM188 500v-86c24 64 84 96 152 96v-144c-39 5 -75 -3 -106 -24s-46 -55 -46 -103v-239h-129v500h129z" />
    <glyph glyph-name="Sacute" unicode="&#x15a;" horiz-adv-x="583" 
d="M213 771l80 137h155l-111 -137h-124zM304 -14c75 0 136 19 183 57s71 89 71 154c0 40 -11 75 -26 99c-13 24 -45 49 -66 62c-10 7 -25 14 -44 21c-19 8 -34 14 -45 17l-48 16c-52 16 -87 31 -106 44c-18 14 -27 32 -27 54c0 41 35 70 92 70c61 0 106 -30 134 -90l116 67
c-48 99 -137 157 -250 157c-63 0 -118 -19 -163 -57c-45 -37 -67 -88 -67 -151c0 -64 23 -112 66 -144c44 -31 82 -46 145 -65c57 -16 96 -31 118 -45c22 -13 33 -32 33 -57c0 -43 -35 -74 -112 -74c-80 0 -134 36 -161 107l-118 -69c39 -107 136 -173 275 -173z" />
    <glyph glyph-name="sacute" unicode="&#x15b;" horiz-adv-x="465" 
d="M231 708h155l-111 -137h-124zM178 358c0 -27 40 -42 91 -55c73 -15 168 -50 167 -157c0 -51 -19 -91 -58 -119c-38 -27 -86 -41 -143 -41c-103 0 -173 40 -210 119l112 63c15 -43 47 -65 98 -65c46 0 69 14 69 43c0 27 -40 42 -91 55c-74 19 -167 50 -167 154
c0 49 18 88 54 116c37 29 82 43 136 43c81 0 151 -38 190 -106l-110 -60c-16 34 -43 51 -80 51c-33 0 -58 -16 -58 -41z" />
    <glyph glyph-name="Scedilla" unicode="&#x15e;" horiz-adv-x="583" 
d="M558 197c0 -113 -77 -190 -200 -207v-36c39 -9 70 -35 70 -78c0 -70 -73 -101 -220 -92v91c72 -5 108 2 108 20c0 13 -21 22 -63 25v69c-112 15 -191 77 -224 170l118 69c27 -71 81 -107 161 -107c77 0 112 31 112 74c0 25 -11 44 -33 57c-22 14 -61 29 -118 45
c-63 19 -101 34 -145 65c-43 32 -66 80 -66 144c0 63 22 114 67 151c45 38 100 57 163 57c113 0 202 -58 250 -157l-116 -67c-28 60 -73 90 -134 90c-57 0 -92 -29 -92 -70c0 -22 9 -40 27 -54c19 -13 54 -28 106 -44l48 -16c11 -3 26 -9 45 -17c19 -7 34 -14 44 -21
c21 -13 53 -38 66 -62c15 -24 26 -59 26 -99z" />
    <glyph glyph-name="scedilla" unicode="&#x15f;" horiz-adv-x="465" 
d="M436 146c0 -83 -55 -137 -139 -154v-38c39 -9 70 -35 70 -78c0 -70 -73 -101 -220 -92v91c72 -5 108 2 108 20c0 13 -21 22 -63 25v69c-80 10 -136 49 -167 116l112 63c15 -43 47 -65 98 -65c46 0 69 14 69 43c0 27 -40 42 -91 55c-74 19 -167 50 -167 154
c0 49 18 88 54 116c37 29 82 43 136 43c81 0 151 -38 190 -106l-110 -60c-16 34 -43 51 -80 51c-33 0 -58 -16 -58 -41c0 -27 40 -42 91 -55c73 -15 168 -50 167 -157z" />
    <glyph glyph-name="Scaron" unicode="&#x160;" horiz-adv-x="583" 
d="M355 763h-131l-106 145h128l44 -65l43 65h128zM329 412l48 -16c11 -3 26 -9 45 -17c19 -7 34 -14 44 -21c21 -13 53 -38 66 -62c15 -24 26 -59 26 -99c0 -65 -24 -116 -71 -154s-108 -57 -183 -57c-139 0 -236 66 -275 173l118 69c27 -71 81 -107 161 -107
c77 0 112 31 112 74c0 25 -11 44 -33 57c-22 14 -61 29 -118 45c-63 19 -101 34 -145 65c-43 32 -66 80 -66 144c0 63 22 114 67 151c45 38 100 57 163 57c113 0 202 -58 250 -157l-116 -67c-28 60 -73 90 -134 90c-57 0 -92 -29 -92 -70c0 -22 9 -40 27 -54
c19 -13 54 -28 106 -44z" />
    <glyph glyph-name="scaron" unicode="&#x161;" horiz-adv-x="465" 
d="M293 563h-131l-106 145h128l44 -65l43 65h128zM178 358c0 -27 40 -42 91 -55c73 -15 168 -50 167 -157c0 -51 -19 -91 -58 -119c-38 -27 -86 -41 -143 -41c-103 0 -173 40 -210 119l112 63c15 -43 47 -65 98 -65c46 0 69 14 69 43c0 27 -40 42 -91 55
c-74 19 -167 50 -167 154c0 49 18 88 54 116c37 29 82 43 136 43c81 0 151 -38 190 -106l-110 -60c-16 34 -43 51 -80 51c-33 0 -58 -16 -58 -41z" />
    <glyph glyph-name="uni0162" unicode="&#x162;" horiz-adv-x="540" 
d="M13 700h515v-132h-189v-568h-138v568h-188v132zM307 -263h-102l10 200h122z" />
    <glyph glyph-name="uni0163" unicode="&#x163;" horiz-adv-x="385" 
d="M345 500v-124h-113v-208c0 -54 39 -55 113 -51v-117c-177 -20 -242 31 -242 168v208h-87v124h87v101l129 39v-140h113zM264 -263h-102l10 200h122z" />
    <glyph glyph-name="Tcaron" unicode="&#x164;" horiz-adv-x="540" 
d="M332 755h-131l-106 145h128l44 -65l43 65h128zM13 700h515v-132h-189v-568h-138v568h-188v132z" />
    <glyph glyph-name="tcaron" unicode="&#x165;" horiz-adv-x="406" 
d="M276 544l10 182h122l-30 -182h-102zM103 601l129 39v-140h113v-124h-113v-208c0 -54 39 -55 113 -51v-117c-177 -20 -242 31 -242 168v208h-87v124h87v101z" />
    <glyph glyph-name="Tbar" unicode="&#x166;" horiz-adv-x="540" 
d="M528 700v-132h-189v-163h119v-124h-119v-281h-138v281h-118v124h118v163h-188v132h515z" />
    <glyph glyph-name="tbar" unicode="&#x167;" horiz-adv-x="385" 
d="M345 500v-124h-113v-73h80v-104h-80v-31c0 -54 39 -55 113 -51v-117c-177 -20 -242 31 -242 168v31h-58v104h58v73h-87v124h87v101l129 39v-140h113z" />
    <glyph glyph-name="Umacron" unicode="&#x16a;" horiz-adv-x="653" 
d="M471 764h-290v105h290v-105zM326 -14c-78 0 -142 22 -192 66s-75 103 -75 177v471h137v-460c0 -73 41 -119 130 -119s130 46 130 119v460h138v-471c0 -74 -25 -133 -75 -177s-114 -66 -193 -66z" />
    <glyph glyph-name="umacron" unicode="&#x16b;" horiz-adv-x="577" 
d="M139 669h290v-105h-290v105zM389 230v270h129v-500h-129v56c-31 -47 -81 -70 -149 -70c-55 0 -100 18 -136 55c-35 37 -53 87 -53 152v307h129v-291c0 -67 39 -103 99 -103c67 0 110 41 110 124z" />
    <glyph glyph-name="Uring" unicode="&#x16e;" horiz-adv-x="653" 
d="M326 709c-73 0 -126 51 -126 119s53 118 126 118c75 0 126 -50 126 -118c0 -69 -51 -119 -126 -119zM326 790c27 0 40 13 40 38s-13 37 -40 37c-24 0 -39 -16 -39 -37c0 -23 15 -38 39 -38zM326 -14c-78 0 -142 22 -192 66s-75 103 -75 177v471h137v-460
c0 -73 41 -119 130 -119s130 46 130 119v460h138v-471c0 -74 -25 -133 -75 -177s-114 -66 -193 -66z" />
    <glyph glyph-name="uring" unicode="&#x16f;" horiz-adv-x="577" 
d="M284 539c-73 0 -126 51 -126 119s53 118 126 118c75 0 126 -50 126 -118c0 -69 -51 -119 -126 -119zM284 695c-24 0 -39 -16 -39 -37c0 -23 15 -38 39 -38c27 0 40 13 40 38s-13 37 -40 37zM389 230v270h129v-500h-129v56c-31 -47 -81 -70 -149 -70
c-55 0 -100 18 -136 55c-35 37 -53 87 -53 152v307h129v-291c0 -67 39 -103 99 -103c67 0 110 41 110 124z" />
    <glyph glyph-name="Uhungarumlaut" unicode="&#x170;" horiz-adv-x="653" 
d="M151 755l78 138h134l-84 -138h-128zM324 755l88 138h134l-94 -138h-128zM326 -14c79 0 143 22 193 66s75 103 75 177v471h-138v-460c0 -73 -41 -119 -130 -119s-130 46 -130 119v460h-137v-471c0 -74 25 -133 75 -177s114 -66 192 -66z" />
    <glyph glyph-name="uhungarumlaut" unicode="&#x171;" horiz-adv-x="577" 
d="M187 693h134l-84 -138h-128zM504 693l-94 -138h-128l88 138h134zM389 230v270h129v-500h-129v56c-31 -47 -81 -70 -149 -70c-55 0 -100 18 -136 55c-35 37 -53 87 -53 152v307h129v-291c0 -67 39 -103 99 -103c67 0 110 41 110 124z" />
    <glyph glyph-name="Uogonek" unicode="&#x172;" horiz-adv-x="653" 
d="M456 240v460h138v-471c0 -81 -30 -144 -90 -189c-68 -64 -91 -96 -92 -135c-1 -17 8 -26 25 -27c7 -1 16 1 27 5v-81c-25 -11 -52 -16 -80 -16c-57 0 -96 31 -96 88c0 33 18 71 54 112h-16c-78 0 -142 22 -192 66s-75 103 -75 177v471h137v-460c0 -73 41 -119 130 -119
s130 46 130 119z" />
    <glyph glyph-name="uogonek" unicode="&#x173;" horiz-adv-x="577" 
d="M389 500h129v-500c-35 -37 -53 -69 -53 -95c0 -18 8 -27 25 -27c8 -1 17 1 28 5v-81c-25 -11 -52 -16 -81 -16c-56 0 -95 31 -95 88c0 35 21 77 64 126h-17v56c-31 -47 -81 -70 -149 -70c-55 0 -100 18 -136 55c-35 37 -53 87 -53 152v307h129v-291
c0 -67 39 -103 99 -103c67 0 110 41 110 124v270z" />
    <glyph glyph-name="Wcircumflex" unicode="&#x174;" horiz-adv-x="999" 
d="M569 755l-43 65l-44 -65h-128l106 145h131l106 -145h-128zM705 181l134 519h145l-196 -700h-157l-132 462l-131 -462h-157l-196 700h145l134 -519l146 519h118z" />
    <glyph glyph-name="wcircumflex" unicode="&#x175;" horiz-adv-x="770" 
d="M425 555l-43 65l-44 -65h-128l106 145h131l106 -145h-128zM537 192l85 308h137l-159 -500h-123l-92 303l-92 -303h-123l-159 500h137l85 -307l91 307h122z" />
    <glyph glyph-name="Ycircumflex" unicode="&#x176;" horiz-adv-x="621" 
d="M350 755l-43 65l-44 -65h-128l106 145h131l106 -145h-128zM463 700h156l-240 -427v-273h-137v273l-239 427h156l152 -292z" />
    <glyph glyph-name="ycircumflex" unicode="&#x177;" horiz-adv-x="525" 
d="M303 555l-43 65l-44 -65h-128l106 145h131l106 -145h-128zM274 164l111 336h138l-182 -500c-52 -144 -136 -207 -264 -200v120c69 -1 107 28 131 96l-205 484h141z" />
    <glyph glyph-name="Ydieresis" unicode="&#x178;" horiz-adv-x="621" 
d="M262 768c-25 -25 -68 -25 -95 0c-27 27 -27 69 0 96s70 27 95 0c27 -27 27 -69 0 -96zM452 768c-25 -25 -68 -25 -95 0c-27 27 -27 69 0 96s70 27 95 0c27 -27 27 -69 0 -96zM463 700h156l-240 -427v-273h-137v273l-239 427h156l152 -292z" />
    <glyph glyph-name="Zacute" unicode="&#x179;" horiz-adv-x="535" 
d="M273 900h155l-111 -137h-124zM503 591l-291 -459h297v-132h-473v110l291 458h-284v132h460v-109z" />
    <glyph glyph-name="zacute" unicode="&#x17a;" horiz-adv-x="474" 
d="M241 700h155l-111 -137h-124zM428 414l-212 -293h222v-121h-395v86l211 293h-201v121h375v-86z" />
    <glyph glyph-name="Zdotaccent" unicode="&#x17b;" horiz-adv-x="535" 
d="M273 751c-43 0 -78 35 -78 78s35 77 78 77c41 0 77 -36 77 -77c0 -43 -36 -78 -77 -78zM503 591l-291 -459h297v-132h-473v110l291 458h-284v132h460v-109z" />
    <glyph glyph-name="zdotaccent" unicode="&#x17c;" horiz-adv-x="474" 
d="M241 551c-43 0 -78 35 -78 78s35 77 78 77c41 0 77 -36 77 -77c0 -43 -36 -78 -77 -78zM428 414l-212 -293h222v-121h-395v86l211 293h-201v121h375v-86z" />
    <glyph glyph-name="Zcaron" unicode="&#x17d;" horiz-adv-x="535" 
d="M335 755h-131l-106 145h128l44 -65l43 65h128zM503 591l-291 -459h297v-132h-473v110l291 458h-284v132h460v-109z" />
    <glyph glyph-name="zcaron" unicode="&#x17e;" horiz-adv-x="474" 
d="M303 555h-131l-106 145h128l44 -65l43 65h128zM428 414l-212 -293h222v-121h-395v86l211 293h-201v121h375v-86z" />
    <glyph glyph-name="florin" unicode="&#x192;" horiz-adv-x="441" 
d="M441 705v-129c-21 12 -43 13 -66 3s-37 -30 -42 -59l-18 -106h91v-124h-112l-56 -331c-24 -141 -117 -192 -238 -160v128c22 -12 44 -13 67 -3s36 30 41 59l52 307h-84v124h106l22 131c24 141 117 192 237 160z" />
    <glyph glyph-name="Scommaaccent" unicode="&#x218;" horiz-adv-x="583" 
d="M304 -14c-139 0 -236 66 -275 173l118 69c27 -71 81 -107 161 -107c77 0 112 31 112 74c0 25 -11 44 -33 57c-22 14 -61 29 -118 45c-63 19 -101 34 -145 65c-43 32 -66 80 -66 144c0 63 22 114 67 151c45 38 100 57 163 57c113 0 202 -58 250 -157l-116 -67
c-28 60 -73 90 -134 90c-57 0 -92 -29 -92 -70c0 -22 9 -40 27 -54c19 -13 54 -28 106 -44l48 -16c11 -3 26 -9 45 -17c19 -7 34 -14 44 -21c21 -13 53 -38 66 -62c15 -24 26 -59 26 -99c0 -65 -24 -116 -71 -154s-108 -57 -183 -57zM341 -263h-102l10 200h122z" />
    <glyph glyph-name="scommaaccent" unicode="&#x219;" horiz-adv-x="465" 
d="M178 358c0 -27 40 -42 91 -55c73 -15 168 -50 167 -157c0 -51 -19 -91 -58 -119c-38 -27 -86 -41 -143 -41c-103 0 -173 40 -210 119l112 63c15 -43 47 -65 98 -65c46 0 69 14 69 43c0 27 -40 42 -91 55c-74 19 -167 50 -167 154c0 49 18 88 54 116c37 29 82 43 136 43
c81 0 151 -38 190 -106l-110 -60c-16 34 -43 51 -80 51c-33 0 -58 -16 -58 -41zM280 -263h-102l10 200h122z" />
    <glyph glyph-name="uni021A" unicode="&#x21a;" horiz-adv-x="540" 
d="M13 700h515v-132h-189v-568h-138v568h-188v132zM307 -263h-102l10 200h122z" />
    <glyph glyph-name="uni021B" unicode="&#x21b;" horiz-adv-x="385" 
d="M345 500v-124h-113v-208c0 -54 39 -55 113 -51v-117c-177 -20 -242 31 -242 168v208h-87v124h87v101l129 39v-140h113zM264 -263h-102l10 200h122z" />
    <glyph glyph-name="circumflex" unicode="&#x2c6;" horiz-adv-x="383" 
d="M257 700l106 -145h-128l-43 65l-44 -65h-128l106 145h131z" />
    <glyph glyph-name="caron" unicode="&#x2c7;" horiz-adv-x="383" 
d="M192 635l43 65h128l-106 -145h-131l-106 145h128z" />
    <glyph glyph-name="breve" unicode="&#x2d8;" horiz-adv-x="373" 
d="M186 547c-105 0 -166 53 -166 145h115c0 -35 17 -52 51 -52c35 0 52 17 52 52h115c0 -92 -60 -145 -167 -145z" />
    <glyph glyph-name="dotaccent" unicode="&#x2d9;" horiz-adv-x="203" 
d="M98 551c-66 -4 -106 89 -55 132c45 51 136 10 132 -54c0 -43 -36 -78 -77 -78z" />
    <glyph glyph-name="ring" unicode="&#x2da;" horiz-adv-x="293" 
d="M146 539c-73 0 -126 51 -126 119s53 118 126 118c75 0 126 -50 126 -118c0 -69 -51 -119 -126 -119zM146 620c27 0 40 13 40 38s-13 37 -40 37c-24 0 -39 -16 -39 -37c0 -23 15 -38 39 -38z" />
    <glyph glyph-name="ogonek" unicode="&#x2db;" horiz-adv-x="216" 
d="M116 -214c-57 0 -96 31 -96 88c0 38 22 80 66 126h110c-35 -37 -52 -68 -52 -95c-1 -18 7 -27 25 -27c7 -1 16 1 27 5v-81c-25 -11 -52 -16 -80 -16z" />
    <glyph glyph-name="tilde" unicode="&#x2dc;" horiz-adv-x="379" 
d="M125 560h-104c0 157 96 177 182 121c39 -27 52 -24 52 24h105c0 -160 -97 -175 -182 -121c-39 27 -53 24 -53 -24z" />
    <glyph glyph-name="hungarumlaut" unicode="&#x2dd;" horiz-adv-x="435" 
d="M20 555l78 138h134l-84 -138h-128zM193 555l88 138h134l-94 -138h-128z" />
    <glyph glyph-name="gravecomb" unicode="&#x300;" horiz-adv-x="0" 
d="M-20 563h-124l-111 137h155z" />
    <glyph glyph-name="acutecomb" unicode="&#x301;" horiz-adv-x="0" 
d="M-255 563l80 137h155l-111 -137h-124z" />
    <glyph glyph-name="uni0302" unicode="&#x302;" horiz-adv-x="0" 
d="M-126 700l106 -145h-128l-43 65l-44 -65h-128l106 145h131z" />
    <glyph glyph-name="tildecomb" unicode="&#x303;" horiz-adv-x="0" 
d="M-247 560h-104c0 157 96 177 182 121c39 -27 52 -24 52 24h105c0 -160 -97 -175 -182 -121c-39 27 -53 24 -53 -24z" />
    <glyph glyph-name="uni0304" unicode="&#x304;" horiz-adv-x="0" 
d="M-20 564h-290v105h290v-105z" />
    <glyph glyph-name="uni0306" unicode="&#x306;" horiz-adv-x="0" 
d="M-187 547c-105 0 -166 53 -166 145h115c0 -35 17 -52 51 -52c35 0 52 17 52 52h115c0 -92 -60 -145 -167 -145z" />
    <glyph glyph-name="uni0307" unicode="&#x307;" horiz-adv-x="0" 
d="M-97 551c-43 0 -78 35 -78 78s35 77 78 77c41 0 77 -36 77 -77c0 -43 -36 -78 -77 -78z" />
    <glyph glyph-name="uni0308" unicode="&#x308;" horiz-adv-x="0" 
d="M-229 568c-27 -25 -69 -25 -96 0c-27 27 -27 69 0 96s69 27 96 0c25 -27 25 -69 0 -96zM-39 568c-27 -25 -69 -25 -96 0c-27 27 -27 69 0 96s69 27 96 0c25 -27 25 -69 0 -96z" />
    <glyph glyph-name="uni030A" unicode="&#x30a;" horiz-adv-x="0" 
d="M-150 539c-73 0 -126 51 -126 119s53 118 126 118c75 0 126 -50 126 -118c0 -69 -51 -119 -126 -119zM-150 620c27 0 40 13 40 38s-13 37 -40 37c-24 0 -39 -16 -39 -37c0 -23 15 -38 39 -38z" />
    <glyph glyph-name="uni030B" unicode="&#x30b;" horiz-adv-x="0" 
d="M-415 555l78 138h134l-84 -138h-128zM-242 555l88 138h134l-94 -138h-128z" />
    <glyph glyph-name="uni030C" unicode="&#x30c;" horiz-adv-x="0" 
d="M-191 635l43 65h128l-106 -145h-131l-106 145h128z" />
    <glyph glyph-name="uni0312" unicode="&#x312;" horiz-adv-x="0" 
d="M-122 975h102l-10 -200h-122z" />
    <glyph glyph-name="uni0326" unicode="&#x326;" horiz-adv-x="0" 
d="M-50 -263h-102l10 200h122z" />
    <glyph glyph-name="uni0327" unicode="&#x327;" horiz-adv-x="0" 
d="M-90 0v-46c39 -9 70 -35 70 -78c0 -70 -73 -101 -220 -92v91c72 -5 108 2 108 20c0 13 -21 22 -63 25v80h105z" />
    <glyph glyph-name="uni0328" unicode="&#x328;" horiz-adv-x="0" 
d="M-108 -214c-57 0 -96 31 -96 88c0 38 22 80 66 126h110c-35 -37 -52 -68 -52 -95c-1 -18 7 -27 25 -27c7 -1 16 1 27 5v-81c-25 -11 -52 -16 -80 -16z" />
    <glyph glyph-name="uni0394" unicode="&#x394;" horiz-adv-x="653" 
d="M241 700h171l238 -700h-647zM326 547l-133 -418h266z" />
    <glyph glyph-name="uni03A9" unicode="&#x3a9;" horiz-adv-x="777" 
d="M752 365c0 -94 -36 -172 -107 -233h94v-132h-277v132c92 29 153 113 153 218c0 67 -22 122 -65 165s-97 65 -161 65s-118 -22 -161 -65s-65 -98 -65 -165c0 -105 60 -189 152 -218v-132h-276v132h93c-71 61 -107 139 -107 233c0 98 35 181 106 248s157 101 258 101
s186 -34 257 -101s106 -150 106 -248z" />
    <glyph glyph-name="pi" unicode="&#x3c0;" horiz-adv-x="665" 
d="M23 500h620v-121h-80v-379h-129v379h-199v-379h-129v379h-83v121z" />
    <glyph glyph-name="uni0401" unicode="&#x401;" horiz-adv-x="530" 
d="M231 768c-25 -25 -68 -25 -95 0c-27 27 -27 69 0 96s70 27 95 0c27 -27 27 -69 0 -96zM421 768c-25 -25 -68 -25 -95 0c-27 27 -27 69 0 96s70 27 95 0c27 -27 27 -69 0 -96zM203 289v-157h295v-132h-433v700h428v-132h-290v-149h265v-130h-265z" />
    <glyph glyph-name="uni0402" unicode="&#x402;" horiz-adv-x="703" 
d="M465 466c115 0 188 -70 188 -195v-77c0 -147 -70 -213 -217 -204v128c59 -4 80 17 80 76v63c0 57 -27 85 -81 85c-31 0 -68 -7 -109 -20v-322h-137v568h-176v132h512v-132h-199v-124c48 15 94 22 139 22z" />
    <glyph glyph-name="uni0403" unicode="&#x403;" horiz-adv-x="475" 
d="M269 899h155l-111 -137h-124zM65 700h398v-132h-260v-568h-138v700z" />
    <glyph glyph-name="uni0404" unicode="&#x404;" horiz-adv-x="724" 
d="M396 121c79 0 148 38 181 99l119 -69c-60 -101 -173 -165 -300 -165c-105 0 -192 35 -261 105s-103 156 -103 259s34 190 103 259c69 70 156 105 261 105c125 0 240 -64 300 -165l-119 -69c-35 63 -102 100 -181 100c-113 0 -195 -64 -219 -165h312v-129h-312
c24 -101 106 -165 219 -165z" />
    <glyph glyph-name="uni0405" unicode="&#x405;" horiz-adv-x="583" 
d="M304 -14c-139 0 -236 66 -275 173l118 69c27 -71 81 -107 161 -107c77 0 112 31 112 74c0 25 -11 44 -33 57c-22 14 -61 29 -118 45c-63 19 -101 34 -145 65c-43 32 -66 80 -66 144c0 63 22 114 67 151c45 38 100 57 163 57c113 0 202 -58 250 -157l-116 -67
c-28 60 -73 90 -134 90c-57 0 -92 -29 -92 -70c0 -22 9 -40 27 -54c19 -13 54 -28 106 -44l48 -16c11 -3 26 -9 45 -17c19 -7 34 -14 44 -21c21 -13 53 -38 66 -62c15 -24 26 -59 26 -99c0 -65 -24 -116 -71 -154s-108 -57 -183 -57z" />
    <glyph glyph-name="uni0406" unicode="&#x406;" horiz-adv-x="268" 
d="M65 0v700h138v-700h-138z" />
    <glyph glyph-name="uni0407" unicode="&#x407;" horiz-adv-x="268" 
d="M86 768c-25 -25 -68 -25 -95 0c-27 27 -27 69 0 96s70 27 95 0c27 -27 27 -69 0 -96zM276 768c-25 -25 -68 -25 -95 0c-27 27 -27 69 0 96s70 27 95 0c27 -27 27 -69 0 -96zM65 0v700h138v-700h-138z" />
    <glyph glyph-name="uni0408" unicode="&#x408;" horiz-adv-x="569" 
d="M264 -14c-110 0 -187 44 -231 133l119 68c22 -44 59 -66 112 -66c73 0 109 37 109 97v482h137v-482c0 -73 -23 -130 -69 -171s-105 -61 -177 -61z" />
    <glyph glyph-name="uni0409" unicode="&#x409;" horiz-adv-x="961" 
d="M596 438h104c67 0 123 -21 168 -62s68 -94 68 -157c0 -64 -23 -117 -68 -158s-101 -61 -168 -61h-241v568h-187v-278c0 -121 -31 -206 -83 -246c-51 -40 -107 -53 -178 -46v128c83 -9 124 28 124 160v414h461v-262zM596 129h104c57 0 99 34 99 90s-42 90 -99 90h-104
v-180z" />
    <glyph glyph-name="uni040A" unicode="&#x40a;" horiz-adv-x="958" 
d="M593 438h103c67 0 124 -21 169 -62s68 -94 68 -157c0 -64 -23 -117 -68 -158s-102 -61 -169 -61h-241v309h-252v-309h-138v700h138v-262h252v262h138v-262zM593 129h103c57 0 99 34 99 90s-42 90 -99 90h-103v-180z" />
    <glyph glyph-name="uni040B" unicode="&#x40b;" horiz-adv-x="708" 
d="M465 466c115 0 188 -70 188 -195v-271h-137v257c0 57 -27 85 -81 85c-31 0 -68 -7 -109 -20v-322h-137v568h-176v132h512v-132h-199v-124c48 15 94 22 139 22z" />
    <glyph glyph-name="uni040C" unicode="&#x40c;" horiz-adv-x="615" 
d="M309 899h155l-111 -137h-124zM343 360l269 -360h-159l-250 328v-328h-138v700h138v-309l240 309h159z" />
    <glyph glyph-name="uni040E" unicode="&#x40e;" horiz-adv-x="600" 
d="M157 875h290v-112h-290v112zM314 362l138 338h138l-210 -507c-56 -136 -148 -200 -276 -193v129c75 -7 117 21 148 82l-229 489h138z" />
    <glyph glyph-name="uni040F" unicode="&#x40f;" horiz-adv-x="653" 
d="M450 132v568h138v-700h-193v-134h-137v134h-193v700h138v-568h247z" />
    <glyph glyph-name="uni0410" unicode="&#x410;" horiz-adv-x="668" 
d="M665 0h-150l-42 126h-279l-42 -126h-149l245 700h171zM334 541l-96 -286h192z" />
    <glyph glyph-name="uni0411" unicode="&#x411;" horiz-adv-x="585" 
d="M203 435h130c68 0 124 -20 167 -61c43 -40 65 -92 65 -156c0 -65 -22 -117 -65 -158c-43 -40 -99 -60 -167 -60h-268v700h440v-132h-302v-133zM203 129h130c55 0 95 33 95 89s-40 88 -95 88h-130v-177z" />
    <glyph glyph-name="uni0412" unicode="&#x412;" horiz-adv-x="605" 
d="M488 363c61 -35 92 -89 92 -160c0 -59 -21 -108 -63 -146s-94 -57 -155 -57h-297v700h276c60 0 110 -19 151 -56s62 -84 62 -141c0 -58 -22 -105 -66 -140zM341 571h-138v-154h138c43 0 75 33 75 77s-31 77 -75 77zM203 129h159c47 0 81 35 81 83c0 47 -34 82 -81 82
h-159v-165z" />
    <glyph glyph-name="uni0413" unicode="&#x413;" horiz-adv-x="475" 
d="M65 700h398v-132h-260v-568h-138v700z" />
    <glyph glyph-name="uni0414" unicode="&#x414;" horiz-adv-x="705" 
d="M603 700v-568h75v-266h-138v134h-387v-134h-138v266h68c39 54 58 133 58 237v331h462zM231 132h234v439h-186v-204c0 -101 -16 -180 -48 -235z" />
    <glyph glyph-name="uni0415" unicode="&#x415;" horiz-adv-x="530" 
d="M203 289v-157h295v-132h-433v700h428v-132h-290v-149h265v-130h-265z" />
    <glyph glyph-name="uni0416" unicode="&#x416;" horiz-adv-x="904" 
d="M648 357l244 -357h-154l-217 319v-319h-138v319l-217 -319h-153l243 357l-233 343h153l207 -312v312h138v-312l207 312h154z" />
    <glyph glyph-name="uni0417" unicode="&#x417;" horiz-adv-x="561" 
d="M436 362c67 -35 100 -91 100 -166c0 -63 -24 -113 -71 -152s-108 -58 -183 -58c-130 0 -217 55 -261 165l119 67c21 -68 69 -102 142 -102c76 0 117 34 117 89s-41 89 -114 89h-87v123h66c69 0 110 32 110 84s-34 84 -99 84c-60 0 -102 -29 -126 -88l-117 68
c47 99 128 149 243 149c69 0 126 -19 170 -56s66 -87 66 -148c0 -63 -25 -112 -75 -148z" />
    <glyph glyph-name="uni0418" unicode="&#x418;" horiz-adv-x="673" 
d="M608 0h-138v427l-300 -427h-105v700h138v-428l300 428h105v-700z" />
    <glyph glyph-name="uni0419" unicode="&#x419;" horiz-adv-x="673" 
d="M481 764h-290v112h290v-112zM608 0h-138v427l-300 -427h-105v700h138v-428l300 428h105v-700z" />
    <glyph glyph-name="uni041A" unicode="&#x41a;" horiz-adv-x="615" 
d="M343 360l269 -360h-159l-250 328v-328h-138v700h138v-309l240 309h159z" />
    <glyph glyph-name="uni041B" unicode="&#x41b;" horiz-adv-x="676" 
d="M11 0v128c83 -12 124 26 124 158v414h476v-700h-137v568h-202v-278c0 -121 -31 -205 -83 -245c-51 -40 -107 -52 -178 -45z" />
    <glyph glyph-name="uni041C" unicode="&#x41c;" horiz-adv-x="815" 
d="M608 700h142v-700h-137v454l-197 -325h-16l-197 324v-453h-138v700h142l201 -331z" />
    <glyph glyph-name="uni041D" unicode="&#x41d;" horiz-adv-x="665" 
d="M463 422v278h137v-700h-137v290h-260v-290h-138v700h138v-278h260z" />
    <glyph glyph-name="uni041E" unicode="&#x41e;" horiz-adv-x="792" 
d="M654 91c-71 -70 -157 -105 -258 -105s-187 35 -258 105c-70 71 -105 157 -105 259s35 188 105 258c71 71 157 106 258 106s187 -35 258 -106c71 -70 106 -156 106 -258s-35 -188 -106 -259zM235 185c43 -43 97 -64 161 -64s118 21 161 64s65 98 65 165s-22 122 -65 165
s-97 65 -161 65s-118 -22 -161 -65s-65 -98 -65 -165s22 -122 65 -165z" />
    <glyph glyph-name="uni041F" unicode="&#x41f;" horiz-adv-x="653" 
d="M65 700h523v-700h-138v568h-247v-568h-138v700z" />
    <glyph glyph-name="uni0420" unicode="&#x420;" horiz-adv-x="590" 
d="M65 700h261c67 0 124 -23 170 -68s69 -101 69 -167s-23 -122 -69 -167s-103 -68 -170 -68h-123v-230h-138v700zM203 359h123c59 0 102 46 102 106c0 61 -43 106 -102 106h-123v-212z" />
    <glyph glyph-name="uni0421" unicode="&#x421;" horiz-adv-x="726" 
d="M397 -14c-105 0 -192 35 -261 105s-103 156 -103 259s34 190 103 259c69 70 156 105 261 105c127 0 241 -64 301 -165l-119 -69c-35 63 -102 100 -182 100c-68 0 -123 -21 -165 -64c-41 -43 -62 -98 -62 -166c0 -67 21 -122 62 -165c42 -43 97 -64 165 -64
c80 0 149 38 182 99l119 -69c-60 -101 -173 -165 -301 -165z" />
    <glyph glyph-name="uni0422" unicode="&#x422;" horiz-adv-x="540" 
d="M13 700h515v-132h-189v-568h-138v568h-188v132z" />
    <glyph glyph-name="uni0423" unicode="&#x423;" horiz-adv-x="600" 
d="M314 362l138 338h138l-210 -507c-56 -136 -148 -200 -276 -193v129c75 -7 117 21 148 82l-229 489h138z" />
    <glyph glyph-name="uni0424" unicode="&#x424;" horiz-adv-x="819" 
d="M477 66v-81h-135v81c-98 10 -176 40 -233 89c-57 50 -86 115 -86 195s29 145 86 194c57 50 135 80 233 90v81h135v-81c97 -9 175 -39 233 -89s87 -115 87 -195s-29 -145 -87 -195s-136 -80 -233 -89zM477 509v-317c121 14 182 67 182 158c0 92 -61 145 -182 159zM160 350
c0 -91 61 -144 182 -157v315c-121 -13 -182 -66 -182 -158z" />
    <glyph glyph-name="uni0425" unicode="&#x425;" horiz-adv-x="610" 
d="M383 360l215 -360h-157l-136 228l-136 -228h-156l214 359l-203 341h156l125 -210l125 210h156z" />
    <glyph glyph-name="uni0426" unicode="&#x426;" horiz-adv-x="690" 
d="M588 700v-568h75v-266h-138v134h-460v700h138v-568h247v568h138z" />
    <glyph glyph-name="uni0427" unicode="&#x427;" horiz-adv-x="633" 
d="M430 390v310h138v-700h-138v256c-43 -18 -88 -27 -137 -27c-71 0 -129 20 -175 59c-45 40 -68 94 -68 162v250h138v-232c0 -67 43 -107 108 -107c49 0 93 10 134 29z" />
    <glyph glyph-name="uni0428" unicode="&#x428;" horiz-adv-x="943" 
d="M740 132v568h138v-700h-813v700h138v-568h200v568h137v-568h200z" />
    <glyph glyph-name="uni0429" unicode="&#x429;" horiz-adv-x="980" 
d="M878 700v-568h75v-266h-138v134h-750v700h138v-568h200v568h137v-568h200v568h138z" />
    <glyph glyph-name="uni042A" unicode="&#x42a;" horiz-adv-x="693" 
d="M429 0h-261v568h-168v132h305v-230h124c67 0 124 -23 170 -68s69 -101 69 -167s-23 -122 -69 -167s-103 -68 -170 -68zM305 341v-212h124c59 0 101 45 101 106s-42 106 -101 106h-124z" />
    <glyph glyph-name="uni042B" unicode="&#x42b;" horiz-adv-x="831" 
d="M326 0h-261v700h138v-230h123c67 0 124 -23 170 -68s69 -101 69 -167s-23 -122 -69 -167s-103 -68 -170 -68zM766 0h-137v700h137v-700zM203 341v-212h123c59 0 102 45 102 106s-43 106 -102 106h-123z" />
    <glyph glyph-name="uni042C" unicode="&#x42c;" horiz-adv-x="590" 
d="M203 470h123c67 0 124 -23 170 -68s69 -101 69 -167s-23 -122 -69 -167s-103 -68 -170 -68h-261v700h138v-230zM203 129h123c59 0 102 45 102 106c0 60 -43 106 -102 106h-123v-212z" />
    <glyph glyph-name="uni042D" unicode="&#x42d;" horiz-adv-x="724" 
d="M328 714c105 0 192 -35 261 -105c69 -69 103 -156 103 -259s-34 -189 -103 -259s-156 -105 -261 -105c-127 0 -240 64 -300 165l119 69c33 -61 102 -99 181 -99c113 0 195 64 219 165h-312v129h312c-24 101 -106 165 -219 165c-79 0 -146 -37 -181 -100l-119 69
c60 101 175 165 300 165z" />
    <glyph glyph-name="uni042E" unicode="&#x42e;" horiz-adv-x="1055" 
d="M659 714c101 0 187 -35 258 -106c71 -70 106 -156 106 -258c0 -101 -35 -187 -106 -258s-157 -106 -258 -106c-91 0 -169 29 -236 87c-66 58 -106 132 -119 221h-101v-294h-138v700h138v-274h104c17 84 58 153 123 207s142 81 229 81zM659 580c-65 0 -119 -21 -162 -64
s-64 -98 -64 -166c0 -67 22 -122 65 -165s97 -64 161 -64s118 21 161 64s65 98 65 165s-22 122 -65 165s-97 65 -161 65z" />
    <glyph glyph-name="uni042F" unicode="&#x42f;" horiz-adv-x="624" 
d="M279 700h280v-700h-138v243h-79l-161 -243h-155l171 258c-89 32 -151 117 -151 210c0 64 23 119 68 164s100 68 165 68zM279 364h142v207h-142c-52 0 -95 -46 -95 -103s43 -104 95 -104z" />
    <glyph glyph-name="uni0430" unicode="&#x430;" 
d="M439 441v59h129v-500h-129v59c-39 -49 -93 -73 -163 -73c-67 0 -124 25 -172 76c-47 51 -71 114 -71 188s24 136 71 187c48 51 105 77 172 77c70 0 124 -24 163 -73zM201 148c26 -26 59 -39 99 -39s73 13 99 39c27 27 40 61 40 102s-13 75 -40 101c-26 27 -59 40 -99 40
s-73 -13 -99 -40c-26 -26 -39 -60 -39 -101s13 -75 39 -102z" />
    <glyph glyph-name="uni0431" unicode="&#x431;" horiz-adv-x="567" 
d="M296 -14c-79 0 -142 25 -191 76c-48 51 -72 115 -72 193c0 85 13 151 38 197c25 47 76 89 153 127c11 5 27 13 48 22l42 21c8 4 19 10 32 18c36 22 46 40 63 79l106 -61c-9 -41 -28 -72 -59 -95c-30 -22 -75 -45 -136 -68c-85 -33 -118 -63 -135 -110c37 38 87 57 150 57
c55 0 105 -20 148 -61c43 -40 65 -93 65 -160c0 -69 -23 -125 -70 -169c-46 -44 -107 -66 -182 -66zM294 339c-33 0 -62 -10 -88 -31c-25 -21 -38 -48 -38 -83s12 -64 36 -87c25 -23 55 -34 91 -34s66 11 89 33s35 50 35 84c0 68 -52 118 -125 118z" />
    <glyph glyph-name="uni0432" unicode="&#x432;" horiz-adv-x="511" 
d="M419 256c47 -23 70 -61 70 -114c0 -84 -60 -142 -167 -142h-263v500h243c105 0 166 -57 166 -141c0 -44 -16 -78 -49 -103zM290 394h-110v-90h110c37 0 55 15 55 45s-18 45 -55 45zM180 109h127c37 0 56 16 56 48c0 28 -21 45 -56 45h-127v-93z" />
    <glyph glyph-name="uni0433" unicode="&#x433;" horiz-adv-x="411" 
d="M59 500h342v-124h-213v-376h-129v500z" />
    <glyph glyph-name="uni0434" unicode="&#x434;" horiz-adv-x="598" 
d="M509 500v-379h66v-255h-126v134h-310v-134h-126v255h61c29 43 43 102 43 177v202h392zM212 121h171v263h-140v-86c0 -71 -10 -130 -31 -177z" />
    <glyph glyph-name="uni0435" unicode="&#x435;" horiz-adv-x="581" 
d="M545 197h-377c17 -63 64 -94 141 -94c49 0 87 17 112 50l104 -60c-49 -71 -122 -107 -218 -107c-83 0 -149 25 -199 75s-75 113 -75 189c0 75 25 138 74 188c49 51 113 76 190 76c73 0 134 -25 181 -76c48 -51 72 -113 72 -188c0 -17 -2 -34 -5 -53zM166 297h255
c-15 68 -65 101 -124 101c-69 0 -116 -37 -131 -101z" />
    <glyph glyph-name="uni0436" unicode="&#x436;" horiz-adv-x="746" 
d="M553 253l181 -253h-145l-153 224v-224h-126v224l-153 -224h-144l180 253l-170 247h144l143 -217v217h126v-217l143 217h145z" />
    <glyph glyph-name="uni0437" unicode="&#x437;" horiz-adv-x="450" 
d="M352 255c51 -25 76 -64 76 -119c0 -85 -74 -150 -202 -150c-101 0 -170 40 -207 120l105 62c16 -45 50 -68 103 -68c48 0 75 20 75 52c0 31 -20 46 -59 46h-71v110h54c39 0 58 15 58 46c0 29 -25 48 -62 48c-43 0 -74 -21 -93 -63l-104 60c38 77 103 115 195 115
c57 0 103 -15 136 -44c34 -29 51 -64 51 -105c0 -49 -18 -85 -55 -110z" />
    <glyph glyph-name="uni0438" unicode="&#x438;" horiz-adv-x="575" 
d="M185 216l235 284h96v-500h-126v284l-235 -284h-96v500h126v-284z" />
    <glyph glyph-name="uni0439" unicode="&#x439;" horiz-adv-x="575" 
d="M433 564h-290v112h290v-112zM185 216l235 284h96v-500h-126v284l-235 -284h-96v500h126v-284z" />
    <glyph glyph-name="uni043A" unicode="&#x43a;" horiz-adv-x="525" 
d="M313 253l207 -253h-150l-182 227v-227h-129v500h129v-220l172 220h154z" />
    <glyph glyph-name="uni043B" unicode="&#x43b;" horiz-adv-x="546" 
d="M92 500h396v-500h-129v376h-138v-167c0 -155 -70 -224 -211 -209v121c53 -13 82 18 82 95v284z" />
    <glyph glyph-name="uni043C" unicode="&#x43c;" horiz-adv-x="638" 
d="M452 500h127v-500h-125v292l-127 -200h-16l-128 202v-294h-124v500h127l133 -210z" />
    <glyph glyph-name="uni043D" unicode="&#x43d;" horiz-adv-x="575" 
d="M387 311v189h129v-500h-129v190h-199v-190h-129v500h129v-189h199z" />
    <glyph glyph-name="uni043E" unicode="&#x43e;" horiz-adv-x="594" 
d="M485 62c-51 -51 -114 -76 -188 -76s-137 25 -188 76s-76 114 -76 188s25 136 76 187s114 77 188 77s137 -26 188 -77s77 -113 77 -187s-26 -137 -77 -188zM200 151c26 -26 58 -39 97 -39s71 13 97 39s39 59 39 99s-13 73 -39 99s-58 39 -97 39s-71 -13 -97 -39
c-25 -26 -38 -59 -38 -99s13 -73 38 -99z" />
    <glyph glyph-name="uni043F" unicode="&#x43f;" horiz-adv-x="575" 
d="M59 500h457v-500h-129v379h-199v-379h-129v500z" />
    <glyph glyph-name="uni0440" unicode="&#x440;" 
d="M350 514c67 0 125 -26 172 -77c48 -51 72 -113 72 -187s-24 -137 -72 -188c-47 -51 -105 -76 -172 -76c-70 0 -124 24 -162 73v-259h-129v700h129v-59c38 49 92 73 162 73zM227 148c26 -26 59 -39 99 -39s73 13 99 39c27 27 40 61 40 102s-13 75 -40 101
c-26 27 -59 40 -99 40s-73 -13 -99 -40c-26 -26 -39 -60 -39 -101s13 -75 39 -102z" />
    <glyph glyph-name="uni0441" unicode="&#x441;" horiz-adv-x="536" 
d="M297 -14c-75 0 -138 25 -189 76c-50 51 -75 113 -75 188s25 137 75 188c51 51 114 76 189 76c97 0 183 -50 224 -129l-111 -65c-20 41 -63 67 -114 67c-77 0 -134 -57 -134 -137c0 -39 13 -72 38 -98c25 -25 57 -38 96 -38c52 0 95 25 115 66l112 -64
c-44 -79 -129 -130 -226 -130z" />
    <glyph glyph-name="uni0442" unicode="&#x442;" horiz-adv-x="463" 
d="M10 500h443v-124h-156v-376h-129v376h-158v124z" />
    <glyph glyph-name="uni0443" unicode="&#x443;" horiz-adv-x="525" 
d="M274 164l111 336h138l-182 -500c-51 -141 -139 -207 -264 -200v120c68 -1 104 23 128 86l-202 494h137z" />
    <glyph glyph-name="uni0444" unicode="&#x444;" horiz-adv-x="685" 
d="M406 -8v-192h-126v192c-77 11 -137 40 -181 87s-66 104 -66 171s22 124 66 171s104 76 181 87v192h126v-192c77 -11 137 -40 181 -87s66 -104 66 -171s-22 -124 -66 -171s-104 -76 -181 -87zM160 250c0 -67 43 -118 120 -135v270c-77 -17 -120 -67 -120 -135zM406 385
v-269c77 17 119 67 119 134c0 68 -42 118 -119 135z" />
    <glyph glyph-name="uni0445" unicode="&#x445;" horiz-adv-x="525" 
d="M337 256l183 -256h-149l-108 152l-109 -152h-149l183 255l-175 245h149l101 -141l101 141h148z" />
    <glyph glyph-name="uni0446" unicode="&#x446;" horiz-adv-x="605" 
d="M499 500v-379h84v-255h-126v134h-398v500h129v-379h182v379h129z" />
    <glyph glyph-name="uni0447" unicode="&#x447;" horiz-adv-x="541" 
d="M354 280v220h129v-500h-129v159c-37 -12 -77 -18 -119 -18c-121 0 -200 63 -200 180v179h129v-164c0 -50 31 -75 93 -75c36 0 68 6 97 19z" />
    <glyph glyph-name="uni0448" unicode="&#x448;" horiz-adv-x="833" 
d="M645 121v379h129v-500h-715v500h129v-379h164v379h129v-379h164z" />
    <glyph glyph-name="uni0449" unicode="&#x449;" horiz-adv-x="848" 
d="M759 500v-379h66v-255h-126v134h-640v500h129v-379h156v379h129v-379h157v379h129z" />
    <glyph glyph-name="uni044A" unicode="&#x44a;" horiz-adv-x="574" 
d="M265 340h98c113 0 188 -67 188 -170s-75 -170 -188 -170h-227v376h-136v124h265v-160zM265 114h98c36 0 62 23 62 56s-26 57 -62 57h-98v-113z" />
    <glyph glyph-name="uni044B" unicode="&#x44b;" horiz-adv-x="717" 
d="M188 340h97c113 0 189 -67 189 -170s-76 -170 -189 -170h-226v500h129v-160zM529 0v500h129v-500h-129zM188 114h98c36 0 62 23 62 56s-26 57 -62 57h-98v-113z" />
    <glyph glyph-name="uni044C" unicode="&#x44c;" horiz-adv-x="496" 
d="M188 340h97c113 0 189 -67 189 -170s-76 -170 -189 -170h-226v500h129v-160zM188 114h98c36 0 62 23 62 56s-26 57 -62 57h-98v-113z" />
    <glyph glyph-name="uni044D" unicode="&#x44d;" horiz-adv-x="537" 
d="M243 514c76 0 138 -25 187 -74s74 -112 74 -190s-25 -142 -74 -191s-111 -73 -188 -73c-103 0 -189 51 -229 130l109 63c17 -41 62 -69 122 -69c56 0 102 33 122 82h-170v116h170c-20 49 -66 82 -122 82c-59 0 -99 -23 -121 -68l-109 63c43 79 128 129 229 129z" />
    <glyph glyph-name="uni044E" unicode="&#x44e;" horiz-adv-x="811" 
d="M514 514c74 0 137 -26 188 -77s77 -113 77 -187s-26 -137 -77 -188s-114 -76 -188 -76c-63 0 -117 19 -164 57s-77 87 -90 147h-72v-190h-129v500h129v-189h73c13 59 43 108 90 146s101 57 163 57zM417 151c26 -26 58 -39 97 -39s71 13 97 39s39 59 39 99s-13 73 -39 99
s-58 39 -97 39s-71 -13 -97 -39c-25 -26 -38 -59 -38 -99s13 -73 38 -99z" />
    <glyph glyph-name="uni044F" unicode="&#x44f;" horiz-adv-x="519" 
d="M226 500h234v-500h-126v156h-45l-115 -156h-149l125 171c-64 27 -105 90 -105 157c0 47 17 87 50 121s77 51 131 51zM334 385h-98c-37 0 -65 -24 -65 -61c0 -36 28 -59 65 -59h98v120z" />
    <glyph glyph-name="uni0451" unicode="&#x451;" horiz-adv-x="581" 
d="M243 572c-25 -25 -68 -25 -95 0c-27 27 -27 69 0 96s70 27 95 0c27 -27 27 -69 0 -96zM433 572c-25 -25 -68 -25 -95 0c-27 27 -27 69 0 96s70 27 95 0c27 -27 27 -69 0 -96zM545 197h-377c17 -63 64 -94 141 -94c49 0 87 17 112 50l104 -60c-49 -71 -122 -107 -218 -107
c-83 0 -149 25 -199 75s-75 113 -75 189c0 75 25 138 74 188c49 51 113 76 190 76c73 0 134 -25 181 -76c48 -51 72 -113 72 -188c0 -17 -2 -34 -5 -53zM166 297h255c-15 68 -65 101 -124 101c-69 0 -116 -37 -131 -101z" />
    <glyph glyph-name="uni0452" unicode="&#x452;" horiz-adv-x="583" 
d="M343 514c55 0 101 -18 136 -55c36 -37 54 -87 54 -152v-317c0 -147 -71 -213 -218 -204v124c61 -4 89 20 89 80v301c0 67 -40 103 -100 103c-67 0 -110 -41 -110 -124v-270h-129v554h-62v84h62v62h129v-62h141v-84h-141v-111c31 47 80 71 149 71z" />
    <glyph glyph-name="uni0453" unicode="&#x453;" horiz-adv-x="411" 
d="M214 700h155l-111 -137h-124zM59 500h342v-124h-213v-376h-129v500z" />
    <glyph glyph-name="uni0454" unicode="&#x454;" horiz-adv-x="537" 
d="M415 179l109 -63c-40 -79 -126 -130 -229 -130c-77 0 -140 24 -189 73s-73 113 -73 191s24 141 73 190s112 74 188 74c101 0 186 -50 229 -129l-109 -63c-22 45 -62 68 -121 68c-56 0 -102 -33 -122 -82h170v-116h-170c20 -49 66 -82 122 -82c60 0 105 28 122 69z" />
    <glyph glyph-name="uni0455" unicode="&#x455;" horiz-adv-x="465" 
d="M178 358c0 -27 40 -42 91 -55c73 -15 168 -50 167 -157c0 -51 -19 -91 -58 -119c-38 -27 -86 -41 -143 -41c-103 0 -173 40 -210 119l112 63c15 -43 47 -65 98 -65c46 0 69 14 69 43c0 27 -40 42 -91 55c-74 19 -167 50 -167 154c0 49 18 88 54 116c37 29 82 43 136 43
c81 0 151 -38 190 -106l-110 -60c-16 34 -43 51 -80 51c-33 0 -58 -16 -58 -41z" />
    <glyph glyph-name="uni0456" unicode="&#x456;" horiz-adv-x="247" 
d="M123 560c-43 0 -79 36 -79 79s36 80 79 80c44 0 80 -37 80 -80s-36 -79 -80 -79zM188 0h-129v500h129v-500z" />
    <glyph glyph-name="uni0457" unicode="&#x457;" horiz-adv-x="247" 
d="M75 568c-25 -25 -68 -25 -95 0c-27 27 -27 69 0 96s70 27 95 0c27 -27 27 -69 0 -96zM265 568c-25 -25 -68 -25 -95 0c-27 27 -27 69 0 96s70 27 95 0c27 -27 27 -69 0 -96zM188 0h-129v500h129v-500z" />
    <glyph glyph-name="uni0458" unicode="&#x458;" horiz-adv-x="264" 
d="M141 560c-44 0 -80 36 -80 79s36 80 80 80c43 0 79 -37 79 -80s-36 -79 -79 -79zM76 -10v510h129v-510c0 -147 -70 -213 -218 -204v124c61 -4 89 20 89 80z" />
    <glyph glyph-name="uni0459" unicode="&#x459;" horiz-adv-x="764" 
d="M478 328h92c105 0 171 -63 171 -164s-68 -164 -171 -164h-221v376h-128v-167c0 -153 -70 -224 -211 -215v121c55 -7 82 26 82 101v284h386v-172zM478 114h93c29 0 52 18 52 50s-23 50 -52 50h-93v-100z" />
    <glyph glyph-name="uni045A" unicode="&#x45a;" horiz-adv-x="790" 
d="M496 328h93c105 0 178 -64 178 -164s-74 -164 -178 -164h-222v207h-187v-207h-129v500h129v-172h187v172h129v-172zM496 114h93c29 0 52 18 52 50s-23 50 -52 50h-93v-100z" />
    <glyph glyph-name="uni045B" unicode="&#x45b;" horiz-adv-x="583" 
d="M343 514c55 0 101 -18 136 -55c36 -37 54 -87 54 -152v-307h-129v291c0 67 -40 103 -100 103c-67 0 -110 -41 -110 -124v-270h-129v554h-62v84h62v62h129v-62h141v-84h-141v-111c31 47 80 71 149 71z" />
    <glyph glyph-name="uni045C" unicode="&#x45c;" horiz-adv-x="525" 
d="M269 700h155l-111 -137h-124zM313 253l207 -253h-150l-182 227v-227h-129v500h129v-220l172 220h154z" />
    <glyph glyph-name="uni045E" unicode="&#x45e;" horiz-adv-x="525" 
d="M118 676h290v-112h-290v112zM274 164l111 336h138l-182 -500c-51 -141 -139 -207 -264 -200v120c68 -1 104 23 128 86l-202 494h137z" />
    <glyph glyph-name="uni045F" unicode="&#x45f;" horiz-adv-x="575" 
d="M387 121v379h129v-500h-165v-134h-126v134h-166v500h129v-379h199z" />
    <glyph glyph-name="uni0490" unicode="&#x490;" horiz-adv-x="475" 
d="M325 700v120h138v-252h-260v-568h-138v700h260z" />
    <glyph glyph-name="uni0491" unicode="&#x491;" horiz-adv-x="411" 
d="M275 500v101h126v-225h-213v-376h-129v500h216z" />
    <glyph glyph-name="Wgrave" unicode="&#x1e80;" horiz-adv-x="999" 
d="M611 763h-124l-111 137h155zM211 0h157l131 462l132 -462h157l196 700h-145l-134 -519l-147 519h-118l-146 -519l-134 519h-145z" />
    <glyph glyph-name="wgrave" unicode="&#x1e81;" horiz-adv-x="770" 
d="M387 700l80 -137h-124l-111 137h155zM537 192l85 308h137l-159 -500h-123l-92 303l-92 -303h-123l-159 500h137l85 -307l91 307h122z" />
    <glyph glyph-name="Wacute" unicode="&#x1e82;" horiz-adv-x="999" 
d="M449 763l80 137h155l-111 -137h-124zM211 0h157l131 462l132 -462h157l196 700h-145l-134 -519l-147 519h-118l-146 -519l-134 519h-145z" />
    <glyph glyph-name="wacute" unicode="&#x1e83;" horiz-adv-x="770" 
d="M385 700h155l-111 -137h-124zM537 192l85 308h137l-159 -500h-123l-92 303l-92 -303h-123l-159 500h137l85 -307l91 307h122z" />
    <glyph glyph-name="Wdieresis" unicode="&#x1e84;" horiz-adv-x="999" 
d="M481 768c-25 -25 -68 -25 -95 0c-27 27 -27 69 0 96s70 27 95 0c27 -27 27 -69 0 -96zM671 768c-25 -25 -68 -25 -95 0c-27 27 -27 69 0 96s70 27 95 0c27 -27 27 -69 0 -96zM368 0h-157l-196 700h145l134 -519l146 519h118l147 -519l134 519h145l-196 -700h-157
l-132 462z" />
    <glyph glyph-name="wdieresis" unicode="&#x1e85;" horiz-adv-x="770" 
d="M337 568c-25 -25 -68 -25 -95 0c-27 27 -27 69 0 96s70 27 95 0c27 -27 27 -69 0 -96zM527 568c-25 -25 -68 -25 -95 0c-27 27 -27 69 0 96s70 27 95 0c27 -27 27 -69 0 -96zM537 192l85 308h137l-159 -500h-123l-92 303l-92 -303h-123l-159 500h137l85 -307l91 307h122z
" />
    <glyph glyph-name="Ygrave" unicode="&#x1ef2;" horiz-adv-x="621" 
d="M312 900l80 -137h-124l-111 137h155zM463 700h156l-240 -427v-273h-137v273l-239 427h156l152 -292z" />
    <glyph glyph-name="ygrave" unicode="&#x1ef3;" horiz-adv-x="525" 
d="M265 700l80 -137h-124l-111 137h155zM274 164l111 336h138l-182 -500c-52 -144 -136 -207 -264 -200v120c69 -1 107 28 131 96l-205 484h141z" />
    <glyph glyph-name="endash" unicode="&#x2013;" horiz-adv-x="645" 
d="M580 240h-515v124h515v-124z" />
    <glyph glyph-name="emdash" unicode="&#x2014;" horiz-adv-x="745" 
d="M680 240h-615v124h615v-124z" />
    <glyph glyph-name="quoteleft" unicode="&#x2018;" horiz-adv-x="278" 
d="M189 422h-140l75 278h105z" />
    <glyph glyph-name="quoteright" unicode="&#x2019;" horiz-adv-x="278" 
d="M89 701h140l-75 -278h-105z" />
    <glyph glyph-name="quotesinglbase" unicode="&#x201a;" horiz-adv-x="278" 
d="M89 138h140l-75 -278h-105z" />
    <glyph glyph-name="quotedblleft" unicode="&#x201c;" horiz-adv-x="463" 
d="M189 422h-140l75 278h105zM374 422h-140l75 278h105z" />
    <glyph glyph-name="quotedblright" unicode="&#x201d;" horiz-adv-x="463" 
d="M89 701h140l-75 -278h-105zM274 701h140l-75 -278h-105z" />
    <glyph glyph-name="quotedblbase" unicode="&#x201e;" horiz-adv-x="463" 
d="M89 138h140l-75 -278h-105zM274 138h140l-75 -278h-105z" />
    <glyph glyph-name="dagger" unicode="&#x2020;" horiz-adv-x="480" 
d="M305 565h130v-124h-130v-441h-129v441h-131v124h131v135h129v-135z" />
    <glyph glyph-name="daggerdbl" unicode="&#x2021;" horiz-adv-x="480" 
d="M435 565v-124h-130v-182h130v-124h-130v-135h-129v135h-131v124h131v182h-131v124h131v135h129v-135h130z" />
    <glyph glyph-name="bullet" unicode="&#x2022;" horiz-adv-x="360" 
d="M182 213c-39 0 -72 13 -99 40s-40 60 -40 99c0 37 13 69 40 96s60 40 99 40c37 0 69 -13 96 -40s40 -59 40 -96c0 -39 -13 -72 -40 -99s-59 -40 -96 -40z" />
    <glyph glyph-name="ellipsis" unicode="&#x2026;" horiz-adv-x="723" 
d="M194 12c-33 -33 -87 -33 -120 0s-33 87 0 120s87 33 120 0s33 -87 0 -120zM422 12c-33 -33 -87 -33 -120 0s-33 87 0 120s87 33 120 0s33 -87 0 -120zM649 12c-33 -33 -87 -33 -120 0s-33 87 0 120s87 33 120 0s33 -87 0 -120z" />
    <glyph glyph-name="perthousand" unicode="&#x2030;" horiz-adv-x="1139" 
d="M334 431c-32 -31 -72 -47 -120 -47s-88 16 -121 48c-32 32 -48 71 -48 117s16 85 48 117c33 32 73 48 121 48s88 -16 120 -48c32 -31 48 -70 48 -117s-16 -86 -48 -118zM176 71l-60 35l456 507l61 -34zM168 503c24 -24 66 -24 90 0c24 25 24 67 0 91s-66 24 -90 0
c-23 -24 -23 -66 0 -91zM672 36c-32 -32 -72 -48 -120 -48s-88 16 -120 48s-48 71 -48 117s16 85 48 117s72 48 120 48s88 -16 120 -48s48 -71 48 -117s-16 -85 -48 -117zM926 -12c-48 0 -88 16 -121 48c-32 32 -48 71 -48 117s16 85 48 117c33 32 73 48 121 48
c47 0 87 -16 119 -48c33 -32 49 -71 49 -117s-16 -85 -49 -117c-32 -32 -72 -48 -119 -48zM614 153c0 36 -26 64 -62 64s-62 -28 -62 -64s26 -64 62 -64s62 29 62 64zM925 89c37 0 63 29 63 64c0 36 -26 64 -63 64c-36 0 -62 -28 -62 -64s26 -64 62 -64z" />
    <glyph glyph-name="guilsinglleft" unicode="&#x2039;" horiz-adv-x="355" 
d="M173 497h119l-110 -188l110 -187h-119l-110 187z" />
    <glyph glyph-name="guilsinglright" unicode="&#x203a;" horiz-adv-x="355" 
d="M63 497h119l110 -188l-110 -187h-119l110 187z" />
    <glyph glyph-name="fraction" unicode="&#x2044;" horiz-adv-x="190" 
d="M340 700l-400 -700h-90l400 700h90z" />
    <glyph glyph-name="Euro" unicode="&#x20ac;" horiz-adv-x="611" 
d="M475 204l114 -65c-45 -102 -122 -153 -229 -153c-148 0 -247 104 -274 271h-70v78h63v15v24h-63v77h71c28 163 126 263 273 263c103 0 179 -49 226 -146l-115 -66c-25 52 -62 78 -111 78c-70 0 -115 -43 -134 -129h205v-77h-215v-24v-15h215v-78h-207
c19 -91 64 -136 136 -136c51 0 89 28 115 83z" />
    <glyph glyph-name="uni20BD" unicode="&#x20bd;" horiz-adv-x="601" 
d="M349 243h-124v-55h223v-88h-223v-100h-137v100h-75v88h75v55h-75v121h75v336h261c66 0 122 -23 167 -68c46 -45 69 -100 69 -164s-23 -118 -68 -161s-101 -64 -168 -64zM349 571h-124v-207h124c56 0 99 45 99 104s-43 103 -99 103z" />
    <glyph glyph-name="uni2116" unicode="&#x2116;" horiz-adv-x="1039" 
d="M839 383c-48 0 -88 16 -120 48c-32 33 -48 72 -48 117c0 46 16 85 48 117s72 48 120 48s88 -16 120 -48s48 -71 48 -117s-16 -85 -48 -117c-31 -32 -71 -48 -120 -48zM470 273v427h138v-700h-105l-300 428v-428h-138v700h105zM796 505c23 -23 64 -23 85 0
c23 23 23 63 0 86c-21 23 -62 23 -85 0c-21 -23 -21 -63 0 -86zM996 208h-312v121h312v-121z" />
    <glyph glyph-name="trademark" unicode="&#x2122;" horiz-adv-x="473" 
d="M33 700h171v-56h-55v-144h-61v144h-55v56zM333 623l50 77h58v-200h-58v109l-48 -73h-5l-48 73v-109h-58v200h58z" />
    <glyph glyph-name="estimated" unicode="&#x212e;" horiz-adv-x="790" 
d="M765 350c0 -10 -5 -15 -15 -15h-560c-10 0 -15 -5 -15 -15v-192c0 -7 2 -14 7 -19c56 -59 134 -89 233 -89c97 0 174 32 231 97c5 6 11 9 18 9h37c13 0 18 -10 9 -19c-73 -78 -171 -117 -295 -117c-117 0 -212 34 -283 103s-107 155 -107 257c0 101 34 187 103 256
s158 104 267 104s197 -35 266 -104s104 -155 104 -256zM615 380v192c0 7 -2 14 -7 19c-56 59 -127 89 -213 89s-157 -30 -213 -89c-5 -5 -7 -12 -7 -19v-192c0 -10 5 -15 15 -15h410c10 0 15 5 15 15z" />
    <glyph glyph-name="oneeighth" unicode="&#x215b;" horiz-adv-x="806" 
d="M217 700v-400h-107v292l-82 -23l-25 88l120 43h94zM117 0l400 700h90l-400 -700h-90zM727 210c39 -23 58 -56 58 -101c0 -75 -57 -123 -153 -123s-154 48 -154 123c0 45 20 78 59 101c-30 21 -45 49 -45 84c0 73 59 120 140 120s140 -47 140 -120c0 -35 -15 -63 -45 -84z
M632 323c-32 0 -48 -13 -48 -38c0 -26 16 -39 48 -39c28 0 48 15 48 39s-20 38 -48 38zM684 124c0 27 -20 45 -52 45c-51 5 -68 -51 -39 -79c9 -8 22 -12 39 -12c33 0 52 18 52 46z" />
    <glyph glyph-name="threeeighths" unicode="&#x215c;" horiz-adv-x="887" 
d="M321 421c0 -87 -58 -135 -155 -135c-77 0 -129 30 -156 89l90 52c11 -31 33 -47 66 -47c32 0 48 14 48 41c0 24 -20 40 -51 40h-19l-40 58l69 84h-145v97h275v-79l-72 -86c57 -16 90 -57 90 -114zM198 0l400 700h90l-400 -700h-90zM808 210c39 -23 58 -56 58 -101
c0 -75 -57 -123 -153 -123s-154 48 -154 123c0 45 20 78 59 101c-30 21 -45 49 -45 84c0 73 59 120 140 120s140 -47 140 -120c0 -35 -15 -63 -45 -84zM713 323c-32 0 -48 -13 -48 -38c0 -26 16 -39 48 -39c28 0 48 15 48 39s-20 38 -48 38zM765 124c0 27 -20 45 -52 45
c-51 5 -68 -51 -39 -79c9 -8 22 -12 39 -12c33 0 52 18 52 46z" />
    <glyph glyph-name="fiveeighths" unicode="&#x215d;" horiz-adv-x="873" 
d="M315 417c0 -84 -59 -131 -146 -131c-77 0 -129 30 -156 89l88 50c12 -31 34 -47 65 -47c34 0 51 14 51 41c0 25 -18 43 -51 43h-128l16 238h242v-97h-152l-4 -54h33c87 0 142 -44 142 -132zM184 0l400 700h90l-400 -700h-90zM794 210c39 -23 58 -56 58 -101
c0 -75 -57 -123 -153 -123s-154 48 -154 123c0 45 20 78 59 101c-30 21 -45 49 -45 84c0 73 59 120 140 120s140 -47 140 -120c0 -35 -15 -63 -45 -84zM699 323c-32 0 -48 -13 -48 -38c0 -26 16 -39 48 -39c28 0 48 15 48 39s-20 38 -48 38zM751 124c0 27 -20 45 -52 45
c-51 5 -68 -51 -39 -79c9 -8 22 -12 39 -12c33 0 52 18 52 46z" />
    <glyph glyph-name="seveneighths" unicode="&#x215e;" horiz-adv-x="834" 
d="M279 618l-126 -318h-111l121 303h-160v97h276v-82zM145 0l400 700h90l-400 -700h-90zM755 210c39 -23 58 -56 58 -101c0 -75 -57 -123 -153 -123s-154 48 -154 123c0 45 20 78 59 101c-30 21 -45 49 -45 84c0 73 59 120 140 120s140 -47 140 -120c0 -35 -15 -63 -45 -84z
M660 323c-32 0 -48 -13 -48 -38c0 -26 16 -39 48 -39c28 0 48 15 48 39s-20 38 -48 38zM712 124c0 27 -20 45 -52 45c-51 5 -68 -51 -39 -79c9 -8 22 -12 39 -12c33 0 52 18 52 46z" />
    <glyph glyph-name="arrowleft" unicode="&#x2190;" horiz-adv-x="798" 
d="M278 412h475v-124h-475l238 -238h-171l-300 300l300 300h171z" />
    <glyph glyph-name="arrowup" unicode="&#x2191;" horiz-adv-x="690" 
d="M345 700l300 -300v-171l-235 235v-464h-129v465l-236 -236v171z" />
    <glyph glyph-name="arrowright" unicode="&#x2192;" horiz-adv-x="798" 
d="M282 650h171l300 -300l-300 -300h-171l238 238h-475v124h475z" />
    <glyph glyph-name="arrowdown" unicode="&#x2193;" horiz-adv-x="690" 
d="M410 700v-464l235 235v-171l-300 -300l-300 300v171l236 -236v465h129z" />
    <glyph glyph-name="arrowboth" unicode="&#x2194;" horiz-adv-x="1085" 
d="M600 623h168l272 -273l-272 -272h-168l208 210h-533l210 -210h-168l-272 272l272 273h168l-210 -211h535z" />
    <glyph glyph-name="arrowupdn" unicode="&#x2195;" horiz-adv-x="635" 
d="M590 575v-168l-208 209v-531l208 208v-168l-272 -273l-273 273v168l208 -207v529l-208 -208v168l273 273z" />
    <glyph glyph-name="uni2196" unicode="&#x2196;" horiz-adv-x="643" 
d="M253 493l345 -345l-87 -88l-345 344v-335l-121 120v424h424l121 -120h-337z" />
    <glyph glyph-name="uni2197" unicode="&#x2197;" horiz-adv-x="643" 
d="M54 493l120 120h424v-424l-120 -120v336l-345 -345l-88 88l345 345h-336z" />
    <glyph glyph-name="uni2198" unicode="&#x2198;" horiz-adv-x="643" 
d="M478 281v336l120 -120v-424h-424l-120 120h336l-345 345l88 88z" />
    <glyph glyph-name="uni2199" unicode="&#x2199;" horiz-adv-x="643" 
d="M511 626l87 -88l-345 -345h337l-121 -120h-424v424l121 120v-335z" />
    <glyph glyph-name="partialdiff" unicode="&#x2202;" horiz-adv-x="584" 
d="M240 714c81 0 151 -34 210 -102c59 -67 89 -155 89 -262c0 -116 -26 -206 -79 -269s-119 -95 -200 -95c-67 0 -120 20 -159 61s-58 92 -58 153c0 69 20 125 61 168c41 44 96 66 165 66c51 0 97 -13 138 -40c-13 123 -78 197 -183 198c-38 1 -76 -10 -115 -32v118
c37 24 81 36 131 36zM265 108c79 0 129 67 142 176c-34 24 -74 36 -120 36c-67 0 -115 -43 -115 -116c0 -59 37 -96 93 -96z" />
    <glyph glyph-name="emptyset" unicode="&#x2205;" horiz-adv-x="804" 
d="M752 720l-92 -116c69 -71 104 -155 104 -254c0 -100 -35 -185 -106 -256s-156 -106 -256 -106c-69 0 -133 18 -192 55l-50 -63h-107l92 115c-70 71 -105 156 -105 255c0 100 35 185 106 256s156 106 256 106c69 0 133 -18 192 -55l50 63h108zM130 350
c0 -71 24 -132 71 -185l337 423c-41 24 -86 36 -136 36c-75 0 -140 -27 -193 -80s-79 -117 -79 -194zM402 76c76 0 140 27 193 80s79 118 79 194c0 71 -23 133 -70 185l-338 -423c42 -24 87 -36 136 -36z" />
    <glyph glyph-name="product" unicode="&#x220f;" horiz-adv-x="640" 
d="M194 -200h-129v900h510v-900h-129v776h-252v-776z" />
    <glyph glyph-name="summation" unicode="&#x2211;" horiz-adv-x="563" 
d="M525 -200h-490v110l213 350l-198 329v111h460v-124h-308l191 -316l-205 -336h337v-124z" />
    <glyph glyph-name="minus" unicode="&#x2212;" horiz-adv-x="555" 
d="M503 290h-450v121h450v-121z" />
    <glyph glyph-name="radical" unicode="&#x221a;" horiz-adv-x="676" 
d="M394 0h-125l-122 199h-102v124h176l100 -173l218 650h132z" />
    <glyph glyph-name="infinity" unicode="&#x221e;" horiz-adv-x="808" 
d="M575 525c52 0 95 -16 129 -49c35 -32 52 -74 52 -126s-17 -94 -52 -127c-34 -32 -77 -48 -129 -48c-57 0 -114 29 -171 87c-57 -58 -114 -87 -171 -87c-53 0 -96 16 -131 48c-34 33 -51 75 -51 127s17 94 51 126c35 33 78 49 131 49c57 0 114 -29 171 -87
c57 58 114 87 171 87zM239 291c29 0 58 20 89 59c-31 39 -60 59 -89 59c-35 0 -59 -26 -59 -59s24 -59 59 -59zM569 291c35 0 59 26 59 59s-24 59 -59 59c-29 0 -58 -20 -89 -59c31 -39 60 -59 89 -59z" />
    <glyph glyph-name="integral" unicode="&#x222b;" horiz-adv-x="441" 
d="M0 -204v129c22 -12 44 -13 66 -3s36 30 41 59l95 561c24 141 115 192 239 160v-128c-45 23 -100 3 -109 -56l-96 -562c-24 -141 -115 -192 -236 -160z" />
    <glyph glyph-name="approxequal" unicode="&#x2248;" horiz-adv-x="569" 
d="M289 379c-103 45 -127 34 -161 -2l-83 28c35 132 114 170 235 114c85 -41 123 -39 139 24l105 -51c-29 -125 -120 -169 -235 -113zM150 157l-105 51c29 127 120 169 235 113c32 -15 58 -24 79 -27c43 -5 57 4 82 29l83 -28c-35 -131 -114 -169 -235 -114
c-85 41 -123 39 -139 -24z" />
    <glyph glyph-name="notequal" unicode="&#x2260;" horiz-adv-x="525" 
d="M480 514v-121h-158l-39 -86h197v-121h-251l-59 -131h-80l59 131h-104v121h158l39 86h-197v121h251l59 131h80l-59 -131h104z" />
    <glyph glyph-name="lessequal" unicode="&#x2264;" horiz-adv-x="528" 
d="M45 486l438 167v-134l-289 -90l289 -89v-134l-438 166v114zM483 55h-438v121h438v-121z" />
    <glyph glyph-name="greaterequal" unicode="&#x2265;" horiz-adv-x="528" 
d="M45 519v134l438 -167v-114l-438 -166v134l289 89zM483 55h-438v121h438v-121z" />
    <glyph glyph-name="lozenge" unicode="&#x25ca;" horiz-adv-x="555" 
d="M327 0h-98l-186 350l186 350h98l186 -350zM182 350l96 -180l95 180l-95 180z" />
    <glyph glyph-name="i.loclTRK" horiz-adv-x="247" 
d="M123 551c-43 0 -78 35 -78 78s35 77 78 77c41 0 77 -36 77 -77c0 -43 -36 -78 -77 -78zM188 0h-129v500h129v-500z" />
    <glyph glyph-name="f_f_j" horiz-adv-x="834" 
d="M499 500h276v-510c0 -147 -70 -213 -217 -204v124c60 -4 88 20 88 80v386h-147v-376h-129v376h-148v-376h-129v376h-72v124h72v5c0 141 79 218 235 209v-124c-71 5 -106 -23 -106 -85v-5h148v15c0 139 78 209 235 209c36 0 75 -5 118 -14v-118c-46 5 -85 8 -118 8
c-71 0 -106 -21 -106 -85v-15z" />
    <glyph glyph-name="f_j" horiz-adv-x="557" 
d="M222 500h276v-510c0 -147 -70 -213 -218 -204v124c61 -4 89 20 89 80v386h-147v-376h-129v376h-72v124h72v5c0 139 78 209 235 209c35 0 74 -5 117 -14v-118c-45 5 -84 8 -117 8c-72 0 -106 -21 -106 -85v-5z" />
    <glyph glyph-name="uni0414.loclBGR" horiz-adv-x="730" 
d="M451 700l183 -568h79v-266h-138v134h-420v-134h-137v266h79l183 568h171zM365 544l-124 -412h248z" />
    <glyph glyph-name="uni041B.loclBGR" horiz-adv-x="647" 
d="M3 0l235 700h171l236 -700h-151l-170 538l-171 -538h-150z" />
    <glyph glyph-name="uni0424.loclBGR" horiz-adv-x="859" 
d="M495 -8v-92h-130v92c-101 11 -182 49 -242 113c-60 65 -90 146 -90 245s30 180 90 244c60 65 141 103 242 114v92h130v-92c101 -11 182 -49 242 -114c60 -64 90 -145 90 -244s-30 -180 -90 -245c-60 -64 -141 -102 -242 -113zM365 119v463c-128 -20 -195 -101 -195 -232
s67 -212 195 -231zM495 582v-463c128 20 194 100 194 231s-66 212 -194 232z" />
    <glyph glyph-name="uni0414.ss01" horiz-adv-x="705" 
d="M603 700v-568h75v-132h-663v132h68c39 54 58 133 58 237v331h462zM231 132h234v439h-186v-204c0 -101 -16 -180 -48 -235z" />
    <glyph glyph-name="uni0426.ss01" horiz-adv-x="690" 
d="M588 700v-568h75v-132h-598v700h138v-568h247v568h138z" />
    <glyph glyph-name="uni0429.ss01" horiz-adv-x="980" 
d="M878 700v-568h75v-132h-888v700h138v-568h200v568h137v-568h200v568h138z" />
    <glyph glyph-name="uni0414.loclBGR.ss01" horiz-adv-x="730" 
d="M451 700l183 -568h79v-132h-695v132h79l183 568h171zM365 544l-124 -412h248z" />
    <glyph glyph-name="uni0432.loclBGR" horiz-adv-x="566" 
d="M419 409c77 -31 115 -96 115 -195c0 -143 -89 -228 -238 -228c-72 0 -130 22 -173 66c-43 45 -64 104 -64 177v238c0 74 21 134 62 179s96 68 165 68c116 0 195 -69 195 -174c0 -45 -21 -89 -62 -131zM286 593c-60 0 -98 -50 -98 -126v-58l47 10c23 5 44 7 61 8
c39 31 59 64 59 98c0 41 -26 68 -69 68zM296 111c69 0 109 38 109 103c0 77 -66 109 -170 88l-47 -10v-63c0 -73 41 -118 108 -118z" />
    <glyph glyph-name="uni0433.loclBGR" horiz-adv-x="465" 
d="M333 170l112 -64c-37 -80 -107 -120 -210 -120c-57 0 -105 14 -144 41c-38 28 -57 68 -57 119c-1 107 92 142 163 157c49 13 89 28 89 55s-24 41 -56 41c-37 0 -65 -17 -82 -52l-109 60c37 68 108 107 191 107c53 0 98 -14 134 -43c36 -28 54 -67 54 -116
c0 -179 -252 -131 -252 -206c0 -31 23 -46 69 -46c51 0 83 22 98 67z" />
    <glyph glyph-name="uni0434.loclBGR" 
d="M442 438v62h126v-476c0 -77 -26 -136 -77 -177s-112 -61 -184 -61c-108 0 -193 42 -237 122l110 63c25 -47 69 -70 131 -70c81 0 131 44 131 123v54c-38 -51 -91 -76 -160 -76c-71 0 -130 25 -178 74c-47 50 -71 111 -71 182s24 131 72 181s107 75 177 75
c69 0 122 -25 160 -76zM442 258c0 39 -13 72 -40 97c-26 26 -59 39 -100 39s-74 -13 -101 -39c-26 -25 -39 -58 -39 -97c0 -80 59 -137 140 -137s140 57 140 137z" />
    <glyph glyph-name="uni0436.loclBGR" horiz-adv-x="746" 
d="M553 253l181 -253h-145l-153 223v-223h-126v223l-153 -223h-144l180 253l-170 247h144l143 -216v416h126v-416l143 216h145z" />
    <glyph glyph-name="uni0438.loclBGR" horiz-adv-x="577" 
d="M389 230v270h129v-500h-129v56c-31 -47 -81 -70 -149 -70c-55 0 -100 18 -136 55c-35 37 -53 87 -53 152v307h129v-291c0 -67 39 -103 99 -103c67 0 110 41 110 124z" />
    <glyph glyph-name="uni0439.loclBGR" horiz-adv-x="577" 
d="M139 676h290v-112h-290v112zM389 230v270h129v-500h-129v56c-31 -47 -81 -70 -149 -70c-55 0 -100 18 -136 55c-35 37 -53 87 -53 152v307h129v-291c0 -67 39 -103 99 -103c67 0 110 41 110 124z" />
    <glyph glyph-name="uni043A.loclBGR" horiz-adv-x="525" 
d="M313 253l207 -253h-150l-182 227v-227h-129v700h129v-420l172 220h154z" />
    <glyph glyph-name="uni043B.loclBGR" horiz-adv-x="533" 
d="M340 500l190 -500h-142l-122 350l-121 -350h-142l190 500h147z" />
    <glyph glyph-name="uni043F.loclBGR" horiz-adv-x="577" 
d="M337 514c55 0 100 -18 135 -55c36 -37 54 -87 54 -152v-307h-129v291c0 67 -39 103 -99 103c-67 0 -110 -41 -110 -124v-270h-129v500h129v-56c31 47 81 70 149 70z" />
    <glyph glyph-name="uni0442.loclBGR" horiz-adv-x="852" 
d="M612 514c115 0 189 -81 189 -206v-308h-129v299c0 60 -31 95 -84 95c-59 0 -93 -40 -93 -113v-281h-129v299c0 60 -31 95 -84 95c-57 0 -94 -40 -94 -113v-281h-129v500h129v-53c30 45 76 67 139 67c61 0 107 -24 136 -72c33 48 83 72 149 72z" />
    <glyph glyph-name="uni0446.loclBGR" horiz-adv-x="616" 
d="M550 121h43v-255h-126v144c-27 11 -48 30 -62 55c-34 -53 -89 -79 -165 -79c-55 0 -100 18 -136 55c-35 37 -53 88 -53 152v307h129v-290c0 -67 39 -104 99 -104c67 0 110 41 110 124v270h129v-347c0 -21 11 -32 32 -32z" />
    <glyph glyph-name="uni0448.loclBGR" horiz-adv-x="852" 
d="M664 219v281h129v-500h-129v53c-30 -45 -76 -67 -139 -67c-61 0 -107 24 -136 72c-33 -48 -83 -72 -149 -72c-115 0 -189 81 -189 206v308h129v-299c0 -60 31 -95 84 -95c59 0 93 40 93 113v281h129v-299c0 -60 31 -95 84 -95c57 0 94 40 94 113z" />
    <glyph glyph-name="uni0449.loclBGR" horiz-adv-x="891" 
d="M825 121h43v-255h-126v144c-26 10 -46 27 -59 50c-33 -49 -83 -74 -150 -74c-65 0 -113 24 -144 73c-33 -49 -82 -73 -149 -73c-115 0 -189 81 -189 206v308h129v-298c0 -60 31 -96 84 -96c59 0 93 40 93 113v281h129v-298c0 -60 31 -96 84 -96c57 0 94 40 94 113v281
h129v-347c0 -21 11 -32 32 -32z" />
    <glyph glyph-name="uni044C.loclBGR" horiz-adv-x="493" 
d="M177 361h91c131 0 203 -67 203 -182c0 -55 -20 -101 -59 -138s-89 -55 -151 -55c-131 0 -210 79 -210 200v314h126v-139zM261 108c48 0 84 35 84 72c0 40 -28 67 -77 67h-91v-61c0 -45 32 -78 84 -78z" />
    <glyph glyph-name="uni044A.loclBGR" horiz-adv-x="579" 
d="M262 361h92c131 0 202 -67 202 -182c0 -55 -20 -101 -59 -138s-89 -55 -151 -55c-131 0 -210 79 -210 200v193h-136v121h262v-139zM346 108c48 0 84 35 84 72c0 40 -28 67 -76 67h-92v-61c0 -45 33 -78 84 -78z" />
    <glyph glyph-name="uni044E.loclBGR" horiz-adv-x="811" 
d="M514 514c74 0 137 -26 188 -77s77 -113 77 -187s-26 -137 -77 -188s-114 -76 -188 -76c-63 0 -117 19 -164 57s-77 87 -90 147h-72v-190h-129v700h129v-389h73c13 59 43 108 90 146s101 57 163 57zM417 151c26 -26 58 -39 97 -39s71 13 97 39s39 59 39 99s-13 73 -39 99
s-58 39 -97 39s-71 -13 -97 -39c-25 -26 -38 -59 -38 -99s13 -73 38 -99z" />
    <glyph glyph-name="zero.sinf" horiz-adv-x="409" 
d="M336 -116c-33 -39 -77 -58 -132 -58s-99 19 -132 58s-49 91 -49 156s16 117 49 156s77 58 132 58s99 -19 132 -58s50 -91 50 -156s-17 -117 -50 -156zM204 -67c47 0 72 38 72 107s-25 107 -72 107c-45 0 -71 -38 -71 -107s26 -107 71 -107z" />
    <glyph glyph-name="one.sinf" horiz-adv-x="265" 
d="M3 197l120 43h94v-400h-107v292l-82 -23z" />
    <glyph glyph-name="two.sinf" horiz-adv-x="349" 
d="M323 -160h-299v70l150 149c23 22 35 42 35 61c0 21 -16 36 -41 36c-27 0 -48 -17 -62 -51l-87 50c28 66 78 99 150 99c85 0 148 -53 148 -126c0 -41 -23 -84 -68 -129l-65 -62h139v-97z" />
    <glyph glyph-name="three.sinf" horiz-adv-x="345" 
d="M303 161l-72 -86c57 -16 90 -57 90 -114c0 -87 -58 -135 -155 -135c-77 0 -129 30 -156 89l90 52c11 -31 33 -47 66 -47c32 0 48 14 48 41c0 24 -20 40 -51 40h-19l-40 58l69 84h-145v97h275v-79z" />
    <glyph glyph-name="four.sinf" horiz-adv-x="357" 
d="M300 2h41v-98h-41v-64h-102v64h-187v98l129 238h114l-123 -238h67v69h102v-69z" />
    <glyph glyph-name="five.sinf" horiz-adv-x="336" 
d="M141 89h33c87 0 142 -44 142 -132c0 -84 -59 -131 -146 -131c-77 0 -129 30 -156 89l88 50c12 -31 34 -47 65 -47c34 0 51 14 51 41c0 25 -18 43 -51 43h-128l16 238h242v-97h-152z" />
    <glyph glyph-name="six.sinf" horiz-adv-x="340" 
d="M270 240l-85 -130c84 -5 139 -62 139 -141c0 -84 -62 -143 -154 -143s-154 59 -154 143c0 27 6 51 19 73l125 198h110zM170 -84c33 0 55 20 55 53c0 32 -22 51 -55 51s-54 -19 -54 -51c0 -33 22 -53 54 -53z" />
    <glyph glyph-name="seven.sinf" horiz-adv-x="295" 
d="M3 143v97h276v-82l-126 -318h-111l121 303h-160z" />
    <glyph glyph-name="eight.sinf" horiz-adv-x="349" 
d="M270 50c39 -23 58 -56 58 -101c0 -75 -57 -123 -153 -123s-154 48 -154 123c0 45 20 78 59 101c-30 21 -45 49 -45 84c0 73 59 120 140 120s140 -47 140 -120c0 -35 -15 -63 -45 -84zM175 163c-32 0 -48 -13 -48 -38c0 -26 16 -39 48 -39c28 0 48 15 48 39s-20 38 -48 38
zM227 -36c0 27 -20 45 -52 45c-51 6 -68 -52 -39 -78c9 -9 22 -13 39 -13c33 0 52 18 52 46z" />
    <glyph glyph-name="nine.sinf" horiz-adv-x="340" 
d="M324 111c0 -27 -6 -51 -19 -73l-124 -198h-111l85 130c-84 5 -139 64 -139 141c0 84 62 143 154 143s154 -59 154 -143zM116 111c0 -32 21 -51 54 -51s55 19 55 51c0 33 -22 53 -55 53c-32 0 -54 -20 -54 -53z" />
    <glyph glyph-name="zero.tf" horiz-adv-x="578" 
d="M289 -14c-88 0 -157 33 -206 99c-49 67 -74 155 -74 265s25 198 74 264c49 67 118 100 206 100c87 0 156 -33 205 -100c50 -66 75 -154 75 -264s-25 -198 -75 -265c-49 -66 -118 -99 -205 -99zM146 350c0 -148 50 -229 143 -229s142 80 142 229s-49 230 -142 230
s-143 -81 -143 -230z" />
    <glyph glyph-name="one.tf" horiz-adv-x="578" 
d="M369 700v-568h190v-132h-530v132h202v422l-132 -37l-34 118l184 65h120z" />
    <glyph glyph-name="two.tf" horiz-adv-x="578" 
d="M538 0h-504v103l255 231c65 59 100 100 100 148c0 55 -38 98 -107 98c-55 0 -99 -30 -130 -91l-116 68c49 103 140 157 247 157c71 0 130 -21 175 -64c45 -42 68 -95 68 -160c0 -88 -48 -157 -143 -241l-132 -116h287v-133z" />
    <glyph glyph-name="three.tf" horiz-adv-x="578" 
d="M517 586l-137 -162c103 -28 169 -99 169 -204c0 -73 -24 -131 -73 -172s-111 -62 -186 -62c-129 0 -224 56 -268 164l118 68c22 -65 70 -97 143 -97c83 0 128 38 128 99s-45 99 -128 99h-28l-55 81l144 171h-300v129h473v-114z" />
    <glyph glyph-name="four.tf" horiz-adv-x="578" 
d="M486 247h75v-128h-75v-119h-139v119h-338v128l232 453h148l-232 -453h190v161h139v-161z" />
    <glyph glyph-name="five.tf" horiz-adv-x="578" 
d="M208 445h88c74 0 135 -20 182 -60s71 -96 71 -169c0 -72 -25 -128 -74 -169s-109 -61 -182 -61c-129 0 -225 56 -269 164l118 68c22 -65 71 -97 147 -97c80 0 122 36 122 95c0 57 -42 95 -122 95h-225l28 389h424v-129h-298z" />
    <glyph glyph-name="six.tf" horiz-adv-x="578" 
d="M450 700l-159 -220c81 -1 145 -24 193 -69s72 -105 72 -178c0 -74 -25 -134 -74 -179s-114 -68 -196 -68s-148 23 -197 68s-73 105 -73 179c0 62 18 115 53 158l222 309h159zM154 233c0 -73 51 -117 132 -117s133 44 133 117s-52 118 -133 118s-132 -43 -132 -118z" />
    <glyph glyph-name="seven.tf" horiz-adv-x="578" 
d="M25 568v132h520v-117l-265 -583h-145l256 568h-366z" />
    <glyph glyph-name="eight.tf" horiz-adv-x="578" 
d="M456 364c69 -39 103 -95 103 -169c0 -128 -102 -209 -270 -209s-270 81 -270 209c0 74 34 130 103 169c-53 35 -79 83 -79 145c0 65 23 115 69 151c47 36 106 54 177 54s129 -18 176 -54s70 -86 70 -151c0 -61 -26 -110 -79 -145zM369 562c-19 15 -46 22 -80 22
s-61 -7 -80 -22s-29 -35 -29 -60s10 -46 29 -61s46 -22 80 -22s61 7 80 22s29 36 29 61s-10 45 -29 60zM190 141c23 -17 56 -25 99 -25s75 8 98 25s35 41 35 72s-12 54 -35 71s-55 25 -98 25s-76 -8 -99 -25s-34 -40 -34 -71s11 -55 34 -72z" />
    <glyph glyph-name="nine.tf" horiz-adv-x="578" 
d="M561 467c0 -57 -15 -107 -45 -148l-229 -319h-159l159 220c-81 1 -146 24 -194 69s-72 105 -72 178c0 74 24 134 73 179s115 68 197 68c83 0 148 -23 197 -68s73 -105 73 -179zM291 350c83 0 133 42 133 117s-50 117 -133 117c-81 0 -132 -44 -132 -117s51 -117 132 -117
z" />
    <glyph glyph-name="zero.dnom" horiz-adv-x="409" 
d="M336 44c-33 -39 -77 -58 -132 -58s-99 19 -132 58s-49 91 -49 156s16 117 49 156s77 58 132 58s99 -19 132 -58s50 -91 50 -156s-17 -117 -50 -156zM204 93c47 0 72 38 72 107s-25 107 -72 107c-45 0 -71 -38 -71 -107s26 -107 71 -107z" />
    <glyph glyph-name="one.dnom" horiz-adv-x="267" 
d="M3 357l120 43h94v-400h-107v292l-82 -23z" />
    <glyph glyph-name="two.dnom" horiz-adv-x="356" 
d="M323 0h-299v70l150 149c23 22 35 42 35 61c0 21 -16 36 -41 36c-27 0 -48 -17 -62 -51l-87 50c28 66 78 99 150 99c85 0 148 -53 148 -126c0 -41 -23 -84 -68 -129l-65 -62h139v-97z" />
    <glyph glyph-name="three.dnom" horiz-adv-x="348" 
d="M303 321l-72 -86c57 -16 90 -57 90 -114c0 -87 -58 -135 -155 -135c-77 0 -129 30 -156 89l90 52c11 -31 33 -47 66 -47c32 0 48 14 48 41c0 24 -20 40 -51 40h-19l-40 58l69 84h-145v97h275v-79z" />
    <glyph glyph-name="four.dnom" horiz-adv-x="357" 
d="M300 162h41v-98h-41v-64h-102v64h-187v98l129 238h114l-123 -238h67v69h102v-69z" />
    <glyph glyph-name="five.dnom" horiz-adv-x="334" 
d="M140 249h33c87 0 142 -44 142 -132c0 -84 -59 -131 -146 -131c-77 0 -129 30 -156 89l88 50c12 -31 34 -47 65 -47c34 0 51 14 51 41c0 25 -18 43 -51 43h-128l16 238h242v-97h-152z" />
    <glyph glyph-name="six.dnom" horiz-adv-x="340" 
d="M270 400l-85 -130c84 -5 139 -62 139 -141c0 -84 -62 -143 -154 -143s-154 59 -154 143c0 27 6 51 19 73l125 198h110zM170 76c33 0 55 20 55 53c0 32 -22 51 -55 51s-54 -19 -54 -51c0 -33 22 -53 54 -53z" />
    <glyph glyph-name="seven.dnom" horiz-adv-x="295" 
d="M3 303v97h276v-82l-126 -318h-111l121 303h-160z" />
    <glyph glyph-name="eight.dnom" horiz-adv-x="349" 
d="M270 210c39 -23 58 -56 58 -101c0 -75 -57 -123 -153 -123s-154 48 -154 123c0 45 20 78 59 101c-30 21 -45 49 -45 84c0 73 59 120 140 120s140 -47 140 -120c0 -35 -15 -63 -45 -84zM175 323c-32 0 -48 -13 -48 -38c0 -26 16 -39 48 -39c28 0 48 15 48 39
s-20 38 -48 38zM227 124c0 27 -20 45 -52 45c-51 5 -68 -51 -39 -79c9 -8 22 -12 39 -12c33 0 52 18 52 46z" />
    <glyph glyph-name="nine.dnom" horiz-adv-x="340" 
d="M324 271c0 -27 -6 -51 -19 -73l-124 -198h-111l85 130c-84 5 -139 64 -139 141c0 84 62 143 154 143s154 -59 154 -143zM116 271c0 -32 21 -51 54 -51s55 19 55 51c0 33 -22 53 -55 53c-32 0 -54 -20 -54 -53z" />
    <glyph glyph-name="zero.numr" horiz-adv-x="409" 
d="M336 344c-33 -39 -77 -58 -132 -58s-99 19 -132 58s-49 91 -49 156s16 117 49 156s77 58 132 58s99 -19 132 -58s50 -91 50 -156s-17 -117 -50 -156zM204 393c47 0 72 38 72 107s-25 107 -72 107c-45 0 -71 -38 -71 -107s26 -107 71 -107z" />
    <glyph glyph-name="one.numr" horiz-adv-x="267" 
d="M3 657l120 43h94v-400h-107v292l-82 -23z" />
    <glyph glyph-name="two.numr" horiz-adv-x="356" 
d="M323 300h-299v70l150 149c23 22 35 42 35 61c0 21 -16 36 -41 36c-27 0 -48 -17 -62 -51l-87 50c28 66 78 99 150 99c85 0 148 -53 148 -126c0 -41 -23 -84 -68 -129l-65 -62h139v-97z" />
    <glyph glyph-name="three.numr" horiz-adv-x="348" 
d="M303 621l-72 -86c57 -16 90 -57 90 -114c0 -87 -58 -135 -155 -135c-77 0 -129 30 -156 89l90 52c11 -31 33 -47 66 -47c32 0 48 14 48 41c0 24 -20 40 -51 40h-19l-40 58l69 84h-145v97h275v-79z" />
    <glyph glyph-name="four.numr" horiz-adv-x="357" 
d="M300 462h41v-98h-41v-64h-102v64h-187v98l129 238h114l-123 -238h67v69h102v-69z" />
    <glyph glyph-name="five.numr" horiz-adv-x="334" 
d="M140 549h33c87 0 142 -44 142 -132c0 -84 -59 -131 -146 -131c-77 0 -129 30 -156 89l88 50c12 -31 34 -47 65 -47c34 0 51 14 51 41c0 25 -18 43 -51 43h-128l16 238h242v-97h-152z" />
    <glyph glyph-name="six.numr" horiz-adv-x="340" 
d="M270 700l-85 -130c84 -5 139 -62 139 -141c0 -84 -62 -143 -154 -143s-154 59 -154 143c0 27 6 51 19 73l125 198h110zM170 376c33 0 55 20 55 53c0 32 -22 51 -55 51s-54 -19 -54 -51c0 -33 22 -53 54 -53z" />
    <glyph glyph-name="seven.numr" horiz-adv-x="295" 
d="M3 603v97h276v-82l-126 -318h-111l121 303h-160z" />
    <glyph glyph-name="eight.numr" horiz-adv-x="349" 
d="M270 510c39 -23 58 -56 58 -101c0 -75 -57 -123 -153 -123s-154 48 -154 123c0 45 20 78 59 101c-30 21 -45 49 -45 84c0 73 59 120 140 120s140 -47 140 -120c0 -35 -15 -63 -45 -84zM175 623c-32 0 -48 -13 -48 -38c0 -26 16 -39 48 -39c28 0 48 15 48 39
s-20 38 -48 38zM227 424c0 27 -20 45 -52 45c-51 5 -68 -51 -39 -79c9 -8 22 -12 39 -12c33 0 52 18 52 46z" />
    <glyph glyph-name="nine.numr" horiz-adv-x="340" 
d="M324 571c0 -27 -6 -51 -19 -73l-124 -198h-111l85 130c-84 5 -139 64 -139 141c0 84 62 143 154 143s154 -59 154 -143zM116 571c0 -32 21 -51 54 -51s55 19 55 51c0 33 -22 53 -55 53c-32 0 -54 -20 -54 -53z" />
    <glyph glyph-name="zero.sups" horiz-adv-x="409" 
d="M336 504c-33 -39 -77 -58 -132 -58s-99 19 -132 58s-49 91 -49 156s16 117 49 156s77 58 132 58s99 -19 132 -58s50 -91 50 -156s-17 -117 -50 -156zM204 553c47 0 72 38 72 107s-25 107 -72 107c-45 0 -71 -38 -71 -107s26 -107 71 -107z" />
    <glyph glyph-name="one.sups" horiz-adv-x="267" 
d="M3 817l120 43h94v-400h-107v292l-82 -23z" />
    <glyph glyph-name="two.sups" horiz-adv-x="356" 
d="M323 460h-299v70l150 149c23 22 35 42 35 61c0 21 -16 36 -41 36c-27 0 -48 -17 -62 -51l-87 50c28 66 78 99 150 99c85 0 148 -53 148 -126c0 -41 -23 -84 -68 -129l-65 -62h139v-97z" />
    <glyph glyph-name="three.sups" horiz-adv-x="348" 
d="M303 781l-72 -86c57 -16 90 -57 90 -114c0 -87 -58 -135 -155 -135c-77 0 -129 30 -156 89l90 52c11 -31 33 -47 66 -47c32 0 48 14 48 41c0 24 -20 40 -51 40h-19l-40 58l69 84h-145v97h275v-79z" />
    <glyph glyph-name="four.sups" horiz-adv-x="357" 
d="M300 622h41v-98h-41v-64h-102v64h-187v98l129 238h114l-123 -238h67v69h102v-69z" />
    <glyph glyph-name="five.sups" horiz-adv-x="334" 
d="M140 709h33c87 0 142 -44 142 -132c0 -84 -59 -131 -146 -131c-77 0 -129 30 -156 89l88 50c12 -31 34 -47 65 -47c34 0 51 14 51 41c0 25 -18 43 -51 43h-128l16 238h242v-97h-152z" />
    <glyph glyph-name="six.sups" horiz-adv-x="340" 
d="M270 860l-85 -130c84 -5 139 -62 139 -141c0 -84 -62 -143 -154 -143s-154 59 -154 143c0 27 6 51 19 73l125 198h110zM170 536c33 0 55 20 55 53c0 32 -22 51 -55 51s-54 -19 -54 -51c0 -33 22 -53 54 -53z" />
    <glyph glyph-name="seven.sups" horiz-adv-x="295" 
d="M3 763v97h276v-82l-126 -318h-111l121 303h-160z" />
    <glyph glyph-name="eight.sups" horiz-adv-x="349" 
d="M270 670c39 -23 58 -56 58 -101c0 -75 -57 -123 -153 -123s-154 48 -154 123c0 45 20 78 59 101c-30 21 -45 49 -45 84c0 73 59 120 140 120s140 -47 140 -120c0 -35 -15 -63 -45 -84zM175 783c-32 0 -48 -13 -48 -38c0 -26 16 -39 48 -39c28 0 48 15 48 39
s-20 38 -48 38zM227 584c0 27 -20 45 -52 45c-51 5 -68 -51 -39 -79c9 -8 22 -12 39 -12c33 0 52 18 52 46z" />
    <glyph glyph-name="nine.sups" horiz-adv-x="340" 
d="M324 731c0 -27 -6 -51 -19 -73l-124 -198h-111l85 130c-84 5 -139 64 -139 141c0 84 62 143 154 143s154 -59 154 -143zM116 731c0 -32 21 -51 54 -51s55 19 55 51c0 33 -22 53 -55 53c-32 0 -54 -20 -54 -53z" />
    <glyph glyph-name="cent.tf" horiz-adv-x="578" 
d="M431 280l112 -64c-44 -79 -129 -130 -226 -130c-23 0 -43 2 -61 7l-30 -93h-58l35 110c-92 41 -150 132 -150 240c0 75 25 137 75 188c51 51 114 76 189 76c18 0 34 -1 48 -4l29 90h58l-34 -106c55 -22 96 -58 123 -109l-111 -65c-11 23 -29 41 -52 52l-82 -257
c4 -1 11 -1 20 -1c52 0 95 25 115 66zM182 350c0 -52 20 -91 61 -116l82 253h-9c-77 0 -134 -57 -134 -137z" />
    <glyph glyph-name="dollar.tf" horiz-adv-x="578" 
d="M553 195c0 -117 -83 -194 -214 -207v-88h-67v87c-123 8 -210 69 -247 168l119 69c24 -62 67 -97 128 -105v174c-1 0 -3 1 -6 2c-32 11 -58 22 -78 31c-20 10 -41 23 -64 40c-45 33 -68 82 -68 147c0 60 20 107 61 142s93 54 155 58v87h67v-89c95 -13 162 -62 199 -147
l-116 -68c-17 44 -44 71 -83 81v-169l47 -18c10 -3 24 -9 42 -18c19 -8 33 -15 42 -22c19 -13 49 -37 60 -61c12 -23 23 -57 23 -94zM193 514c0 -33 20 -55 79 -80v148c-53 -5 -79 -27 -79 -68zM339 267v-148c51 7 76 31 76 70c0 35 -20 53 -76 78z" />
    <glyph glyph-name="Euro.tf" horiz-adv-x="578" 
d="M446 207l113 -65c-37 -96 -116 -156 -215 -156c-140 0 -233 103 -257 271h-66v78h60v15v24h-60v77h68c25 163 116 263 255 263c96 0 174 -56 211 -147l-115 -66c-17 48 -53 79 -96 79c-61 0 -100 -43 -117 -129h174v-77h-182v-24v-15h182v-78h-175
c15 -91 55 -136 118 -136c45 0 83 34 102 86z" />
    <glyph glyph-name="florin.tf" horiz-adv-x="578" 
d="M555 705v-129c-61 23 -109 3 -125 -56l-29 -106h122v-124h-156l-90 -331c-39 -141 -133 -191 -254 -160v128c67 -22 108 -3 124 56l84 307h-119v124h152l36 131c39 140 134 191 255 160z" />
    <glyph glyph-name="uni20BD.tf" horiz-adv-x="578" 
d="M319 243h-96v-55h195v-88h-195v-100h-138v100h-75v88h75v55h-75v121h75v336h234c66 0 122 -23 167 -68c46 -45 69 -100 69 -164s-23 -118 -68 -161s-101 -64 -168 -64zM319 571h-96v-207h96c56 0 99 45 99 104s-43 103 -99 103z" />
    <glyph glyph-name="sterling.tf" horiz-adv-x="578" 
d="M241 274v-141h327v-133h-538v133h73v141h-60v121h60v100c0 71 22 125 65 162c44 38 96 57 155 57c101 0 181 -54 217 -146l-118 -68c-17 53 -49 80 -95 80c-49 0 -86 -31 -86 -90v-95h210v-121h-210z" />
    <glyph glyph-name="yen.tf" horiz-adv-x="578" 
d="M420 700h156l-191 -338h134v-80h-161v-45h161v-81h-161v-156h-138v156h-161v81h161v45h-161v80h134l-191 338h156l131 -252z" />
    <glyph glyph-name="brevecy" horiz-adv-x="360" 
d="M325 564h-290v112h290v-112z" />
    </font>
</defs>
</svg>
