<?xml version="1.0" standalone="no"?>
<!DOCTYPE svg PUBLIC "-//W3C//DTD SVG 1.1//EN" "http://www.w3.org/Graphics/SVG/1.1/DTD/svg11.dtd" >
<svg xmlns="http://www.w3.org/2000/svg" xmlns:xlink="http://www.w3.org/1999/xlink" version="1.1">
<metadata>
Created by FontForge 20170924 at Thu Jul 21 23:27:48 2016
 By www-data
Copyright \251 2016 by Radomir Tinkov. All rights reserved.
</metadata>
<defs>
<font id="Gilroy-Black" horiz-adv-x="589" >
  <font-face 
    font-family="Gilroy"
    font-weight="900"
    font-stretch="normal"
    units-per-em="1000"
    panose-1="0 0 10 0 0 0 0 0 0 0"
    ascent="773"
    descent="-227"
    x-height="500"
    cap-height="700"
    bbox="-466 -277 1184 985"
    underline-thickness="50"
    underline-position="-100"
    unicode-range="U+0020-FB02"
  />
<missing-glyph horiz-adv-x="500" 
d="M93 800h317v-1000h-317v1000zM333 700v33h-165v-33h65v-37h-66v-33h166v33h-66v37h66zM267 534v70h-100v-104h166v34h-66zM200 570h33v-36h-33v36zM333 440v33h-166v-33h66v-37h-66v-33h100v70h66zM333 313v100h-33v-66h-133v-34h166zM333 178v113h-100v-56h34v23h33v-47
h-100v80h-33v-113h166zM333 5v113h-166v-113h166zM200 85h100v-47h-100v47zM333 -51v33h-166v-33h70l-70 -47v-33h166v33h-102l70 47h32z" />
    <glyph glyph-name="fi" unicode="fi" horiz-adv-x="572" 
d="M244 500h280v-500h-166v341h-114v-341h-166v341h-63v159h63c0 143 84 215 252 215c44 0 87 -5 130 -15v-145c-43 6 -84 9 -123 9c-61 0 -93 -16 -93 -64z" />
    <glyph glyph-name="fl" unicode="fl" horiz-adv-x="572" 
d="M330 715c61 0 125 -7 194 -20v-695h-166v573c-7 1 -17 1 -30 1c-51 0 -84 -25 -84 -74h66v-159h-66v-341h-166v341h-63v159h63c0 143 84 215 252 215z" />
    <glyph glyph-name="f_f" unicode="ff" horiz-adv-x="612" 
d="M612 725v-154c-57 4 -85 -16 -85 -61v-10h85v-159h-85v-341h-167v341h-116v-341h-166v341h-63v159h63c0 144 85 224 252 215v-154c-57 4 -86 -16 -86 -61h116v10c0 144 85 224 252 215z" />
    <glyph glyph-name="f_f_i" unicode="ffi" horiz-adv-x="855" 
d="M527 500h280v-500h-167v341h-113v-341h-167v341h-116v-341h-166v341h-63v159h63c0 144 85 224 252 215v-154c-57 4 -86 -16 -86 -61h116v10c0 143 84 215 252 215c44 0 87 -5 130 -15v-145c-43 6 -84 9 -123 9c-61 0 -92 -16 -92 -64v-10z" />
    <glyph glyph-name="f_f_l" unicode="ffl" horiz-adv-x="855" 
d="M612 725c60 0 125 -7 195 -20v-705h-167v583c-7 1 -17 1 -30 1c-51 0 -83 -25 -83 -74v-10h65v-159h-65v-341h-167v341h-116v-341h-166v341h-63v159h63c0 144 85 224 252 215v-154c-57 4 -86 -16 -86 -61h116v10c0 143 84 215 252 215z" />
    <glyph glyph-name=".notdef" horiz-adv-x="500" 
d="M93 800h317v-1000h-317v1000zM333 700v33h-165v-33h65v-37h-66v-33h166v33h-66v37h66zM267 534v70h-100v-104h166v34h-66zM200 570h33v-36h-33v36zM333 440v33h-166v-33h66v-37h-66v-33h100v70h66zM333 313v100h-33v-66h-133v-34h166zM333 178v113h-100v-56h34v23h33v-47
h-100v80h-33v-113h166zM333 5v113h-166v-113h166zM200 85h100v-47h-100v47zM333 -51v33h-166v-33h70l-70 -47v-33h166v33h-102l70 47h32z" />
    <glyph glyph-name="NULL" horiz-adv-x="0" 
 />
    <glyph glyph-name="CR" horiz-adv-x="333" 
 />
    <glyph glyph-name="space" unicode=" " horiz-adv-x="227" 
 />
    <glyph glyph-name="exclam" unicode="!" horiz-adv-x="294" 
d="M216 255h-138l-33 245v200h204v-200zM43 90c0 57 47 104 104 104s104 -47 104 -104c0 -59 -47 -104 -104 -104s-104 45 -104 104z" />
    <glyph glyph-name="quotedbl" unicode="&#x22;" horiz-adv-x="442" 
d="M179 441h-114l-20 259h154zM377 441h-114l-20 259h154z" />
    <glyph glyph-name="numbersign" unicode="#" horiz-adv-x="631" 
d="M611 505l-19 -120h-101l-12 -70h102l-19 -120h-103l-24 -145h-128l24 145h-82l-24 -145h-128l24 145h-101l19 120h102l12 70h-102l19 120h103l24 145h128l-24 -145h82l24 145h128l-24 -145h100zM269 315h82l12 70h-82z" />
    <glyph glyph-name="dollar" unicode="$" horiz-adv-x="556" 
d="M538 205c0 -125 -83 -203 -214 -218v-87h-70v86c-117 8 -203 67 -236 163l155 87c15 -43 42 -70 81 -80v119l-9 3c-63 23 -98 41 -141 74c-43 35 -63 83 -63 147c0 63 20 113 60 150c40 38 91 60 153 65v86h70v-88c96 -11 164 -60 204 -147l-152 -85
c-10 31 -27 51 -52 60v-118h1l28 -11l31 -12c5 -2 15 -6 29 -13c28 -12 31 -16 54 -32c23 -15 27 -25 42 -45c20 -24 29 -62 29 -104zM215 498c0 -17 13 -32 39 -45v91c-26 -7 -39 -22 -39 -46zM324 247v-90c27 7 40 22 40 45c0 18 -13 33 -40 45z" />
    <glyph glyph-name="percent" unicode="%" horiz-adv-x="823" 
d="M219 356c-52 0 -96 17 -131 52s-53 78 -53 128s18 92 53 127s79 52 131 52s95 -17 130 -52s52 -77 52 -127c0 -51 -18 -93 -53 -128s-78 -52 -129 -52zM208 71l-69 39l460 500l70 -40zM218 483c68 -4 68 110 0 105c-29 0 -51 -23 -51 -52c0 -31 22 -53 51 -53zM606 -14
c-53 0 -97 17 -132 52s-52 77 -52 127c0 51 17 93 52 128s79 52 132 52c52 0 95 -18 130 -53s52 -77 52 -127s-18 -92 -53 -127s-78 -52 -129 -52zM656 165c0 31 -22 53 -51 53s-51 -22 -51 -53c0 -29 22 -52 51 -52s51 24 51 52z" />
    <glyph glyph-name="ampersand" unicode="&#x26;" horiz-adv-x="680" 
d="M580 147l85 -95l-137 -79l-59 64c-54 -35 -115 -52 -182 -52c-76 0 -137 20 -183 59c-46 40 -69 92 -69 155c0 83 38 148 113 195c-21 36 -32 74 -32 114c0 60 21 109 64 148s99 59 166 59c114 0 194 -52 241 -157l-151 -88c-19 50 -47 75 -84 75c-35 0 -55 -22 -55 -51
c0 -10 3 -21 8 -32c6 -11 12 -19 17 -26l30 -34l118 -131c14 33 24 67 31 102l144 -83c-13 -49 -35 -97 -65 -143zM305 140c21 0 41 4 59 12l-118 128c-20 -18 -30 -40 -30 -67c0 -43 30 -73 89 -73z" />
    <glyph glyph-name="quotesingle" unicode="'" horiz-adv-x="243" 
d="M179 441h-114l-20 259h154z" />
    <glyph glyph-name="parenleft" unicode="(" horiz-adv-x="327" 
d="M322 -100h-167c-147 293 -147 607 0 900h167c-147 -293 -147 -607 0 -900z" />
    <glyph glyph-name="parenright" unicode=")" horiz-adv-x="327" 
d="M172 -100h-167c147 293 147 607 0 900h167c147 -293 147 -607 0 -900z" />
    <glyph glyph-name="asterisk" unicode="*" horiz-adv-x="405" 
d="M268 595l91 10v-96l-91 10l57 -70l-80 -50l-43 82l-42 -82l-80 50l56 70l-91 -10v96l91 -10l-56 70l80 50l42 -82l43 82l80 -50z" />
    <glyph glyph-name="plus" unicode="+" horiz-adv-x="560" 
d="M359 429h160v-158h-160v-160h-158v160h-160v158h160v160h158v-160z" />
    <glyph glyph-name="comma" unicode="," horiz-adv-x="302" 
d="M78 174h183l-84 -314h-134z" />
    <glyph glyph-name="hyphen" unicode="-" horiz-adv-x="500" 
d="M445 222h-390v158h390v-158z" />
    <glyph glyph-name="period" unicode="." horiz-adv-x="289" 
d="M145 -14c-59 0 -105 47 -105 104s48 104 105 104s104 -47 104 -104s-47 -104 -104 -104z" />
    <glyph glyph-name="slash" unicode="/" horiz-adv-x="520" 
d="M495 800l-400 -900h-70l400 900h70z" />
    <glyph glyph-name="zero" unicode="0" horiz-adv-x="630" 
d="M528 84c-51 -66 -122 -99 -213 -99s-163 33 -214 99c-51 67 -76 155 -76 266s25 199 76 265c51 67 123 100 214 100s162 -33 213 -100c51 -66 77 -154 77 -265s-26 -199 -77 -266zM204 350c0 -127 37 -191 111 -191s111 64 111 191s-37 191 -111 191s-111 -64 -111 -191z
" />
    <glyph glyph-name="one" unicode="1" horiz-adv-x="414" 
d="M5 632l190 68h154v-700h-179v512l-122 -31z" />
    <glyph glyph-name="two" unicode="2" horiz-adv-x="539" 
d="M511 0h-490v130l232 245c47 51 67 77 67 108c0 35 -23 58 -62 58c-41 0 -73 -24 -94 -73l-154 86c45 105 139 161 246 161c67 0 124 -20 171 -60c48 -39 72 -93 72 -162c0 -81 -39 -145 -112 -221l-95 -99h219v-173z" />
    <glyph glyph-name="three" unicode="3" horiz-adv-x="548" 
d="M490 559l-117 -144c89 -28 149 -99 149 -195c0 -75 -25 -133 -74 -174s-110 -61 -183 -61c-116 0 -212 54 -252 158l156 89c15 -49 47 -73 96 -73c51 0 79 26 79 66s-28 65 -79 65h-38l-69 102l112 137h-235v171h455v-141z" />
    <glyph glyph-name="four" unicode="4" horiz-adv-x="578" 
d="M500 270h70v-163h-70v-107h-178v107h-307v163l209 430h198l-211 -430h111v126h178v-126z" />
    <glyph glyph-name="five" unicode="5" horiz-adv-x="550" 
d="M240 454h50c69 0 126 -20 171 -60c46 -40 69 -97 69 -170c0 -76 -25 -135 -74 -177c-49 -41 -111 -62 -184 -62c-123 0 -218 53 -259 158l156 89c15 -49 49 -73 103 -73c51 0 79 25 79 65c0 41 -29 65 -76 65h-224l29 411h412v-171h-247z" />
    <glyph glyph-name="six" unicode="6" horiz-adv-x="560" 
d="M469 700l-148 -223c68 -9 122 -35 163 -80c41 -44 61 -99 61 -165c0 -73 -24 -132 -73 -178s-113 -69 -192 -69s-143 23 -192 69s-73 105 -73 178c0 55 15 103 44 145l207 323h203zM280 149c49 0 86 31 86 83c0 27 -8 47 -24 62s-37 22 -62 22s-46 -7 -62 -22
s-24 -35 -24 -62c0 -53 35 -83 86 -83z" />
    <glyph glyph-name="seven" unicode="7" horiz-adv-x="490" 
d="M1 527v173h474v-148l-219 -552h-193l208 527h-270z" />
    <glyph glyph-name="eight" unicode="8" horiz-adv-x="569" 
d="M453 366c62 -39 93 -95 93 -169c0 -131 -94 -211 -261 -211c-168 0 -262 80 -262 211c0 74 31 130 93 169c-46 34 -69 81 -69 140c0 65 22 116 67 153s102 55 171 55s125 -19 170 -56s67 -87 67 -152c0 -59 -23 -106 -69 -140zM285 552c-43 0 -69 -24 -69 -60
c0 -37 26 -60 69 -60c40 0 68 24 68 60s-28 60 -68 60zM285 150c49 0 83 28 83 72c0 45 -34 73 -83 73c-51 0 -83 -28 -83 -73c0 -44 32 -72 83 -72z" />
    <glyph glyph-name="nine" unicode="9" horiz-adv-x="560" 
d="M545 468c0 -55 -15 -103 -44 -145l-207 -323h-203l148 223c-68 9 -122 35 -163 79c-41 45 -61 100 -61 166c0 73 24 132 73 178s113 69 192 69s143 -23 192 -69s73 -105 73 -178zM194 468c0 -27 8 -47 24 -62s37 -22 62 -22s46 7 62 22s24 35 24 62c0 53 -35 83 -86 83
c-49 0 -86 -31 -86 -83z" />
    <glyph glyph-name="colon" unicode=":" horiz-adv-x="289" 
d="M145 307c-59 0 -105 47 -105 104s48 104 105 104s104 -47 104 -104s-47 -104 -104 -104zM145 -14c-59 0 -105 47 -105 104s48 104 105 104s104 -47 104 -104s-47 -104 -104 -104z" />
    <glyph glyph-name="semicolon" unicode=";" horiz-adv-x="304" 
d="M160 307c-59 0 -105 47 -105 104s48 104 105 104s104 -47 104 -104s-47 -104 -104 -104zM78 174h183l-84 -314h-134z" />
    <glyph glyph-name="less" unicode="&#x3c;" horiz-adv-x="521" 
d="M36 424l450 195v-172l-271 -97l271 -97v-172l-450 195v148z" />
    <glyph glyph-name="equal" unicode="=" horiz-adv-x="511" 
d="M475 380h-440v159h440v-159zM475 161h-440v159h440v-159z" />
    <glyph glyph-name="greater" unicode="&#x3e;" horiz-adv-x="521" 
d="M35 447v172l450 -195v-148l-450 -195v172l271 97z" />
    <glyph glyph-name="question" unicode="?" horiz-adv-x="547" 
d="M348 255h-170c0 55 38 107 75 136c37 31 75 70 75 103c0 32 -20 48 -59 48c-41 0 -73 -26 -96 -79l-152 87c44 108 142 165 255 165c64 0 118 -18 163 -54c45 -35 67 -84 67 -145c0 -149 -158 -192 -158 -261zM159 90c0 57 47 104 104 104s104 -47 104 -104
c0 -59 -47 -104 -104 -104s-104 45 -104 104z" />
    <glyph glyph-name="at" unicode="@" horiz-adv-x="769" 
d="M392 612c71 0 133 -17 188 -52c109 -68 162 -177 162 -290c0 -143 -61 -224 -166 -224c-71 0 -120 31 -141 82c-25 -29 -56 -43 -95 -43c-88 0 -147 69 -147 165s59 165 147 165c34 0 63 -11 86 -33v21h136v-236c0 -42 17 -63 50 -63c51 0 85 53 85 166
c0 85 -29 156 -88 214s-131 87 -217 87c-90 0 -166 -31 -228 -93c-61 -61 -92 -137 -92 -228c0 -93 32 -170 95 -231c64 -60 145 -90 243 -90c57 0 108 7 151 22v-43c-43 -13 -94 -20 -151 -20c-109 0 -200 34 -273 103c-73 68 -109 154 -109 259c0 101 35 186 104 256
c70 71 157 106 260 106zM378 198c61 -6 63 110 0 104c-63 6 -63 -110 0 -104z" />
    <glyph glyph-name="A" unicode="A" horiz-adv-x="671" 
d="M675 0h-193l-30 101h-233l-30 -101h-194l231 700h218zM335 493l-70 -238h141z" />
    <glyph glyph-name="B" unicode="B" horiz-adv-x="602" 
d="M497 362c59 -35 88 -87 88 -157c0 -62 -21 -112 -64 -149s-100 -56 -171 -56h-295v700h276c140 0 231 -76 231 -199c0 -59 -22 -105 -65 -139zM326 540h-92v-110h92c32 0 57 20 57 55c0 33 -24 55 -57 55zM234 160h111c36 0 61 24 61 59c0 36 -25 59 -61 59h-111v-118z
" />
    <glyph glyph-name="C" unicode="C" horiz-adv-x="719" 
d="M393 -15c-105 0 -193 35 -262 104c-69 70 -103 157 -103 261s34 191 103 260c69 70 157 105 262 105c63 0 122 -15 176 -45s96 -70 127 -121l-155 -89c-27 49 -83 80 -148 80c-56 0 -101 -18 -136 -53c-34 -35 -51 -80 -51 -137s17 -103 51 -138c35 -35 80 -52 136 -52
c65 0 121 30 148 81l155 -90c-61 -103 -175 -166 -303 -166z" />
    <glyph glyph-name="D" unicode="D" horiz-adv-x="708" 
d="M55 700h285c97 0 177 -34 242 -101s98 -150 98 -249s-33 -183 -98 -250s-145 -100 -242 -100h-285v700zM239 173h101c49 0 88 16 119 48c31 33 46 76 46 129s-15 96 -46 128c-31 33 -70 49 -119 49h-101v-354z" />
    <glyph glyph-name="E" unicode="E" horiz-adv-x="535" 
d="M234 271v-103h271v-168h-450v700h445v-167h-266v-97h241v-165h-241z" />
    <glyph glyph-name="F" unicode="F" horiz-adv-x="518" 
d="M485 700v-173h-251v-114h246v-173h-246v-240h-179v700h430z" />
    <glyph glyph-name="G" unicode="G" horiz-adv-x="778" 
d="M397 401h353v-71c0 -103 -32 -186 -97 -250c-64 -63 -147 -95 -250 -95c-109 0 -199 35 -270 105c-70 70 -105 156 -105 259s35 189 105 260s157 106 260 106c65 0 125 -15 179 -44c55 -29 97 -68 128 -117l-152 -87c-28 44 -85 73 -153 73c-55 0 -101 -18 -136 -54
s-53 -82 -53 -138c0 -54 17 -100 52 -137s85 -56 148 -56c81 0 135 31 161 92h-170v154z" />
    <glyph glyph-name="H" unicode="H" horiz-adv-x="665" 
d="M431 441v259h178v-700h-178v269h-197v-269h-179v700h179v-259h197z" />
    <glyph glyph-name="I" unicode="I" horiz-adv-x="289" 
d="M55 0v700h179v-700h-179z" />
    <glyph glyph-name="J" unicode="J" horiz-adv-x="571" 
d="M267 -15c-115 0 -195 47 -242 140l153 89c20 -39 44 -55 89 -55c51 0 77 24 77 71v470h179v-473c0 -75 -23 -135 -70 -178c-46 -43 -108 -64 -186 -64z" />
    <glyph glyph-name="K" unicode="K" horiz-adv-x="631" 
d="M403 360l232 -360h-200l-201 313v-313h-179v700h179v-294l191 294h200z" />
    <glyph glyph-name="L" unicode="L" horiz-adv-x="485" 
d="M234 700v-527h241v-173h-420v700h179z" />
    <glyph glyph-name="M" unicode="M" horiz-adv-x="825" 
d="M591 700h178v-700h-178v377l-170 -281h-18l-169 280v-376h-179v700h179l178 -299z" />
    <glyph glyph-name="N" unicode="N" horiz-adv-x="675" 
d="M441 348v352h178v-700h-138l-247 352v-352h-179v700h139z" />
    <glyph glyph-name="O" unicode="O" horiz-adv-x="790" 
d="M655 90c-71 -70 -157 -105 -260 -105s-190 35 -261 105c-71 71 -106 157 -106 260s35 189 106 259c71 71 158 106 261 106s189 -35 260 -106c71 -70 107 -156 107 -259s-36 -189 -107 -260zM260 213c36 -35 81 -53 135 -53s99 18 135 53c36 36 54 82 54 137
s-18 101 -54 136c-36 36 -81 54 -135 54s-99 -18 -135 -54c-36 -35 -54 -81 -54 -136s18 -101 54 -137z" />
    <glyph glyph-name="P" unicode="P" horiz-adv-x="592" 
d="M55 700h272c71 0 130 -23 178 -69s72 -105 72 -176s-24 -130 -72 -176s-107 -69 -178 -69h-93v-210h-179v700zM234 380h93c40 0 71 31 71 75s-31 74 -71 74h-93v-149z" />
    <glyph glyph-name="Q" unicode="Q" horiz-adv-x="795" 
d="M762 350c0 -85 -25 -159 -75 -224l63 -68l-125 -111l-69 74c-50 -24 -104 -36 -161 -36c-103 0 -190 35 -261 105c-71 71 -106 157 -106 260s35 189 106 259c71 71 158 106 261 106s189 -35 260 -106c71 -70 107 -156 107 -259zM395 160c7 0 17 1 29 2l-94 101l126 110
l107 -114c14 28 21 58 21 91c0 55 -18 101 -54 136c-36 36 -81 54 -135 54s-99 -18 -135 -54c-36 -35 -54 -81 -54 -136s18 -101 54 -137c36 -35 81 -53 135 -53z" />
    <glyph glyph-name="R" unicode="R" horiz-adv-x="620" 
d="M612 0h-192l-122 226h-64v-226h-179v700h280c71 0 131 -23 179 -69c49 -45 73 -103 73 -173c0 -84 -46 -158 -119 -199zM333 535h-99v-157h99c44 -1 75 31 75 78s-31 79 -75 79z" />
    <glyph glyph-name="S" unicode="S" horiz-adv-x="585" 
d="M304 -15c-148 0 -247 67 -286 174l153 89c26 -62 72 -93 138 -93c55 0 82 16 82 47c0 21 -16 37 -47 50c-13 5 -43 14 -88 27c-128 37 -208 99 -208 219c0 65 23 117 69 157c47 40 105 60 174 60c117 0 212 -56 260 -160l-150 -88c-22 52 -58 78 -109 78
c-43 0 -65 -19 -65 -46c0 -31 25 -48 120 -76c34 -10 61 -19 82 -28s43 -21 68 -38c49 -32 73 -84 73 -153s-24 -122 -73 -161s-113 -58 -193 -58z" />
    <glyph glyph-name="T" unicode="T" horiz-adv-x="545" 
d="M10 700h525v-173h-173v-527h-179v527h-173v173z" />
    <glyph glyph-name="U" unicode="U" horiz-adv-x="650" 
d="M48 230v470h179v-453c0 -59 33 -88 98 -88s98 29 98 88v453h179v-470c0 -74 -26 -133 -78 -178c-51 -45 -118 -67 -199 -67s-148 22 -200 67c-51 45 -77 104 -77 178z" />
    <glyph glyph-name="V" unicode="V" horiz-adv-x="665" 
d="M439 0h-213l-226 700h196l136 -482l137 482h196z" />
    <glyph glyph-name="W" unicode="W" horiz-adv-x="1004" 
d="M390 0h-189l-196 700h193l108 -441l125 441h141l125 -441l109 441h192l-195 -700h-189l-112 395z" />
    <glyph glyph-name="X" unicode="X" horiz-adv-x="632" 
d="M416 356l210 -356h-200l-110 186l-110 -186h-201l211 357l-203 343h201l102 -173l102 173h201z" />
    <glyph glyph-name="Y" unicode="Y" horiz-adv-x="651" 
d="M450 700h201l-236 -431v-269h-179v267l-236 433h201l124 -259z" />
    <glyph glyph-name="Z" unicode="Z" horiz-adv-x="542" 
d="M512 562l-247 -389h255v-173h-487v138l247 389h-242v173h474v-138z" />
    <glyph glyph-name="bracketleft" unicode="[" horiz-adv-x="329" 
d="M309 800v-159h-97v-582h97v-159h-264v900h264z" />
    <glyph glyph-name="backslash" unicode="\" horiz-adv-x="520" 
d="M495 -100h-70l-400 900h70z" />
    <glyph glyph-name="bracketright" unicode="]" horiz-adv-x="329" 
d="M20 800h264v-900h-264v159h97v582h-97v159z" />
    <glyph glyph-name="asciicircum" unicode="^" horiz-adv-x="580" 
d="M231 700h118l200 -354h-178l-81 158l-81 -158h-178z" />
    <glyph glyph-name="underscore" unicode="_" horiz-adv-x="515" 
d="M490 -186h-465v158h465v-158z" />
    <glyph glyph-name="grave" unicode="`" horiz-adv-x="314" 
d="M294 555h-158l-116 145h194z" />
    <glyph glyph-name="a" unicode="a" horiz-adv-x="615" 
d="M401 454v46h166v-500h-166v46c-34 -40 -81 -60 -142 -60c-67 0 -123 25 -168 75c-45 51 -67 114 -67 189s22 138 67 188c45 51 101 76 168 76c61 0 108 -20 142 -60zM220 171c19 -20 45 -30 76 -30s57 10 76 30s29 46 29 79s-10 59 -29 79s-45 30 -76 30s-57 -10 -76 -30
s-29 -46 -29 -79s10 -59 29 -79z" />
    <glyph glyph-name="b" unicode="b" horiz-adv-x="615" 
d="M356 514c67 0 122 -25 167 -76c45 -50 68 -113 68 -188s-23 -138 -68 -189c-45 -50 -100 -75 -167 -75c-61 0 -108 20 -142 60v-46h-166v700h166v-246c34 40 81 60 142 60zM243 171c19 -20 45 -30 76 -30s57 10 76 30s29 46 29 79s-10 59 -29 79s-45 30 -76 30
s-57 -10 -76 -30s-29 -46 -29 -79s10 -59 29 -79z" />
    <glyph glyph-name="c" unicode="c" horiz-adv-x="528" 
d="M290 -14c-76 0 -139 25 -190 76s-76 113 -76 188s25 137 76 188s114 76 190 76c99 0 184 -50 228 -129l-142 -82c-18 33 -47 49 -87 49c-56 0 -98 -42 -98 -102s42 -102 98 -102c41 0 70 17 87 50l142 -82c-44 -80 -129 -130 -228 -130z" />
    <glyph glyph-name="d" unicode="d" horiz-adv-x="615" 
d="M401 454v246h166v-700h-166v46c-34 -40 -81 -60 -142 -60c-67 0 -123 25 -168 75c-45 51 -67 114 -67 189s22 138 67 188c45 51 101 76 168 76c61 0 108 -20 142 -60zM220 171c19 -20 45 -30 76 -30s57 10 76 30s29 46 29 79s-10 59 -29 79s-45 30 -76 30
s-57 -10 -76 -30s-29 -46 -29 -79s10 -59 29 -79z" />
    <glyph glyph-name="e" unicode="e" horiz-adv-x="571" 
d="M541 189h-345c17 -41 54 -61 112 -61c36 0 66 12 91 35l120 -84c-49 -62 -121 -93 -215 -93c-85 0 -153 25 -204 74c-51 50 -76 113 -76 189c0 75 25 138 75 189s114 76 191 76c75 0 136 -25 185 -75s73 -113 73 -188c0 -22 -2 -43 -7 -62zM194 304h192
c-13 47 -45 70 -94 70c-51 0 -84 -23 -98 -70z" />
    <glyph glyph-name="f" unicode="f" horiz-adv-x="330" 
d="M330 715v-154c-57 4 -86 -16 -86 -61h86v-159h-86v-341h-166v341h-63v159h63c0 144 85 224 252 215z" />
    <glyph glyph-name="g" unicode="g" horiz-adv-x="618" 
d="M406 452v48h164v-480c0 -166 -132 -235 -263 -235c-111 0 -202 42 -246 122l138 80c24 -38 59 -57 106 -57c60 0 101 31 101 90v48c-34 -41 -81 -62 -140 -62c-69 0 -126 25 -171 74s-67 109 -67 180s22 131 67 180s102 74 171 74c59 0 106 -21 140 -62zM223 185
c20 -19 46 -29 77 -29s57 10 76 29c20 20 30 45 30 75s-10 55 -30 74c-19 20 -45 30 -76 30s-57 -10 -77 -30c-19 -19 -29 -44 -29 -74s10 -55 29 -75z" />
    <glyph glyph-name="h" unicode="h" horiz-adv-x="579" 
d="M353 514c108 0 184 -76 184 -215v-299h-166v278c0 52 -30 79 -75 79c-52 0 -82 -32 -82 -91v-266h-166v700h166v-250c30 43 76 64 139 64z" />
    <glyph glyph-name="i" unicode="i" horiz-adv-x="262" 
d="M198 569c-37 -37 -96 -37 -135 0c-37 39 -37 98 0 135c39 37 98 37 135 0c39 -37 39 -96 0 -135zM214 0h-166v500h166v-500z" />
    <glyph glyph-name="j" unicode="j" horiz-adv-x="277" 
d="M213 569c-37 -37 -96 -37 -135 0c-37 39 -37 98 0 135c39 37 98 37 135 0c39 -37 39 -96 0 -135zM63 0v500h166v-500c0 -157 -75 -224 -239 -215v154c51 -3 73 16 73 61z" />
    <glyph glyph-name="k" unicode="k" horiz-adv-x="542" 
d="M367 250l175 -250h-186l-142 213v-213h-166v700h166v-409l129 209h192z" />
    <glyph glyph-name="l" unicode="l" horiz-adv-x="262" 
d="M214 0h-166v730h166v-730z" />
    <glyph glyph-name="m" unicode="m" horiz-adv-x="852" 
d="M622 514c116 0 188 -79 188 -208v-306h-167v287c0 47 -21 70 -62 70c-45 0 -69 -32 -69 -84v-273h-166v287c0 47 -21 70 -63 70c-45 0 -69 -32 -69 -84v-273h-166v500h166v-47c31 41 76 61 135 61c57 0 100 -21 128 -64c35 43 83 64 145 64z" />
    <glyph glyph-name="n" unicode="n" horiz-adv-x="579" 
d="M353 514c108 0 184 -76 184 -215v-299h-166v278c0 52 -30 79 -75 79c-52 0 -82 -32 -82 -91v-266h-166v500h166v-50c30 43 76 64 139 64z" />
    <glyph glyph-name="o" unicode="o" horiz-adv-x="583" 
d="M291 -14c-74 0 -137 25 -189 76s-78 114 -78 188s26 136 78 187s115 77 189 77c75 0 138 -26 189 -77c52 -51 78 -113 78 -187s-26 -137 -78 -188c-51 -51 -114 -76 -189 -76zM291 146c59 0 101 43 101 104s-42 104 -101 104c-57 0 -100 -43 -100 -104s43 -104 100 -104z
" />
    <glyph glyph-name="p" unicode="p" horiz-adv-x="615" 
d="M356 514c67 0 122 -25 167 -76c45 -50 68 -113 68 -188s-23 -138 -68 -189c-45 -50 -100 -75 -167 -75c-61 0 -108 20 -142 60v-246h-166v700h166v-46c34 40 81 60 142 60zM243 171c19 -20 45 -30 76 -30s57 10 76 30s29 46 29 79s-10 59 -29 79s-45 30 -76 30
s-57 -10 -76 -30s-29 -46 -29 -79s10 -59 29 -79z" />
    <glyph glyph-name="q" unicode="q" horiz-adv-x="615" 
d="M401 454v46h166v-700h-166v246c-34 -40 -81 -60 -142 -60c-67 0 -123 25 -168 75c-45 51 -67 114 -67 189s22 138 67 188c45 51 101 76 168 76c61 0 108 -20 142 -60zM220 171c19 -20 45 -30 76 -30s57 10 76 30s29 46 29 79s-10 59 -29 79s-45 30 -76 30
s-57 -10 -76 -30s-29 -46 -29 -79s10 -59 29 -79z" />
    <glyph glyph-name="r" unicode="r" horiz-adv-x="379" 
d="M214 500v-93c19 65 81 103 150 103v-184c-38 6 -73 -1 -104 -21s-46 -53 -46 -98v-207h-166v500h166z" />
    <glyph glyph-name="s" unicode="s" horiz-adv-x="475" 
d="M207 354c0 -19 39 -29 87 -40c71 -13 162 -49 161 -160c0 -57 -21 -100 -64 -127s-93 -41 -152 -41c-112 0 -187 40 -224 119l145 73c13 -37 39 -55 78 -55c30 0 45 9 45 27c0 19 -38 29 -86 41c-69 15 -159 52 -158 155c0 53 20 95 59 124s87 44 142 44
c99 0 167 -39 206 -116l-140 -63c-15 29 -35 43 -62 43c-25 0 -37 -8 -37 -24z" />
    <glyph glyph-name="t" unicode="t" horiz-adv-x="394" 
d="M358 500v-159h-104v-145c0 -44 29 -50 104 -46v-150c-99 -12 -169 -3 -210 27c-40 31 -60 86 -60 165v149h-75v159h75v90l166 50v-140h104z" />
    <glyph glyph-name="u" unicode="u" horiz-adv-x="579" 
d="M365 234v266h166v-500h-166v50c-30 -43 -76 -64 -139 -64c-108 0 -184 76 -184 215v299h166v-278c0 -52 30 -79 75 -79c52 0 82 32 82 91z" />
    <glyph glyph-name="v" unicode="v" horiz-adv-x="554" 
d="M277 213l93 287h184l-187 -500h-180l-187 500h184z" />
    <glyph glyph-name="w" unicode="w" horiz-adv-x="798" 
d="M544 228l66 272h176l-153 -500h-162l-72 254l-72 -254h-162l-153 500h176l66 -272l75 272h140z" />
    <glyph glyph-name="x" unicode="x" horiz-adv-x="549" 
d="M368 255l181 -255h-188l-87 123l-87 -123h-187l181 255l-174 245h187l80 -113l80 113h188z" />
    <glyph glyph-name="y" unicode="y" horiz-adv-x="549" 
d="M287 210l78 290h184l-171 -492c-53 -151 -147 -215 -302 -208v156c71 0 101 15 124 60l-200 484h186z" />
    <glyph glyph-name="z" unicode="z" horiz-adv-x="484" 
d="M439 386l-177 -232h187v-154h-409v114l177 232h-167v154h389v-114z" />
    <glyph glyph-name="braceleft" unicode="{" horiz-adv-x="362" 
d="M342 47v-154c-153 -9 -229 62 -229 195v134c0 43 -24 55 -72 50v159c48 -5 72 7 72 50v134c0 133 76 204 229 195v-154c-42 4 -63 -10 -63 -41v-134c0 -62 -22 -105 -67 -129c45 -25 67 -68 67 -130v-134c0 -31 21 -45 63 -41z" />
    <glyph glyph-name="bar" unicode="|" horiz-adv-x="277" 
d="M222 -200h-167v920h167v-920z" />
    <glyph glyph-name="braceright" unicode="}" horiz-adv-x="362" 
d="M20 -107v154c42 -4 63 10 63 41v134c0 62 22 105 67 130c-45 24 -67 67 -67 129v134c0 31 -21 45 -63 41v154c153 9 229 -62 229 -195v-134c0 -43 24 -55 72 -50v-159c-48 5 -72 -7 -72 -50v-134c0 -133 -76 -204 -229 -195z" />
    <glyph glyph-name="asciitilde" unicode="~" horiz-adv-x="606" 
d="M439 461l131 -61c-17 -74 -51 -124 -100 -149s-102 -24 -161 4c-48 22 -81 32 -100 30c-18 -2 -32 -19 -42 -50l-132 61c17 74 51 124 100 149s103 24 162 -4c103 -43 113 -44 142 20z" />
    <glyph glyph-name="exclamdown" unicode="&#xa1;" horiz-adv-x="294" 
d="M251 410c0 -57 -47 -104 -104 -104s-104 47 -104 104c0 59 47 104 104 104s104 -45 104 -104zM45 0l33 245h138l33 -245v-200h-204v200z" />
    <glyph glyph-name="cent" unicode="&#xa2;" horiz-adv-x="528" 
d="M285 248h4c41 0 70 17 87 50l142 -82c-44 -80 -129 -130 -228 -130c-17 0 -36 2 -56 5l-29 -91h-63l35 109c-93 41 -153 133 -153 241c0 75 25 137 76 188s114 76 190 76c19 0 35 -1 49 -4l29 90h63l-35 -107c53 -22 94 -58 122 -108l-142 -82c-6 12 -16 23 -30 33z
M191 350c0 -36 13 -63 38 -82l59 184c-56 -1 -97 -42 -97 -102z" />
    <glyph glyph-name="sterling" unicode="&#xa3;" horiz-adv-x="575" 
d="M266 272v-99h304v-173h-545v173h62v99h-52v140h52v76c0 73 23 129 68 168c46 39 100 59 162 59c113 0 192 -52 237 -156l-155 -86c-15 47 -40 71 -75 71c-36 0 -58 -25 -58 -66v-66h189v-140h-189z" />
    <glyph glyph-name="currency" unicode="&#xa4;" horiz-adv-x="533" 
d="M483 350c0 -49 -15 -93 -45 -130l70 -69l-43 -42l-70 70c-37 -26 -80 -39 -128 -39s-91 13 -128 40l-71 -71l-43 42l70 70c-29 37 -44 80 -44 129s15 92 44 129l-70 70l43 42l71 -71c37 27 80 40 128 40s91 -13 128 -39l70 70l43 -42l-69 -69c29 -38 44 -81 44 -130z
M267 294c33 0 56 21 56 56s-23 56 -56 56c-35 0 -56 -21 -56 -56s21 -56 56 -56z" />
    <glyph glyph-name="yen" unicode="&#xa5;" horiz-adv-x="631" 
d="M450 700h201l-179 -328h85v-94h-137l-5 -9v-32h142v-93h-142v-144h-179v144h-163v93h163v30l-6 11h-157v94h106l-179 328h201l124 -259z" />
    <glyph glyph-name="brokenbar" unicode="&#xa6;" horiz-adv-x="277" 
d="M222 350h-167v370h167v-370zM222 -200h-167v370h167v-370z" />
    <glyph glyph-name="section" unicode="&#xa7;" horiz-adv-x="545" 
d="M517 291c0 -51 -18 -92 -55 -125c21 -28 31 -62 31 -103c0 -57 -21 -100 -63 -130c-41 -30 -93 -45 -155 -45c-115 0 -191 42 -228 125l143 78c17 -43 46 -65 85 -65c35 0 52 12 52 37c0 13 -9 25 -29 34c-10 5 -20 10 -29 13c-17 8 -58 22 -78 30
c-92 39 -153 88 -153 180c0 53 19 94 58 124c-17 27 -26 60 -26 98c0 55 20 98 60 128s87 45 142 45c102 0 173 -43 213 -130l-135 -68c-17 42 -42 63 -73 63c-27 0 -42 -14 -42 -34c0 -15 8 -27 28 -39l29 -14l39 -15c17 -6 31 -11 40 -15c89 -36 146 -83 146 -172z
M270 268c15 -5 52 -19 68 -24c10 8 15 19 15 34c0 10 -4 19 -11 26c-13 15 -24 18 -57 31l-29 10l-40 16c-9 -8 -14 -19 -14 -33c0 -28 21 -43 68 -60z" />
    <glyph glyph-name="dieresis" unicode="&#xa8;" horiz-adv-x="389" 
d="M100 535c-44 0 -80 36 -80 80s36 80 80 80c43 0 79 -36 79 -80s-36 -80 -79 -80zM294 535c-43 0 -79 36 -79 80s36 80 79 80c44 0 80 -36 80 -80s-36 -80 -80 -80z" />
    <glyph glyph-name="copyright" unicode="&#xa9;" horiz-adv-x="779" 
d="M646 94c-71 -71 -156 -106 -256 -106s-185 35 -256 106s-106 156 -106 256s35 185 106 256s156 106 256 106s185 -35 256 -106s106 -156 106 -256s-35 -185 -106 -256zM390 29c87 0 162 31 224 94s93 138 93 227s-31 164 -93 227s-137 94 -224 94
c-88 0 -163 -31 -225 -94s-93 -138 -93 -227s31 -164 93 -227s137 -94 225 -94zM393 153c-55 0 -102 19 -141 58s-58 86 -58 139s19 99 58 138s86 59 141 59c68 0 132 -37 168 -97l-118 -69c-13 20 -31 30 -54 30c-36 0 -60 -29 -60 -61s24 -61 60 -61c23 0 41 10 54 30
l118 -69c-35 -60 -100 -97 -168 -97z" />
    <glyph glyph-name="guillemotleft" unicode="&#xab;" horiz-adv-x="569" 
d="M168 504h141l-112 -195l112 -195h-141l-113 195zM372 504h142l-113 -195l113 -195h-142l-112 195z" />
    <glyph glyph-name="logicalnot" unicode="&#xac;" horiz-adv-x="569" 
d="M35 271v158h499v-278h-169v120h-330z" />
    <glyph glyph-name="registered" unicode="&#xae;" horiz-adv-x="779" 
d="M134 606c71 71 156 106 256 106s185 -35 256 -106s106 -156 106 -256s-35 -185 -106 -256s-156 -106 -256 -106s-185 35 -256 106s-106 156 -106 256s35 185 106 256zM390 29c87 0 162 31 224 94s93 138 93 227s-31 164 -93 227s-137 94 -224 94c-88 0 -163 -31 -225 -94
s-93 -138 -93 -227s31 -164 93 -227s137 -94 225 -94zM558 409c0 -47 -17 -85 -51 -114l74 -130h-141l-48 97h-21v-97h-131v370h176c39 0 72 -12 100 -35s42 -54 42 -91zM395 420h-24v-53h24c21 0 32 9 32 27c0 17 -11 26 -32 26z" />
    <glyph glyph-name="overscore" unicode="&#xaf;" horiz-adv-x="349" 
d="M329 554h-309v130h309v-130z" />
    <glyph glyph-name="degree" unicode="&#xb0;" horiz-adv-x="415" 
d="M208 461c-51 0 -93 17 -127 51s-51 75 -51 123c0 49 17 90 51 124s76 51 127 51s93 -17 126 -51c34 -34 51 -75 51 -124s-17 -90 -50 -124c-33 -33 -76 -50 -127 -50zM208 681c-59 5 -59 -97 0 -91c58 -6 57 96 0 91z" />
    <glyph glyph-name="plusminus" unicode="&#xb1;" horiz-adv-x="560" 
d="M359 665v-136h160v-158h-160v-136h-158v136h-160v158h160v136h158zM519 21h-478v159h478v-159z" />
    <glyph glyph-name="acute" unicode="&#xb4;" horiz-adv-x="314" 
d="M20 555l80 145h194l-116 -145h-158z" />
    <glyph glyph-name="uni00B5" unicode="&#xb5;" horiz-adv-x="608" 
d="M567 149h26v-149h-72c-51 0 -90 16 -117 47c-30 -41 -77 -62 -141 -62c-18 0 -34 2 -49 7v-192h-166v700h166v-278c0 -53 29 -80 76 -80c51 0 81 32 81 92v266h166v-321c0 -20 10 -30 30 -30z" />
    <glyph glyph-name="paragraph" unicode="&#xb6;" horiz-adv-x="727" 
d="M245 700h447v-160h-67v-740h-158v740h-64v-740h-158v451c-62 0 -115 22 -159 65c-44 44 -66 97 -66 159c0 63 22 116 65 159c44 44 97 66 160 66z" />
    <glyph glyph-name="middot" unicode="&#xb7;" horiz-adv-x="289" 
d="M145 246c-59 0 -105 47 -105 104s48 104 105 104s104 -47 104 -104s-47 -104 -104 -104z" />
    <glyph glyph-name="cedilla" unicode="&#xb8;" horiz-adv-x="274" 
d="M196 0v-46c29 -9 58 -34 58 -77c0 -75 -78 -107 -234 -98v109c63 -5 95 0 95 14c0 10 -18 17 -53 20v78h134z" />
    <glyph glyph-name="guillemotright" unicode="&#xbb;" horiz-adv-x="569" 
d="M55 504h142l112 -195l-112 -195h-142l113 195zM260 504h141l113 -195l-113 -195h-141l112 195z" />
    <glyph glyph-name="onequarter" unicode="&#xbc;" horiz-adv-x="818" 
d="M240 300h-131v266l-79 -21l-30 109l127 46h113v-400zM107 0l404 700h114l-404 -700h-114zM770 171h35v-115h-35v-56h-122v56h-184v115l116 229h138l-111 -229h41v63h122v-63z" />
    <glyph glyph-name="onehalf" unicode="&#xbd;" horiz-adv-x="812" 
d="M240 300h-131v266l-79 -21l-30 109l127 46h113v-400zM107 0l404 700h114l-404 -700h-114zM710 157l-42 -40h116v-117h-306v89l143 139c19 19 29 35 29 48c0 15 -9 22 -26 22c-18 0 -33 -15 -46 -44l-107 60c31 67 84 100 158 100c42 0 78 -12 107 -36s44 -55 44 -93
c0 -42 -23 -85 -70 -128z" />
    <glyph glyph-name="threequarters" unicode="&#xbe;" horiz-adv-x="877" 
d="M326 425c0 -89 -62 -139 -161 -139c-80 0 -134 31 -162 94l108 62c10 -29 28 -43 54 -43c21 0 32 9 32 26s-11 25 -32 25h-28l-46 68l56 66h-124v116h286v-87l-65 -76c55 -20 82 -57 82 -112zM166 0l404 700h114l-404 -700h-114zM829 171h35v-115h-35v-56h-122v56h-184
v115l116 229h138l-111 -229h41v63h122v-63z" />
    <glyph glyph-name="questiondown" unicode="&#xbf;" horiz-adv-x="547" 
d="M388 410c0 -57 -47 -104 -104 -104s-104 47 -104 104c0 59 45 104 104 104s104 -45 104 -104zM199 245h170c0 -55 -38 -106 -75 -137c-37 -29 -75 -69 -75 -102c0 -32 20 -48 59 -48c41 0 73 26 96 79l152 -87c-44 -108 -142 -165 -255 -165c-64 0 -118 18 -163 54
c-45 35 -67 84 -67 145c0 149 158 192 158 261z" />
    <glyph glyph-name="Agrave" unicode="&#xc0;" horiz-adv-x="671" 
d="M350 900l80 -145h-158l-116 145h194zM675 0h-193l-30 101h-233l-30 -101h-194l231 700h218zM335 493l-70 -238h141z" />
    <glyph glyph-name="Aacute" unicode="&#xc1;" horiz-adv-x="671" 
d="M316 900h194l-116 -145h-158zM675 0h-193l-30 101h-233l-30 -101h-194l231 700h218zM335 493l-70 -238h141z" />
    <glyph glyph-name="Acircumflex" unicode="&#xc2;" horiz-adv-x="671" 
d="M370 745l-39 56l-40 -56h-150l106 155h167l106 -155h-150zM675 0h-193l-30 101h-233l-30 -101h-194l231 700h218zM335 493l-70 -238h141z" />
    <glyph glyph-name="Atilde" unicode="&#xc3;" horiz-adv-x="671" 
d="M324 768c-32 21 -48 21 -48 -20h-120c0 169 104 188 190 143c32 -21 49 -22 49 19h120c0 -171 -103 -187 -191 -142zM675 0h-193l-30 101h-233l-30 -101h-194l231 700h218zM335 493l-70 -238h141z" />
    <glyph glyph-name="Adieresis" unicode="&#xc4;" horiz-adv-x="671" 
d="M238 735c-44 0 -80 36 -80 80s36 80 80 80c43 0 79 -36 79 -80s-36 -80 -79 -80zM432 735c-43 0 -79 36 -79 80s36 80 79 80c44 0 80 -36 80 -80s-36 -80 -80 -80zM675 0h-193l-30 101h-233l-30 -101h-194l231 700h218zM335 493l-70 -238h141z" />
    <glyph glyph-name="Aring" unicode="&#xc5;" horiz-adv-x="671" 
d="M675 0h-193l-30 101h-233l-30 -101h-194l227 689c-18 23 -27 50 -27 81c0 76 59 132 140 132c84 0 141 -56 141 -132c0 -31 -9 -59 -28 -83zM335 802c-43 0 -43 -64 0 -64c23 0 34 11 34 32s-11 32 -34 32zM335 493l-70 -238h141z" />
    <glyph glyph-name="AE" unicode="&#xc6;" horiz-adv-x="885" 
d="M619 271v-103h236v-168h-410v101h-194l-57 -101h-199l400 700h455v-167h-231v-97h206v-165h-206zM445 447l-108 -192h108v192z" />
    <glyph glyph-name="Ccedilla" unicode="&#xc7;" horiz-adv-x="719" 
d="M393 160c65 0 121 30 148 81l155 -90c-49 -83 -134 -140 -231 -159v-38c29 -9 58 -34 58 -77c0 -75 -78 -107 -234 -98v109c63 -5 95 0 95 14c0 10 -18 17 -53 20v68c-89 13 -162 53 -219 120c-56 67 -84 147 -84 240c0 104 34 191 103 260c69 70 157 105 262 105
c63 0 122 -15 176 -45s96 -70 127 -121l-155 -89c-27 49 -83 80 -148 80c-56 0 -101 -18 -136 -53c-34 -35 -51 -80 -51 -137s17 -103 51 -138c35 -35 80 -52 136 -52z" />
    <glyph glyph-name="Egrave" unicode="&#xc8;" horiz-adv-x="535" 
d="M293 900l80 -145h-158l-116 145h194zM234 271v-103h271v-168h-450v700h445v-167h-266v-97h241v-165h-241z" />
    <glyph glyph-name="Eacute" unicode="&#xc9;" horiz-adv-x="535" 
d="M259 900h194l-116 -145h-158zM234 271v-103h271v-168h-450v700h445v-167h-266v-97h241v-165h-241z" />
    <glyph glyph-name="Ecircumflex" unicode="&#xca;" horiz-adv-x="535" 
d="M313 745l-39 56l-40 -56h-150l106 155h167l106 -155h-150zM234 271v-103h271v-168h-450v700h445v-167h-266v-97h241v-165h-241z" />
    <glyph glyph-name="Edieresis" unicode="&#xcb;" horiz-adv-x="535" 
d="M181 735c-44 0 -80 36 -80 80s36 80 80 80c43 0 79 -36 79 -80s-36 -80 -79 -80zM375 735c-43 0 -79 36 -79 80s36 80 79 80c44 0 80 -36 80 -80s-36 -80 -80 -80zM234 271v-103h271v-168h-450v700h445v-167h-266v-97h241v-165h-241z" />
    <glyph glyph-name="Igrave" unicode="&#xcc;" horiz-adv-x="289" 
d="M240 755h-158l-116 145h194zM55 700v-700h179v700h-179z" />
    <glyph glyph-name="Iacute" unicode="&#xcd;" horiz-adv-x="289" 
d="M46 755l80 145h194l-116 -145h-158zM55 700v-700h179v700h-179z" />
    <glyph glyph-name="Icircumflex" unicode="&#xce;" horiz-adv-x="289" 
d="M180 745l-39 56l-40 -56h-150l106 155h167l106 -155h-150zM234 0h-179v700h179v-700z" />
    <glyph glyph-name="Idieresis" unicode="&#xcf;" horiz-adv-x="289" 
d="M48 735c-44 0 -80 36 -80 80s36 80 80 80c43 0 79 -36 79 -80s-36 -80 -79 -80zM242 735c-43 0 -79 36 -79 80s36 80 79 80c44 0 80 -36 80 -80s-36 -80 -80 -80zM55 0v700h179v-700h-179z" />
    <glyph glyph-name="Eth" unicode="&#xd0;" horiz-adv-x="738" 
d="M86 700h285c97 0 177 -34 242 -101s98 -150 98 -249s-33 -183 -98 -250s-145 -100 -242 -100h-285v263h-76v158h76v279zM270 173h101c49 0 88 16 119 48c31 33 46 76 46 129s-15 96 -46 128c-31 33 -70 49 -119 49h-101v-106h130v-158h-130v-90z" />
    <glyph glyph-name="Ntilde" unicode="&#xd1;" horiz-adv-x="675" 
d="M266 748h-120c0 169 104 188 190 143c32 -21 49 -22 49 19h120c0 -171 -103 -187 -191 -142c-32 21 -48 21 -48 -20zM441 348v352h178v-700h-138l-247 352v-352h-179v700h139z" />
    <glyph glyph-name="Ograve" unicode="&#xd2;" horiz-adv-x="790" 
d="M490 765h-158l-116 145h194zM655 90c71 71 107 157 107 260s-36 189 -107 259c-71 71 -157 106 -260 106s-190 -35 -261 -106c-71 -70 -106 -156 -106 -259s35 -189 106 -260c71 -70 158 -105 261 -105s189 35 260 105zM260 213c-36 36 -54 82 -54 137s18 101 54 136
c36 36 81 54 135 54s99 -18 135 -54c36 -35 54 -81 54 -136s-18 -101 -54 -137c-36 -35 -81 -53 -135 -53s-99 18 -135 53z" />
    <glyph glyph-name="Oacute" unicode="&#xd3;" horiz-adv-x="790" 
d="M296 765l80 145h194l-116 -145h-158zM655 90c71 71 107 157 107 260s-36 189 -107 259c-71 71 -157 106 -260 106s-190 -35 -261 -106c-71 -70 -106 -156 -106 -259s35 -189 106 -260c71 -70 158 -105 261 -105s189 35 260 105zM260 213c-36 36 -54 82 -54 137
s18 101 54 136c36 36 81 54 135 54s99 -18 135 -54c36 -35 54 -81 54 -136s-18 -101 -54 -137c-36 -35 -81 -53 -135 -53s-99 18 -135 53z" />
    <glyph glyph-name="Ocircumflex" unicode="&#xd4;" horiz-adv-x="790" 
d="M430 755l-39 56l-40 -56h-150l106 155h167l106 -155h-150zM134 609c71 71 158 106 261 106s189 -35 260 -106c71 -70 107 -156 107 -259s-36 -189 -107 -260c-71 -70 -157 -105 -260 -105s-190 35 -261 105c-71 71 -106 157 -106 260s35 189 106 259zM260 213
c36 -35 81 -53 135 -53s99 18 135 53c36 36 54 82 54 137s-18 101 -54 136c-36 36 -81 54 -135 54s-99 -18 -135 -54c-36 -35 -54 -81 -54 -136s18 -101 54 -137z" />
    <glyph glyph-name="Otilde" unicode="&#xd5;" horiz-adv-x="790" 
d="M336 758h-120c0 169 104 188 190 143c32 -21 49 -22 49 19h120c0 -171 -103 -187 -191 -142c-32 21 -48 21 -48 -20zM655 90c-71 -70 -157 -105 -260 -105s-190 35 -261 105c-71 71 -106 157 -106 260s35 189 106 259c71 71 158 106 261 106s189 -35 260 -106
c71 -70 107 -156 107 -259s-36 -189 -107 -260zM260 213c36 -35 81 -53 135 -53s99 18 135 53c36 36 54 82 54 137s-18 101 -54 136c-36 36 -81 54 -135 54s-99 -18 -135 -54c-36 -35 -54 -81 -54 -136s18 -101 54 -137z" />
    <glyph glyph-name="Odieresis" unicode="&#xd6;" horiz-adv-x="790" 
d="M298 745c-44 0 -80 36 -80 80s36 80 80 80c43 0 79 -36 79 -80s-36 -80 -79 -80zM492 745c-43 0 -79 36 -79 80s36 80 79 80c44 0 80 -36 80 -80s-36 -80 -80 -80zM655 90c-71 -70 -157 -105 -260 -105s-190 35 -261 105c-71 71 -106 157 -106 260s35 189 106 259
c71 71 158 106 261 106s189 -35 260 -106c71 -70 107 -156 107 -259s-36 -189 -107 -260zM260 213c36 -35 81 -53 135 -53s99 18 135 53c36 36 54 82 54 137s-18 101 -54 136c-36 36 -81 54 -135 54s-99 -18 -135 -54c-36 -35 -54 -81 -54 -136s18 -101 54 -137z" />
    <glyph glyph-name="multiply" unicode="&#xd7;" horiz-adv-x="538" 
d="M385 578l112 -112l-116 -116l116 -116l-112 -112l-116 116l-116 -116l-112 112l116 116l-116 116l112 112l116 -116z" />
    <glyph glyph-name="Oslash" unicode="&#xd8;" horiz-adv-x="795" 
d="M718 671l-54 -66c69 -70 103 -155 103 -255c0 -103 -36 -189 -107 -260c-71 -70 -157 -105 -260 -105c-71 0 -137 19 -198 56l-46 -55l-75 43l54 66c-68 70 -102 155 -102 255c0 103 35 189 106 259c71 71 158 106 261 106c73 0 139 -19 198 -56l45 55zM211 350
c0 -45 12 -84 37 -117l237 289c-27 12 -56 18 -85 18c-54 0 -99 -18 -135 -54c-36 -35 -54 -81 -54 -136zM400 160c54 0 99 18 135 53c36 36 54 82 54 137c0 45 -13 84 -38 118l-237 -289c27 -13 56 -19 86 -19z" />
    <glyph glyph-name="Ugrave" unicode="&#xd9;" horiz-adv-x="650" 
d="M420 755h-158l-116 145h194zM48 230c0 -74 26 -133 77 -178c52 -45 119 -67 200 -67s148 22 199 67c52 45 78 104 78 178v470h-179v-453c0 -59 -33 -88 -98 -88s-98 29 -98 88v453h-179v-470z" />
    <glyph glyph-name="Uacute" unicode="&#xda;" horiz-adv-x="650" 
d="M226 755l80 145h194l-116 -145h-158zM48 230c0 -74 26 -133 77 -178c52 -45 119 -67 200 -67s148 22 199 67c52 45 78 104 78 178v470h-179v-453c0 -59 -33 -88 -98 -88s-98 29 -98 88v453h-179v-470z" />
    <glyph glyph-name="Ucircumflex" unicode="&#xdb;" horiz-adv-x="650" 
d="M360 745l-39 56l-40 -56h-150l106 155h167l106 -155h-150zM423 247v453h179v-470c0 -74 -26 -133 -78 -178c-51 -45 -118 -67 -199 -67s-148 22 -200 67c-51 45 -77 104 -77 178v470h179v-453c0 -59 33 -88 98 -88s98 29 98 88z" />
    <glyph glyph-name="Udieresis" unicode="&#xdc;" horiz-adv-x="650" 
d="M228 735c-44 0 -80 36 -80 80s36 80 80 80c43 0 79 -36 79 -80s-36 -80 -79 -80zM422 735c-43 0 -79 36 -79 80s36 80 79 80c44 0 80 -36 80 -80s-36 -80 -80 -80zM48 230v470h179v-453c0 -59 33 -88 98 -88s98 29 98 88v453h179v-470c0 -74 -26 -133 -78 -178
c-51 -45 -118 -67 -199 -67s-148 22 -200 67c-51 45 -77 104 -77 178z" />
    <glyph glyph-name="Yacute" unicode="&#xdd;" horiz-adv-x="651" 
d="M306 900h194l-116 -145h-158zM450 700h201l-236 -431v-269h-179v267l-236 433h201l124 -259z" />
    <glyph glyph-name="Thorn" unicode="&#xde;" horiz-adv-x="592" 
d="M234 596h96c69 0 128 -23 175 -70c48 -46 72 -105 72 -176s-24 -129 -72 -176c-47 -46 -106 -69 -175 -69h-96v-105h-179v700h179v-104zM234 276h96c37 0 68 31 68 74s-31 75 -68 75h-96v-149z" />
    <glyph glyph-name="germandbls" unicode="&#xdf;" horiz-adv-x="551" 
d="M274 -5v148c67 -9 100 6 100 45c0 20 -16 54 -49 102s-49 81 -49 100c0 15 7 36 22 61s23 47 23 65c0 29 -18 52 -50 52c-35 0 -57 -25 -57 -66v-502h-166v497c0 135 90 218 230 218c66 0 118 -17 156 -51c39 -34 58 -74 58 -121c0 -69 -48 -112 -48 -145
c-4 -41 101 -143 97 -250c0 -56 -21 -99 -62 -128s-109 -37 -205 -25z" />
    <glyph glyph-name="agrave" unicode="&#xe0;" horiz-adv-x="615" 
d="M322 700l80 -145h-158l-116 145h194zM401 454v46h166v-500h-166v46c-34 -40 -81 -60 -142 -60c-67 0 -123 25 -168 75c-45 51 -67 114 -67 189s22 138 67 188c45 51 101 76 168 76c61 0 108 -20 142 -60zM220 171c19 -20 45 -30 76 -30s57 10 76 30s29 46 29 79
s-10 59 -29 79s-45 30 -76 30s-57 -10 -76 -30s-29 -46 -29 -79s10 -59 29 -79z" />
    <glyph glyph-name="aacute" unicode="&#xe1;" horiz-adv-x="615" 
d="M288 700h194l-116 -145h-158zM401 454v46h166v-500h-166v46c-34 -40 -81 -60 -142 -60c-67 0 -123 25 -168 75c-45 51 -67 114 -67 189s22 138 67 188c45 51 101 76 168 76c61 0 108 -20 142 -60zM220 171c19 -20 45 -30 76 -30s57 10 76 30s29 46 29 79s-10 59 -29 79
s-45 30 -76 30s-57 -10 -76 -30s-29 -46 -29 -79s10 -59 29 -79z" />
    <glyph glyph-name="acircumflex" unicode="&#xe2;" horiz-adv-x="615" 
d="M342 545l-39 56l-40 -56h-150l106 155h167l106 -155h-150zM401 454v46h166v-500h-166v46c-34 -40 -81 -60 -142 -60c-67 0 -123 25 -168 75c-45 51 -67 114 -67 189s22 138 67 188c45 51 101 76 168 76c61 0 108 -20 142 -60zM220 171c19 -20 45 -30 76 -30s57 10 76 30
s29 46 29 79s-10 59 -29 79s-45 30 -76 30s-57 -10 -76 -30s-29 -46 -29 -79s10 -59 29 -79z" />
    <glyph glyph-name="atilde" unicode="&#xe3;" horiz-adv-x="615" 
d="M296 568c-32 21 -48 21 -48 -20h-120c0 169 104 188 190 143c32 -21 49 -22 49 19h120c0 -171 -103 -187 -191 -142zM401 454v46h166v-500h-166v46c-34 -40 -81 -60 -142 -60c-67 0 -123 25 -168 75c-45 51 -67 114 -67 189s22 138 67 188c45 51 101 76 168 76
c61 0 108 -20 142 -60zM220 171c19 -20 45 -30 76 -30s57 10 76 30s29 46 29 79s-10 59 -29 79s-45 30 -76 30s-57 -10 -76 -30s-29 -46 -29 -79s10 -59 29 -79z" />
    <glyph glyph-name="adieresis" unicode="&#xe4;" horiz-adv-x="615" 
d="M210 535c-44 0 -80 36 -80 80s36 80 80 80c43 0 79 -36 79 -80s-36 -80 -79 -80zM404 535c-43 0 -79 36 -79 80s36 80 79 80c44 0 80 -36 80 -80s-36 -80 -80 -80zM401 454v46h166v-500h-166v46c-34 -40 -81 -60 -142 -60c-67 0 -123 25 -168 75c-45 51 -67 114 -67 189
s22 138 67 188c45 51 101 76 168 76c61 0 108 -20 142 -60zM220 171c19 -20 45 -30 76 -30s57 10 76 30s29 46 29 79s-10 59 -29 79s-45 30 -76 30s-57 -10 -76 -30s-29 -46 -29 -79s10 -59 29 -79z" />
    <glyph glyph-name="aring" unicode="&#xe5;" horiz-adv-x="615" 
d="M307 533c-81 0 -140 56 -140 132s59 132 140 132c84 0 141 -56 141 -132c0 -77 -57 -132 -141 -132zM307 697c-43 0 -43 -64 0 -64c23 0 34 11 34 32s-11 32 -34 32zM401 454v46h166v-500h-166v46c-34 -40 -81 -60 -142 -60c-67 0 -123 25 -168 75
c-45 51 -67 114 -67 189s22 138 67 188c45 51 101 76 168 76c61 0 108 -20 142 -60zM220 171c19 -20 45 -30 76 -30s57 10 76 30s29 46 29 79s-10 59 -29 79s-45 30 -76 30s-57 -10 -76 -30s-29 -46 -29 -79s10 -59 29 -79z" />
    <glyph glyph-name="ae" unicode="&#xe6;" horiz-adv-x="948" 
d="M918 189h-344c19 -44 56 -66 113 -66c39 0 71 13 94 38l118 -80c-49 -63 -113 -95 -192 -95c-63 0 -115 21 -155 63v-49h-151v41c-33 -37 -79 -55 -138 -55c-67 0 -123 25 -170 76c-46 51 -69 113 -69 188s23 137 69 188c47 51 103 76 170 76c59 0 105 -18 138 -55v41
h151v-46c38 40 87 60 146 60c67 0 122 -25 164 -75c42 -49 63 -112 63 -188c0 -22 -2 -43 -7 -62zM571 305h193c-13 46 -45 69 -94 69c-51 0 -84 -23 -99 -69zM220 172c19 -19 45 -29 76 -29s57 10 76 29c19 20 29 46 29 78s-10 58 -29 77c-19 20 -45 30 -76 30
s-57 -10 -76 -30c-19 -19 -29 -45 -29 -77s10 -58 29 -78z" />
    <glyph glyph-name="ccedilla" unicode="&#xe7;" horiz-adv-x="528" 
d="M289 148c41 0 70 17 87 50l142 -82c-33 -61 -85 -101 -155 -120v-42c29 -9 58 -34 58 -77c0 -75 -78 -107 -234 -98v109c63 -5 95 0 95 14c0 10 -18 17 -53 20v70c-61 13 -110 44 -148 91c-38 48 -57 104 -57 167c0 75 25 137 76 188s114 76 190 76
c99 0 184 -50 228 -129l-142 -82c-18 33 -47 49 -87 49c-56 0 -98 -42 -98 -102s42 -102 98 -102z" />
    <glyph glyph-name="egrave" unicode="&#xe8;" horiz-adv-x="571" 
d="M305 707l80 -145h-158l-116 145h194zM541 189h-345c17 -41 54 -61 112 -61c36 0 66 12 91 35l120 -84c-49 -62 -121 -93 -215 -93c-85 0 -153 25 -204 74c-51 50 -76 113 -76 189c0 75 25 138 75 189s114 76 191 76c75 0 136 -25 185 -75s73 -113 73 -188
c0 -22 -2 -43 -7 -62zM194 304h192c-13 47 -45 70 -94 70c-51 0 -84 -23 -98 -70z" />
    <glyph glyph-name="eacute" unicode="&#xe9;" horiz-adv-x="571" 
d="M271 707h194l-116 -145h-158zM541 189h-345c17 -41 54 -61 112 -61c36 0 66 12 91 35l120 -84c-49 -62 -121 -93 -215 -93c-85 0 -153 25 -204 74c-51 50 -76 113 -76 189c0 75 25 138 75 189s114 76 191 76c75 0 136 -25 185 -75s73 -113 73 -188c0 -22 -2 -43 -7 -62z
M194 304h192c-13 47 -45 70 -94 70c-51 0 -84 -23 -98 -70z" />
    <glyph glyph-name="ecircumflex" unicode="&#xea;" horiz-adv-x="571" 
d="M325 552l-39 56l-40 -56h-150l106 155h167l106 -155h-150zM541 189h-345c17 -41 54 -61 112 -61c36 0 66 12 91 35l120 -84c-49 -62 -121 -93 -215 -93c-85 0 -153 25 -204 74c-51 50 -76 113 -76 189c0 75 25 138 75 189s114 76 191 76c75 0 136 -25 185 -75
s73 -113 73 -188c0 -22 -2 -43 -7 -62zM194 304h192c-13 47 -45 70 -94 70c-51 0 -84 -23 -98 -70z" />
    <glyph glyph-name="edieresis" unicode="&#xeb;" horiz-adv-x="571" 
d="M193 542c-44 0 -80 36 -80 80s36 80 80 80c43 0 79 -36 79 -80s-36 -80 -79 -80zM387 542c-43 0 -79 36 -79 80s36 80 79 80c44 0 80 -36 80 -80s-36 -80 -80 -80zM541 189h-345c17 -41 54 -61 112 -61c36 0 66 12 91 35l120 -84c-49 -62 -121 -93 -215 -93
c-85 0 -153 25 -204 74c-51 50 -76 113 -76 189c0 75 25 138 75 189s114 76 191 76c75 0 136 -25 185 -75s73 -113 73 -188c0 -22 -2 -43 -7 -62zM194 304h192c-13 47 -45 70 -94 70c-51 0 -84 -23 -98 -70z" />
    <glyph glyph-name="igrave" unicode="&#xec;" horiz-adv-x="262" 
d="M209 550h-158l-70 150h188zM214 0v500h-166v-500h166z" />
    <glyph glyph-name="iacute" unicode="&#xed;" horiz-adv-x="262" 
d="M48 550l40 150h189l-71 -150h-158zM48 0h166v500h-166v-500z" />
    <glyph glyph-name="icircumflex" unicode="&#xee;" horiz-adv-x="262" 
d="M161 545l-30 49l-30 -49h-145l92 155h166l92 -155h-145zM214 0h-166v500h166v-500z" />
    <glyph glyph-name="idieresis" unicode="&#xef;" horiz-adv-x="262" 
d="M95 565c-31 -29 -77 -29 -108 0c-31 31 -31 80 0 109c31 31 77 31 108 0c31 -29 31 -78 0 -109zM275 565c-31 -29 -77 -29 -108 0c-31 31 -31 80 0 109c31 31 77 31 108 0c31 -29 31 -78 0 -109zM214 0h-166v500h166v-500z" />
    <glyph glyph-name="eth" unicode="&#xf0;" horiz-adv-x="564" 
d="M346 569l148 -199c31 -42 46 -89 46 -140c0 -73 -25 -132 -76 -177s-111 -67 -182 -67c-72 0 -133 22 -183 66c-50 45 -75 104 -75 178c0 58 20 109 59 152c40 44 89 69 148 75l-38 53l-127 -50v118l61 24l-70 98h191l29 -39l130 51v-119zM373 228c0 20 -5 37 -16 52
c-17 23 -42 34 -75 34c-55 0 -91 -33 -91 -86c0 -57 36 -90 91 -90s91 33 91 90z" />
    <glyph glyph-name="ntilde" unicode="&#xf1;" horiz-adv-x="579" 
d="M287 578c-32 21 -48 21 -48 -20h-120c0 169 104 188 190 143c32 -21 49 -22 49 19h120c0 -171 -103 -187 -191 -142zM353 514c108 0 184 -76 184 -215v-299h-166v278c0 52 -30 79 -75 79c-52 0 -82 -32 -82 -91v-266h-166v500h166v-50c30 43 76 64 139 64z" />
    <glyph glyph-name="ograve" unicode="&#xf2;" horiz-adv-x="583" 
d="M386 565h-158l-116 145h194zM291 -14c75 0 138 25 189 76c52 51 78 114 78 188s-26 136 -78 187c-51 51 -114 77 -189 77c-74 0 -137 -26 -189 -77s-78 -113 -78 -187s26 -137 78 -188s115 -76 189 -76zM291 146c-57 0 -100 43 -100 104s43 104 100 104
c59 0 101 -43 101 -104s-42 -104 -101 -104z" />
    <glyph glyph-name="oacute" unicode="&#xf3;" horiz-adv-x="583" 
d="M192 565l80 145h194l-116 -145h-158zM291 -14c75 0 138 25 189 76c52 51 78 114 78 188s-26 136 -78 187c-51 51 -114 77 -189 77c-74 0 -137 -26 -189 -77s-78 -113 -78 -187s26 -137 78 -188s115 -76 189 -76zM291 146c-57 0 -100 43 -100 104s43 104 100 104
c59 0 101 -43 101 -104s-42 -104 -101 -104z" />
    <glyph glyph-name="ocircumflex" unicode="&#xf4;" horiz-adv-x="583" 
d="M326 555l-39 56l-40 -56h-150l106 155h167l106 -155h-150zM291 514c75 0 138 -26 189 -77c52 -51 78 -113 78 -187s-26 -137 -78 -188c-51 -51 -114 -76 -189 -76c-74 0 -137 25 -189 76s-78 114 -78 188s26 136 78 187s115 77 189 77zM291 146c59 0 101 43 101 104
s-42 104 -101 104c-57 0 -100 -43 -100 -104s43 -104 100 -104z" />
    <glyph glyph-name="otilde" unicode="&#xf5;" horiz-adv-x="583" 
d="M232 558h-120c0 169 104 188 190 143c32 -21 49 -22 49 19h120c0 -171 -103 -187 -191 -142c-32 21 -48 21 -48 -20zM291 -14c-74 0 -137 25 -189 76s-78 114 -78 188s26 136 78 187s115 77 189 77c75 0 138 -26 189 -77c52 -51 78 -113 78 -187s-26 -137 -78 -188
c-51 -51 -114 -76 -189 -76zM291 146c59 0 101 43 101 104s-42 104 -101 104c-57 0 -100 -43 -100 -104s43 -104 100 -104z" />
    <glyph glyph-name="odieresis" unicode="&#xf6;" horiz-adv-x="583" 
d="M194 545c-44 0 -80 36 -80 80s36 80 80 80c43 0 79 -36 79 -80s-36 -80 -79 -80zM388 545c-43 0 -79 36 -79 80s36 80 79 80c44 0 80 -36 80 -80s-36 -80 -80 -80zM291 -14c-74 0 -137 25 -189 76s-78 114 -78 188s26 136 78 187s115 77 189 77c75 0 138 -26 189 -77
c52 -51 78 -113 78 -187s-26 -137 -78 -188c-51 -51 -114 -76 -189 -76zM291 146c59 0 101 43 101 104s-42 104 -101 104c-57 0 -100 -43 -100 -104s43 -104 100 -104z" />
    <glyph glyph-name="divide" unicode="&#xf7;" horiz-adv-x="551" 
d="M275 459c-53 0 -94 42 -94 95s41 95 94 95c55 0 95 -42 95 -95s-40 -95 -95 -95zM515 271h-480v158h480v-158zM275 51c-53 0 -94 42 -94 95s41 95 94 95c55 0 95 -42 95 -95s-40 -95 -95 -95z" />
    <glyph glyph-name="oslash" unicode="&#xf8;" horiz-adv-x="583" 
d="M523 477l-37 -45c48 -50 72 -111 72 -182c0 -74 -26 -137 -78 -188c-51 -51 -114 -76 -189 -76c-51 0 -97 13 -140 39l-30 -37l-61 34l37 45c-49 51 -73 112 -73 183c0 74 26 136 78 187s115 77 189 77c51 0 98 -13 141 -39l30 37zM191 250c0 -20 4 -38 12 -53l124 151
c-11 4 -23 6 -36 6c-57 0 -100 -43 -100 -104zM291 146c59 0 101 43 101 104c0 20 -4 38 -12 53l-124 -151c11 -4 22 -6 35 -6z" />
    <glyph glyph-name="ugrave" unicode="&#xf9;" horiz-adv-x="579" 
d="M302 700l80 -145h-158l-116 145h194zM365 234v266h166v-500h-166v50c-30 -43 -76 -64 -139 -64c-108 0 -184 76 -184 215v299h166v-278c0 -52 30 -79 75 -79c52 0 82 32 82 91z" />
    <glyph glyph-name="uacute" unicode="&#xfa;" horiz-adv-x="579" 
d="M268 700h194l-116 -145h-158zM365 234v266h166v-500h-166v50c-30 -43 -76 -64 -139 -64c-108 0 -184 76 -184 215v299h166v-278c0 -52 30 -79 75 -79c52 0 82 32 82 91z" />
    <glyph glyph-name="ucircumflex" unicode="&#xfb;" horiz-adv-x="579" 
d="M322 545l-39 56l-40 -56h-150l106 155h167l106 -155h-150zM365 234v266h166v-500h-166v50c-30 -43 -76 -64 -139 -64c-108 0 -184 76 -184 215v299h166v-278c0 -52 30 -79 75 -79c52 0 82 32 82 91z" />
    <glyph glyph-name="udieresis" unicode="&#xfc;" horiz-adv-x="579" 
d="M190 535c-44 0 -80 36 -80 80s36 80 80 80c43 0 79 -36 79 -80s-36 -80 -79 -80zM384 535c-43 0 -79 36 -79 80s36 80 79 80c44 0 80 -36 80 -80s-36 -80 -80 -80zM365 234v266h166v-500h-166v50c-30 -43 -76 -64 -139 -64c-108 0 -184 76 -184 215v299h166v-278
c0 -52 30 -79 75 -79c52 0 82 32 82 91z" />
    <glyph glyph-name="yacute" unicode="&#xfd;" horiz-adv-x="549" 
d="M259 700h194l-116 -145h-158zM287 210l78 290h184l-171 -492c-53 -151 -147 -215 -302 -208v156c71 0 101 15 124 60l-200 484h186z" />
    <glyph glyph-name="thorn" unicode="&#xfe;" horiz-adv-x="615" 
d="M356 514c67 0 122 -25 167 -76c45 -50 68 -113 68 -188s-23 -138 -68 -189c-45 -50 -100 -75 -167 -75c-61 0 -108 20 -142 60v-246h-166v900h166v-246c34 40 81 60 142 60zM243 171c19 -20 45 -30 76 -30s57 10 76 30s29 46 29 79s-10 59 -29 79s-45 30 -76 30
s-57 -10 -76 -30s-29 -46 -29 -79s10 -59 29 -79z" />
    <glyph glyph-name="ydieresis" unicode="&#xff;" horiz-adv-x="549" 
d="M181 535c-44 0 -80 36 -80 80s36 80 80 80c43 0 79 -36 79 -80s-36 -80 -79 -80zM375 535c-43 0 -79 36 -79 80s36 80 79 80c44 0 80 -36 80 -80s-36 -80 -80 -80zM287 210l78 290h184l-171 -492c-53 -151 -147 -215 -302 -208v156c71 0 101 15 124 60l-200 484h186z" />
    <glyph glyph-name="Amacron" unicode="&#x100;" horiz-adv-x="671" 
d="M180 884h309v-130h-309v130zM675 0h-193l-30 101h-233l-30 -101h-194l231 700h218zM335 493l-70 -238h141z" />
    <glyph glyph-name="amacron" unicode="&#x101;" horiz-adv-x="615" 
d="M152 684h309v-130h-309v130zM401 454v46h166v-500h-166v46c-34 -40 -81 -60 -142 -60c-67 0 -123 25 -168 75c-45 51 -67 114 -67 189s22 138 67 188c45 51 101 76 168 76c61 0 108 -20 142 -60zM220 171c19 -20 45 -30 76 -30s57 10 76 30s29 46 29 79s-10 59 -29 79
s-45 30 -76 30s-57 -10 -76 -30s-29 -46 -29 -79s10 -59 29 -79z" />
    <glyph glyph-name="Abreve" unicode="&#x102;" horiz-adv-x="671" 
d="M156 897h140c0 -29 13 -44 39 -44c27 0 40 15 40 44h140c0 -104 -64 -160 -180 -160s-179 56 -179 160zM675 0h-193l-30 101h-233l-30 -101h-194l231 700h218zM335 493l-70 -238h141z" />
    <glyph glyph-name="abreve" unicode="&#x103;" horiz-adv-x="615" 
d="M128 697h140c0 -29 13 -44 39 -44c27 0 40 15 40 44h140c0 -104 -64 -160 -180 -160s-179 56 -179 160zM401 454v46h166v-500h-166v46c-34 -40 -81 -60 -142 -60c-67 0 -123 25 -168 75c-45 51 -67 114 -67 189s22 138 67 188c45 51 101 76 168 76c61 0 108 -20 142 -60z
M220 171c19 -20 45 -30 76 -30s57 10 76 30s29 46 29 79s-10 59 -29 79s-45 30 -76 30s-57 -10 -76 -30s-29 -46 -29 -79s10 -59 29 -79z" />
    <glyph glyph-name="Aogonek" unicode="&#x104;" horiz-adv-x="671" 
d="M654 -101c5 -1 12 0 21 3v-99c-84 -35 -197 -18 -192 74c0 39 20 80 61 123h-62l-30 101h-233l-30 -101h-194l231 700h218l231 -700c-28 -31 -42 -57 -42 -78c-1 -15 6 -23 21 -23zM335 493l-70 -238h141z" />
    <glyph glyph-name="aogonek" unicode="&#x105;" horiz-adv-x="615" 
d="M401 500h166v-500c-29 -32 -43 -58 -43 -78c0 -15 7 -23 22 -23c3 -1 10 0 21 3v-99c-83 -35 -198 -18 -193 74c0 39 21 80 62 123h-35v46c-34 -40 -81 -60 -142 -60c-67 0 -123 25 -168 75c-45 51 -67 114 -67 189s22 138 67 188c45 51 101 76 168 76
c61 0 108 -20 142 -60v46zM220 171c19 -20 45 -30 76 -30s57 10 76 30s29 46 29 79s-10 59 -29 79s-45 30 -76 30s-57 -10 -76 -30s-29 -46 -29 -79s10 -59 29 -79z" />
    <glyph glyph-name="Cacute" unicode="&#x106;" horiz-adv-x="719" 
d="M294 765l80 145h194l-116 -145h-158zM393 -15c128 0 242 63 303 166l-155 90c-27 -51 -83 -81 -148 -81c-56 0 -101 17 -136 52c-34 35 -51 81 -51 138s17 102 51 137c35 35 80 53 136 53c65 0 121 -31 148 -80l155 89c-31 51 -73 91 -127 121s-113 45 -176 45
c-105 0 -193 -35 -262 -105c-69 -69 -103 -156 -103 -260s34 -191 103 -261c69 -69 157 -104 262 -104z" />
    <glyph glyph-name="cacute" unicode="&#x107;" horiz-adv-x="528" 
d="M192 560l80 145h194l-116 -145h-158zM290 -14c99 0 184 50 228 130l-142 82c-17 -33 -46 -50 -87 -50c-56 0 -98 42 -98 102s42 102 98 102c40 0 69 -16 87 -49l142 82c-44 79 -129 129 -228 129c-76 0 -139 -25 -190 -76s-76 -113 -76 -188s25 -137 76 -188
s114 -76 190 -76z" />
    <glyph glyph-name="Cdotaccent" unicode="&#x10a;" horiz-adv-x="719" 
d="M393 753c-49 0 -90 41 -90 89c0 49 41 90 90 90c48 0 89 -41 89 -90c0 -48 -41 -89 -89 -89zM393 -15c-105 0 -193 35 -262 104c-69 70 -103 157 -103 261s34 191 103 260c69 70 157 105 262 105c63 0 122 -15 176 -45s96 -70 127 -121l-155 -89c-27 49 -83 80 -148 80
c-56 0 -101 -18 -136 -53c-34 -35 -51 -80 -51 -137s17 -103 51 -138c35 -35 80 -52 136 -52c65 0 121 30 148 81l155 -90c-61 -103 -175 -166 -303 -166z" />
    <glyph glyph-name="cdotaccent" unicode="&#x10b;" horiz-adv-x="528" 
d="M291 548c-49 0 -90 41 -90 89c0 49 41 90 90 90c48 0 89 -41 89 -90c0 -48 -41 -89 -89 -89zM290 -14c-76 0 -139 25 -190 76s-76 113 -76 188s25 137 76 188s114 76 190 76c99 0 184 -50 228 -129l-142 -82c-18 33 -47 49 -87 49c-56 0 -98 -42 -98 -102
s42 -102 98 -102c41 0 70 17 87 50l142 -82c-44 -80 -129 -130 -228 -130z" />
    <glyph glyph-name="Ccaron" unicode="&#x10c;" horiz-adv-x="719" 
d="M472 755h-167l-106 155h150l40 -56l39 56h150zM393 160c65 0 121 30 148 81l155 -90c-61 -103 -175 -166 -303 -166c-105 0 -193 35 -262 104c-69 70 -103 157 -103 261s34 191 103 260c69 70 157 105 262 105c63 0 122 -15 176 -45s96 -70 127 -121l-155 -89
c-27 49 -83 80 -148 80c-56 0 -101 -18 -136 -53c-34 -35 -51 -80 -51 -137s17 -103 51 -138c35 -35 80 -52 136 -52z" />
    <glyph glyph-name="ccaron" unicode="&#x10d;" horiz-adv-x="528" 
d="M370 550h-167l-106 155h150l40 -56l39 56h150zM289 148c41 0 70 17 87 50l142 -82c-44 -80 -129 -130 -228 -130c-76 0 -139 25 -190 76s-76 113 -76 188s25 137 76 188s114 76 190 76c99 0 184 -50 228 -129l-142 -82c-18 33 -47 49 -87 49c-56 0 -98 -42 -98 -102
s42 -102 98 -102z" />
    <glyph glyph-name="Dcaron" unicode="&#x10e;" horiz-adv-x="708" 
d="M409 745h-167l-106 155h150l40 -56l39 56h150zM55 700h285c97 0 177 -34 242 -101s98 -150 98 -249s-33 -183 -98 -250s-145 -100 -242 -100h-285v700zM239 173h101c49 0 88 16 119 48c31 33 46 76 46 129s-15 96 -46 128c-31 33 -70 49 -119 49h-101v-354z" />
    <glyph glyph-name="dcaron" unicode="&#x10f;" horiz-adv-x="755" 
d="M401 454v246h166v-700h-166v46c-34 -40 -81 -60 -142 -60c-67 0 -123 25 -168 75c-45 51 -67 114 -67 189s22 138 67 188c45 51 101 76 168 76c61 0 108 -20 142 -60zM606 481l10 219h154l-35 -219h-129zM220 171c19 -20 45 -30 76 -30s57 10 76 30s29 46 29 79
s-10 59 -29 79s-45 30 -76 30s-57 -10 -76 -30s-29 -46 -29 -79s10 -59 29 -79z" />
    <glyph glyph-name="Dcroat" unicode="&#x110;" horiz-adv-x="738" 
d="M86 700h285c97 0 177 -34 242 -101s98 -150 98 -249s-33 -183 -98 -250s-145 -100 -242 -100h-285v263h-76v158h76v279zM270 173h101c49 0 88 16 119 48c31 33 46 76 46 129s-15 96 -46 128c-31 33 -70 49 -119 49h-101v-106h130v-158h-130v-90z" />
    <glyph glyph-name="dslash" unicode="&#x111;" horiz-adv-x="625" 
d="M567 642h58v-105h-58v-537h-166v41c-33 -37 -79 -55 -138 -55c-67 0 -123 25 -170 75c-46 50 -69 111 -69 184s23 134 69 184c47 51 103 76 170 76c59 0 105 -18 138 -55v87h-136v105h136v58h166v-58zM220 168c20 -19 45 -29 76 -29s56 10 75 29c20 20 30 46 30 77
s-10 57 -30 77c-19 20 -44 30 -75 30s-56 -10 -76 -30c-19 -20 -29 -46 -29 -77s10 -57 29 -77z" />
    <glyph glyph-name="Emacron" unicode="&#x112;" horiz-adv-x="535" 
d="M123 884h309v-130h-309v130zM234 271v-103h271v-168h-450v700h445v-167h-266v-97h241v-165h-241z" />
    <glyph glyph-name="emacron" unicode="&#x113;" horiz-adv-x="571" 
d="M135 691h309v-130h-309v130zM541 189h-345c17 -41 54 -61 112 -61c36 0 66 12 91 35l120 -84c-49 -62 -121 -93 -215 -93c-85 0 -153 25 -204 74c-51 50 -76 113 -76 189c0 75 25 138 75 189s114 76 191 76c75 0 136 -25 185 -75s73 -113 73 -188c0 -22 -2 -43 -7 -62z
M194 304h192c-13 47 -45 70 -94 70c-51 0 -84 -23 -98 -70z" />
    <glyph glyph-name="Edotaccent" unicode="&#x116;" horiz-adv-x="535" 
d="M278 743c-49 0 -90 41 -90 89c0 49 41 90 90 90c48 0 89 -41 89 -90c0 -48 -41 -89 -89 -89zM234 271v-103h271v-168h-450v700h445v-167h-266v-97h241v-165h-241z" />
    <glyph glyph-name="edotaccent" unicode="&#x117;" horiz-adv-x="571" 
d="M290 550c-49 0 -90 41 -90 89c0 49 41 90 90 90c48 0 89 -41 89 -90c0 -48 -41 -89 -89 -89zM541 189h-345c17 -41 54 -61 112 -61c36 0 66 12 91 35l120 -84c-49 -62 -121 -93 -215 -93c-85 0 -153 25 -204 74c-51 50 -76 113 -76 189c0 75 25 138 75 189s114 76 191 76
c75 0 136 -25 185 -75s73 -113 73 -188c0 -22 -2 -43 -7 -62zM194 304h192c-13 47 -45 70 -94 70c-51 0 -84 -23 -98 -70z" />
    <glyph glyph-name="Eogonek" unicode="&#x118;" horiz-adv-x="535" 
d="M505 168v-168c-29 -31 -43 -57 -43 -78c-1 -15 6 -23 22 -23c3 -1 10 0 21 3v-99c-83 -35 -198 -18 -193 74c0 39 21 80 62 123h-319v700h445v-167h-266v-97h241v-165h-241v-103h271z" />
    <glyph glyph-name="eogonek" unicode="&#x119;" horiz-adv-x="571" 
d="M541 189h-345c17 -41 54 -61 112 -61c36 0 66 12 91 35l120 -84c-11 -14 -22 -25 -32 -33c-47 -58 -70 -99 -70 -124c0 -15 7 -23 22 -23c3 -1 10 0 21 3v-99c-83 -35 -198 -18 -193 74c0 37 23 74 70 110c-7 -1 -18 -1 -33 -1c-85 0 -153 25 -204 74
c-51 50 -76 113 -76 189c0 75 25 138 75 189s114 76 191 76c75 0 136 -25 185 -75s73 -113 73 -188c0 -22 -2 -43 -7 -62zM194 304h192c-13 47 -45 70 -94 70c-51 0 -84 -23 -98 -70z" />
    <glyph glyph-name="Ecaron" unicode="&#x11a;" horiz-adv-x="535" 
d="M357 745h-167l-106 155h150l40 -56l39 56h150zM234 271v-103h271v-168h-450v700h445v-167h-266v-97h241v-165h-241z" />
    <glyph glyph-name="ecaron" unicode="&#x11b;" horiz-adv-x="571" 
d="M369 552h-167l-106 155h150l40 -56l39 56h150zM541 189h-345c17 -41 54 -61 112 -61c36 0 66 12 91 35l120 -84c-49 -62 -121 -93 -215 -93c-85 0 -153 25 -204 74c-51 50 -76 113 -76 189c0 75 25 138 75 189s114 76 191 76c75 0 136 -25 185 -75s73 -113 73 -188
c0 -22 -2 -43 -7 -62zM194 304h192c-13 47 -45 70 -94 70c-51 0 -84 -23 -98 -70z" />
    <glyph glyph-name="Gbreve" unicode="&#x11e;" horiz-adv-x="778" 
d="M216 907h140c0 -29 13 -44 39 -44c27 0 40 15 40 44h140c0 -104 -64 -160 -180 -160s-179 56 -179 160zM397 401h353v-71c0 -103 -32 -186 -97 -250c-64 -63 -147 -95 -250 -95c-109 0 -199 35 -270 105c-70 70 -105 156 -105 259s35 189 105 260s157 106 260 106
c65 0 125 -15 179 -44c55 -29 97 -68 128 -117l-152 -87c-28 44 -85 73 -153 73c-55 0 -101 -18 -136 -54s-53 -82 -53 -138c0 -54 17 -100 52 -137s85 -56 148 -56c81 0 135 31 161 92h-170v154z" />
    <glyph glyph-name="gbreve" unicode="&#x11f;" horiz-adv-x="618" 
d="M300 547c-115 0 -179 56 -179 160h140c0 -29 13 -44 39 -44c27 0 40 15 40 44h140c0 -104 -64 -160 -180 -160zM406 452v48h164v-480c0 -166 -132 -235 -263 -235c-111 0 -202 42 -246 122l138 80c24 -38 59 -57 106 -57c60 0 101 31 101 90v48c-34 -41 -81 -62 -140 -62
c-69 0 -126 25 -171 74s-67 109 -67 180s22 131 67 180s102 74 171 74c59 0 106 -21 140 -62zM223 185c20 -19 46 -29 77 -29s57 10 76 29c20 20 30 45 30 75s-10 55 -30 74c-19 20 -45 30 -76 30s-57 -10 -77 -30c-19 -19 -29 -44 -29 -74s10 -55 29 -75z" />
    <glyph glyph-name="Gdotaccent" unicode="&#x120;" horiz-adv-x="778" 
d="M395 753c-49 0 -90 41 -90 89c0 49 41 90 90 90c48 0 89 -41 89 -90c0 -48 -41 -89 -89 -89zM397 401h353v-71c0 -103 -32 -186 -97 -250c-64 -63 -147 -95 -250 -95c-109 0 -199 35 -270 105c-70 70 -105 156 -105 259s35 189 105 260s157 106 260 106
c65 0 125 -15 179 -44c55 -29 97 -68 128 -117l-152 -87c-28 44 -85 73 -153 73c-55 0 -101 -18 -136 -54s-53 -82 -53 -138c0 -54 17 -100 52 -137s85 -56 148 -56c81 0 135 31 161 92h-170v154z" />
    <glyph glyph-name="gdotaccent" unicode="&#x121;" horiz-adv-x="618" 
d="M300 553c-49 0 -90 41 -90 89c0 49 41 90 90 90c48 0 89 -41 89 -90c0 -48 -41 -89 -89 -89zM406 452v48h164v-480c0 -166 -132 -235 -263 -235c-111 0 -202 42 -246 122l138 80c24 -38 59 -57 106 -57c60 0 101 31 101 90v48c-34 -41 -81 -62 -140 -62
c-69 0 -126 25 -171 74s-67 109 -67 180s22 131 67 180s102 74 171 74c59 0 106 -21 140 -62zM223 185c20 -19 46 -29 77 -29s57 10 76 29c20 20 30 45 30 75s-10 55 -30 74c-19 20 -45 30 -76 30s-57 -10 -77 -30c-19 -19 -29 -44 -29 -74s10 -55 29 -75z" />
    <glyph glyph-name="Gcommaaccent" unicode="&#x122;" horiz-adv-x="778" 
d="M397 401h353v-71c0 -103 -32 -186 -97 -250c-64 -63 -147 -95 -250 -95c-109 0 -199 35 -270 105c-70 70 -105 156 -105 259s35 189 105 260s157 106 260 106c65 0 125 -15 179 -44c55 -29 97 -68 128 -117l-152 -87c-28 44 -85 73 -153 73c-55 0 -101 -18 -136 -54
s-53 -82 -53 -138c0 -54 17 -100 52 -137s85 -56 148 -56c81 0 135 31 161 92h-170v154zM448 -277h-129l10 220h154z" />
    <glyph glyph-name="gcommaaccent" unicode="&#x123;" horiz-adv-x="618" 
d="M246 795h129l-10 -220h-154zM406 452v48h164v-480c0 -166 -132 -235 -263 -235c-111 0 -202 42 -246 122l138 80c24 -38 59 -57 106 -57c60 0 101 31 101 90v48c-34 -41 -81 -62 -140 -62c-69 0 -126 25 -171 74s-67 109 -67 180s22 131 67 180s102 74 171 74
c59 0 106 -21 140 -62zM223 185c20 -19 46 -29 77 -29s57 10 76 29c20 20 30 45 30 75s-10 55 -30 74c-19 20 -45 30 -76 30s-57 -10 -77 -30c-19 -19 -29 -44 -29 -74s10 -55 29 -75z" />
    <glyph glyph-name="Hbar" unicode="&#x126;" horiz-adv-x="705" 
d="M629 608h60v-130h-60v-478h-178v220h-197v-220h-179v478h-60v130h60v92h179v-92h197v92h178v-92zM254 393h197v85h-197v-85z" />
    <glyph glyph-name="hbar" unicode="&#x127;" 
d="M363 502c107 0 184 -76 184 -215v-287h-166v266c0 52 -31 80 -76 80c-51 0 -81 -32 -81 -92v-254h-166v537h-58v105h58v58h166v-58h135v-105h-135v-98c29 42 76 63 139 63z" />
    <glyph glyph-name="Imacron" unicode="&#x12a;" horiz-adv-x="289" 
d="M299 754h-309v130h309v-130zM55 0v700h179v-700h-179z" />
    <glyph glyph-name="imacron" unicode="&#x12b;" horiz-adv-x="262" 
d="M261 554h-259v135h259v-135zM214 0h-166v500h166v-500z" />
    <glyph glyph-name="Iogonek" unicode="&#x12e;" horiz-adv-x="289" 
d="M221 -101c3 -1 10 0 21 3v-99c-83 -35 -198 -18 -193 74c0 39 18 80 54 123h-48v700h179v-700c-23 -30 -35 -56 -35 -78c0 -15 7 -23 22 -23z" />
    <glyph glyph-name="iogonek" unicode="&#x12f;" horiz-adv-x="262" 
d="M198 569c-37 -37 -96 -37 -135 0c-37 39 -37 98 0 135c39 37 98 37 135 0c39 -37 39 -96 0 -135zM204 -101c3 -1 10 0 21 3v-99c-83 -35 -198 -18 -193 74c0 40 15 81 44 123h-28v500h166v-500c-21 -31 -32 -57 -32 -78c0 -15 7 -23 22 -23z" />
    <glyph glyph-name="Idot" unicode="&#x130;" horiz-adv-x="289" 
d="M145 743c-49 0 -90 41 -90 89c0 49 41 90 90 90c48 0 89 -41 89 -90c0 -48 -41 -89 -89 -89zM55 0v700h179v-700h-179z" />
    <glyph glyph-name="dotlessi" unicode="&#x131;" horiz-adv-x="262" 
d="M214 0h-166v500h166v-500z" />
    <glyph glyph-name="Kcommaaccent" unicode="&#x136;" horiz-adv-x="631" 
d="M625 700l-222 -340l232 -360h-200l-201 313v-313h-179v700h179v-294l191 294h200zM360 -277h-129l10 220h154z" />
    <glyph glyph-name="kcommaaccent" unicode="&#x137;" horiz-adv-x="542" 
d="M356 0l-142 213v-213h-166v700h166v-409l129 209h192l-168 -250l175 -250h-186zM333 -277h-129l10 220h154z" />
    <glyph glyph-name="Lacute" unicode="&#x139;" horiz-adv-x="485" 
d="M133 900h194l-116 -145h-158zM234 700v-527h241v-173h-420v700h179z" />
    <glyph glyph-name="lacute" unicode="&#x13a;" horiz-adv-x="262" 
d="M47 760l80 145h194l-116 -145h-158zM48 0h166v730h-166v-730z" />
    <glyph glyph-name="Lcommaaccent" unicode="&#x13b;" horiz-adv-x="485" 
d="M234 700v-527h241v-173h-420v700h179zM316 -277h-129l10 220h154z" />
    <glyph glyph-name="lcommaaccent" unicode="&#x13c;" horiz-adv-x="262" 
d="M214 0h-166v730h166v-730zM174 -277h-129l10 220h154z" />
    <glyph glyph-name="Lcaron" unicode="&#x13d;" horiz-adv-x="485" 
d="M234 700v-527h241v-173h-420v700h179zM290 700h164l-34 -199h-140z" />
    <glyph glyph-name="lcaron" unicode="&#x13e;" horiz-adv-x="400" 
d="M214 0h-166v730h166v-730zM380 511h-130l10 219h154z" />
    <glyph glyph-name="Lslash" unicode="&#x141;" horiz-adv-x="505" 
d="M254 301v-128h241v-173h-420v198l-60 -35v177l60 35v325h179v-222l120 70v-177z" />
    <glyph glyph-name="lslash" unicode="&#x142;" horiz-adv-x="279" 
d="M223 475l51 32v-157l-51 -32v-318h-166v212l-52 -33v157l52 33v361h166v-255z" />
    <glyph glyph-name="Nacute" unicode="&#x143;" horiz-adv-x="675" 
d="M226 755l80 145h194l-116 -145h-158zM441 700v-352l-247 352h-139v-700h179v352l247 -352h138v700h-178z" />
    <glyph glyph-name="nacute" unicode="&#x144;" horiz-adv-x="579" 
d="M279 710h194l-116 -145h-158zM353 514c108 0 184 -76 184 -215v-299h-166v278c0 52 -30 79 -75 79c-52 0 -82 -32 -82 -91v-266h-166v500h166v-50c30 43 76 64 139 64z" />
    <glyph glyph-name="Ncommaaccent" unicode="&#x145;" horiz-adv-x="675" 
d="M441 348v352h178v-700h-138l-247 352v-352h-179v700h139zM393 -277h-129l10 220h154z" />
    <glyph glyph-name="ncommaaccent" unicode="&#x146;" horiz-adv-x="579" 
d="M353 514c108 0 184 -76 184 -215v-299h-166v278c0 52 -30 79 -75 79c-52 0 -82 -32 -82 -91v-266h-166v500h166v-50c30 43 76 64 139 64zM344 -277h-129l10 220h154z" />
    <glyph glyph-name="Ncaron" unicode="&#x147;" horiz-adv-x="675" 
d="M404 745h-167l-106 155h150l40 -56l39 56h150zM441 348v352h178v-700h-138l-247 352v-352h-179v700h139z" />
    <glyph glyph-name="ncaron" unicode="&#x148;" horiz-adv-x="579" 
d="M377 555h-167l-106 155h150l40 -56l39 56h150zM353 514c108 0 184 -76 184 -215v-299h-166v278c0 52 -30 79 -75 79c-52 0 -82 -32 -82 -91v-266h-166v500h166v-50c30 43 76 64 139 64z" />
    <glyph glyph-name="Eng" unicode="&#x14a;" horiz-adv-x="675" 
d="M441 348v352h178v-700c0 -148 -81 -217 -244 -207v154c49 -3 73 15 73 58v42l-214 305v-352h-179v700h139z" />
    <glyph glyph-name="eng" unicode="&#x14b;" horiz-adv-x="579" 
d="M353 514c108 0 184 -76 184 -215v-299c0 -150 -75 -220 -224 -209v150c39 -3 58 14 58 59v278c0 52 -30 79 -75 79c-52 0 -82 -32 -82 -91v-266h-166v500h166v-50c30 43 76 64 139 64z" />
    <glyph glyph-name="Omacron" unicode="&#x14c;" horiz-adv-x="790" 
d="M549 764h-309v130h309v-130zM655 90c-71 -70 -157 -105 -260 -105s-190 35 -261 105c-71 71 -106 157 -106 260s35 189 106 259c71 71 158 106 261 106s189 -35 260 -106c71 -70 107 -156 107 -259s-36 -189 -107 -260zM260 213c36 -35 81 -53 135 -53s99 18 135 53
c36 36 54 82 54 137s-18 101 -54 136c-36 36 -81 54 -135 54s-99 -18 -135 -54c-36 -35 -54 -81 -54 -136s18 -101 54 -137z" />
    <glyph glyph-name="omacron" unicode="&#x14d;" horiz-adv-x="583" 
d="M445 564h-309v130h309v-130zM291 -14c-74 0 -137 25 -189 76s-78 114 -78 188s26 136 78 187s115 77 189 77c75 0 138 -26 189 -77c52 -51 78 -113 78 -187s-26 -137 -78 -188c-51 -51 -114 -76 -189 -76zM291 146c59 0 101 43 101 104s-42 104 -101 104
c-57 0 -100 -43 -100 -104s43 -104 100 -104z" />
    <glyph glyph-name="Ohungarumlaut" unicode="&#x150;" horiz-adv-x="790" 
d="M196 755l80 150h163l-86 -150h-157zM388 755l90 150h164l-96 -150h-158zM655 90c71 71 107 157 107 260s-36 189 -107 259c-71 71 -157 106 -260 106s-190 -35 -261 -106c-71 -70 -106 -156 -106 -259s35 -189 106 -260c71 -70 158 -105 261 -105s189 35 260 105z
M260 213c-36 36 -54 82 -54 137s18 101 54 136c36 36 81 54 135 54s99 -18 135 -54c36 -35 54 -81 54 -136s-18 -101 -54 -137c-36 -35 -81 -53 -135 -53s-99 18 -135 53z" />
    <glyph glyph-name="ohungarumlaut" unicode="&#x151;" horiz-adv-x="583" 
d="M92 555l80 150h163l-86 -150h-157zM284 555l90 150h164l-96 -150h-158zM291 -14c75 0 138 25 189 76c52 51 78 114 78 188s-26 136 -78 187c-51 51 -114 77 -189 77c-74 0 -137 -26 -189 -77s-78 -113 -78 -187s26 -137 78 -188s115 -76 189 -76zM291 146
c-57 0 -100 43 -100 104s43 104 100 104c59 0 101 -43 101 -104s-42 -104 -101 -104z" />
    <glyph glyph-name="OE" unicode="&#x152;" horiz-adv-x="934" 
d="M674 271v-103h230v-168h-409c-34 -10 -69 -15 -105 -15c-102 0 -188 35 -258 105c-69 71 -104 157 -104 260s35 189 104 259c70 71 156 106 258 106c36 0 71 -5 105 -15h404v-167h-225v-97h200v-165h-200zM495 178v344c-30 12 -65 18 -105 18c-54 0 -98 -18 -133 -53
c-34 -35 -51 -81 -51 -137s17 -102 51 -137c35 -35 79 -53 133 -53c40 0 75 6 105 18z" />
    <glyph glyph-name="oe" unicode="&#x153;" horiz-adv-x="937" 
d="M907 189h-345c17 -41 54 -61 109 -61c38 0 69 12 94 35l120 -84c-49 -62 -121 -93 -215 -93c-85 0 -150 30 -196 90c-44 -60 -107 -90 -190 -90c-75 0 -137 26 -186 77c-49 52 -74 114 -74 186c0 73 24 135 73 187s112 78 187 78c81 0 145 -30 190 -89
c47 59 112 89 195 89c71 0 129 -25 175 -75c47 -50 70 -113 70 -188c0 -22 -2 -43 -7 -62zM560 305h192c-13 46 -44 69 -93 69c-51 0 -84 -23 -99 -69zM291 146c59 0 101 43 101 104s-42 104 -101 104c-57 0 -100 -43 -100 -104s43 -104 100 -104z" />
    <glyph glyph-name="Racute" unicode="&#x154;" horiz-adv-x="620" 
d="M271 900h194l-116 -145h-158zM612 0h-192l-122 226h-64v-226h-179v700h280c71 0 131 -23 179 -69c49 -45 73 -103 73 -173c0 -84 -46 -158 -119 -199zM333 535h-99v-157h99c44 -1 75 31 75 78s-31 79 -75 79z" />
    <glyph glyph-name="racute" unicode="&#x155;" horiz-adv-x="379" 
d="M176 700h194l-116 -145h-158zM214 500v-93c19 65 81 103 150 103v-184c-38 6 -73 -1 -104 -21s-46 -53 -46 -98v-207h-166v500h166z" />
    <glyph glyph-name="Rcommaaccent" unicode="&#x156;" horiz-adv-x="620" 
d="M468 259l144 -259h-192l-122 226h-64v-226h-179v700h280c71 0 131 -23 179 -69c49 -45 73 -103 73 -173c0 -84 -46 -158 -119 -199zM333 535h-99v-157h99c44 -1 75 31 75 78s-31 79 -75 79zM371 -277h-129l10 220h154z" />
    <glyph glyph-name="rcommaaccent" unicode="&#x157;" horiz-adv-x="379" 
d="M214 500v-93c19 65 81 103 150 103v-184c-38 6 -73 -1 -104 -21s-46 -53 -46 -98v-207h-166v500h166zM173 -277h-129l10 220h154z" />
    <glyph glyph-name="Rcaron" unicode="&#x158;" horiz-adv-x="620" 
d="M369 745h-167l-106 155h150l40 -56l39 56h150zM612 0h-192l-122 226h-64v-226h-179v700h280c71 0 131 -23 179 -69c49 -45 73 -103 73 -173c0 -84 -46 -158 -119 -199zM333 535h-99v-157h99c44 -1 75 31 75 78s-31 79 -75 79z" />
    <glyph glyph-name="rcaron" unicode="&#x159;" horiz-adv-x="379" 
d="M274 545h-167l-106 155h150l40 -56l39 56h150zM214 500v-93c19 65 81 103 150 103v-184c-38 6 -73 -1 -104 -21s-46 -53 -46 -98v-207h-166v500h166z" />
    <glyph glyph-name="Sacute" unicode="&#x15a;" horiz-adv-x="585" 
d="M192 765l80 145h194l-116 -145h-158zM304 -15c80 0 144 19 193 58s73 92 73 161s-24 121 -73 153c-25 17 -47 29 -68 38s-48 18 -82 28c-95 28 -120 45 -120 76c0 27 22 46 65 46c51 0 87 -26 109 -78l150 88c-48 104 -143 160 -260 160c-69 0 -127 -20 -174 -60
c-46 -40 -69 -92 -69 -157c0 -120 80 -182 208 -219c45 -13 75 -22 88 -27c31 -13 47 -29 47 -50c0 -31 -27 -47 -82 -47c-66 0 -112 31 -138 93l-153 -89c39 -107 138 -174 286 -174z" />
    <glyph glyph-name="sacute" unicode="&#x15b;" horiz-adv-x="475" 
d="M216 710h194l-116 -145h-158zM207 354c0 -19 39 -29 87 -40c71 -13 162 -49 161 -160c0 -57 -21 -100 -64 -127s-93 -41 -152 -41c-112 0 -187 40 -224 119l145 73c13 -37 39 -55 78 -55c30 0 45 9 45 27c0 19 -38 29 -86 41c-69 15 -159 52 -158 155c0 53 20 95 59 124
s87 44 142 44c99 0 167 -39 206 -116l-140 -63c-15 29 -35 43 -62 43c-25 0 -37 -8 -37 -24z" />
    <glyph glyph-name="Scedilla" unicode="&#x15e;" horiz-adv-x="585" 
d="M570 204c0 -115 -74 -192 -194 -213v-37c29 -9 58 -34 58 -77c0 -75 -78 -107 -234 -98v109c63 -5 95 0 95 14c0 10 -18 17 -53 20v67c-113 16 -191 79 -224 170l153 89c26 -62 72 -93 138 -93c55 0 82 16 82 47c0 21 -16 37 -47 50c-13 5 -43 14 -88 27
c-128 37 -208 99 -208 219c0 65 23 117 69 157c47 40 105 60 174 60c117 0 212 -56 260 -160l-150 -88c-22 52 -58 78 -109 78c-43 0 -65 -19 -65 -46c0 -31 25 -48 120 -76c34 -10 61 -19 82 -28s43 -21 68 -38c49 -32 73 -84 73 -153z" />
    <glyph glyph-name="scedilla" unicode="&#x15f;" horiz-adv-x="475" 
d="M455 154c0 -87 -55 -138 -135 -158v-42c29 -9 58 -34 58 -77c0 -75 -78 -107 -234 -98v109c63 -5 95 0 95 14c0 10 -18 17 -53 20v67c-83 11 -140 50 -171 116l145 73c13 -37 39 -55 78 -55c30 0 45 9 45 27c0 19 -38 29 -86 41c-69 15 -159 52 -158 155
c0 53 20 95 59 124s87 44 142 44c99 0 167 -39 206 -116l-140 -63c-15 29 -35 43 -62 43c-25 0 -37 -8 -37 -24c0 -19 39 -29 87 -40c71 -13 162 -49 161 -160z" />
    <glyph glyph-name="Scaron" unicode="&#x160;" horiz-adv-x="585" 
d="M370 755h-167l-106 155h150l40 -56l39 56h150zM347 423c34 -10 61 -19 82 -28s43 -21 68 -38c49 -32 73 -84 73 -153s-24 -122 -73 -161s-113 -58 -193 -58c-148 0 -247 67 -286 174l153 89c26 -62 72 -93 138 -93c55 0 82 16 82 47c0 21 -16 37 -47 50
c-13 5 -43 14 -88 27c-128 37 -208 99 -208 219c0 65 23 117 69 157c47 40 105 60 174 60c117 0 212 -56 260 -160l-150 -88c-22 52 -58 78 -109 78c-43 0 -65 -19 -65 -46c0 -31 25 -48 120 -76z" />
    <glyph glyph-name="scaron" unicode="&#x161;" horiz-adv-x="475" 
d="M314 555h-167l-106 155h150l40 -56l39 56h150zM207 354c0 -19 39 -29 87 -40c71 -13 162 -49 161 -160c0 -57 -21 -100 -64 -127s-93 -41 -152 -41c-112 0 -187 40 -224 119l145 73c13 -37 39 -55 78 -55c30 0 45 9 45 27c0 19 -38 29 -86 41c-69 15 -159 52 -158 155
c0 53 20 95 59 124s87 44 142 44c99 0 167 -39 206 -116l-140 -63c-15 29 -35 43 -62 43c-25 0 -37 -8 -37 -24z" />
    <glyph glyph-name="uni0162" unicode="&#x162;" horiz-adv-x="545" 
d="M10 700h525v-173h-173v-527h-179v527h-173v173zM317 -277h-129l10 220h154z" />
    <glyph glyph-name="uni0163" unicode="&#x163;" horiz-adv-x="394" 
d="M358 500v-159h-104v-145c0 -44 29 -50 104 -46v-150c-99 -12 -169 -3 -210 27c-40 31 -60 86 -60 165v149h-75v159h75v90l166 50v-140h104zM275 -272h-129l10 220h154z" />
    <glyph glyph-name="Tcaron" unicode="&#x164;" horiz-adv-x="545" 
d="M351 745h-167l-106 155h150l40 -56l39 56h150zM10 700h525v-173h-173v-527h-179v527h-173v173z" />
    <glyph glyph-name="tcaron" unicode="&#x165;" horiz-adv-x="430" 
d="M291 536l10 190h149l-35 -190h-124zM88 590l166 50v-140h104v-159h-104v-145c0 -44 29 -50 104 -46v-150c-99 -12 -169 -3 -210 27c-40 31 -60 86 -60 165v149h-75v159h75v90z" />
    <glyph glyph-name="Tbar" unicode="&#x166;" horiz-adv-x="545" 
d="M535 700v-173h-173v-115h105v-158h-105v-254h-179v254h-105v158h105v115h-173v173h525z" />
    <glyph glyph-name="tbar" unicode="&#x167;" horiz-adv-x="394" 
d="M358 500v-145h-104v-41h73v-120h-73c0 -46 39 -48 104 -44v-150c-99 -12 -169 -3 -210 27c-40 31 -60 86 -60 165v2h-50v120h50v41h-75v145h75v90l166 50v-140h104z" />
    <glyph glyph-name="Umacron" unicode="&#x16a;" horiz-adv-x="650" 
d="M479 754h-309v130h309v-130zM48 230v470h179v-453c0 -59 33 -88 98 -88s98 29 98 88v453h179v-470c0 -74 -26 -133 -78 -178c-51 -45 -118 -67 -199 -67s-148 22 -200 67c-51 45 -77 104 -77 178z" />
    <glyph glyph-name="umacron" unicode="&#x16b;" horiz-adv-x="579" 
d="M132 684h309v-130h-309v130zM365 234v266h166v-500h-166v50c-30 -43 -76 -64 -139 -64c-108 0 -184 76 -184 215v299h166v-278c0 -52 30 -79 75 -79c52 0 82 32 82 91z" />
    <glyph glyph-name="Uring" unicode="&#x16e;" horiz-adv-x="650" 
d="M325 708c-81 0 -140 56 -140 132s59 132 140 132c84 0 141 -56 141 -132c0 -77 -57 -132 -141 -132zM325 808c23 0 34 11 34 32s-11 32 -34 32c-43 0 -43 -64 0 -64zM48 230v470h179v-453c0 -59 33 -88 98 -88s98 29 98 88v453h179v-470c0 -74 -26 -133 -78 -178
c-51 -45 -118 -67 -199 -67s-148 22 -200 67c-51 45 -77 104 -77 178z" />
    <glyph glyph-name="uring" unicode="&#x16f;" horiz-adv-x="579" 
d="M287 533c-81 0 -140 56 -140 132s59 132 140 132c84 0 141 -56 141 -132c0 -77 -57 -132 -141 -132zM287 697c-43 0 -43 -64 0 -64c23 0 34 11 34 32s-11 32 -34 32zM365 234v266h166v-500h-166v50c-30 -43 -76 -64 -139 -64c-108 0 -184 76 -184 215v299h166v-278
c0 -52 30 -79 75 -79c52 0 82 32 82 91z" />
    <glyph glyph-name="Uhungarumlaut" unicode="&#x170;" horiz-adv-x="650" 
d="M126 745l80 150h163l-86 -150h-157zM318 745l90 150h164l-96 -150h-158zM48 230c0 -74 26 -133 77 -178c52 -45 119 -67 200 -67s148 22 199 67c52 45 78 104 78 178v470h-179v-453c0 -59 -33 -88 -98 -88s-98 29 -98 88v453h-179v-470z" />
    <glyph glyph-name="uhungarumlaut" unicode="&#x171;" horiz-adv-x="579" 
d="M168 695h163l-86 -150h-157zM534 695l-96 -150h-158l90 150h164zM365 234v266h166v-500h-166v50c-30 -43 -76 -64 -139 -64c-108 0 -184 76 -184 215v299h166v-278c0 -52 30 -79 75 -79c52 0 82 32 82 91z" />
    <glyph glyph-name="Uogonek" unicode="&#x172;" horiz-adv-x="650" 
d="M423 247v453h179v-470c0 -81 -31 -145 -92 -190c-60 -55 -80 -85 -81 -118c-1 -14 6 -22 21 -23c5 -1 12 0 21 3v-99c-84 -35 -197 -18 -192 74c0 33 16 69 48 108h-2c-81 0 -148 22 -200 67c-51 45 -77 104 -77 178v470h179v-453c0 -59 33 -88 98 -88s98 29 98 88z" />
    <glyph glyph-name="uogonek" unicode="&#x173;" horiz-adv-x="579" 
d="M531 500v-500c-28 -31 -42 -57 -42 -78c-1 -15 6 -23 21 -23c5 -1 12 0 21 3v-99c-84 -35 -197 -18 -192 74c0 39 20 80 61 123h-35v50c-30 -43 -76 -64 -139 -64c-108 0 -184 76 -184 215v299h166v-278c0 -52 30 -79 75 -79c52 0 82 32 82 91v266h166z" />
    <glyph glyph-name="Wcircumflex" unicode="&#x174;" horiz-adv-x="1004" 
d="M569 745l-39 56l-40 -56h-150l106 155h167l106 -155h-150zM697 259l109 441h192l-195 -700h-189l-112 395l-112 -395h-189l-196 700h193l108 -441l125 441h141z" />
    <glyph glyph-name="wcircumflex" unicode="&#x175;" horiz-adv-x="798" 
d="M434 545l-39 56l-40 -56h-150l106 155h167l106 -155h-150zM544 228l66 272h176l-153 -500h-162l-72 254l-72 -254h-162l-153 500h176l66 -272l75 272h140z" />
    <glyph glyph-name="Ycircumflex" unicode="&#x176;" horiz-adv-x="651" 
d="M360 745l-39 56l-40 -56h-150l106 155h167l106 -155h-150zM450 700h201l-236 -431v-269h-179v267l-236 433h201l124 -259z" />
    <glyph glyph-name="ycircumflex" unicode="&#x177;" horiz-adv-x="549" 
d="M313 545l-39 56l-40 -56h-150l106 155h167l106 -155h-150zM287 210l78 290h184l-171 -492c-53 -151 -147 -215 -302 -208v156c71 0 101 15 124 60l-200 484h186z" />
    <glyph glyph-name="Ydieresis" unicode="&#x178;" horiz-adv-x="651" 
d="M228 735c-44 0 -80 36 -80 80s36 80 80 80c43 0 79 -36 79 -80s-36 -80 -79 -80zM422 735c-43 0 -79 36 -79 80s36 80 79 80c44 0 80 -36 80 -80s-36 -80 -80 -80zM450 700h201l-236 -431v-269h-179v267l-236 433h201l124 -259z" />
    <glyph glyph-name="Zacute" unicode="&#x179;" horiz-adv-x="542" 
d="M259 900h194l-116 -145h-158zM512 562l-247 -389h255v-173h-487v138l247 389h-242v173h474v-138z" />
    <glyph glyph-name="zacute" unicode="&#x17a;" horiz-adv-x="484" 
d="M226 700h194l-116 -145h-158zM439 386l-177 -232h187v-154h-409v114l177 232h-167v154h389v-114z" />
    <glyph glyph-name="Zdotaccent" unicode="&#x17b;" horiz-adv-x="542" 
d="M278 743c-49 0 -90 41 -90 89c0 49 41 90 90 90c48 0 89 -41 89 -90c0 -48 -41 -89 -89 -89zM512 562l-247 -389h255v-173h-487v138l247 389h-242v173h474v-138z" />
    <glyph glyph-name="zdotaccent" unicode="&#x17c;" horiz-adv-x="484" 
d="M245 543c-49 0 -90 41 -90 89c0 49 41 90 90 90c48 0 89 -41 89 -90c0 -48 -41 -89 -89 -89zM439 386l-177 -232h187v-154h-409v114l177 232h-167v154h389v-114z" />
    <glyph glyph-name="Zcaron" unicode="&#x17d;" horiz-adv-x="542" 
d="M357 745h-167l-106 155h150l40 -56l39 56h150zM512 562l-247 -389h255v-173h-487v138l247 389h-242v173h474v-138z" />
    <glyph glyph-name="zcaron" unicode="&#x17e;" horiz-adv-x="484" 
d="M324 545h-167l-106 155h150l40 -56l39 56h150zM439 386l-177 -232h187v-154h-409v114l177 232h-167v154h389v-114z" />
    <glyph glyph-name="florin" unicode="&#x192;" horiz-adv-x="461" 
d="M171 431l18 106c13 75 44 125 93 152c50 27 110 33 179 17v-164c-19 11 -40 11 -62 2c-21 -9 -34 -27 -38 -54l-10 -59h74v-159h-101l-52 -303c-13 -75 -44 -125 -94 -152c-49 -27 -109 -33 -178 -17v164c19 -11 40 -11 61 -2s34 27 39 54l44 256h-68v159h95z" />
    <glyph glyph-name="Scommaaccent" unicode="&#x218;" horiz-adv-x="585" 
d="M304 -15c-148 0 -247 67 -286 174l153 89c26 -62 72 -93 138 -93c55 0 82 16 82 47c0 21 -16 37 -47 50c-13 5 -43 14 -88 27c-128 37 -208 99 -208 219c0 65 23 117 69 157c47 40 105 60 174 60c117 0 212 -56 260 -160l-150 -88c-22 52 -58 78 -109 78
c-43 0 -65 -19 -65 -46c0 -31 25 -48 120 -76c34 -10 61 -19 82 -28s43 -21 68 -38c49 -32 73 -84 73 -153s-24 -122 -73 -161s-113 -58 -193 -58zM357 -277h-129l10 220h154z" />
    <glyph glyph-name="scommaaccent" unicode="&#x219;" horiz-adv-x="475" 
d="M207 354c0 -19 39 -29 87 -40c71 -13 162 -49 161 -160c0 -57 -21 -100 -64 -127s-93 -41 -152 -41c-112 0 -187 40 -224 119l145 73c13 -37 39 -55 78 -55c30 0 45 9 45 27c0 19 -38 29 -86 41c-69 15 -159 52 -158 155c0 53 20 95 59 124s87 44 142 44
c99 0 167 -39 206 -116l-140 -63c-15 29 -35 43 -62 43c-25 0 -37 -8 -37 -24zM301 -277h-129l10 220h154z" />
    <glyph glyph-name="uni021A" unicode="&#x21a;" horiz-adv-x="545" 
d="M10 700h525v-173h-173v-527h-179v527h-173v173zM317 -277h-129l10 220h154z" />
    <glyph glyph-name="uni021B" unicode="&#x21b;" horiz-adv-x="394" 
d="M358 500v-159h-104v-145c0 -44 29 -50 104 -46v-150c-99 -12 -169 -3 -210 27c-40 31 -60 86 -60 165v149h-75v159h75v90l166 50v-140h104zM275 -272h-129l10 220h154z" />
    <glyph glyph-name="circumflex" unicode="&#x2c6;" horiz-adv-x="419" 
d="M293 700l106 -155h-150l-39 56l-40 -56h-150l106 155h167z" />
    <glyph glyph-name="caron" unicode="&#x2c7;" horiz-adv-x="419" 
d="M210 644l39 56h150l-106 -155h-167l-106 155h150z" />
    <glyph glyph-name="breve" unicode="&#x2d8;" horiz-adv-x="399" 
d="M20 697h140c0 -29 13 -44 39 -44c27 0 40 15 40 44h140c0 -104 -64 -160 -180 -160s-179 56 -179 160z" />
    <glyph glyph-name="dotaccent" unicode="&#x2d9;" horiz-adv-x="225" 
d="M110 543c-49 0 -90 41 -90 89c0 49 41 90 90 90c48 0 89 -41 89 -90c0 -48 -41 -89 -89 -89z" />
    <glyph glyph-name="ring" unicode="&#x2da;" horiz-adv-x="321" 
d="M160 533c-81 0 -140 56 -140 132s59 132 140 132c84 0 141 -56 141 -132c0 -77 -57 -132 -141 -132zM160 633c23 0 34 11 34 32s-11 32 -34 32c-43 0 -43 -64 0 -64z" />
    <glyph glyph-name="ogonek" unicode="&#x2db;" horiz-adv-x="233" 
d="M20 -123c0 39 21 80 62 123h131c-29 -31 -43 -57 -43 -78c-1 -15 6 -23 22 -23c3 -1 10 0 21 3v-99c-83 -35 -198 -18 -193 74z" />
    <glyph glyph-name="tilde" unicode="&#x2dc;" horiz-adv-x="399" 
d="M140 548h-120c0 169 104 188 190 143c32 -21 49 -22 49 19h120c0 -171 -103 -187 -191 -142c-32 21 -48 21 -48 -20z" />
    <glyph glyph-name="hungarumlaut" unicode="&#x2dd;" horiz-adv-x="486" 
d="M20 545l80 150h163l-86 -150h-157zM212 545l90 150h164l-96 -150h-158z" />
    <glyph glyph-name="gravecomb" unicode="&#x300;" horiz-adv-x="0" 
d="M-20 555h-158l-116 145h194z" />
    <glyph glyph-name="acutecomb" unicode="&#x301;" horiz-adv-x="0" 
d="M-280 555l80 145h194l-116 -145h-158z" />
    <glyph glyph-name="uni0302" unicode="&#x302;" horiz-adv-x="0" 
d="M-126 700l106 -155h-150l-39 56l-40 -56h-150l106 155h167z" />
    <glyph glyph-name="tildecomb" unicode="&#x303;" horiz-adv-x="0" 
d="M-253 548h-120c0 169 104 188 190 143c32 -21 49 -22 49 19h120c0 -171 -103 -187 -191 -142c-32 21 -48 21 -48 -20z" />
    <glyph glyph-name="uni0304" unicode="&#x304;" horiz-adv-x="0" 
d="M-20 554h-309v130h309v-130z" />
    <glyph glyph-name="uni0306" unicode="&#x306;" horiz-adv-x="0" 
d="M-384 697h140c0 -29 13 -44 39 -44c27 0 40 15 40 44h140c0 -104 -64 -160 -180 -160s-179 56 -179 160z" />
    <glyph glyph-name="uni0307" unicode="&#x307;" horiz-adv-x="0" 
d="M-109 543c-49 0 -90 41 -90 89c0 49 41 90 90 90c48 0 89 -41 89 -90c0 -48 -41 -89 -89 -89z" />
    <glyph glyph-name="uni0308" unicode="&#x308;" horiz-adv-x="0" 
d="M-294 535c-44 0 -80 36 -80 80s36 80 80 80c43 0 79 -36 79 -80s-36 -80 -79 -80zM-100 535c-43 0 -79 36 -79 80s36 80 79 80c44 0 80 -36 80 -80s-36 -80 -80 -80z" />
    <glyph glyph-name="uni030A" unicode="&#x30a;" horiz-adv-x="0" 
d="M-163 533c-81 0 -140 56 -140 132s59 132 140 132c84 0 141 -56 141 -132c0 -77 -57 -132 -141 -132zM-163 633c23 0 34 11 34 32s-11 32 -34 32c-43 0 -43 -64 0 -64z" />
    <glyph glyph-name="uni030B" unicode="&#x30b;" horiz-adv-x="0" 
d="M-466 545l80 150h163l-86 -150h-157zM-274 545l90 150h164l-96 -150h-158z" />
    <glyph glyph-name="uni030C" unicode="&#x30c;" horiz-adv-x="0" 
d="M-209 644l39 56h150l-106 -155h-167l-106 155h150z" />
    <glyph glyph-name="uni0312" unicode="&#x312;" horiz-adv-x="0" 
d="M-149 985h129l-10 -220h-154z" />
    <glyph glyph-name="uni0326" unicode="&#x326;" horiz-adv-x="0" 
d="M-55 -277h-129l10 220h154z" />
    <glyph glyph-name="uni0327" unicode="&#x327;" horiz-adv-x="0" 
d="M-78 0v-46c29 -9 58 -34 58 -77c0 -75 -78 -107 -234 -98v109c63 -5 95 0 95 14c0 10 -18 17 -53 20v78h134z" />
    <glyph glyph-name="uni0328" unicode="&#x328;" horiz-adv-x="0" 
d="M-218 -123c0 39 21 80 62 123h131c-29 -31 -43 -57 -43 -78c-1 -15 6 -23 22 -23c3 -1 10 0 21 3v-99c-83 -35 -198 -18 -193 74z" />
    <glyph glyph-name="uni0394" unicode="&#x394;" horiz-adv-x="660" 
d="M223 700h214l228 -700h-670zM330 497l-97 -342h194z" />
    <glyph glyph-name="uni03A9" unicode="&#x3a9;" horiz-adv-x="775" 
d="M755 370c0 -79 -28 -147 -83 -202h68v-168h-281v173c71 27 117 93 117 177c0 55 -18 101 -54 136c-36 36 -81 54 -135 54s-99 -18 -135 -54c-35 -35 -53 -81 -53 -136c0 -84 46 -150 117 -177v-173h-281v168h67c-55 56 -82 123 -82 202c0 99 35 182 106 247
s158 98 261 98s190 -33 261 -98s107 -148 107 -247z" />
    <glyph glyph-name="pi" unicode="&#x3c0;" horiz-adv-x="661" 
d="M15 500h630v-157h-74v-343h-166v343h-147v-343h-166v343h-77v157z" />
    <glyph glyph-name="uni0401" unicode="&#x401;" horiz-adv-x="535" 
d="M181 735c-44 0 -80 36 -80 80s36 80 80 80c43 0 79 -36 79 -80s-36 -80 -79 -80zM375 735c-43 0 -79 36 -79 80s36 80 79 80c44 0 80 -36 80 -80s-36 -80 -80 -80zM234 271v-103h271v-168h-450v700h445v-167h-266v-97h241v-165h-241z" />
    <glyph glyph-name="uni0402" unicode="&#x402;" horiz-adv-x="705" 
d="M482 450c115 0 183 -68 183 -196v-52c0 -156 -75 -224 -235 -215v159c44 -3 58 13 58 56v31c0 38 -19 57 -57 57c-25 0 -51 -5 -79 -14v-276h-179v527h-163v173h525v-173h-183v-94c46 11 89 17 130 17z" />
    <glyph glyph-name="uni0403" unicode="&#x403;" horiz-adv-x="475" 
d="M238 899h194l-116 -145h-158zM55 700h414v-173h-235v-527h-179v700z" />
    <glyph glyph-name="uni0404" unicode="&#x404;" horiz-adv-x="719" 
d="M391 157c67 0 124 32 151 84l154 -90c-60 -101 -175 -166 -303 -166c-106 0 -193 35 -262 104c-69 70 -103 157 -103 261s34 191 103 260c69 70 156 105 262 105c63 0 122 -15 176 -45c55 -30 97 -70 127 -121l-154 -89c-28 51 -84 83 -151 83c-84 0 -145 -42 -173 -111
h253v-164h-253c28 -69 89 -111 173 -111z" />
    <glyph glyph-name="uni0405" unicode="&#x405;" horiz-adv-x="585" 
d="M304 -15c-148 0 -247 67 -286 174l153 89c26 -62 72 -93 138 -93c55 0 82 16 82 47c0 21 -16 37 -47 50c-13 5 -43 14 -88 27c-128 37 -208 99 -208 219c0 65 23 117 69 157c47 40 105 60 174 60c117 0 212 -56 260 -160l-150 -88c-22 52 -58 78 -109 78
c-43 0 -65 -19 -65 -46c0 -31 25 -48 120 -76c34 -10 61 -19 82 -28s43 -21 68 -38c49 -32 73 -84 73 -153s-24 -122 -73 -161s-113 -58 -193 -58z" />
    <glyph glyph-name="uni0406" unicode="&#x406;" horiz-adv-x="289" 
d="M55 0v700h179v-700h-179z" />
    <glyph glyph-name="uni0407" unicode="&#x407;" horiz-adv-x="289" 
d="M48 735c-44 0 -80 36 -80 80s36 80 80 80c43 0 79 -36 79 -80s-36 -80 -79 -80zM242 735c-43 0 -79 36 -79 80s36 80 79 80c44 0 80 -36 80 -80s-36 -80 -80 -80zM55 0v700h179v-700h-179z" />
    <glyph glyph-name="uni0408" unicode="&#x408;" horiz-adv-x="571" 
d="M267 -15c-115 0 -195 47 -242 140l153 89c20 -39 44 -55 89 -55c51 0 77 24 77 71v470h179v-473c0 -75 -23 -135 -70 -178c-46 -43 -108 -64 -186 -64z" />
    <glyph glyph-name="uni0409" unicode="&#x409;" horiz-adv-x="938" 
d="M600 464h73c70 0 129 -21 177 -64c49 -42 73 -98 73 -168s-24 -126 -73 -169c-48 -42 -107 -63 -177 -63h-252v527h-130v-254c0 -115 -35 -196 -92 -233c-56 -37 -118 -49 -194 -42v167c75 -8 107 17 107 116v419h488v-236zM600 170h73c47 0 71 21 71 62s-24 62 -71 62
h-73v-124z" />
    <glyph glyph-name="uni040A" unicode="&#x40a;" horiz-adv-x="943" 
d="M605 465h73c70 0 129 -21 177 -64c49 -43 73 -99 73 -169c0 -69 -24 -125 -73 -168c-48 -43 -107 -64 -177 -64h-252v294h-192v-294h-179v700h179v-235h192v235h179v-235zM605 171h73c47 0 71 20 71 61s-24 62 -71 62h-73v-123z" />
    <glyph glyph-name="uni040B" unicode="&#x40b;" horiz-adv-x="710" 
d="M482 455c115 0 183 -68 183 -196v-259h-177v237c0 39 -19 58 -57 58c-25 0 -51 -5 -79 -14v-281h-179v527h-163v173h525v-173h-183v-90c49 12 93 18 130 18z" />
    <glyph glyph-name="uni040C" unicode="&#x40c;" horiz-adv-x="631" 
d="M297 899h194l-116 -145h-158zM403 360l232 -360h-200l-201 313v-313h-179v700h179v-294l191 294h200z" />
    <glyph glyph-name="uni040E" unicode="&#x40e;" horiz-adv-x="629" 
d="M158 893h323v-140h-323v140zM328 414l112 286h183l-202 -485c-64 -152 -165 -222 -317 -215v167c63 -5 110 12 140 51l-229 482h184z" />
    <glyph glyph-name="uni040F" unicode="&#x40f;" horiz-adv-x="650" 
d="M416 173v527h179v-700h-181v-134h-178v134h-181v700h179v-527h182z" />
    <glyph glyph-name="uni0410" unicode="&#x410;" horiz-adv-x="671" 
d="M675 0h-193l-30 101h-233l-30 -101h-194l231 700h218zM335 493l-70 -238h141z" />
    <glyph glyph-name="uni0411" unicode="&#x411;" horiz-adv-x="592" 
d="M234 442h110c71 0 128 -20 171 -60s64 -93 64 -160s-21 -120 -64 -161s-100 -61 -171 -61h-289v700h464v-173h-285v-85zM234 164h103c39 0 64 19 64 58s-25 59 -64 59h-103v-117z" />
    <glyph glyph-name="uni0412" unicode="&#x412;" horiz-adv-x="602" 
d="M497 362c59 -35 88 -87 88 -157c0 -62 -21 -112 -64 -149s-100 -56 -171 -56h-295v700h276c140 0 231 -76 231 -199c0 -59 -22 -105 -65 -139zM326 540h-92v-110h92c32 0 57 20 57 55c0 33 -24 55 -57 55zM234 160h111c36 0 61 24 61 59c0 36 -25 59 -61 59h-111v-118z
" />
    <glyph glyph-name="uni0413" unicode="&#x413;" horiz-adv-x="475" 
d="M55 700h414v-173h-235v-527h-179v700z" />
    <glyph glyph-name="uni0414" unicode="&#x414;" horiz-adv-x="712" 
d="M619 700v-527h75v-307h-178v134h-327v-134h-179v307h74c32 51 48 125 48 222v305h487zM270 173h171v361h-131v-141c0 -93 -13 -167 -40 -220z" />
    <glyph glyph-name="uni0415" unicode="&#x415;" horiz-adv-x="535" 
d="M234 271v-103h271v-168h-450v700h445v-167h-266v-97h241v-165h-241z" />
    <glyph glyph-name="uni0416" unicode="&#x416;" horiz-adv-x="927" 
d="M711 354l210 -354h-198l-170 305v-305h-179v305l-171 -305h-198l211 354l-201 346h198l161 -303v303h179v-303l160 303h198z" />
    <glyph glyph-name="uni0417" unicode="&#x417;" horiz-adv-x="560" 
d="M449 361c63 -35 94 -90 94 -164c0 -64 -24 -115 -72 -154s-111 -58 -190 -58c-136 0 -226 55 -271 164l153 88c20 -55 59 -83 118 -83c55 0 83 21 83 62c0 36 -22 56 -67 60l-106 1v155h69c54 0 81 19 81 58s-24 58 -72 58s-81 -24 -100 -71l-150 87
c43 95 133 151 253 151c73 0 133 -19 179 -58c46 -38 69 -89 69 -152c0 -61 -24 -109 -71 -144z" />
    <glyph glyph-name="uni0418" unicode="&#x418;" horiz-adv-x="675" 
d="M619 0h-178v352l-247 -352h-139v700h179v-352l247 352h138v-700z" />
    <glyph glyph-name="uni0419" unicode="&#x419;" horiz-adv-x="675" 
d="M498 754h-323v140h323v-140zM619 0h-178v352l-247 -352h-139v700h179v-352l247 352h138v-700z" />
    <glyph glyph-name="uni041A" unicode="&#x41a;" horiz-adv-x="631" 
d="M403 360l232 -360h-200l-201 313v-313h-179v700h179v-294l191 294h200z" />
    <glyph glyph-name="uni041B" unicode="&#x41b;" horiz-adv-x="665" 
d="M5 0v167c75 -9 107 15 107 114v419h498v-700h-179v527h-140v-254c0 -115 -35 -196 -92 -233c-56 -37 -119 -48 -194 -40z" />
    <glyph glyph-name="uni041C" unicode="&#x41c;" horiz-adv-x="825" 
d="M591 700h178v-700h-178v377l-170 -281h-18l-169 280v-376h-179v700h179l178 -299z" />
    <glyph glyph-name="uni041D" unicode="&#x41d;" horiz-adv-x="665" 
d="M431 441v259h178v-700h-178v269h-197v-269h-179v700h179v-259h197z" />
    <glyph glyph-name="uni041E" unicode="&#x41e;" horiz-adv-x="790" 
d="M655 90c-71 -70 -157 -105 -260 -105s-190 35 -261 105c-71 71 -106 157 -106 260s35 189 106 259c71 71 158 106 261 106s189 -35 260 -106c71 -70 107 -156 107 -259s-36 -189 -107 -260zM260 213c36 -35 81 -53 135 -53s99 18 135 53c36 36 54 82 54 137
s-18 101 -54 136c-36 36 -81 54 -135 54s-99 -18 -135 -54c-36 -35 -54 -81 -54 -136s18 -101 54 -137z" />
    <glyph glyph-name="uni041F" unicode="&#x41f;" horiz-adv-x="650" 
d="M55 700h540v-700h-179v527h-182v-527h-179v700z" />
    <glyph glyph-name="uni0420" unicode="&#x420;" horiz-adv-x="592" 
d="M55 700h272c71 0 130 -23 178 -69s72 -105 72 -176s-24 -130 -72 -176s-107 -69 -178 -69h-93v-210h-179v700zM234 380h93c40 0 71 31 71 75s-31 74 -71 74h-93v-149z" />
    <glyph glyph-name="uni0421" unicode="&#x421;" horiz-adv-x="719" 
d="M393 -15c-105 0 -193 35 -262 104c-69 70 -103 157 -103 261s34 191 103 260c69 70 157 105 262 105c63 0 122 -15 176 -45s96 -70 127 -121l-155 -89c-27 49 -83 80 -148 80c-56 0 -101 -18 -136 -53c-34 -35 -51 -80 -51 -137s17 -103 51 -138c35 -35 80 -52 136 -52
c65 0 121 30 148 81l155 -90c-61 -103 -175 -166 -303 -166z" />
    <glyph glyph-name="uni0422" unicode="&#x422;" horiz-adv-x="545" 
d="M10 700h525v-173h-173v-527h-179v527h-173v173z" />
    <glyph glyph-name="uni0423" unicode="&#x423;" horiz-adv-x="629" 
d="M328 414l112 286h183l-202 -485c-64 -152 -165 -222 -317 -215v167c63 -5 110 12 140 51l-229 482h184z" />
    <glyph glyph-name="uni0424" unicode="&#x424;" horiz-adv-x="833" 
d="M503 63v-83h-172v83c-195 24 -311 130 -311 287s116 263 311 287v83h172v-83c195 -24 310 -130 310 -287s-115 -263 -310 -287zM199 350c0 -69 44 -110 132 -123v249c-91 -13 -132 -54 -132 -126zM503 476v-249c91 13 132 54 132 123c0 72 -41 113 -132 126z" />
    <glyph glyph-name="uni0425" unicode="&#x425;" horiz-adv-x="632" 
d="M416 356l210 -356h-200l-110 186l-110 -186h-201l211 357l-203 343h201l102 -173l102 173h201z" />
    <glyph glyph-name="uni0426" unicode="&#x426;" horiz-adv-x="702" 
d="M604 700v-527h80v-307h-179v134h-450v700h184v-527h182v527h183z" />
    <glyph glyph-name="uni0427" unicode="&#x427;" horiz-adv-x="647" 
d="M413 403v297h178v-700h-178v232c-38 -13 -78 -19 -119 -19c-75 0 -136 21 -182 63s-69 100 -69 174v250h178v-231c0 -53 35 -84 86 -84c37 0 72 6 106 18z" />
    <glyph glyph-name="uni0428" unicode="&#x428;" horiz-adv-x="949" 
d="M715 173v527h179v-700h-839v700h179v-527h151v527h179v-527h151z" />
    <glyph glyph-name="uni0429" unicode="&#x429;" horiz-adv-x="992" 
d="M894 700v-527h80v-307h-179v134h-740v700h179v-527h151v527h179v-527h151v527h179z" />
    <glyph glyph-name="uni042A" unicode="&#x42a;" horiz-adv-x="697" 
d="M432 0h-272v527h-160v173h339v-210h93c70 0 129 -23 177 -70c49 -46 73 -104 73 -175s-24 -130 -72 -176s-107 -69 -178 -69zM339 319v-149h93c40 0 71 31 71 75s-31 74 -71 74h-93z" />
    <glyph glyph-name="uni042B" unicode="&#x42b;" horiz-adv-x="869" 
d="M327 0h-272v700h179v-210h93c71 0 130 -23 178 -70c48 -46 72 -104 72 -175s-24 -130 -72 -176s-107 -69 -178 -69zM813 0h-178v700h178v-700zM234 319v-149h93c40 0 71 31 71 75s-31 74 -71 74h-93z" />
    <glyph glyph-name="uni042C" unicode="&#x42c;" horiz-adv-x="592" 
d="M234 490h93c71 0 130 -23 178 -69s72 -105 72 -176s-24 -130 -72 -176s-107 -69 -178 -69h-272v700h179v-210zM234 171h93c40 0 71 30 71 74s-31 75 -71 75h-93v-149z" />
    <glyph glyph-name="uni042D" unicode="&#x42d;" horiz-adv-x="719" 
d="M326 715c106 0 193 -35 262 -105c69 -69 103 -156 103 -260s-34 -191 -103 -261c-69 -69 -156 -104 -262 -104c-128 0 -243 65 -303 166l154 90c27 -52 84 -84 151 -84c84 0 145 42 173 111h-253v164h253c-28 69 -89 111 -173 111c-67 0 -123 -32 -151 -83l-154 89
c30 51 72 91 126 121c55 30 114 45 177 45z" />
    <glyph glyph-name="uni042E" unicode="&#x42e;" horiz-adv-x="1068" 
d="M673 715c103 0 189 -35 260 -106c71 -70 107 -156 107 -259c0 -102 -36 -188 -107 -259s-158 -106 -260 -106c-88 0 -165 27 -230 81s-106 123 -123 208h-86v-274h-179v700h179v-254h91c20 79 62 144 125 194c64 50 138 75 223 75zM484 350c0 -55 18 -101 54 -137
c36 -35 81 -53 135 -53s99 18 135 53c36 36 54 82 54 137s-18 101 -54 136c-36 36 -81 54 -135 54s-99 -18 -135 -53s-54 -81 -54 -137z" />
    <glyph glyph-name="uni042F" unicode="&#x42f;" horiz-adv-x="630" 
d="M294 700h280v-700h-178v226h-38l-141 -226h-199l160 251c-83 39 -135 116 -135 207c0 70 24 128 72 173c48 46 108 69 179 69zM296 378h100v157h-100c-43 0 -75 -34 -75 -79c0 -47 32 -79 75 -78z" />
    <glyph glyph-name="uni0430" unicode="&#x430;" horiz-adv-x="615" 
d="M401 454v46h166v-500h-166v46c-34 -40 -81 -60 -142 -60c-67 0 -123 25 -168 75c-45 51 -67 114 -67 189s22 138 67 188c45 51 101 76 168 76c61 0 108 -20 142 -60zM220 171c19 -20 45 -30 76 -30s57 10 76 30s29 46 29 79s-10 59 -29 79s-45 30 -76 30s-57 -10 -76 -30
s-29 -46 -29 -79s10 -59 29 -79z" />
    <glyph glyph-name="uni0431" unicode="&#x431;" horiz-adv-x="569" 
d="M298 -15c-83 0 -149 25 -199 76c-49 51 -74 118 -74 201c0 84 13 150 40 199s76 91 145 125c75 37 121 62 139 76c19 16 34 36 45 61l136 -78c-20 -75 -70 -111 -181 -155c-88 -35 -119 -58 -135 -95c33 29 76 43 129 43c55 0 105 -20 148 -60c44 -40 66 -93 66 -159
c0 -68 -24 -124 -71 -168s-109 -66 -188 -66zM390 218c0 52 -41 90 -97 90c-25 0 -47 -8 -66 -24c-19 -15 -28 -36 -28 -63s9 -49 28 -66s42 -26 69 -26c55 0 94 38 94 89z" />
    <glyph glyph-name="uni0432" unicode="&#x432;" horiz-adv-x="520" 
d="M432 255c47 -22 70 -59 70 -111c0 -88 -62 -144 -175 -144h-279v500h262c56 0 99 -13 129 -39s45 -61 45 -105s-17 -78 -52 -101zM285 376h-78v-66h78c27 0 40 11 40 32c0 23 -13 34 -40 34zM207 126h91c26 0 39 12 39 35c0 22 -13 33 -39 33h-91v-68z" />
    <glyph glyph-name="uni0433" unicode="&#x433;" horiz-adv-x="417" 
d="M48 500h359v-159h-193v-341h-166v500z" />
    <glyph glyph-name="uni0434" unicode="&#x434;" horiz-adv-x="600" 
d="M520 500v-343h65v-291h-160v134h-260v-134h-160v291h60c25 41 38 98 38 170v173h417zM237 157h121v195h-93v-25c0 -67 -9 -123 -28 -170z" />
    <glyph glyph-name="uni0435" unicode="&#x435;" horiz-adv-x="571" 
d="M541 189h-345c17 -41 54 -61 112 -61c36 0 66 12 91 35l120 -84c-49 -62 -121 -93 -215 -93c-85 0 -153 25 -204 74c-51 50 -76 113 -76 189c0 75 25 138 75 189s114 76 191 76c75 0 136 -25 185 -75s73 -113 73 -188c0 -22 -2 -43 -7 -62zM194 304h192
c-13 47 -45 70 -94 70c-51 0 -84 -23 -98 -70z" />
    <glyph glyph-name="uni0436" unicode="&#x436;" horiz-adv-x="779" 
d="M618 250l156 -250h-183l-119 205v-205h-165v205l-119 -205h-183l156 250l-146 250h183l109 -202v202h165v-202l109 202h183z" />
    <glyph glyph-name="uni0437" unicode="&#x437;" horiz-adv-x="456" 
d="M364 255c49 -26 74 -66 74 -119c0 -88 -82 -151 -211 -151c-105 0 -177 40 -217 120l130 76c15 -39 43 -58 84 -58c28 0 49 13 49 34s-14 31 -41 31h-60v130h52c25 0 37 10 37 30c0 21 -15 32 -44 32c-34 0 -58 -18 -72 -54l-130 71c44 78 114 117 210 117
c58 0 105 -15 141 -44s54 -64 54 -106c0 -49 -19 -85 -56 -109z" />
    <glyph glyph-name="uni0438" unicode="&#x438;" horiz-adv-x="580" 
d="M210 266l194 234h128v-500h-162v234l-194 -234h-128v500h162v-234z" />
    <glyph glyph-name="uni0439" unicode="&#x439;" horiz-adv-x="580" 
d="M451 554h-323v140h323v-140zM210 266l194 234h128v-500h-162v234l-194 -234h-128v500h162v-234z" />
    <glyph glyph-name="uni043A" unicode="&#x43a;" horiz-adv-x="542" 
d="M367 250l175 -250h-186l-142 213v-213h-166v500h166v-209l129 209h192z" />
    <glyph glyph-name="uni043B" unicode="&#x43b;" horiz-adv-x="562" 
d="M82 500h432v-500h-166v341h-100v-134c0 -157 -77 -224 -238 -207v154c48 -13 72 13 72 77v269z" />
    <glyph glyph-name="uni043C" unicode="&#x43c;" horiz-adv-x="648" 
d="M440 500h160v-500h-160v241l-107 -166h-18l-106 165v-240h-161v500h161l115 -180z" />
    <glyph glyph-name="uni043D" unicode="&#x43d;" horiz-adv-x="575" 
d="M361 328v172h166v-500h-166v172h-147v-172h-166v500h166v-172h147z" />
    <glyph glyph-name="uni043E" unicode="&#x43e;" horiz-adv-x="583" 
d="M291 -14c-74 0 -137 25 -189 76s-78 114 -78 188s26 136 78 187s115 77 189 77c75 0 138 -26 189 -77c52 -51 78 -113 78 -187s-26 -137 -78 -188c-51 -51 -114 -76 -189 -76zM291 146c59 0 101 43 101 104s-42 104 -101 104c-57 0 -100 -43 -100 -104s43 -104 100 -104z
" />
    <glyph glyph-name="uni043F" unicode="&#x43f;" horiz-adv-x="575" 
d="M48 500h479v-500h-166v343h-147v-343h-166v500z" />
    <glyph glyph-name="uni0440" unicode="&#x440;" horiz-adv-x="615" 
d="M356 514c67 0 122 -25 167 -76c45 -50 68 -113 68 -188s-23 -138 -68 -189c-45 -50 -100 -75 -167 -75c-61 0 -108 20 -142 60v-246h-166v700h166v-46c34 40 81 60 142 60zM243 171c19 -20 45 -30 76 -30s57 10 76 30s29 46 29 79s-10 59 -29 79s-45 30 -76 30
s-57 -10 -76 -30s-29 -46 -29 -79s10 -59 29 -79z" />
    <glyph glyph-name="uni0441" unicode="&#x441;" horiz-adv-x="528" 
d="M290 -14c-76 0 -139 25 -190 76s-76 113 -76 188s25 137 76 188s114 76 190 76c99 0 184 -50 228 -129l-142 -82c-18 33 -47 49 -87 49c-56 0 -98 -42 -98 -102s42 -102 98 -102c41 0 70 17 87 50l142 -82c-44 -80 -129 -130 -228 -130z" />
    <glyph glyph-name="uni0442" unicode="&#x442;" horiz-adv-x="470" 
d="M8 500h454v-159h-143v-341h-166v341h-145v159z" />
    <glyph glyph-name="uni0443" unicode="&#x443;" horiz-adv-x="549" 
d="M286 210l79 290h184l-169 -485c-52 -151 -153 -222 -304 -215v156c69 0 101 12 122 52l-198 492h183z" />
    <glyph glyph-name="uni0444" unicode="&#x444;" horiz-adv-x="709" 
d="M435 -8v-192h-162v192c-160 24 -249 126 -249 258s89 233 249 257v193h162v-193c160 -24 249 -125 249 -257s-89 -234 -249 -258zM435 350v-200c56 15 84 49 84 100s-28 85 -84 100zM273 150v200c-56 -16 -84 -49 -84 -100s28 -84 84 -100z" />
    <glyph glyph-name="uni0445" unicode="&#x445;" horiz-adv-x="549" 
d="M368 255l181 -255h-188l-87 123l-87 -123h-187l181 255l-174 245h187l80 -113l80 113h188z" />
    <glyph glyph-name="uni0446" unicode="&#x446;" horiz-adv-x="612" 
d="M512 500v-343h85v-291h-160v134h-389v500h166v-343h132v343h166z" />
    <glyph glyph-name="uni0447" unicode="&#x447;" horiz-adv-x="543" 
d="M328 291v209h167v-500h-167v140c-35 -9 -68 -13 -100 -13c-120 0 -203 67 -203 186v187h167v-158c0 -41 24 -61 73 -61c22 0 43 3 63 10z" />
    <glyph glyph-name="uni0448" unicode="&#x448;" horiz-adv-x="835" 
d="M621 157v343h166v-500h-739v500h166v-343h122v343h164v-343h121z" />
    <glyph glyph-name="uni0449" unicode="&#x449;" horiz-adv-x="862" 
d="M772 500v-343h74v-291h-159v134h-639v500h166v-343h114v343h164v-343h114v343h166z" />
    <glyph glyph-name="uni044A" unicode="&#x44a;" horiz-adv-x="583" 
d="M290 359h81c120 0 196 -70 196 -179c0 -111 -75 -180 -196 -180h-248v341h-123v159h290v-141zM290 139h71c27 0 44 16 44 41c0 24 -17 40 -44 40h-71v-81z" />
    <glyph glyph-name="uni044B" unicode="&#x44b;" horiz-adv-x="747" 
d="M214 359h82c120 0 196 -70 196 -179c0 -111 -75 -180 -196 -180h-248v500h166v-141zM533 0v500h166v-500h-166zM214 139h72c27 0 44 16 44 41c0 24 -17 40 -44 40h-72v-81z" />
    <glyph glyph-name="uni044C" unicode="&#x44c;" horiz-adv-x="507" 
d="M214 359h82c120 0 196 -70 196 -179c0 -111 -75 -180 -196 -180h-248v500h166v-141zM214 139h72c27 0 44 16 44 41c0 24 -17 40 -44 40h-72v-81z" />
    <glyph glyph-name="uni044D" unicode="&#x44d;" horiz-adv-x="529" 
d="M238 514c77 0 141 -25 191 -74s75 -113 75 -190s-25 -141 -75 -190s-114 -74 -191 -74c-100 0 -186 50 -230 130l136 78c12 -35 46 -58 98 -58c39 0 68 15 89 46h-135v136h135c-21 31 -50 46 -89 46c-51 0 -83 -19 -98 -57l-136 78c44 79 130 129 230 129z" />
    <glyph glyph-name="uni044E" unicode="&#x44e;" horiz-adv-x="807" 
d="M516 514c74 0 137 -26 189 -77s78 -113 78 -187s-26 -137 -78 -188s-115 -76 -189 -76c-60 0 -113 17 -158 51c-45 35 -75 80 -91 135h-53v-172h-166v500h166v-172h53c16 55 46 100 91 134c45 35 98 52 158 52zM516 146c57 0 100 43 100 104s-43 104 -100 104
c-59 0 -101 -43 -101 -104s42 -104 101 -104z" />
    <glyph glyph-name="uni044F" unicode="&#x44f;" horiz-adv-x="532" 
d="M231 500h253v-500h-164v142h-23l-95 -142h-189l117 167c-57 32 -90 89 -90 152c0 52 17 95 51 129c35 35 81 52 140 52zM320 360h-71c-28 0 -47 -16 -47 -44c0 -27 19 -42 47 -42h71v86z" />
    <glyph glyph-name="uni0451" unicode="&#x451;" horiz-adv-x="571" 
d="M193 542c-44 0 -80 36 -80 80s36 80 80 80c43 0 79 -36 79 -80s-36 -80 -79 -80zM387 542c-43 0 -79 36 -79 80s36 80 79 80c44 0 80 -36 80 -80s-36 -80 -80 -80zM541 189h-345c17 -41 54 -61 112 -61c36 0 66 12 91 35l120 -84c-49 -62 -121 -93 -215 -93
c-85 0 -153 25 -204 74c-51 50 -76 113 -76 189c0 75 25 138 75 189s114 76 191 76c75 0 136 -25 185 -75s73 -113 73 -188c0 -22 -2 -43 -7 -62zM194 304h192c-13 47 -45 70 -94 70c-51 0 -84 -23 -98 -70z" />
    <glyph glyph-name="uni0452" unicode="&#x452;" 
d="M363 502c107 0 184 -76 184 -215v-287c0 -157 -75 -224 -239 -215v154c51 -3 73 16 73 61v266c0 52 -31 80 -76 80c-51 0 -81 -32 -81 -92v-254h-166v539h-58v106h58v55h166v-55h135v-106h-135v-100c29 42 76 63 139 63z" />
    <glyph glyph-name="uni0453" unicode="&#x453;" horiz-adv-x="417" 
d="M188 700h194l-116 -145h-158zM48 500h359v-159h-193v-341h-166v500z" />
    <glyph glyph-name="uni0454" unicode="&#x454;" horiz-adv-x="529" 
d="M287 136c52 0 86 23 98 58l136 -78c-44 -80 -130 -130 -230 -130c-77 0 -141 25 -191 74s-75 113 -75 190s25 141 75 190s114 74 191 74c100 0 186 -50 230 -129l-136 -78c-15 38 -47 57 -98 57c-39 0 -68 -15 -89 -46h135v-136h-135c21 -31 50 -46 89 -46z" />
    <glyph glyph-name="uni0455" unicode="&#x455;" horiz-adv-x="475" 
d="M207 354c0 -19 39 -29 87 -40c71 -13 162 -49 161 -160c0 -57 -21 -100 -64 -127s-93 -41 -152 -41c-112 0 -187 40 -224 119l145 73c13 -37 39 -55 78 -55c30 0 45 9 45 27c0 19 -38 29 -86 41c-69 15 -159 52 -158 155c0 53 20 95 59 124s87 44 142 44
c99 0 167 -39 206 -116l-140 -63c-15 29 -35 43 -62 43c-25 0 -37 -8 -37 -24z" />
    <glyph glyph-name="uni0456" unicode="&#x456;" horiz-adv-x="262" 
d="M198 569c-37 -37 -96 -37 -135 0c-37 39 -37 98 0 135c39 37 98 37 135 0c39 -37 39 -96 0 -135zM214 0h-166v500h166v-500z" />
    <glyph glyph-name="uni0457" unicode="&#x457;" horiz-adv-x="262" 
d="M33 535c-44 0 -80 36 -80 80s36 80 80 80c43 0 79 -36 79 -80s-36 -80 -79 -80zM227 535c-43 0 -79 36 -79 80s36 80 79 80c44 0 80 -36 80 -80s-36 -80 -80 -80zM214 0h-166v500h166v-500z" />
    <glyph glyph-name="uni0458" unicode="&#x458;" horiz-adv-x="277" 
d="M213 569c-37 -37 -96 -37 -135 0c-37 39 -37 98 0 135c39 37 98 37 135 0c39 -37 39 -96 0 -135zM63 0v500h166v-500c0 -157 -75 -224 -239 -215v154c51 -3 73 16 73 61z" />
    <glyph glyph-name="uni0459" unicode="&#x459;" horiz-adv-x="777" 
d="M507 349h74c108 0 181 -67 181 -174c0 -108 -74 -175 -181 -175h-241v341h-92v-134c0 -156 -77 -224 -238 -215v154c48 -7 72 21 72 85v269h425v-151zM507 139h64c19 0 34 13 34 36c0 21 -15 35 -34 35h-64v-71z" />
    <glyph glyph-name="uni045A" unicode="&#x45a;" horiz-adv-x="783" 
d="M507 349h75c54 0 98 -16 133 -47s53 -74 53 -127s-18 -96 -53 -128c-35 -31 -80 -47 -133 -47h-241v197h-137v-197h-166v500h166v-151h137v151h166v-151zM507 139h64c20 0 35 13 35 36c0 21 -15 35 -35 35h-64v-71z" />
    <glyph glyph-name="uni045B" unicode="&#x45b;" 
d="M363 502c107 0 184 -76 184 -215v-287h-166v266c0 52 -31 80 -76 80c-51 0 -81 -32 -81 -92v-254h-166v537h-58v105h58v58h166v-58h135v-105h-135v-98c29 42 76 63 139 63z" />
    <glyph glyph-name="uni045C" unicode="&#x45c;" horiz-adv-x="542" 
d="M248 700h194l-116 -145h-158zM367 250l175 -250h-186l-142 213v-213h-166v500h166v-209l129 209h192z" />
    <glyph glyph-name="uni045E" unicode="&#x45e;" horiz-adv-x="549" 
d="M116 694h323v-140h-323v140zM286 210l79 290h184l-169 -485c-52 -151 -153 -222 -304 -215v156c69 0 101 12 122 52l-198 492h183z" />
    <glyph glyph-name="uni045F" unicode="&#x45f;" horiz-adv-x="575" 
d="M361 157v343h166v-500h-159v-134h-160v134h-160v500h166v-343h147z" />
    <glyph glyph-name="uni0490" unicode="&#x490;" horiz-adv-x="475" 
d="M291 700v120h178v-293h-235v-527h-179v700h236z" />
    <glyph glyph-name="uni0491" unicode="&#x491;" horiz-adv-x="417" 
d="M248 500v102h159v-261h-193v-341h-166v500h200z" />
    <glyph glyph-name="Wgrave" unicode="&#x1e80;" horiz-adv-x="1004" 
d="M629 755h-158l-116 145h194zM201 0h189l112 395l112 -395h189l195 700h-192l-109 -441l-125 441h-141l-125 -441l-108 441h-193z" />
    <glyph glyph-name="wgrave" unicode="&#x1e81;" horiz-adv-x="798" 
d="M414 700l80 -145h-158l-116 145h194zM544 228l66 272h176l-153 -500h-162l-72 254l-72 -254h-162l-153 500h176l66 -272l75 272h140z" />
    <glyph glyph-name="Wacute" unicode="&#x1e82;" horiz-adv-x="1004" 
d="M435 755l80 145h194l-116 -145h-158zM201 0h189l112 395l112 -395h189l195 700h-192l-109 -441l-125 441h-141l-125 -441l-108 441h-193z" />
    <glyph glyph-name="wacute" unicode="&#x1e83;" horiz-adv-x="798" 
d="M380 700h194l-116 -145h-158zM544 228l66 272h176l-153 -500h-162l-72 254l-72 -254h-162l-153 500h176l66 -272l75 272h140z" />
    <glyph glyph-name="Wdieresis" unicode="&#x1e84;" horiz-adv-x="1004" 
d="M437 735c-44 0 -80 36 -80 80s36 80 80 80c43 0 79 -36 79 -80s-36 -80 -79 -80zM631 735c-43 0 -79 36 -79 80s36 80 79 80c44 0 80 -36 80 -80s-36 -80 -80 -80zM390 0h-189l-196 700h193l108 -441l125 441h141l125 -441l109 441h192l-195 -700h-189l-112 395z" />
    <glyph glyph-name="wdieresis" unicode="&#x1e85;" horiz-adv-x="798" 
d="M302 535c-44 0 -80 36 -80 80s36 80 80 80c43 0 79 -36 79 -80s-36 -80 -79 -80zM496 535c-43 0 -79 36 -79 80s36 80 79 80c44 0 80 -36 80 -80s-36 -80 -80 -80zM544 228l66 272h176l-153 -500h-162l-72 254l-72 -254h-162l-153 500h176l66 -272l75 272h140z" />
    <glyph glyph-name="Ygrave" unicode="&#x1ef2;" horiz-adv-x="651" 
d="M340 900l80 -145h-158l-116 145h194zM450 700h201l-236 -431v-269h-179v267l-236 433h201l124 -259z" />
    <glyph glyph-name="ygrave" unicode="&#x1ef3;" horiz-adv-x="549" 
d="M293 700l80 -145h-158l-116 145h194zM287 210l78 290h184l-171 -492c-53 -151 -147 -215 -302 -208v156c71 0 101 15 124 60l-200 484h186z" />
    <glyph glyph-name="endash" unicode="&#x2013;" horiz-adv-x="640" 
d="M585 222h-530v158h530v-158z" />
    <glyph glyph-name="emdash" unicode="&#x2014;" horiz-adv-x="740" 
d="M685 222h-630v158h630v-158z" />
    <glyph glyph-name="quoteleft" unicode="&#x2018;" horiz-adv-x="302" 
d="M224 386h-183l84 314h134z" />
    <glyph glyph-name="quoteright" unicode="&#x2019;" horiz-adv-x="302" 
d="M78 700h183l-84 -314h-134z" />
    <glyph glyph-name="quotesinglbase" unicode="&#x201a;" horiz-adv-x="302" 
d="M78 174h183l-84 -314h-134z" />
    <glyph glyph-name="quotedblleft" unicode="&#x201c;" horiz-adv-x="525" 
d="M224 386h-183l84 314h134zM447 386h-183l84 314h134z" />
    <glyph glyph-name="quotedblright" unicode="&#x201d;" horiz-adv-x="525" 
d="M78 700h183l-84 -314h-134zM301 700h183l-84 -314h-134z" />
    <glyph glyph-name="quotedblbase" unicode="&#x201e;" horiz-adv-x="525" 
d="M78 174h183l-84 -314h-134zM301 174h183l-84 -314h-134z" />
    <glyph glyph-name="dagger" unicode="&#x2020;" horiz-adv-x="471" 
d="M319 582h116v-158h-116v-424h-167v424h-117v158h117v118h167v-118z" />
    <glyph glyph-name="daggerdbl" unicode="&#x2021;" horiz-adv-x="471" 
d="M435 582v-158h-116v-148h116v-158h-116v-118h-167v118h-117v158h117v148h-117v158h117v118h167v-118h116z" />
    <glyph glyph-name="bullet" unicode="&#x2022;" horiz-adv-x="399" 
d="M201 186c-46 0 -85 16 -118 48c-32 33 -48 72 -48 118c0 45 16 83 48 114c33 32 72 48 118 48c45 0 83 -16 114 -48c32 -31 48 -69 48 -114c0 -46 -16 -85 -48 -118c-31 -32 -69 -48 -114 -48z" />
    <glyph glyph-name="ellipsis" unicode="&#x2026;" horiz-adv-x="788" 
d="M145 -14c-59 0 -105 47 -105 104s48 104 105 104s104 -47 104 -104s-47 -104 -104 -104zM394 -14c-59 0 -105 47 -105 104s48 104 105 104s104 -47 104 -104s-47 -104 -104 -104zM644 -14c-59 0 -105 47 -105 104s48 104 105 104s104 -47 104 -104s-47 -104 -104 -104z
" />
    <glyph glyph-name="perthousand" unicode="&#x2030;" horiz-adv-x="1220" 
d="M219 356c-52 0 -96 17 -131 52s-53 78 -53 128s18 92 53 127s79 52 131 52s95 -17 130 -52s52 -77 52 -127c0 -51 -18 -93 -53 -128s-78 -52 -129 -52zM208 71l-69 39l460 500l70 -40zM218 483c68 -4 68 110 0 105c-29 0 -51 -23 -51 -52c0 -31 22 -53 51 -53zM606 -14
c-53 0 -97 17 -132 52s-52 77 -52 127c0 51 17 93 52 128s79 52 132 52c52 0 95 -18 130 -53s52 -77 52 -127s-18 -92 -53 -127s-78 -52 -129 -52zM1002 -14c-53 0 -97 17 -132 52s-52 77 -52 127c0 51 17 93 52 128s79 52 132 52c52 0 95 -18 130 -53s52 -77 52 -127
s-18 -92 -53 -127s-78 -52 -129 -52zM656 165c0 31 -22 53 -51 53s-51 -22 -51 -53c0 -29 22 -52 51 -52s51 24 51 52zM1053 165c0 31 -23 53 -52 53s-51 -22 -51 -53c0 -29 22 -52 51 -52s52 24 52 52z" />
    <glyph glyph-name="guilsinglleft" unicode="&#x2039;" horiz-adv-x="364" 
d="M168 504h141l-112 -195l112 -195h-141l-113 195z" />
    <glyph glyph-name="guilsinglright" unicode="&#x203a;" horiz-adv-x="364" 
d="M55 504h141l113 -195l-113 -195h-141l112 195z" />
    <glyph glyph-name="fraction" unicode="&#x2044;" horiz-adv-x="180" 
d="M349 700l-404 -700h-114l404 700h114z" />
    <glyph glyph-name="Euro" unicode="&#x20ac;" horiz-adv-x="629" 
d="M463 232l150 -86c-51 -107 -133 -161 -246 -161c-153 0 -257 101 -286 265h-68v84h60v16v19h-60v84h69c29 163 133 262 285 262c111 0 191 -51 241 -153l-149 -86c-22 43 -53 65 -92 65c-52 0 -86 -29 -103 -88h166v-84h-179v-19v-16h179v-84h-167c17 -61 51 -91 104 -91
c40 0 72 24 96 73z" />
    <glyph glyph-name="uni20BD" unicode="&#x20bd;" horiz-adv-x="610" 
d="M347 231h-93v-40h205v-99h-205v-92h-179v92h-65v99h65v40h-65v159h65v310h272c71 0 130 -22 178 -66s72 -100 72 -169c0 -73 -24 -130 -71 -172c-47 -41 -106 -62 -179 -62zM347 530h-93v-140h93c41 0 71 27 71 70s-30 70 -71 70z" />
    <glyph glyph-name="uni2116" unicode="&#x2116;" horiz-adv-x="1055" 
d="M853 366c-51 0 -93 17 -127 51s-51 75 -51 123c0 49 17 91 50 124c34 34 77 51 128 51s93 -17 126 -51c34 -34 51 -75 51 -124s-17 -90 -50 -124c-33 -33 -76 -50 -127 -50zM441 348v352h178v-700h-138l-247 352v-352h-179v700h139zM853 586c-59 5 -59 -97 0 -91
c58 -6 57 96 0 91zM1017 166h-327v159h327v-159z" />
    <glyph glyph-name="trademark" unicode="&#x2122;" horiz-adv-x="481" 
d="M30 700h175v-69h-51v-131h-73v131h-51v69zM337 633l44 67h70v-200h-70v95l-41 -62h-7l-40 61v-94h-70v200h70z" />
    <glyph glyph-name="estimated" unicode="&#x212e;" horiz-adv-x="780" 
d="M760 350c0 -10 -5 -15 -15 -15h-560c-10 0 -15 -5 -15 -15v-192c0 -7 2 -14 7 -19c56 -59 134 -89 233 -89c97 0 174 32 231 97c5 6 11 9 18 9h37c13 0 18 -10 9 -19c-73 -78 -171 -117 -295 -117c-117 0 -212 34 -283 103s-107 155 -107 257c0 101 34 187 103 256
s158 104 267 104s197 -35 266 -104s104 -155 104 -256zM610 380v192c0 7 -2 14 -7 19c-56 59 -127 89 -213 89s-157 -30 -213 -89c-5 -5 -7 -12 -7 -19v-192c0 -10 5 -15 15 -15h410c10 0 15 5 15 15z" />
    <glyph glyph-name="oneeighth" unicode="&#x215b;" horiz-adv-x="805" 
d="M240 300h-131v266l-79 -21l-30 109l127 46h113v-400zM107 0l404 700h114l-404 -700h-114zM733 209c38 -23 57 -56 57 -99c0 -76 -59 -124 -159 -124s-160 48 -160 124c0 43 19 76 58 99c-29 22 -44 50 -44 83c0 75 62 122 146 122s145 -47 145 -122
c0 -34 -14 -62 -43 -83zM631 308c-23 0 -34 -9 -34 -28c0 -18 11 -27 34 -27c22 0 33 9 33 27c0 19 -11 28 -33 28zM631 93c50 -4 50 72 0 67c-25 0 -38 -11 -38 -33c0 -23 13 -34 38 -34z" />
    <glyph glyph-name="threeeighths" unicode="&#x215c;" horiz-adv-x="864" 
d="M326 425c0 -89 -62 -139 -161 -139c-80 0 -134 31 -162 94l108 62c10 -29 28 -43 54 -43c21 0 32 9 32 26s-11 25 -32 25h-28l-46 68l56 66h-124v116h286v-87l-65 -76c55 -20 82 -57 82 -112zM166 0l404 700h114l-404 -700h-114zM792 209c38 -23 57 -56 57 -99
c0 -76 -59 -124 -159 -124s-160 48 -160 124c0 43 19 76 58 99c-29 22 -44 50 -44 83c0 75 62 122 146 122s145 -47 145 -122c0 -34 -14 -62 -43 -83zM690 308c-23 0 -34 -9 -34 -28c0 -18 11 -27 34 -27c22 0 33 9 33 27c0 19 -11 28 -33 28zM690 93c50 -4 50 72 0 67
c-25 0 -38 -11 -38 -33c0 -23 13 -34 38 -34z" />
    <glyph glyph-name="fiveeighths" unicode="&#x215d;" horiz-adv-x="860" 
d="M319 420c0 -89 -61 -134 -152 -134c-80 0 -134 31 -162 94l107 56c10 -27 27 -41 52 -41c23 0 35 9 35 27s-11 27 -34 27h-133l17 251h252v-116h-142l-3 -33h16c91 0 147 -43 147 -131zM162 0l404 700h114l-404 -700h-114zM788 209c38 -23 57 -56 57 -99
c0 -76 -59 -124 -159 -124s-160 48 -160 124c0 43 19 76 58 99c-29 22 -44 50 -44 83c0 75 62 122 146 122s145 -47 145 -122c0 -34 -14 -62 -43 -83zM686 308c-23 0 -34 -9 -34 -28c0 -18 11 -27 34 -27c22 0 33 9 33 27c0 19 -11 28 -33 28zM686 93c50 -4 50 72 0 67
c-25 0 -38 -11 -38 -33c0 -23 13 -34 38 -34z" />
    <glyph glyph-name="seveneighths" unicode="&#x215e;" horiz-adv-x="831" 
d="M289 601l-113 -301h-135l107 284h-148v116h289v-99zM133 0l404 700h114l-404 -700h-114zM759 209c38 -23 57 -56 57 -99c0 -76 -59 -124 -159 -124s-160 48 -160 124c0 43 19 76 58 99c-29 22 -44 50 -44 83c0 75 62 122 146 122s145 -47 145 -122c0 -34 -14 -62 -43 -83
zM657 308c-23 0 -34 -9 -34 -28c0 -18 11 -27 34 -27c22 0 33 9 33 27c0 19 -11 28 -33 28zM657 93c50 -4 50 72 0 67c-25 0 -38 -11 -38 -33c0 -23 13 -34 38 -34z" />
    <glyph glyph-name="arrowleft" unicode="&#x2190;" horiz-adv-x="785" 
d="M331 429h419v-158h-419l221 -221h-217l-300 300l300 300h217z" />
    <glyph glyph-name="arrowup" unicode="&#x2191;" horiz-adv-x="671" 
d="M335 700l300 -300v-217l-216 216v-399h-167v400l-217 -217v217z" />
    <glyph glyph-name="arrowright" unicode="&#x2192;" horiz-adv-x="785" 
d="M233 650h217l300 -300l-300 -300h-217l221 221h-419v158h419z" />
    <glyph glyph-name="arrowdown" unicode="&#x2193;" horiz-adv-x="671" 
d="M419 700v-399l216 216v-217l-300 -300l-300 300v217l217 -217v400h167z" />
    <glyph glyph-name="arrowboth" unicode="&#x2194;" horiz-adv-x="1137" 
d="M603 635h214l285 -285l-285 -285h-214l204 206h-478l206 -206h-215l-285 285l285 285h215l-206 -206h479z" />
    <glyph glyph-name="arrowupdn" unicode="&#x2195;" horiz-adv-x="640" 
d="M605 594v-215l-202 202v-462l202 202v-215l-285 -285l-285 285v215l202 -202v462l-202 -202v215l285 285z" />
    <glyph glyph-name="uni2196" unicode="&#x2196;" horiz-adv-x="652" 
d="M303 474l314 -314l-115 -115l-314 313v-308l-153 153v424h424l153 -153h-309z" />
    <glyph glyph-name="uni2197" unicode="&#x2197;" horiz-adv-x="652" 
d="M40 474l153 153h424v-424l-153 -153v308l-314 -313l-115 115l314 314h-309z" />
    <glyph glyph-name="uni2198" unicode="&#x2198;" horiz-adv-x="652" 
d="M464 333v309l153 -153v-424h-424l-153 153h308l-313 313l115 115z" />
    <glyph glyph-name="uni2199" unicode="&#x2199;" horiz-adv-x="652" 
d="M502 646l115 -115l-313 -313h308l-153 -153h-424v424l153 153v-309z" />
    <glyph glyph-name="partialdiff" unicode="&#x2202;" horiz-adv-x="584" 
d="M240 715c83 0 155 -34 214 -102c60 -67 90 -155 90 -263c0 -118 -27 -208 -81 -271c-53 -63 -123 -94 -209 -94c-69 0 -123 20 -163 61s-60 93 -60 154c0 69 21 125 62 169s97 66 166 66c39 0 76 -9 111 -26c-15 98 -66 148 -151 150c-39 1 -77 -10 -115 -31v151
c37 24 83 36 136 36zM264 139c57 0 92 43 106 128c-27 16 -56 24 -89 24c-48 0 -84 -32 -84 -84c0 -41 28 -68 67 -68z" />
    <glyph glyph-name="emptyset" unicode="&#x2205;" horiz-adv-x="804" 
d="M749 720l-89 -116c69 -71 104 -156 104 -254c0 -100 -35 -185 -106 -256s-156 -106 -256 -106c-63 0 -122 15 -177 46l-41 -54h-129l89 116c-69 71 -104 156 -104 254c0 100 35 185 106 256s156 106 256 106c63 0 122 -15 177 -46l41 54h129zM154 350
c0 -62 20 -116 59 -163l297 389c-35 16 -71 24 -108 24c-69 0 -127 -24 -176 -73c-48 -49 -72 -108 -72 -177zM402 100c69 0 127 24 175 73c49 49 73 108 73 177c0 62 -20 116 -59 163l-297 -389c35 -16 71 -24 108 -24z" />
    <glyph glyph-name="product" unicode="&#x220f;" horiz-adv-x="631" 
d="M222 -200h-167v900h520v-900h-166v741h-187v-741z" />
    <glyph glyph-name="summation" unicode="&#x2211;" horiz-adv-x="561" 
d="M525 -200h-500v139l196 321l-181 300v140h470v-163h-266l166 -277l-180 -297h295v-163z" />
    <glyph glyph-name="minus" unicode="&#x2212;" horiz-adv-x="560" 
d="M519 271h-478v158h478v-158z" />
    <glyph glyph-name="radical" unicode="&#x221a;" horiz-adv-x="693" 
d="M413 0h-160l-113 179h-109v158h204l84 -146l204 609h170z" />
    <glyph glyph-name="infinity" unicode="&#x221e;" horiz-adv-x="819" 
d="M584 542c56 0 102 -18 139 -54c37 -35 56 -81 56 -138s-19 -103 -56 -139c-37 -35 -83 -53 -139 -53c-60 0 -118 29 -174 86c-56 -57 -114 -86 -174 -86c-57 0 -103 18 -140 53c-37 36 -55 82 -55 139s18 103 55 138c37 36 83 54 140 54c60 0 118 -29 174 -86
c56 57 114 86 174 86zM252 310c23 0 46 13 69 40c-23 27 -46 40 -69 40c-24 0 -43 -16 -43 -40s19 -40 43 -40zM568 310c24 0 42 16 42 40s-18 40 -42 40c-23 0 -46 -13 -69 -40c23 -27 46 -40 69 -40z" />
    <glyph glyph-name="integral" unicode="&#x222b;" horiz-adv-x="461" 
d="M0 -204v164c19 -11 40 -11 61 -2s34 27 39 54l89 521c13 75 44 125 93 152c50 27 110 33 179 17v-164c-19 11 -40 11 -62 2c-21 -9 -34 -27 -38 -54l-89 -521c-13 -75 -44 -125 -94 -152c-49 -27 -109 -33 -178 -17z" />
    <glyph glyph-name="approxequal" unicode="&#x2248;" horiz-adv-x="568" 
d="M290 371c-31 13 -57 21 -79 24c-44 7 -61 -2 -96 -22l-80 38c33 145 126 191 243 138c85 -40 114 -39 130 18l125 -58c-28 -140 -126 -191 -243 -138zM160 131l-125 58c28 141 126 191 243 138c31 -13 57 -21 79 -24c44 -5 64 2 97 23l79 -39
c-33 -145 -126 -191 -243 -138c-85 40 -114 39 -130 -18z" />
    <glyph glyph-name="notequal" unicode="&#x2260;" horiz-adv-x="511" 
d="M475 539v-159h-164l-26 -60h190v-159h-261l-49 -111h-85l49 111h-94v159h164l27 60h-191v159h261l49 111h86l-49 -111h93z" />
    <glyph glyph-name="lessequal" unicode="&#x2264;" horiz-adv-x="521" 
d="M36 526l450 158v-173l-280 -69l280 -69v-173l-450 158v168zM486 21h-450v159h450v-159z" />
    <glyph glyph-name="greaterequal" unicode="&#x2265;" horiz-adv-x="521" 
d="M35 511v173l450 -158v-168l-450 -158v173l280 69zM485 21h-450v159h450v-159z" />
    <glyph glyph-name="lozenge" unicode="&#x25ca;" horiz-adv-x="588" 
d="M367 0h-146l-186 350l186 350h146l186 -350zM218 350l76 -143l76 143l-76 143z" />
    <glyph glyph-name="i.loclTRK" horiz-adv-x="262" 
d="M130 543c-49 0 -90 41 -90 89c0 49 41 90 90 90c48 0 89 -41 89 -90c0 -48 -41 -89 -89 -89zM214 0h-166v500h166v-500z" />
    <glyph glyph-name="f_f_j" horiz-adv-x="855" 
d="M527 500h280v-500c0 -157 -76 -224 -240 -215v154c51 -3 73 16 73 61v341h-113v-341h-167v341h-116v-341h-166v341h-63v159h63c0 144 85 224 252 215v-154c-57 4 -86 -16 -86 -61h116v10c0 143 84 215 252 215c44 0 87 -5 130 -15v-145c-43 6 -84 9 -123 9
c-61 0 -92 -16 -92 -64v-10z" />
    <glyph glyph-name="f_j" horiz-adv-x="572" 
d="M244 500h280v-500c0 -157 -75 -224 -239 -215v154c51 -3 73 16 73 61v341h-114v-341h-166v341h-63v159h63c0 143 84 215 252 215c44 0 87 -5 130 -15v-145c-43 6 -84 9 -123 9c-61 0 -93 -16 -93 -64z" />
    <glyph glyph-name="uni0414.loclBGR" horiz-adv-x="740" 
d="M477 700l171 -527h82v-307h-179v134h-362v-134h-179v307h82l171 527h214zM370 500l-93 -327h186z" />
    <glyph glyph-name="uni041B.loclBGR" horiz-adv-x="665" 
d="M0 0l226 700h213l226 -700h-196l-137 482l-136 -482h-196z" />
    <glyph glyph-name="uni0424.loclBGR" horiz-adv-x="869" 
d="M519 -6v-94h-169v94c-99 15 -177 54 -235 117s-87 143 -87 239s29 176 87 239s136 102 235 117v94h169v-94c99 -15 177 -55 235 -118s87 -142 87 -238s-29 -176 -87 -239s-136 -102 -235 -117zM350 161v378c-96 -22 -144 -85 -144 -189s48 -167 144 -189zM519 538v-376
c95 21 143 84 143 188s-48 167 -143 188z" />
    <glyph glyph-name="uni0414.ss01" horiz-adv-x="712" 
d="M619 700v-527h75v-173h-684v173h74c32 51 48 125 48 222v305h487zM270 173h171v361h-131v-141c0 -93 -13 -167 -40 -220z" />
    <glyph glyph-name="uni0426.ss01" horiz-adv-x="702" 
d="M604 700v-527h80v-173h-629v700h184v-527h182v527h183z" />
    <glyph glyph-name="uni0429.ss01" horiz-adv-x="992" 
d="M894 700v-527h80v-173h-919v700h179v-527h151v527h179v-527h151v527h179z" />
    <glyph glyph-name="uni0414.loclBGR.ss01" horiz-adv-x="740" 
d="M477 700l171 -527h82v-173h-720v173h82l171 527h214zM370 500l-93 -327h186z" />
    <glyph glyph-name="uni0432.loclBGR" horiz-adv-x="562" 
d="M432 409c70 -34 105 -98 105 -191c0 -145 -92 -232 -247 -232c-73 0 -131 22 -176 66c-44 44 -66 103 -66 176v239c0 75 21 134 64 179s100 68 171 68c124 0 204 -70 204 -181c0 -44 -18 -85 -55 -124zM278 560c-39 0 -64 -33 -64 -86v-55l20 4c21 4 37 6 47 7
c29 25 44 51 44 78c0 35 -16 52 -47 52zM293 144c49 0 78 27 78 74c0 57 -47 80 -123 64l-34 -7v-47c0 -51 31 -84 79 -84z" />
    <glyph glyph-name="uni0433.loclBGR" horiz-adv-x="473" 
d="M321 178l139 -73c-37 -79 -111 -119 -223 -119c-59 0 -109 14 -150 41s-62 70 -62 127c0 190 243 145 243 200c0 16 -12 24 -37 24c-27 0 -48 -14 -62 -43l-139 63c39 77 108 116 207 116c55 0 101 -15 140 -44s59 -71 59 -124c0 -67 -37 -112 -84 -131
c-68 -27 -154 -34 -154 -64c0 -19 15 -28 44 -28c39 0 65 18 79 55z" />
    <glyph glyph-name="uni0434.loclBGR" horiz-adv-x="618" 
d="M406 452v48h164v-480c0 -166 -132 -235 -263 -235c-111 0 -202 42 -246 122l138 80c24 -38 59 -57 106 -57c60 0 101 31 101 90v48c-34 -41 -81 -62 -140 -62c-69 0 -126 25 -171 74s-67 109 -67 180s22 131 67 180s102 74 171 74c59 0 106 -21 140 -62zM223 185
c20 -19 46 -29 77 -29s57 10 76 29c20 20 30 45 30 75s-10 55 -30 74c-19 20 -45 30 -76 30s-57 -10 -77 -30c-19 -19 -29 -44 -29 -74s10 -55 29 -75z" />
    <glyph glyph-name="uni0436.loclBGR" horiz-adv-x="779" 
d="M618 250l156 -250h-183l-119 205v-205h-165v205l-119 -205h-183l156 250l-146 250h183l109 -201v401h165v-401l109 201h183z" />
    <glyph glyph-name="uni0438.loclBGR" horiz-adv-x="579" 
d="M365 234v266h166v-500h-166v50c-30 -43 -76 -64 -139 -64c-108 0 -184 76 -184 215v299h166v-278c0 -52 30 -79 75 -79c52 0 82 32 82 91z" />
    <glyph glyph-name="uni0439.loclBGR" horiz-adv-x="579" 
d="M125 694h323v-140h-323v140zM365 234v266h166v-500h-166v50c-30 -43 -76 -64 -139 -64c-108 0 -184 76 -184 215v299h166v-278c0 -52 30 -79 75 -79c52 0 82 32 82 91z" />
    <glyph glyph-name="uni043A.loclBGR" horiz-adv-x="542" 
d="M367 250l175 -250h-186l-142 213v-213h-166v700h166v-409l129 209h192z" />
    <glyph glyph-name="uni043B.loclBGR" horiz-adv-x="554" 
d="M367 500l187 -500h-184l-93 287l-93 -287h-184l187 500h180z" />
    <glyph glyph-name="uni043F.loclBGR" horiz-adv-x="579" 
d="M353 514c108 0 184 -76 184 -215v-299h-166v278c0 52 -30 79 -75 79c-52 0 -82 -32 -82 -91v-266h-166v500h166v-50c30 43 76 64 139 64z" />
    <glyph glyph-name="uni0442.loclBGR" horiz-adv-x="852" 
d="M622 514c116 0 188 -79 188 -208v-306h-167v287c0 47 -21 70 -62 70c-45 0 -69 -32 -69 -84v-273h-166v287c0 47 -21 70 -63 70c-45 0 -69 -32 -69 -84v-273h-166v500h166v-47c31 41 76 61 135 61c57 0 100 -21 128 -64c35 43 83 64 145 64z" />
    <glyph glyph-name="uni0446.loclBGR" horiz-adv-x="622" 
d="M561 152h45v-286h-157v148c-24 10 -43 26 -58 47c-34 -50 -89 -75 -165 -75c-107 0 -184 76 -184 215v299h166v-278c0 -52 29 -79 76 -79c51 0 81 32 81 91v266h166v-318c0 -20 10 -30 30 -30z" />
    <glyph glyph-name="uni0448.loclBGR" horiz-adv-x="852" 
d="M638 227v273h166v-500h-166v47c-31 -41 -76 -61 -135 -61c-57 0 -100 21 -128 64c-35 -43 -83 -64 -145 -64c-116 0 -188 79 -188 208v306h167v-287c0 -47 21 -70 62 -70c45 0 69 32 69 84v273h166v-287c0 -47 21 -70 63 -70c45 0 69 32 69 84z" />
    <glyph glyph-name="uni0449.loclBGR" horiz-adv-x="894" 
d="M834 152h45v-286h-158v148c-22 9 -40 23 -55 43c-35 -47 -86 -71 -154 -71c-62 0 -107 22 -136 66c-35 -44 -83 -66 -146 -66c-116 0 -188 79 -188 208v306h166v-287c0 -44 22 -70 62 -70c45 0 70 32 70 84v273h166v-287c0 -47 21 -70 62 -70c45 0 69 32 69 84v273h167
v-318c0 -20 10 -30 30 -30z" />
    <glyph glyph-name="uni044C.loclBGR" horiz-adv-x="497" 
d="M204 373h68c136 0 209 -73 209 -192c0 -57 -20 -104 -60 -141c-39 -37 -92 -55 -159 -55c-140 0 -220 78 -220 206v309h162v-127zM262 137c35 0 57 21 57 48c0 32 -17 48 -52 48h-63v-40c0 -35 22 -56 58 -56z" />
    <glyph glyph-name="uni044A.loclBGR" horiz-adv-x="578" 
d="M285 373h68c137 0 210 -73 210 -192c0 -57 -20 -104 -60 -141s-93 -55 -160 -55c-140 0 -220 78 -220 206v155h-123v154h285v-127zM343 137c35 0 58 21 58 48c0 32 -18 48 -53 48h-63v-40c0 -35 22 -56 58 -56z" />
    <glyph glyph-name="uni044E.loclBGR" horiz-adv-x="807" 
d="M516 514c74 0 137 -26 189 -77s78 -113 78 -187s-26 -137 -78 -188s-115 -76 -189 -76c-60 0 -113 17 -158 51c-45 35 -75 80 -91 135h-53v-172h-166v700h166v-372h53c16 55 46 100 91 134c45 35 98 52 158 52zM516 146c57 0 100 43 100 104s-43 104 -100 104
c-59 0 -101 -43 -101 -104s42 -104 101 -104z" />
    <glyph glyph-name="zero.sinf" horiz-adv-x="409" 
d="M339 -116c-34 -39 -79 -58 -135 -58s-101 19 -135 58c-34 38 -51 90 -51 156s17 118 51 156c34 39 79 58 135 58s101 -19 135 -58c35 -38 52 -90 52 -156s-17 -118 -52 -156zM153 40c0 -55 17 -83 51 -83s51 28 51 83s-17 83 -51 83s-51 -28 -51 -83z" />
    <glyph glyph-name="one.sinf" horiz-adv-x="278" 
d="M0 194l127 46h113v-400h-131v266l-79 -21z" />
    <glyph glyph-name="two.sinf" horiz-adv-x="351" 
d="M328 -160h-306v89l143 139c19 19 29 35 29 48c0 15 -9 22 -26 22c-18 0 -33 -15 -46 -44l-107 60c31 67 84 100 158 100c42 0 78 -12 107 -36s44 -55 44 -93c0 -42 -23 -85 -70 -128l-42 -40h116v-117z" />
    <glyph glyph-name="three.sinf" horiz-adv-x="341" 
d="M309 153l-65 -76c55 -20 82 -57 82 -112c0 -89 -62 -139 -161 -139c-80 0 -134 31 -162 94l108 62c10 -29 28 -43 54 -43c21 0 32 9 32 26s-11 25 -32 25h-28l-46 68l56 66h-124v116h286v-87z" />
    <glyph glyph-name="four.sinf" horiz-adv-x="362" 
d="M314 11h35v-115h-35v-56h-122v56h-184v115l116 229h138l-111 -229h41v63h122v-63z" />
    <glyph glyph-name="five.sinf" horiz-adv-x="335" 
d="M156 91h16c91 0 147 -43 147 -131c0 -89 -61 -134 -152 -134c-80 0 -134 31 -162 94l107 56c10 -27 27 -41 52 -41c23 0 35 9 35 27s-11 27 -34 27h-133l17 251h252v-116h-142z" />
    <glyph glyph-name="six.sinf" horiz-adv-x="343" 
d="M284 240l-77 -127c76 -13 123 -67 123 -142c0 -87 -62 -145 -159 -145c-96 0 -158 60 -158 145c0 29 7 54 20 77l117 192h134zM171 -66c25 0 38 12 38 37c0 24 -13 36 -38 36s-37 -12 -37 -36c0 -25 12 -37 37 -37z" />
    <glyph glyph-name="seven.sinf" horiz-adv-x="302" 
d="M0 124v116h289v-99l-113 -301h-135l107 284h-148z" />
    <glyph glyph-name="eight.sinf" horiz-adv-x="349" 
d="M277 49c38 -23 57 -56 57 -99c0 -76 -59 -124 -159 -124s-160 48 -160 124c0 43 19 76 58 99c-29 22 -44 50 -44 83c0 75 62 122 146 122s145 -47 145 -122c0 -34 -14 -62 -43 -83zM175 148c-23 0 -34 -9 -34 -28c0 -18 11 -27 34 -27c22 0 33 9 33 27
c0 19 -11 28 -33 28zM175 -67c50 -4 50 72 0 67c-25 0 -38 -11 -38 -33c0 -23 13 -34 38 -34z" />
    <glyph glyph-name="nine.sinf" horiz-adv-x="343" 
d="M330 109c0 -29 -7 -54 -20 -77l-117 -192h-134l77 127c-76 12 -123 67 -123 142c0 85 62 145 158 145c97 0 159 -58 159 -145zM171 146c-25 0 -37 -12 -37 -37c0 -24 12 -36 37 -36s38 12 38 36c0 25 -13 37 -38 37z" />
    <glyph glyph-name="zero.tf" 
d="M295 -15c-91 0 -163 33 -214 99c-51 67 -76 155 -76 266s25 199 76 265c51 67 123 100 214 100s161 -33 212 -100c51 -66 77 -154 77 -265s-26 -199 -77 -266c-51 -66 -121 -99 -212 -99zM184 350c0 -127 37 -191 111 -191s111 64 111 191s-37 191 -111 191
s-111 -64 -111 -191z" />
    <glyph glyph-name="one.tf" 
d="M397 700v-527h177v-173h-549v173h194v339l-123 -31l-42 151l189 68h154z" />
    <glyph glyph-name="two.tf" 
d="M555 0h-524v130l262 236c47 43 71 79 71 109c0 36 -27 66 -76 66c-47 0 -83 -28 -110 -85l-153 89c48 112 147 170 264 170c72 0 132 -21 181 -64c49 -42 73 -98 73 -167c0 -83 -39 -144 -120 -219l-102 -92h234v-173z" />
    <glyph glyph-name="three.tf" 
d="M529 559l-121 -138c96 -28 156 -97 156 -198c0 -77 -25 -136 -74 -177s-114 -61 -193 -61c-135 0 -238 59 -279 176l155 89c20 -61 60 -91 119 -91c63 0 94 23 94 68s-32 68 -96 68h-34l-72 105l115 129h-255v171h485v-141z" />
    <glyph glyph-name="four.tf" 
d="M504 270h70v-163h-70v-107h-178v107h-321v163l218 430h198l-219 -430h124v131h178v-131z" />
    <glyph glyph-name="five.tf" 
d="M246 454h59c159 0 262 -79 262 -232c0 -75 -25 -134 -76 -175s-115 -62 -194 -62c-132 0 -233 57 -277 170l156 87c19 -55 58 -83 119 -83c62 0 93 22 93 65s-31 64 -93 64h-236l29 412h439v-171h-275z" />
    <glyph glyph-name="six.tf" 
d="M483 700l-149 -213c75 -7 133 -34 176 -79s64 -102 64 -171c0 -75 -25 -135 -76 -182c-50 -47 -118 -70 -203 -70c-86 0 -154 23 -205 69c-50 47 -75 108 -75 183c0 61 17 112 50 155l215 308h203zM295 326c-63 0 -101 -33 -101 -89s38 -88 101 -88s101 32 101 88
s-40 89 -101 89z" />
    <glyph glyph-name="seven.tf" 
d="M20 527v173h539v-148l-248 -552h-194l236 527h-333z" />
    <glyph glyph-name="eight.tf" 
d="M475 365c66 -39 99 -95 99 -168c0 -129 -102 -211 -279 -211s-280 82 -280 211c0 73 33 129 99 168c-50 35 -75 82 -75 141c0 65 24 116 72 153s109 55 184 55c74 0 135 -19 183 -56s72 -87 72 -152c0 -59 -25 -106 -75 -141zM295 552c-55 0 -86 -23 -86 -60
s31 -60 86 -60c53 0 86 23 86 60c0 36 -33 60 -86 60zM295 150c67 0 100 24 100 72c0 45 -35 73 -100 73s-101 -28 -101 -73c0 -48 34 -72 101 -72z" />
    <glyph glyph-name="nine.tf" 
d="M574 463c0 -55 -14 -104 -42 -145l-223 -318h-203l149 213c-75 7 -133 34 -176 79s-64 102 -64 171c0 75 25 136 75 182c51 47 119 70 205 70s154 -23 204 -70c50 -46 75 -107 75 -182zM221 528c-18 -15 -27 -37 -27 -65s9 -50 27 -66c19 -15 43 -23 74 -23s55 8 73 23
c19 16 28 38 28 66s-9 50 -27 65s-43 23 -74 23s-56 -8 -74 -23z" />
    <glyph glyph-name="zero.dnom" horiz-adv-x="409" 
d="M339 43c-34 -38 -79 -57 -135 -57s-101 19 -135 57c-34 39 -51 91 -51 157s17 118 51 156c34 39 79 58 135 58s101 -19 135 -58c35 -38 52 -90 52 -156s-17 -118 -52 -157zM153 200c0 -55 17 -83 51 -83s51 28 51 83s-17 83 -51 83s-51 -28 -51 -83z" />
    <glyph glyph-name="one.dnom" horiz-adv-x="276" 
d="M0 354l127 46h113v-400h-131v266l-79 -21z" />
    <glyph glyph-name="two.dnom" horiz-adv-x="356" 
d="M328 0h-306v89l143 139c19 19 29 35 29 48c0 15 -9 22 -26 22c-18 0 -33 -15 -46 -44l-107 60c31 67 84 100 158 100c42 0 78 -12 107 -36s44 -55 44 -93c0 -42 -23 -85 -70 -128l-42 -40h116v-117z" />
    <glyph glyph-name="three.dnom" horiz-adv-x="335" 
d="M309 313l-65 -76c55 -20 82 -57 82 -112c0 -89 -62 -139 -161 -139c-80 0 -134 31 -162 94l108 62c10 -29 28 -43 54 -43c21 0 32 9 32 26s-11 25 -32 25h-28l-46 68l56 66h-124v116h286v-87z" />
    <glyph glyph-name="four.dnom" horiz-adv-x="362" 
d="M314 171h35v-115h-35v-56h-122v56h-184v115l116 229h138l-111 -229h41v63h122v-63z" />
    <glyph glyph-name="five.dnom" horiz-adv-x="331" 
d="M156 251h16c91 0 147 -43 147 -131c0 -89 -61 -134 -152 -134c-80 0 -134 31 -162 94l107 56c10 -27 27 -41 52 -41c23 0 35 9 35 27s-11 27 -34 27h-133l17 251h252v-116h-142z" />
    <glyph glyph-name="six.dnom" horiz-adv-x="343" 
d="M284 400l-77 -127c76 -13 123 -67 123 -142c0 -87 -62 -145 -159 -145c-96 0 -158 60 -158 145c0 29 7 54 20 77l117 192h134zM171 94c25 0 38 12 38 37c0 24 -13 36 -38 36s-37 -12 -37 -36c0 -25 12 -37 37 -37z" />
    <glyph glyph-name="seven.dnom" horiz-adv-x="302" 
d="M0 284v116h289v-99l-113 -301h-135l107 284h-148z" />
    <glyph glyph-name="eight.dnom" horiz-adv-x="349" 
d="M277 209c38 -23 57 -56 57 -99c0 -76 -59 -124 -159 -124s-160 48 -160 124c0 43 19 76 58 99c-29 22 -44 50 -44 83c0 75 62 122 146 122s145 -47 145 -122c0 -34 -14 -62 -43 -83zM175 308c-23 0 -34 -9 -34 -28c0 -18 11 -27 34 -27c22 0 33 9 33 27
c0 19 -11 28 -33 28zM175 93c50 -4 50 72 0 67c-25 0 -38 -11 -38 -33c0 -23 13 -34 38 -34z" />
    <glyph glyph-name="nine.dnom" horiz-adv-x="343" 
d="M328 269c0 -29 -7 -54 -20 -77l-117 -192h-134l77 127c-76 12 -123 67 -123 142c0 85 62 145 158 145c97 0 159 -58 159 -145zM169 306c-25 0 -37 -12 -37 -37c0 -24 12 -36 37 -36s38 12 38 36c0 25 -13 37 -38 37z" />
    <glyph glyph-name="zero.numr" horiz-adv-x="409" 
d="M339 343c-34 -38 -79 -57 -135 -57s-101 19 -135 57c-34 39 -51 91 -51 157s17 118 51 156c34 39 79 58 135 58s101 -19 135 -58c35 -38 52 -90 52 -156s-17 -118 -52 -157zM153 500c0 -55 17 -83 51 -83s51 28 51 83s-17 83 -51 83s-51 -28 -51 -83z" />
    <glyph glyph-name="one.numr" horiz-adv-x="276" 
d="M0 654l127 46h113v-400h-131v266l-79 -21z" />
    <glyph glyph-name="two.numr" horiz-adv-x="356" 
d="M328 300h-306v89l143 139c19 19 29 35 29 48c0 15 -9 22 -26 22c-18 0 -33 -15 -46 -44l-107 60c31 67 84 100 158 100c42 0 78 -12 107 -36s44 -55 44 -93c0 -42 -23 -85 -70 -128l-42 -40h116v-117z" />
    <glyph glyph-name="three.numr" horiz-adv-x="335" 
d="M309 613l-65 -76c55 -20 82 -57 82 -112c0 -89 -62 -139 -161 -139c-80 0 -134 31 -162 94l108 62c10 -29 28 -43 54 -43c21 0 32 9 32 26s-11 25 -32 25h-28l-46 68l56 66h-124v116h286v-87z" />
    <glyph glyph-name="four.numr" horiz-adv-x="362" 
d="M314 471h35v-115h-35v-56h-122v56h-184v115l116 229h138l-111 -229h41v63h122v-63z" />
    <glyph glyph-name="five.numr" horiz-adv-x="331" 
d="M156 551h16c91 0 147 -43 147 -131c0 -89 -61 -134 -152 -134c-80 0 -134 31 -162 94l107 56c10 -27 27 -41 52 -41c23 0 35 9 35 27s-11 27 -34 27h-133l17 251h252v-116h-142z" />
    <glyph glyph-name="six.numr" horiz-adv-x="343" 
d="M284 700l-77 -127c76 -13 123 -67 123 -142c0 -87 -62 -145 -159 -145c-96 0 -158 60 -158 145c0 29 7 54 20 77l117 192h134zM171 394c25 0 38 12 38 37c0 24 -13 36 -38 36s-37 -12 -37 -36c0 -25 12 -37 37 -37z" />
    <glyph glyph-name="seven.numr" horiz-adv-x="302" 
d="M0 584v116h289v-99l-113 -301h-135l107 284h-148z" />
    <glyph glyph-name="eight.numr" horiz-adv-x="349" 
d="M277 509c38 -23 57 -56 57 -99c0 -76 -59 -124 -159 -124s-160 48 -160 124c0 43 19 76 58 99c-29 22 -44 50 -44 83c0 75 62 122 146 122s145 -47 145 -122c0 -34 -14 -62 -43 -83zM175 608c-23 0 -34 -9 -34 -28c0 -18 11 -27 34 -27c22 0 33 9 33 27
c0 19 -11 28 -33 28zM175 393c50 -4 50 72 0 67c-25 0 -38 -11 -38 -33c0 -23 13 -34 38 -34z" />
    <glyph glyph-name="nine.numr" horiz-adv-x="343" 
d="M328 569c0 -29 -7 -54 -20 -77l-117 -192h-134l77 127c-76 12 -123 67 -123 142c0 85 62 145 158 145c97 0 159 -58 159 -145zM169 606c-25 0 -37 -12 -37 -37c0 -24 12 -36 37 -36s38 12 38 36c0 25 -13 37 -38 37z" />
    <glyph glyph-name="zero.sups" horiz-adv-x="409" 
d="M339 503c-34 -38 -79 -57 -135 -57s-101 19 -135 57c-34 39 -51 91 -51 157s17 118 51 156c34 39 79 58 135 58s101 -19 135 -58c35 -38 52 -90 52 -156s-17 -118 -52 -157zM153 660c0 -55 17 -83 51 -83s51 28 51 83s-17 83 -51 83s-51 -28 -51 -83z" />
    <glyph glyph-name="one.sups" horiz-adv-x="276" 
d="M0 814l127 46h113v-400h-131v266l-79 -21z" />
    <glyph glyph-name="two.sups" horiz-adv-x="356" 
d="M328 460h-306v89l143 139c19 19 29 35 29 48c0 15 -9 22 -26 22c-18 0 -33 -15 -46 -44l-107 60c31 67 84 100 158 100c42 0 78 -12 107 -36s44 -55 44 -93c0 -42 -23 -85 -70 -128l-42 -40h116v-117z" />
    <glyph glyph-name="three.sups" horiz-adv-x="335" 
d="M309 773l-65 -76c55 -20 82 -57 82 -112c0 -89 -62 -139 -161 -139c-80 0 -134 31 -162 94l108 62c10 -29 28 -43 54 -43c21 0 32 9 32 26s-11 25 -32 25h-28l-46 68l56 66h-124v116h286v-87z" />
    <glyph glyph-name="four.sups" horiz-adv-x="362" 
d="M314 631h35v-115h-35v-56h-122v56h-184v115l116 229h138l-111 -229h41v63h122v-63z" />
    <glyph glyph-name="five.sups" horiz-adv-x="331" 
d="M156 711h16c91 0 147 -43 147 -131c0 -89 -61 -134 -152 -134c-80 0 -134 31 -162 94l107 56c10 -27 27 -41 52 -41c23 0 35 9 35 27s-11 27 -34 27h-133l17 251h252v-116h-142z" />
    <glyph glyph-name="six.sups" horiz-adv-x="343" 
d="M284 860l-77 -127c76 -13 123 -67 123 -142c0 -87 -62 -145 -159 -145c-96 0 -158 60 -158 145c0 29 7 54 20 77l117 192h134zM171 554c25 0 38 12 38 37c0 24 -13 36 -38 36s-37 -12 -37 -36c0 -25 12 -37 37 -37z" />
    <glyph glyph-name="seven.sups" horiz-adv-x="302" 
d="M0 744v116h289v-99l-113 -301h-135l107 284h-148z" />
    <glyph glyph-name="eight.sups" horiz-adv-x="349" 
d="M277 669c38 -23 57 -56 57 -99c0 -76 -59 -124 -159 -124s-160 48 -160 124c0 43 19 76 58 99c-29 22 -44 50 -44 83c0 75 62 122 146 122s145 -47 145 -122c0 -34 -14 -62 -43 -83zM175 768c-23 0 -34 -9 -34 -28c0 -18 11 -27 34 -27c22 0 33 9 33 27
c0 19 -11 28 -33 28zM175 553c50 -4 50 72 0 67c-25 0 -38 -11 -38 -33c0 -23 13 -34 38 -34z" />
    <glyph glyph-name="nine.sups" horiz-adv-x="343" 
d="M328 729c0 -29 -7 -54 -20 -77l-117 -192h-134l77 127c-76 12 -123 67 -123 142c0 85 62 145 158 145c97 0 159 -58 159 -145zM169 766c-25 0 -37 -12 -37 -37c0 -24 12 -36 37 -36s38 12 38 36c0 25 -13 37 -38 37z" />
    <glyph glyph-name="cent.tf" 
d="M319 248h4c41 0 70 17 87 50l142 -82c-44 -80 -129 -130 -228 -130c-17 0 -36 2 -56 5l-29 -91h-63l35 109c-93 41 -153 133 -153 241c0 75 25 137 76 188s114 76 190 76c19 0 35 -1 49 -4l29 90h63l-35 -107c53 -22 94 -58 122 -108l-142 -82c-6 12 -16 23 -30 33z
M225 350c0 -36 13 -63 38 -82l59 184c-56 -1 -97 -42 -97 -102z" />
    <glyph glyph-name="dollar.tf" 
d="M569 203c0 -125 -88 -204 -228 -216v-87h-70v86c-129 8 -217 72 -253 171l155 87c20 -50 53 -80 98 -89v119c-1 1 -1 1 -2 1c-71 24 -114 43 -159 78s-67 84 -67 148c0 63 21 114 63 151c43 37 98 58 165 62v86h70v-88c102 -13 173 -64 214 -155l-152 -85
c-12 35 -33 58 -62 69v-118c27 -9 47 -17 60 -23c14 -5 31 -13 52 -23s37 -20 48 -30c37 -29 72 -79 68 -144zM220 502c0 -19 17 -37 51 -52v97c-34 -5 -51 -20 -51 -45zM341 247v-94c35 5 52 19 52 43c0 23 -15 35 -52 51z" />
    <glyph glyph-name="Euro.tf" 
d="M430 227l149 -86c-40 -95 -122 -156 -229 -156c-144 0 -241 101 -269 265h-68v84h60v16v19h-60v84h68c28 163 125 262 266 262c105 0 184 -59 227 -154l-150 -86c-17 44 -42 66 -77 66c-43 0 -71 -29 -85 -88h135v-84h-145v-19v-16h145v-84h-135c14 -61 43 -91 88 -91
c35 0 61 23 80 68z" />
    <glyph glyph-name="florin.tf" 
d="M574 706v-164c-63 20 -115 1 -128 -52l-15 -59h108v-159h-149l-79 -303c-19 -74 -56 -125 -111 -152c-54 -27 -116 -33 -185 -17v164c69 -19 110 -2 124 52l68 256h-106v159h149l28 106c19 73 56 124 111 151c55 28 116 34 185 18z" />
    <glyph glyph-name="uni20BD.tf" 
d="M324 231h-72v-40h184v-99h-184v-92h-179v92h-63v99h63v40h-63v159h63v310h251c71 0 130 -22 178 -66s72 -100 72 -169c0 -73 -24 -130 -71 -172c-47 -41 -106 -62 -179 -62zM324 530h-72v-140h72c41 0 71 27 71 70s-30 70 -71 70z" />
    <glyph glyph-name="sterling.tf" 
d="M266 272v-99h313v-173h-554v173h62v99h-52v140h52v74c0 73 23 130 69 169c47 40 102 60 165 60c115 0 195 -52 242 -156l-155 -86c-16 49 -37 71 -77 71c-41 0 -65 -27 -65 -68v-64h203v-140h-203z" />
    <glyph glyph-name="yen.tf" 
d="M389 700h200l-172 -328h120v-94h-153v-41h153v-93h-153v-144h-179v144h-152v93h152v41h-152v94h120l-173 328h201l94 -211z" />
    <glyph glyph-name="brevecy" horiz-adv-x="403" 
d="M363 554h-323v140h323v-140z" />
    </font>
</defs>
</svg>
