<?xml version="1.0" standalone="no"?>
<!DOCTYPE svg PUBLIC "-//W3C//DTD SVG 1.1//EN" "http://www.w3.org/Graphics/SVG/1.1/DTD/svg11.dtd" >
<svg xmlns="http://www.w3.org/2000/svg" xmlns:xlink="http://www.w3.org/1999/xlink" version="1.1">
<metadata></metadata>
<defs>
<font id="nunitosemibold_italic" horiz-adv-x="1228" >
<font-face units-per-em="2048" ascent="1638" descent="-410" />
<missing-glyph horiz-adv-x="540" />
<glyph horiz-adv-x="0" />
<glyph unicode="&#xd;" horiz-adv-x="540" />
<glyph horiz-adv-x="0" />
<glyph horiz-adv-x="0" />
<glyph unicode=" "  horiz-adv-x="540" />
<glyph unicode="&#x09;" horiz-adv-x="540" />
<glyph unicode="&#xa0;" horiz-adv-x="540" />
<glyph unicode="!" horiz-adv-x="487" d="M84 121q0 57 37 95t94 38q55 0 92 -38t37 -95t-37 -94t-92 -37q-57 0 -94 36.5t-37 94.5zM176 457l8 868q-2 63 36 96t97 33q51 0 84 -27.5t33 -76.5q0 -16 -2 -25l-129 -868q-4 -33 -22.5 -50.5t-44.5 -17.5q-25 0 -42.5 18.5t-17.5 49.5z" />
<glyph unicode="&#x22;" horiz-adv-x="890" d="M190 1323q-4 63 29 97t90 34q49 0 78 -26.5t29 -75.5q0 -25 -4 -39l-70 -391q-14 -68 -72 -68q-28 0 -46.5 17.5t-20.5 50.5zM608 1323q-4 63 29 97t90 34q49 0 78 -26.5t29 -75.5q0 -25 -4 -39l-70 -391q-14 -68 -72 -68q-28 0 -46.5 17.5t-20.5 50.5z" />
<glyph unicode="#" d="M70 436q0 29 21.5 48.5t51.5 19.5h336l88 452h-383q-31 0 -52 21.5t-21 52.5q0 29 21.5 48.5t51.5 19.5h412l59 307q4 25 24.5 40t47.5 15q16 0 29 -6q12 6 28 6q35 0 55.5 -20.5t20.5 -55.5q0 -12 -2 -18l-53 -268h299q33 0 53.5 -21.5t20.5 -52.5q0 -29 -20.5 -48.5 t-53.5 -19.5h-326l-90 -452h375q33 0 53.5 -21.5t20.5 -52.5q0 -29 -20.5 -48.5t-53.5 -19.5h-401l-64 -317q-4 -25 -23.5 -40t-44.5 -15q-14 0 -30 6q-12 -6 -29 -6q-33 0 -54.5 21.5t-21.5 54.5q0 12 2 18l56 278h-310q-31 0 -52 22t-21 52z" />
<glyph unicode="$" d="M59 211q0 37 23.5 64.5t56.5 27.5q25 0 47 -14q90 -68 191.5 -100.5t226.5 -32.5q154 2 236 63.5t82 173.5q0 61 -41 102.5t-102.5 67t-172.5 60.5q-145 45 -235 86t-153.5 118.5t-63.5 200.5q0 119 59 214t166.5 151.5t245.5 64.5l12 141q2 41 25.5 66t62.5 25 q41 0 63.5 -26t20.5 -65l-12 -147q233 -29 370 -152q33 -27 33 -67q0 -37 -24.5 -64.5t-61.5 -27.5q-31 0 -57 18q-170 129 -389 129q-138 0 -218.5 -65.5t-80.5 -175.5q0 -72 44 -118t109.5 -74t182.5 -64q141 -45 226 -84t145.5 -112t60.5 -187q0 -176 -124 -292 t-333 -132l-12 -140q-4 -41 -28 -65.5t-60 -24.5q-39 0 -63.5 25.5t-20.5 64.5l10 142q-244 23 -397 137q-49 35 -50 88z" />
<glyph unicode="%" horiz-adv-x="1918" d="M143 975q0 229 97.5 359t269.5 130q168 0 258 -101t90 -294q0 -231 -97 -359t-272 -128q-167 0 -256.5 101t-89.5 292zM322 954q0 -119 40.5 -176t126.5 -57q93 0 141 95t48 274q0 119 -41 176t-127 57q-94 0 -141 -94t-47 -275zM446 35q0 27 19 53l889 1350q31 45 78 45 q31 0 54 -21.5t23 -52.5q0 -25 -18 -53l-889 -1350q-29 -45 -76 -45q-31 0 -55.5 21.5t-24.5 52.5zM1098 379q0 229 97 359t269 130q170 0 259 -101t89 -294q0 -231 -96 -359t-270 -128q-168 0 -258 101t-90 292zM1278 360q0 -121 40 -178t128 -57q92 0 139 95t47 274 q0 121 -40 178t-126 57q-94 0 -141 -94t-47 -275z" />
<glyph unicode="&#x26;" horiz-adv-x="1374" d="M90 367q0 139 84 242.5t254 197.5q-84 94 -118 169t-34 152q0 150 101.5 240t267.5 90q156 0 249 -81t93 -216q0 -115 -66.5 -202t-228.5 -181l312 -340q78 150 96 350q6 41 33.5 63.5t62.5 22.5q37 0 61.5 -25.5t18.5 -68.5q-29 -274 -154 -473l164 -178q25 -24 25 -59 t-29 -61.5t-65 -26.5q-39 0 -68 30l-139 154q-186 -180 -443 -180q-139 0 -247.5 48t-169 135t-60.5 198zM293 377q0 -104 76.5 -167t208.5 -63q186 1 321 140l-367 403q-125 -74 -182 -145.5t-57 -167.5zM467 1130q0 -53 25.5 -104t95.5 -131q127 74 176 130t49 126 q0 72 -44 115t-118 43q-82 0 -133 -49.5t-51 -129.5z" />
<glyph unicode="'" horiz-adv-x="473" d="M190 1323q-4 63 29 97t90 34q49 0 78 -26.5t29 -75.5q0 -25 -4 -39l-70 -391q-14 -68 -72 -68q-28 0 -46.5 17.5t-20.5 50.5z" />
<glyph unicode="(" horiz-adv-x="679" d="M207 387q0 285 77.5 546t225.5 484q14 23 36.5 34t47.5 11q29 0 50.5 -17.5t21.5 -45.5q0 -18 -13 -43q-236 -471 -235 -973q0 -348 104 -659q6 -18 6 -33q0 -35 -23.5 -56.5t-55.5 -21.5q-25 0 -48.5 14.5t-35.5 42.5q-158 338 -158 717z" />
<glyph unicode=")" horiz-adv-x="679" d="M20 -324q0 20 13 45q117 229 176 475t59 496q0 348 -104 662q-6 18 -6 32q0 35 23.5 56.5t56.5 21.5q25 0 48 -14t36 -43q157 -348 157 -717q0 -285 -77.5 -546t-225.5 -486q-14 -23 -36.5 -34t-47.5 -11q-29 0 -50.5 17.5t-21.5 45.5z" />
<glyph unicode="*" horiz-adv-x="923" d="M98 1087q0 31 19.5 53.5t56.5 20.5l225 -10l-120 188q-14 20 -15 43q0 31 23.5 51.5t54.5 20.5q43 0 64 -41l104 -201l102 201q20 41 64 41q31 0 54.5 -20.5t23.5 -51.5q0 -23 -15 -43l-121 -188l226 10q37 2 57.5 -20.5t20.5 -53.5t-20.5 -53t-57.5 -20l-226 10 l121 -188q14 -20 15 -43q0 -31 -24.5 -51.5t-55.5 -20.5q-41 0 -62 41l-102 199l-104 -201q-18 -39 -62 -39q-31 0 -55.5 20.5t-24.5 51.5q0 20 15 41l120 190l-225 -10q-37 -2 -56.5 20.5t-19.5 52.5z" />
<glyph unicode="+" d="M123 582q0 33 23.5 55t58.5 22h348l27 347q2 33 25.5 55t56.5 22t52 -21.5t17 -55.5l-29 -347h347q32 0 52.5 -21.5t20.5 -51.5q0 -33 -23.5 -55.5t-58.5 -22.5h-348l-28 -346q-4 -33 -27 -55.5t-55 -22.5q-33 0 -52.5 22.5t-15.5 55.5l27 346h-346q-31 0 -51.5 21.5 t-20.5 52.5z" />
<glyph unicode="," horiz-adv-x="487" d="M84 121q0 63 36 98t91 35q59 0 94 -41t35 -117q0 -90 -38 -174t-103 -147q-25 -25 -54 -25q-25 0 -42 16.5t-17 38.5q0 25 23 48q59 59 81 143q-49 6 -77.5 40t-28.5 85z" />
<glyph unicode="-" horiz-adv-x="878" d="M129 543q0 39 25.5 62.5t76.5 23.5h437q43 0 66.5 -22.5t23.5 -57.5q0 -41 -25.5 -63.5t-77.5 -22.5h-434q-45 0 -68.5 21.5t-23.5 58.5z" />
<glyph unicode="." horiz-adv-x="487" d="M84 121q0 57 37 95t94 38q55 0 92 -38t37 -95t-37 -94t-92 -37q-57 0 -94 36.5t-37 94.5z" />
<glyph unicode="/" horiz-adv-x="606" d="M-72 -66q0 14 6 31l613 1528q10 27 31.5 41t46.5 14q33 0 59.5 -21.5t26.5 -53.5q0 -14 -6 -31l-611 -1528q-10 -27 -31.5 -40t-46.5 -13q-35 0 -61.5 20.5t-26.5 52.5z" />
<glyph unicode="0" d="M113 618q0 264 64.5 454t188 289t296.5 99q240 0 365.5 -162.5t125.5 -472.5q0 -264 -65.5 -453.5t-188.5 -288.5t-297 -99q-240 0 -364.5 161.5t-124.5 472.5zM324 588q0 -221 69.5 -326.5t214.5 -105.5q164 0 249 178t85 522q0 223 -68.5 327.5t-214.5 104.5 q-164 0 -249.5 -178t-85.5 -522z" />
<glyph unicode="1" d="M201 84q0 90 102 90h238l82 1016l-197 -115q-23 -14 -49 -14q-37 0 -62.5 28.5t-25.5 65.5q0 47 43 74l334 198q51 29 92 29q43 0 67.5 -26.5t22.5 -71.5l-94 -1184h235q47 0 70.5 -22.5t23.5 -61.5q0 -43 -26.5 -66.5t-77.5 -23.5h-686q-45 0 -68.5 22.5t-23.5 61.5z " />
<glyph unicode="2" d="M111 80q0 53 47 98l522 520q113 115 163 204t50 179q0 96 -61.5 151.5t-169.5 55.5q-182 0 -353 -125q-35 -23 -61 -22q-33 0 -53.5 22.5t-20.5 55.5q0 25 13.5 50t41.5 46q86 70 204 107.5t245 37.5q195 0 309.5 -101.5t114.5 -275.5q0 -127 -63.5 -241.5t-213.5 -261.5 l-413 -406h596q90 0 90 -78q0 -96 -105 -96h-794q-41 0 -64.5 22.5t-23.5 57.5z" />
<glyph unicode="3" d="M78 201q0 37 23.5 64.5t58.5 27.5q29 0 53 -17q86 -59 173 -88.5t187 -29.5q145 0 224.5 67.5t79.5 192.5q0 229 -293 229h-117q-33 0 -53.5 23.5t-20.5 62.5q0 37 24.5 60.5t63.5 23.5h97q147 0 231 70.5t84 195.5q0 96 -63.5 150.5t-176.5 54.5q-174 0 -344 -125 q-35 -23 -61 -22q-33 0 -53.5 22.5t-20.5 55.5q0 25 13.5 50t41.5 46q86 70 204 107.5t245 37.5q190 0 307 -97t117 -257q0 -129 -69.5 -225.5t-192.5 -143.5q112 -32 176.5 -114t64.5 -203q0 -129 -61.5 -227.5t-177 -152.5t-273.5 -54q-137 0 -255.5 38.5t-194.5 98.5 q-41 29 -41 78z" />
<glyph unicode="4" d="M68 385q0 43 32 84l725 938q41 49 99 49q43 0 71.5 -27.5t24.5 -76.5l-70 -885h131q95 0 95 -84q0 -39 -28 -61.5t-77 -22.5h-135l-16 -207q-2 -49 -33 -75.5t-76 -26.5q-47 0 -73.5 27.5t-24.5 78.5l16 203h-567q-43 0 -68.5 24.5t-25.5 61.5zM305 467h436l52 633z" />
<glyph unicode="5" d="M125 215q0 37 24.5 62.5t61.5 25.5q31 0 65 -22q170 -123 336 -123q145 0 231.5 86t86.5 231q0 123 -76 195.5t-203 72.5q-90 0 -158.5 -28.5t-140.5 -96.5q-33 -25 -69 -24q-35 0 -57.5 23.5t-20.5 62.5l53 661q2 49 31.5 76t77.5 27h702q94 0 94 -80q0 -41 -27.5 -65.5 t-76.5 -24.5h-598l-37 -447q121 86 276 86q129 0 227.5 -53t153 -148.5t54.5 -217.5q0 -154 -65.5 -268.5t-184.5 -177t-277 -62.5q-127 0 -244.5 41t-199.5 112q-39 31 -39 76z" />
<glyph unicode="6" horiz-adv-x="1226" d="M117 610q0 258 74.5 450.5t215 296t330.5 103.5q127 0 240 -39t180 -106q43 -37 43 -84q0 -35 -21.5 -60.5t-56.5 -25.5q-29 0 -61 20q-70 57 -154 90t-172 33q-174 0 -278.5 -144.5t-126.5 -416.5l-2 -27q53 98 149 155.5t215 57.5q129 0 228.5 -55t154.5 -154.5 t55 -228.5q0 -141 -62 -252.5t-172 -175t-247 -63.5q-256 0 -394 162.5t-138 463.5zM354 436q0 -125 80 -202.5t209 -77.5q127 0 205 86t78 225q0 127 -75 201.5t-202 74.5q-129 0 -212 -86t-83 -221z" />
<glyph unicode="7" d="M180 1354q0 43 28 66.5t77 23.5h815q41 0 63.5 -22.5t22.5 -59.5q0 -41 -25 -84l-725 -1235q-37 -63 -98 -63q-39 0 -65.5 24.5t-26.5 63.5q0 29 18 61l668 1141h-653q-49 0 -74 22.5t-25 61.5z" />
<glyph unicode="8" d="M76 377q0 133 80 232.5t217 135.5q-100 39 -154.5 120t-54.5 192q0 123 62.5 214t177 140t268.5 49q231 0 357 -96t126 -268q0 -125 -70.5 -221.5t-187.5 -137.5q238 -80 238 -340q0 -123 -65.5 -216t-187.5 -144t-286 -51q-248 0 -384 102t-136 289zM279 387 q0 -113 78.5 -172t236.5 -59q164 0 251 65.5t87 186.5q0 123 -75 180t-241 57t-251.5 -64.5t-85.5 -193.5zM369 1042q0 -106 72.5 -165.5t209.5 -59.5q145 0 222 66.5t77 189.5q0 106 -69.5 161.5t-208.5 55.5q-148 0 -225.5 -63.5t-77.5 -184.5z" />
<glyph unicode="9" d="M66 213q0 35 21.5 60.5t55.5 25.5q31 0 60 -20q72 -57 154.5 -90t170.5 -33q176 0 280.5 144t125.5 417l2 26q-53 -98 -149.5 -155.5t-215.5 -57.5q-129 0 -228 55.5t-154.5 155t-55.5 228.5q0 141 62.5 252.5t172 175t248.5 63.5q256 0 394.5 -162.5t138.5 -463.5 q0 -258 -76 -451t-216 -296t-331 -103q-123 0 -236.5 38.5t-180.5 106.5q-43 37 -43 84zM338 977q0 -125 75.5 -201t202.5 -76q129 0 211 86t82 222q0 127 -78.5 203.5t-209.5 76.5q-127 0 -205 -86t-78 -225z" />
<glyph unicode=":" horiz-adv-x="487" d="M84 121q0 57 37 95t94 38q55 0 92 -38t37 -95t-37 -94t-92 -37q-57 0 -94 36.5t-37 94.5zM145 887q0 57 37 95t94 38q55 0 92.5 -38t37.5 -95t-37 -94t-93 -37q-57 0 -94 36.5t-37 94.5z" />
<glyph unicode=";" horiz-adv-x="487" d="M84 121q0 63 36 98t91 35q59 0 94 -41t35 -117q0 -90 -38 -174t-103 -147q-25 -25 -54 -25q-25 0 -42 16.5t-17 38.5q0 25 23 48q59 59 81 143q-49 6 -77.5 40t-28.5 85zM145 887q0 57 37 95t94 38q56 0 93 -38t37 -95t-37 -94t-93 -37q-57 0 -94 36.5t-37 94.5z" />
<glyph unicode="&#x3c;" d="M123 582q0 37 23.5 67.5t60.5 46.5l825 353q27 10 47 10q33 0 53.5 -20.5t20.5 -53.5q0 -20 -13.5 -38.5t-35.5 -28.5l-797 -334l744 -336q18 -8 28.5 -25.5t10.5 -40.5q-2 -33 -26 -53t-58 -20q-27 0 -48 10l-770 352q-70 29 -65 111z" />
<glyph unicode="=" d="M104 379q0 33 24 54.5t58 21.5h844q33 0 52.5 -21.5t19.5 -54.5t-22.5 -54.5t-57.5 -21.5h-846q-31 0 -51.5 21.5t-20.5 54.5zM135 788q0 33 23.5 54.5t58.5 21.5h846q33 0 52.5 -21.5t19.5 -54.5t-24 -54t-58 -21h-846q-31 0 -51.5 21.5t-20.5 53.5z" />
<glyph unicode="&#x3e;" d="M90 178q0 23 13.5 42.5t35.5 27.5l797 334l-743 336q-39 18 -39 67q2 33 26.5 53.5t59.5 20.5q20 0 45 -10l770 -353q32 -16 49.5 -42.5t17.5 -59.5q0 -41 -23.5 -75t-62.5 -48l-825 -352q-20 -10 -47 -10q-31 0 -52.5 19t-21.5 50z" />
<glyph unicode="?" horiz-adv-x="921" d="M45 1219q0 55 47 90q90 74 207 112.5t240 38.5q182 0 288.5 -83t106.5 -222q0 -80 -30 -146.5t-73 -117.5t-116 -123q-94 -92 -146.5 -161.5t-68.5 -160.5q-6 -27 -23.5 -42t-42.5 -15q-33 0 -49 20.5t-12 55.5q8 121 57 204t141 185q76 84 112 142.5t36 131.5 q0 74 -54.5 117t-148.5 43q-88 0 -170 -31.5t-180 -99.5q-25 -16 -53 -16q-31 0 -49.5 22.5t-18.5 55.5zM279 121q0 57 36.5 95t94.5 38q55 0 92 -38t37 -95t-37 -94t-92 -37q-58 0 -94.5 36.5t-36.5 94.5z" />
<glyph unicode="@" horiz-adv-x="1904" d="M104 553q0 274 115 479t315.5 314.5t450.5 109.5q264 0 452.5 -104.5t285 -277.5t96.5 -372q0 -195 -58.5 -322.5t-153 -188t-204.5 -60.5q-109 0 -172.5 47t-73.5 131h-4q-111 -178 -305 -178q-139 0 -224 96.5t-85 264.5q0 141 54 263t152.5 194.5t225.5 72.5 q94 0 163.5 -43t92.5 -113h4l12 72q4 29 25.5 45t54.5 16q35 0 54.5 -18t19.5 -51q0 -14 -2 -23l-78 -442q-8 -61 -8 -78q0 -68 29.5 -97.5t93.5 -29.5q53 0 107 44t91 143.5t37 254.5q0 164 -77 303.5t-230.5 224.5t-374.5 85q-207 0 -370.5 -91t-257 -264.5t-93.5 -406.5 q0 -219 86 -383t249 -253t384 -89q291 0 467 154q31 25 59 24q31 0 50.5 -21.5t19.5 -52.5q0 -37 -33 -63q-88 -84 -235.5 -134t-327.5 -50q-266 0 -465 108.5t-306.5 306t-107.5 453.5zM698 496q0 -113 51.5 -174.5t133.5 -61.5q96 0 165.5 58.5t105.5 152.5t36 197 q0 109 -52.5 166t-142.5 57q-92 0 -159.5 -57.5t-102.5 -148.5t-35 -189z" />
<glyph unicode="A" horiz-adv-x="1503" d="M35 82q0 23 12 49l658 1253q18 35 50.5 53.5t67.5 18.5q39 0 70 -20.5t45 -57.5l467 -1257q6 -19 6 -37q0 -41 -31.5 -68.5t-70.5 -27.5q-29 0 -52.5 16t-35.5 49l-107 303h-737l-156 -307q-29 -57 -90 -57q-39 0 -67.5 25.5t-28.5 64.5zM463 524h590l-242 684z" />
<glyph unicode="B" horiz-adv-x="1388" d="M137 109l99 1232q2 49 31.5 76t76.5 27h481q229 0 349 -94.5t120 -262.5q0 -125 -66.5 -215t-195.5 -135q119 -30 180.5 -114t61.5 -207q0 -199 -133 -307.5t-371 -108.5h-532q-49 0 -77 30q-25 26 -25 67q0 6 1 12zM350 170h408q315 0 315 248q0 231 -291 231h-393z M401 819h375q309 0 309 246q0 209 -284 209h-363z" />
<glyph unicode="C" horiz-adv-x="1386" d="M135 666q0 240 87 420t249 277t377 97q150 0 273.5 -41t203.5 -112q45 -33 45 -84q0 -35 -23.5 -61.5t-56.5 -26.5q-29 0 -57 20q-156 129 -381 129q-238 0 -369 -165t-131 -455q0 -244 114 -374t325 -130q100 0 195 33.5t175 95.5q29 20 58 20q33 0 52 -23.5t19 -58.5 q0 -49 -41 -82q-86 -76 -208.5 -118.5t-270.5 -42.5q-192 0 -335.5 81.5t-221.5 236.5t-78 364z" />
<glyph unicode="D" horiz-adv-x="1527" d="M137 109l99 1232q2 49 31.5 76t76.5 27h397q326 0 506 -176t180 -490q0 -244 -88 -418t-257 -267t-406 -93h-438q-50 0 -78 30q-24 26 -24 67q0 6 1 12zM354 176h308q274 0 412 153.5t138 450.5q0 242 -122.5 365t-368.5 123h-281z" />
<glyph unicode="E" horiz-adv-x="1198" d="M137 104l99 1239q2 49 30.5 75t77.5 26h756q43 0 67.5 -22.5t24.5 -59.5q0 -88 -102 -88h-652l-37 -455h609q43 0 67.5 -22.5t24.5 -59.5q0 -43 -26.5 -66.5t-76.5 -23.5h-610l-39 -477h649q45 0 70 -22.5t25 -59.5q0 -41 -27 -64.5t-78 -23.5h-756q-51 0 -75 26 q-21 23 -22 64q0 7 1 14z" />
<glyph unicode="F" horiz-adv-x="1148" d="M135 96l101 1247q2 49 30.5 75t77.5 26h735q45 0 68.5 -22.5t23.5 -61.5q0 -88 -102 -88h-629l-37 -453h586q45 0 68.5 -21.5t23.5 -58.5q0 -92 -102 -92h-588l-45 -555q-4 -47 -33.5 -74.5t-76.5 -27.5t-75 28q-26 27 -26 72v6z" />
<glyph unicode="G" horiz-adv-x="1490" d="M133 653q0 246 90 428.5t256 280.5t389 98q150 0 271 -40t200 -107q49 -35 50 -90q0 -37 -24 -62.5t-58 -25.5q-29 0 -56 18q-86 68 -175 100.5t-206 32.5q-245 0 -382.5 -167t-137.5 -462q0 -242 119 -372.5t354 -130.5q152 0 301 51l33 401h-260q-43 0 -66.5 20.5 t-23.5 57.5t25.5 59.5t68.5 22.5h363q43 0 68 -26q21 -23 21 -57q0 -5 -1 -11l-35 -473q-6 -70 -27.5 -100.5t-79.5 -47.5q-84 -31 -195.5 -49t-211.5 -18q-319 0 -494.5 178t-175.5 491z" />
<glyph unicode="H" horiz-adv-x="1560" d="M137 96l99 1256q2 47 32.5 74.5t77.5 27.5q48 0 74 -28q25 -26 24 -71v-7l-41 -529h805l41 533q2 47 33 74.5t78 27.5q48 0 74 -28q25 -26 24 -71v-7l-98 -1256q-4 -47 -34 -74.5t-77 -27.5t-75 28q-24 25 -24 66q0 6 1 12l43 551h-805l-43 -555q-4 -47 -33.5 -74.5 t-76.5 -27.5t-75 28q-25 25 -25 66q0 6 1 12z" />
<glyph unicode="I" horiz-adv-x="546" d="M137 96l99 1256q2 47 32.5 74.5t77.5 27.5q49 0 77 -28q24 -24 24 -64q0 -7 -1 -14l-98 -1256q-2 -47 -33.5 -74.5t-78.5 -27.5q-48 0 -76 28q-24 25 -24 66q0 6 1 12z" />
<glyph unicode="J" horiz-adv-x="698" d="M-57 76q0 80 90 86l65 4q193 12 211 229l76 955q2 47 35 75.5t80 28.5t74 -28q24 -27 24 -69v-7l-76 -955q-14 -188 -115.5 -290.5t-283.5 -110.5l-68 -4q-8 -1 -16 -1q-45 0 -69 21q-27 23 -27 66z" />
<glyph unicode="K" horiz-adv-x="1314" d="M137 96l99 1256q4 45 34.5 73.5t75.5 28.5q47 0 76 -30q25 -26 25 -63q0 -6 -1 -13l-43 -560l721 637q31 29 68 29q35 0 61.5 -26.5t26.5 -63.5q0 -41 -37 -76l-639 -549l594 -596q23 -23 23 -55q0 -37 -30 -67.5t-69 -30.5q-37 0 -69 35l-658 657l-47 -590 q-2 -47 -33.5 -74.5t-78.5 -27.5t-75 30q-25 26 -25 65q0 5 1 11z" />
<glyph unicode="L" horiz-adv-x="1120" d="M137 104l99 1248q2 47 33.5 74.5t78.5 27.5q49 0 76 -28q23 -24 23 -63q0 -7 -1 -15l-92 -1172h621q45 0 68.5 -21.5t23.5 -60.5q0 -94 -102 -94h-732q-51 0 -75 26q-21 23 -22 64q0 7 1 14z" />
<glyph unicode="M" horiz-adv-x="1722" d="M137 88l101 1262q4 47 33.5 75.5t74.5 28.5q66 0 98 -74l414 -931l565 937q39 70 107 70q46 0 70 -28q21 -24 21 -58q0 -6 -1 -12l-102 -1274q-2 -43 -30 -68.5t-69 -25.5q-43 0 -69 26q-24 25 -23 66v6l76 950l-459 -757q-39 -66 -102 -66t-97 70l-344 747l-73 -948 q-2 -43 -30 -68.5t-71 -25.5t-67 26q-23 24 -23 65v7z" />
<glyph unicode="N" horiz-adv-x="1521" d="M135 96l101 1254q2 47 31.5 75.5t74.5 28.5q55 0 84 -43l717 -1053l78 996q4 47 32.5 73.5t73.5 26.5q43 0 69 -30q25 -27 25 -68v-6l-100 -1258q-4 -47 -30.5 -74.5t-71.5 -27.5q-57 0 -89 43l-716 1057l-80 -1000q-4 -45 -33 -72.5t-72 -27.5q-45 0 -71 30 q-24 27 -23 69v7z" />
<glyph unicode="O" horiz-adv-x="1579" d="M135 666q0 240 85 420t239.5 278t359.5 98q203 0 351.5 -82t228.5 -236.5t80 -365.5q0 -240 -85 -420t-240 -278t-361 -98q-203 0 -351.5 81.5t-227.5 236.5t-79 366zM350 664q0 -244 115 -375t328 -131q145 0 250.5 73.5t163 214t57.5 332.5q0 246 -115 377t-328 131 q-219 0 -345 -166t-126 -456z" />
<glyph unicode="P" horiz-adv-x="1335" d="M135 96l101 1247q2 49 30.5 75t77.5 26h481q224 0 345.5 -108.5t121.5 -297.5q0 -225 -136 -342.5t-380 -117.5h-391l-37 -486q-4 -47 -34.5 -74.5t-77.5 -27.5t-75 28q-26 27 -26 72v6zM399 748h363h2q326 0 326 280q0 246 -287 246h-363z" />
<glyph unicode="Q" horiz-adv-x="1579" d="M135 666q0 240 85 420t239.5 278t359.5 98t353.5 -82t227.5 -236.5t79 -365.5q0 -276 -112 -472.5t-318 -276.5q37 -14 66.5 -46t60.5 -85l69 -131q14 -27 15 -54q0 -41 -32 -66.5t-73 -25.5q-66 0 -94 57l-107 199q-57 102 -200 107q-186 4 -326.5 88t-216.5 235.5 t-76 358.5zM350 664q0 -244 115 -375t328 -131q219 0 345 164.5t126 455.5q0 246 -115 377t-328 131q-219 0 -345 -166t-126 -456z" />
<glyph unicode="R" horiz-adv-x="1413" d="M137 98l99 1243q2 49 31.5 76t76.5 27h512q221 0 342 -102.5t121 -290.5t-99.5 -299t-297.5 -136q47 -16 80.5 -52t68.5 -101l178 -338q12 -25 13 -45q0 -41 -33 -67.5t-74 -26.5q-29 0 -54.5 15t-39.5 46l-215 416q-39 74 -91.5 103.5t-138.5 29.5h-231l-39 -504 q-2 -47 -32.5 -74.5t-77.5 -27.5q-49 0 -76 28q-24 25 -24 67q0 6 1 13zM399 766h398q160 0 239.5 67.5t79.5 204.5q0 121 -69.5 178.5t-210.5 57.5h-398z" />
<glyph unicode="S" horiz-adv-x="1284" d="M61 223q0 37 21.5 61.5t54.5 24.5q29 0 56 -18q180 -135 440 -135q164 0 251 58t87 165q0 68 -44 110.5t-109.5 68.5t-182.5 60q-152 45 -247 87.5t-161.5 123t-66.5 211.5q0 127 68.5 222.5t193.5 146.5t293 51q150 0 279.5 -43t213.5 -117q35 -29 35 -73 q0 -37 -23.5 -63.5t-58.5 -26.5q-29 0 -65 24q-72 57 -172.5 92t-212.5 35q-162 0 -250 -61.5t-88 -171.5q0 -74 47 -122t116.5 -76t190.5 -62q147 -43 237.5 -83t155 -116t64.5 -199q0 -193 -148.5 -303t-408.5 -110q-328 0 -514 147q-51 37 -52 92z" />
<glyph unicode="T" horiz-adv-x="1239" d="M74 1350q0 94 102 94h1032q45 0 70 -22.5t25 -61.5q0 -92 -103 -92h-414l-92 -1176q-4 -45 -34.5 -73.5t-77.5 -28.5t-75 30q-26 28 -26 70v6l94 1172h-407q-45 0 -69.5 21.5t-24.5 60.5z" />
<glyph unicode="U" horiz-adv-x="1490" d="M160 504q0 27 4 80l61 768q2 45 33 73.5t78 28.5q48 0 74 -30q25 -27 24 -69v-7l-61 -766q-2 -23 -2 -66q0 -360 360 -360q182 0 281.5 95t115.5 300l64 801q2 45 32.5 73.5t75.5 28.5q47 0 75 -28q25 -25 25 -66q0 -6 -1 -12l-62 -779q-23 -293 -177 -439t-437 -146 q-279 0 -421 133t-142 387z" />
<glyph unicode="V" horiz-adv-x="1435" d="M106 1356q0 43 34 71.5t77 28.5q29 0 52.5 -15.5t33.5 -45.5l397 -1129l576 1133q12 28 37.5 42.5t52.5 14.5q39 0 68.5 -25.5t29.5 -62.5q0 -25 -12 -49l-655 -1262q-18 -35 -50 -52t-67 -17q-37 0 -68.5 19.5t-44.5 53.5l-454 1260q-6 18 -7 35z" />
<glyph unicode="W" horiz-adv-x="2263" d="M162 1358q0 45 31.5 71.5t74.5 26.5q33 0 58.5 -17.5t33.5 -52.5l283 -1087l463 1083q14 35 43 54.5t59 19.5q33 0 59.5 -20.5t35.5 -55.5l284 -1087l461 1098q12 32 40 48.5t58 16.5q37 0 63.5 -22.5t26.5 -61.5q0 -23 -12 -51l-543 -1264q-14 -35 -44.5 -53t-65.5 -18 t-64.5 20.5t-40.5 56.5l-286 1051l-455 -1057q-14 -35 -45 -53t-66 -18t-64.5 20.5t-39.5 56.5l-344 1260q-4 12 -4 35z" />
<glyph unicode="X" horiz-adv-x="1339" d="M35 80q0 37 28 72l504 589l-391 553q-18 25 -18 58q0 43 33.5 73.5t74.5 30.5q43 0 70 -39l364 -528l449 530q31 37 74 37q37 0 66.5 -28.5t29.5 -65.5t-29 -68l-479 -559l418 -585q20 -29 20 -60q0 -41 -32.5 -71.5t-73.5 -30.5q-45 0 -72 41l-393 559l-475 -563 q-31 -37 -76 -37q-37 0 -64.5 26.5t-27.5 65.5z" />
<glyph unicode="Y" horiz-adv-x="1251" d="M88 1354q0 41 33 70.5t74 29.5q47 0 73 -43l381 -563l469 563q37 45 84 45q37 0 64.5 -26.5t27.5 -63.5q0 -39 -28 -70l-521 -622l-45 -582q-4 -49 -35.5 -75.5t-74.5 -26.5q-47 0 -76 28q-27 25 -27 72v6l48 576l-429 626q-18 29 -18 56z" />
<glyph unicode="Z" horiz-adv-x="1218" d="M45 84q0 41 31 80l860 1108h-698q-45 0 -69 21.5t-24 58.5q0 92 103 92h874q41 0 63.5 -23.5t22.5 -60.5q0 -39 -30 -80l-861 -1108h723q45 0 70 -21.5t25 -60.5q0 -90 -105 -90h-899q-39 0 -62.5 23.5t-23.5 60.5z" />
<glyph unicode="[" horiz-adv-x="677" d="M170 -141l109 1358q8 109 70.5 168t170.5 59h144q37 0 59 -19.5t22 -54.5q0 -43 -24.5 -64.5t-63.5 -21.5h-84q-43 0 -66.5 -21.5t-27.5 -68.5l-104 -1313q-2 -47 17.5 -68.5t62.5 -21.5h82q35 0 56 -19.5t21 -56.5q0 -43 -25.5 -63.5t-66.5 -20.5h-145q-107 0 -161 59.5 t-46 168.5z" />
<glyph unicode="\" horiz-adv-x="606" d="M49 1462q0 37 28.5 60.5t65.5 23.5q29 0 49.5 -15t28.5 -48l365 -1520q2 -6 2 -18q0 -35 -29 -58.5t-65 -23.5q-29 0 -49.5 15.5t-28.5 47.5l-365 1516q-2 6 -2 20z" />
<glyph unicode="]" horiz-adv-x="677" d="M-61 -295q0 43 25.5 64.5t64.5 21.5h82q88 0 94 90l104 1313q2 47 -17.5 68.5t-62.5 21.5h-82q-35 0 -56 19.5t-21 56.5q0 43 25.5 63.5t66.5 20.5h145q101 0 155 -51.5t54 -145.5l-2 -30l-108 -1358q-10 -109 -73 -168.5t-169 -59.5h-144q-37 0 -59 19.5t-22 54.5z" />
<glyph unicode="^" d="M125 360q0 16 10 37l428 820q16 33 47 52t68 19t64.5 -19.5t39.5 -51.5l299 -828q4 -16 4 -22q0 -33 -26.5 -55.5t-59.5 -22.5q-45 0 -59 41l-276 768l-398 -768q-20 -41 -63 -41q-31 0 -54.5 20.5t-23.5 50.5z" />
<glyph unicode="_" horiz-adv-x="1024" d="M-45 -66q2 29 26.5 47.5t61.5 18.5h860q35 0 56.5 -18.5t19.5 -42.5q0 -29 -22.5 -48.5t-61.5 -19.5h-862q-35 0 -56.5 18.5t-21.5 44.5z" />
<glyph unicode="`" horiz-adv-x="614" d="M98 1479q0 35 26.5 58.5t59.5 23.5q27 0 50.5 -15.5t35.5 -48.5l123 -293q6 -14 6 -28q0 -25 -17.5 -39.5t-41.5 -14.5q-41 0 -64 35l-160 264q-18 31 -18 58z" />
<glyph unicode="a" horiz-adv-x="1095" d="M92 274q0 115 59.5 181.5t189.5 97.5t349 31h74l4 51q1 16 1 32q0 93 -42 139q-49 54 -160 54q-135 0 -299 -90q-18 -10 -41 -10q-31 0 -51 22.5t-20 53.5q0 49 51 82q74 49 175 77.5t206 28.5q379 0 379 -352q0 -39 -2 -60l-41 -528q-2 -45 -30 -69.5t-73 -24.5t-71 28 q-23 24 -24 59q0 5 1 11l4 70q-43 -84 -118.5 -128t-176.5 -44q-150 0 -247 80.5t-97 207.5zM299 295q0 -72 50 -114t136 -42q107 0 180.5 76t84.5 195l4 57h-58q-152 0 -237.5 -16.5t-122.5 -53.5t-37 -102z" />
<glyph unicode="b" horiz-adv-x="1210" d="M111 88l102 1272q2 43 35 69.5t78 26.5q44 0 70 -24q24 -23 24 -62v-6l-41 -502q51 76 136 119t185 43q125 0 222.5 -59.5t150.5 -169t53 -254.5q0 -164 -59 -290t-166.5 -195.5t-247.5 -69.5q-117 0 -201.5 49t-129.5 139l-7 -86q-2 -47 -32.5 -72.5t-75.5 -25.5t-71 26 q-25 24 -25 66v6zM348 473q0 -158 72 -240.5t205 -82.5q137 0 213.5 102t76.5 283q0 156 -71.5 239.5t-204.5 83.5q-135 0 -213 -103.5t-78 -281.5z" />
<glyph unicode="c" horiz-adv-x="989" d="M86 469q0 168 63.5 293t182.5 193.5t278 68.5q98 0 185.5 -26.5t142.5 -69.5q39 -27 39 -76q0 -35 -21.5 -61.5t-52.5 -26.5q-18 0 -39 12q-121 82 -248 82q-152 0 -233.5 -102.5t-81.5 -286.5q0 -150 74 -233.5t211 -83.5q68 0 124 19t111 60q25 12 43 13 q29 0 47.5 -22.5t18.5 -53.5q0 -49 -37 -74q-57 -51 -144 -79.5t-182 -28.5q-145 0 -253.5 59t-168 169t-59.5 255z" />
<glyph unicode="d" horiz-adv-x="1210" d="M86 465q0 166 59.5 293t167 196.5t246.5 69.5q111 0 195 -46t131 -132l41 518q2 43 32.5 67.5t75.5 24.5q47 0 74 -26q25 -25 25 -64v-6l-101 -1272q-2 -47 -32.5 -72.5t-75.5 -25.5t-72 26q-24 22 -24 60q0 6 1 12l5 64q-47 -78 -133.5 -122t-188.5 -44q-125 0 -222 58 t-150.5 166.5t-53.5 254.5zM295 475q0 -156 72.5 -240.5t203.5 -84.5q138 0 215.5 103t77.5 282q0 158 -71.5 240.5t-204.5 82.5q-137 0 -215 -102.5t-78 -280.5z" />
<glyph unicode="e" horiz-adv-x="1083" d="M86 471q0 162 62.5 288t175 195.5t260.5 69.5q205 0 314.5 -122t109.5 -353q0 -41 -21.5 -62.5t-58.5 -21.5h-637q2 -152 77.5 -235t219.5 -83q143 0 266 82q23 14 45 15q29 0 47.5 -22.5t18.5 -53.5q0 -47 -41 -80q-55 -45 -152.5 -73.5t-196.5 -28.5q-147 0 -257.5 59 t-171 170t-60.5 256zM299 584h528v17q0 129 -58 197q-62 74 -177 74q-125 0 -199 -73.5t-94 -214.5z" />
<glyph unicode="f" horiz-adv-x="700" d="M27 915q0 41 24.5 62.5t71.5 21.5h123l2 27q33 393 424 418l43 2h15q93 0 93 -71q0 -40 -22.5 -60.5t-65.5 -24.5l-55 -4q-109 -8 -161 -65.5t-62 -169.5l-4 -52h202q41 0 62.5 -20.5t21.5 -54.5q0 -84 -94 -84h-205l-59 -752q-2 -49 -34 -73.5t-75 -24.5t-72 24 q-26 23 -26 68v6l59 752h-120q-41 0 -63.5 20.5t-22.5 54.5z" />
<glyph unicode="g" horiz-adv-x="1218" d="M88 489q0 156 59.5 278t167 189.5t248.5 67.5q117 0 203 -48t131 -138l6 84q4 47 35 72.5t76 25.5t70 -26q24 -25 24 -67v-7l-68 -840q-16 -229 -146 -346t-368 -117q-113 0 -213 26.5t-172 73.5q-49 33 -49 80q0 35 22.5 59.5t55.5 24.5q18 0 33 -8q156 -94 329 -94 q281 0 304 289l10 122q-49 -76 -135 -117.5t-191 -41.5q-129 0 -227 56t-151.5 160.5t-53.5 241.5zM297 494q0 -143 72.5 -221t208.5 -78q137 0 215.5 96t78.5 264q0 147 -72.5 225t-205.5 78q-139 0 -218 -97t-79 -267z" />
<glyph unicode="h" horiz-adv-x="1179" d="M111 88l102 1272q2 43 34 69.5t77 26.5q46 0 72 -24q25 -23 24 -62v-6l-41 -502q51 78 137 120t193 42q168 0 255 -88t87 -260q0 -41 -2 -62l-41 -526q-4 -47 -34 -72.5t-77 -25.5t-73 26q-23 22 -24 60q0 6 1 12l41 516q2 14 2 43q0 209 -201 209q-127 0 -201.5 -75.5 t-85.5 -211.5l-39 -481q-2 -47 -32.5 -72.5t-77.5 -25.5t-74 26q-23 22 -23 58q0 7 1 14z" />
<glyph unicode="i" horiz-adv-x="495" d="M111 88l67 836q2 47 35 71.5t76 24.5q45 0 71 -24q25 -23 25 -66v-6l-68 -836q-4 -51 -34.5 -74.5t-75.5 -23.5t-73 24q-24 21 -24 60q0 7 1 14zM186 1339q0 53 35 85t94 32q57 0 93 -31.5t36 -85.5q0 -53 -34.5 -85.5t-94.5 -32.5q-59 0 -94 32.5t-35 85.5z" />
<glyph unicode="j" horiz-adv-x="495" d="M-240 -301q0 35 21.5 57.5t64.5 24.5l60 4q94 6 142 58.5t56 154.5l74 924q4 47 35 72.5t74 25.5q45 0 73 -26q25 -22 25 -61v-11l-72 -906q-14 -184 -111.5 -279t-285.5 -108l-45 -4h-9q-45 0 -72 17q-30 20 -30 57zM186 1339q0 53 35 85t94 32q57 0 93 -31.5t36 -85.5 q0 -53 -34.5 -85.5t-94.5 -32.5q-59 0 -94 32.5t-35 85.5z" />
<glyph unicode="k" horiz-adv-x="1058" d="M113 90l100 1268q2 47 35 71.5t76 24.5q46 0 72 -26q25 -24 24 -67v-7l-64 -801l484 432q29 29 65 29q37 0 64.5 -28t27.5 -62q0 -37 -30 -66l-389 -342l368 -371q25 -25 25 -59q0 -37 -32 -67.5t-71 -30.5q-37 0 -65 30l-453 449l-31 -381q-4 -47 -34.5 -71.5 t-73.5 -24.5q-45 0 -73 26q-25 23 -25 63v11z" />
<glyph unicode="l" horiz-adv-x="495" d="M111 88l102 1270q2 49 35 73.5t76 24.5q42 0 70 -24q26 -23 26 -67v-7l-103 -1270q-4 -51 -34.5 -74.5t-75.5 -23.5t-73 24q-24 21 -24 60q0 7 1 14z" />
<glyph unicode="m" horiz-adv-x="1765" d="M111 88l67 838q2 45 36 69.5t77 24.5t67 -24q23 -22 23 -61v-7l-4 -66q102 162 309 162q113 0 186.5 -47t106.5 -137q53 88 141 136t199 48q156 0 236.5 -87t80.5 -255q0 -43 -2 -66l-41 -528q-4 -51 -34.5 -74.5t-75.5 -23.5t-73 24q-24 21 -24 62v12l41 520q2 16 3 47 q0 201 -177 201q-115 0 -181 -74.5t-79 -220.5l-37 -473q-4 -51 -34.5 -74.5t-75.5 -23.5t-73 24q-24 21 -24 60q0 7 1 14l41 518q2 16 2 49q0 102 -44 151.5t-135 49.5q-115 0 -180 -74.5t-78 -220.5l-39 -473q-4 -51 -34.5 -74.5t-75.5 -23.5t-73 24q-24 21 -24 60 q0 7 1 14z" />
<glyph unicode="n" horiz-adv-x="1179" d="M111 88l67 838q2 43 35 68.5t78 25.5q43 0 67 -24q23 -23 23 -62v-6l-6 -72q51 80 138 124t196 44q168 0 255 -88t87 -260q0 -41 -2 -62l-41 -526q-4 -47 -34 -72.5t-77 -25.5t-73 26q-23 22 -24 60q0 6 1 12l41 516q2 14 2 43q0 209 -201 209q-127 0 -201.5 -75.5 t-85.5 -211.5l-39 -481q-4 -47 -33.5 -72.5t-76.5 -25.5t-73 26q-24 24 -23 65v7z" />
<glyph unicode="o" horiz-adv-x="1155" d="M86 471q0 168 62.5 293t176 192.5t263.5 67.5q147 0 255.5 -60.5t168 -170t59.5 -256.5q0 -168 -62.5 -292t-176 -191.5t-265.5 -67.5q-145 0 -253.5 59t-168 170t-59.5 256zM295 465q0 -156 70.5 -235.5t203.5 -79.5q142 0 217.5 106t75.5 287q0 154 -70.5 234.5 t-201.5 80.5q-143 0 -219 -106.5t-76 -286.5z" />
<glyph unicode="p" horiz-adv-x="1210" d="M82 -287l96 1207q2 47 33 73.5t76 26.5q47 0 73 -26q22 -23 22 -62q0 -6 -1 -12l-4 -62q47 78 133 122t188 44q125 0 222.5 -59.5t150.5 -168t53 -253.5q0 -166 -59 -292t-166.5 -195.5t-247.5 -69.5q-113 0 -196.5 47t-130.5 133l-35 -457q-2 -41 -33 -65.5t-76 -24.5 q-47 0 -74 25q-24 24 -24 63v6zM346 473q0 -158 71.5 -240.5t205.5 -82.5q137 0 213.5 102t76.5 280q0 156 -71.5 241t-204.5 85q-135 0 -213 -103.5t-78 -281.5z" />
<glyph unicode="q" horiz-adv-x="1210" d="M86 467q0 164 59.5 291t166 196.5t245.5 69.5q115 0 201 -49t131 -139l6 84q2 47 32.5 73.5t76.5 26.5q45 0 72 -26q24 -25 24 -68v-6l-96 -1207q-2 -43 -35 -68.5t-78 -25.5t-71 23q-23 22 -23 61v6l34 438q-51 -76 -135 -118.5t-184 -42.5q-127 0 -223 58t-149.5 168 t-53.5 255zM295 473q0 -154 72.5 -238.5t203.5 -84.5q136 0 213.5 103t77.5 282q0 160 -70.5 241.5t-203.5 81.5q-137 0 -215 -102.5t-78 -282.5z" />
<glyph unicode="r" horiz-adv-x="749" d="M111 88l67 838q2 45 35 69.5t76 24.5q41 0 65 -24q23 -22 23 -61v-7l-6 -84q102 158 323 174l23 2q6 1 12 1q31 1 51 -17q24 -20 23 -60q0 -94 -103 -102l-55 -6q-141 -14 -209.5 -82t-79.5 -199l-39 -467q-4 -51 -34.5 -74.5t-75.5 -23.5t-73 24q-24 21 -24 60q0 7 1 14 z" />
<glyph unicode="s" horiz-adv-x="987" d="M53 166q0 33 21.5 57.5t52.5 24.5q23 0 45 -15q139 -90 303 -90q215 0 215 127q0 59 -55 91t-172 65q-106 31 -172 59.5t-113 85t-47 146.5q0 139 113.5 223t304.5 84q88 0 176 -27.5t141 -72.5q43 -31 43 -76q0 -31 -19.5 -54.5t-49.5 -23.5q-27 0 -52 16 q-121 80 -249 80q-102 0 -157.5 -34.5t-55.5 -102.5q0 -59 54 -90t171 -64q106 -31 171.5 -59.5t113 -84.5t47.5 -148q0 -139 -113 -218t-309 -79q-99 0 -193 25.5t-162 68.5q-53 33 -53 86z" />
<glyph unicode="t" horiz-adv-x="722" d="M27 918q0 39 24.5 60t71.5 21h123l16 213q4 43 35 70t76 27q47 0 73 -27q23 -23 24 -61q0 -6 -1 -11l-16 -211h202q39 0 61.5 -20.5t22.5 -54.5q0 -84 -94 -84h-205l-37 -469q-2 -12 -2 -37q0 -92 42 -140.5t118 -48.5q25 0 49.5 3.5t38.5 3.5q25 0 39 -19.5t14 -54.5 q0 -51 -39.5 -71.5t-140.5 -20.5q-156 0 -241.5 86t-85.5 241q0 33 2 52l36 475h-120q-41 0 -63.5 20.5t-22.5 57.5z" />
<glyph unicode="u" horiz-adv-x="1165" d="M127 336q0 37 2 55l43 529q4 47 35 73.5t76 26.5q47 0 73 -26q23 -23 24 -62q0 -6 -1 -12l-43 -517l-2 -36q0 -213 198 -213q121 0 193 75.5t82 208.5l41 482q2 47 32.5 73.5t77.5 26.5q48 0 74 -26q24 -24 23 -67v-7l-68 -836q-2 -43 -33.5 -68.5t-76.5 -25.5 q-43 0 -69 24q-24 22 -24 60v6l7 72q-51 -80 -136.5 -123t-189.5 -43q-166 0 -252 89t-86 261z" />
<glyph unicode="v" horiz-adv-x="1064" d="M70 918q0 39 33.5 66.5t74.5 27.5q29 0 51.5 -15.5t32.5 -46.5l250 -719l367 723q29 58 86 58q39 0 67.5 -24.5t28.5 -61.5q0 -20 -12 -43l-431 -820q-18 -39 -53 -58t-71 -19q-41 0 -73 21.5t-46 62.5l-299 817q-6 16 -6 31z" />
<glyph unicode="w" horiz-adv-x="1736" d="M102 918q0 43 33 70.5t76 27.5q29 0 53.5 -16.5t32.5 -49.5l197 -704l309 692q16 37 45 56.5t61 19.5q33 0 59.5 -20.5t37.5 -55.5l194 -690l313 706q13 29 37.5 44.5t51.5 15.5q39 0 68.5 -25.5t29.5 -62.5q0 -25 -10 -45l-383 -820q-16 -35 -49 -53t-70 -18 q-39 0 -71 19.5t-44 56.5l-190 647l-291 -652q-14 -33 -48 -51t-71 -18q-41 0 -71.5 19.5t-43.5 54.5l-249 819q-6 18 -7 33z" />
<glyph unicode="x" horiz-adv-x="1075" d="M29 76q0 39 32 71l353 367l-275 340q-24 30 -24 59q0 41 31.5 71t70.5 30q43 0 74 -37l256 -324l311 324q35 35 76 35q37 0 63.5 -25.5t26.5 -60.5q0 -37 -33 -70l-327 -344l292 -365q23 -25 23 -59q0 -39 -30.5 -68.5t-71.5 -29.5q-43 0 -72 35l-277 352l-338 -357 q-32 -32 -69 -32h-2q-37 0 -63.5 26.5t-26.5 61.5z" />
<glyph unicode="y" horiz-adv-x="1064" d="M70 918q0 39 33.5 66.5t74.5 27.5q29 0 51.5 -15.5t32.5 -46.5l250 -719l367 723q29 58 86 58q39 0 67.5 -24.5t28.5 -61.5q0 -20 -12 -43l-633 -1205q-16 -29 -40 -44t-50 -15q-35 0 -61.5 22.5t-26.5 57.5q0 23 12 47l141 277l-315 864q-6 16 -6 31z" />
<glyph unicode="z" horiz-adv-x="1036" d="M51 80q0 41 33 76l621 684h-494q-41 0 -63.5 20.5t-22.5 54.5q0 84 94 84h678q39 0 60.5 -23.5t21.5 -57.5q0 -45 -33 -80l-618 -678h528q41 0 63.5 -20.5t22.5 -55.5q0 -41 -24.5 -62.5t-71.5 -21.5h-713q-39 0 -60.5 22.5t-21.5 57.5z" />
<glyph unicode="{" horiz-adv-x="753" d="M78 535q0 37 23.5 60t68.5 26q78 4 110.5 40.5t38.5 120.5l33 435q8 111 66.5 169t167.5 58h157q33 0 55.5 -19.5t22.5 -54.5q0 -43 -24.5 -64.5t-61.5 -21.5h-86q-88 0 -94 -90l-35 -434q-8 -90 -58 -148.5t-116 -72.5q63 -14 105.5 -73.5t33.5 -150.5l-34 -434 q-2 -47 17 -68.5t62 -21.5h82q33 0 55.5 -20.5t22.5 -55.5q0 -43 -24.5 -63.5t-63.5 -20.5h-129q-117 0 -176 59.5t-51 168.5l35 434q6 82 -22 120t-103 42q-39 2 -58.5 24.5t-19.5 55.5z" />
<glyph unicode="|" horiz-adv-x="550" d="M117 -281l131 1637q2 43 31.5 70.5t72.5 27.5q41 0 66.5 -27.5t23.5 -70.5l-129 -1637q-4 -43 -33.5 -70.5t-72.5 -27.5q-41 0 -66.5 27.5t-23.5 70.5z" />
<glyph unicode="}" horiz-adv-x="753" d="M-63 -295q0 43 26.5 64.5t65.5 21.5h80q90 0 96 90l35 436q8 90 58 147.5t114 72.5q-63 14 -104.5 73.5t-33.5 149.5l33 434q8 90 -80 90h-80q-35 0 -56 19.5t-21 56.5q0 43 24.5 63.5t63.5 20.5h127q117 0 176 -59.5t51 -167.5l-33 -433q-6 -84 20.5 -120.5t104.5 -42.5 t78 -80q0 -35 -23.5 -58.5t-66.5 -25.5q-78 -6 -113 -44t-41 -120l-32 -434q-8 -111 -66.5 -169.5t-165.5 -58.5h-158q-33 0 -56 19.5t-23 54.5z" />
<glyph unicode="~" d="M135 545q0 20 17 47q47 68 111.5 105.5t139.5 37.5q63 0 122 -23.5t139 -66.5q66 -35 102.5 -51t71.5 -16q80 0 133 67q33 39 73 39q27 0 44.5 -17.5t17.5 -43.5q0 -25 -16 -48q-49 -68 -113 -104.5t-137 -36.5q-64 0 -122.5 23.5t-137.5 66.5q-59 33 -99.5 49.5 t-77.5 16.5q-82 0 -133 -66q-33 -39 -73 -39q-25 0 -43.5 17.5t-18.5 42.5z" />
<glyph unicode="&#xa2;" d="M176 469q0 227 112.5 372.5t313.5 174.5l12 149q2 39 27 63.5t64 24.5t61 -24.5t20 -63.5l-12 -145q78 -8 144.5 -33.5t109.5 -58.5q39 -27 39 -76q0 -35 -21.5 -61.5t-52.5 -26.5q-18 0 -39 12q-121 82 -247 82q-152 0 -234 -102.5t-82 -286.5q0 -150 74 -233.5 t211 -83.5q68 0 124 19t113 60q25 12 43 13q29 0 46.5 -22.5t17.5 -53.5q0 -49 -37 -74q-51 -45 -128 -73.5t-163 -34.5l-12 -142q-4 -41 -27.5 -65.5t-60.5 -24.5q-39 0 -62.5 25.5t-21.5 64.5l12 158q-162 39 -253 162t-91 305z" />
<glyph unicode="&#xa3;" d="M43 86q0 43 26.5 65.5t77.5 22.5h109l37 479h-135q-29 0 -47.5 19.5t-18.5 48.5q0 31 22.5 51.5t55.5 20.5h133l21 264q16 186 136 294.5t316 108.5q125 0 233.5 -40t188.5 -115q39 -33 39 -76q0 -37 -24.5 -62.5t-61.5 -25.5q-29 0 -64 24q-66 57 -146.5 90t-162.5 33 q-109 0 -172 -61.5t-71 -177.5l-21 -256h307q29 0 47.5 -19.5t18.5 -48.5q0 -31 -21.5 -51.5t-54.5 -20.5h-307l-39 -479h584q45 0 68.5 -20.5t23.5 -59.5q0 -94 -105 -94h-901q-92 0 -92 86z" />
<glyph unicode="&#xa5;" d="M106 1358q0 39 33 67.5t72 28.5q49 0 78 -45l352 -545l446 549q35 43 80 43q37 0 66 -25.5t29 -62.5q0 -31 -23 -59l-420 -510h238q29 0 47 -19.5t18 -48.5q0 -31 -22.5 -51.5t-52.5 -20.5h-314l-14 -172h313q29 0 47.5 -19t18.5 -48q0 -31 -22.5 -51.5t-53.5 -20.5h-313 l-21 -252q-2 -51 -32.5 -78.5t-77.5 -27.5t-75 27.5t-26 78.5l21 252h-314q-29 0 -47 19.5t-18 48.5q0 31 22.5 51t53.5 20h313l14 172h-313q-29 0 -47.5 19.5t-18.5 48.5q0 31 22.5 51.5t53.5 20.5h238l-334 508q-16 27 -17 51z" />
<glyph unicode="&#xa8;" horiz-adv-x="614" d="M77 1339q0 49 33 80t84 31q49 0 83 -30.5t34 -80.5q0 -51 -33 -81.5t-84 -30.5t-84 30.5t-33 81.5zM440 1339q0 49 32.5 80t82.5 31q51 0 83.5 -30.5t32.5 -80.5q0 -51 -32.5 -81.5t-83.5 -30.5q-50 0 -82.5 31.5t-32.5 80.5z" />
<glyph unicode="&#xa9;" horiz-adv-x="1669" d="M121 723q0 205 96 372t264 263t373 96t372 -96t263 -263t96 -372t-96 -372t-264 -264t-371 -97q-205 0 -373 97t-264 264t-96 372zM227 723q0 -176 82 -320.5t225.5 -227.5t319.5 -83t318.5 83t224.5 227.5t82 320.5t-82 319.5t-224.5 226.5t-318.5 83t-319.5 -83 t-225.5 -226.5t-82 -319.5zM449 723q0 203 115.5 321.5t305.5 118.5q162 0 273 -88q18 -12 25.5 -27.5t7.5 -37.5q0 -29 -16.5 -53.5t-45.5 -24.5q-18 0 -35.5 8t-21.5 10q-49 31 -88 47.5t-90 16.5q-117 0 -176.5 -73t-59.5 -218q0 -293 236 -293q51 0 90 16.5t88 47.5 q4 2 21.5 10t35.5 8q29 0 45.5 -24.5t16.5 -53.5q0 -23 -7.5 -38t-25.5 -27q-109 -88 -273 -88q-192 0 -306.5 119.5t-114.5 322.5z" />
<glyph unicode="&#xaa;" horiz-adv-x="681" d="M94 1012q0 96 81 138t269 42h50l2 31q4 51 -23 75.5t-84 24.5q-37 0 -83 -12.5t-87 -32.5q-8 -4 -24 -4q-25 0 -40.5 17.5t-15.5 41.5q0 43 43 66q43 25 108.5 40t127.5 15q246 0 246 -231q0 -25 -2 -39l-21 -269q-2 -41 -25.5 -63.5t-58.5 -22.5q-41 0 -63.5 24 t-20.5 62l2 21q-59 -106 -182 -107q-84 0 -141.5 52.5t-57.5 130.5zM260 1024q0 -33 23.5 -53.5t62.5 -20.5q57 0 95 36t42 95l2 23h-51q-94 0 -134 -18.5t-40 -61.5z" />
<glyph unicode="&#xab;" horiz-adv-x="952" d="M117 539q0 31 24 67l183 268q33 47 84 48q31 0 53 -18.5t22 -47.5q0 -25 -14 -47l-154 -264l107 -264q8 -16 8 -37q0 -33 -23.5 -54.5t-56.5 -21.5q-23 0 -44 12.5t-34 34.5l-141 268q-14 27 -14 56zM512 539q0 31 24 67l183 268q33 47 84 48q31 0 53 -18.5t22 -47.5 q0 -25 -14 -47l-154 -264l107 -264q8 -16 8 -37q0 -33 -23.5 -54.5t-56.5 -21.5q-23 0 -44 12.5t-34 34.5l-141 268q-14 27 -14 56z" />
<glyph unicode="&#xac;" d="M139 795q0 33 23.5 54t58.5 21h846q33 0 53.5 -22.5t18.5 -54.5l-35 -418q-2 -33 -26.5 -55.5t-57.5 -22.5t-51.5 22.5t-14.5 55.5l27 344h-770q-31 0 -51.5 22.5t-20.5 53.5z" />
<glyph unicode="&#xad;" horiz-adv-x="878" d="M129 543q0 39 25.5 62.5t76.5 23.5h437q43 0 66.5 -22.5t23.5 -57.5q0 -41 -25.5 -63.5t-77.5 -22.5h-434q-45 0 -68.5 21.5t-23.5 58.5z" />
<glyph unicode="&#xae;" horiz-adv-x="1669" d="M121 723q0 205 96 372t264 263t373 96t372 -96t263 -263t96 -372t-96 -372t-264 -264t-371 -97q-205 0 -372 97t-264 264t-97 372zM227 723q0 -178 82 -322.5t225.5 -226.5t319.5 -82q174 0 317.5 83t225.5 227.5t82 320.5t-82 320.5t-225.5 226.5t-317.5 82 q-176 0 -319.5 -82t-225.5 -226.5t-82 -320.5zM504 375l55 690q2 43 28.5 66.5t67.5 23.5h267q154 0 231.5 -63.5t77.5 -184.5q0 -106 -61.5 -175.5t-172.5 -90.5q35 -8 61.5 -28.5t51.5 -61.5l84 -143q16 -23 16 -48q0 -35 -29.5 -58t-68.5 -23q-53 0 -80 45l-141 243 q-18 31 -41 45.5t-59 14.5h-80l-21 -252q-2 -45 -29.5 -69.5t-68.5 -24.5t-65.5 24.5t-22.5 69.5zM719 764h180q150 0 150 133q0 61 -36 87t-116 26h-158z" />
<glyph unicode="&#xb1;" d="M82 76q0 33 23.5 54.5t58.5 21.5h844q32 0 51.5 -21.5t19.5 -54.5t-23.5 -54.5t-56.5 -21.5h-845q-33 0 -52.5 21.5t-19.5 54.5zM129 674q2 33 25.5 54.5t58.5 21.5h346l21 256q2 33 26.5 55t57.5 22q31 0 50 -22.5t17 -54.5l-20 -256h346q30 0 50.5 -21.5t20.5 -50.5 q0 -35 -23.5 -57.5t-57.5 -22.5h-349l-20 -256q-4 -33 -27.5 -55.5t-56.5 -22.5q-31 0 -50.5 22.5t-17.5 55.5l21 256h-346q-31 0 -51.5 22.5t-20.5 53.5z" />
<glyph unicode="&#xb4;" horiz-adv-x="614" d="M323 1174q0 18 12 38l216 297q33 49 79 50q37 0 65 -26t28 -60q0 -37 -31 -68l-260 -256q-27 -27 -56 -27q-23 0 -38 14.5t-15 37.5z" />
<glyph unicode="&#xb5;" horiz-adv-x="1165" d="M76 -287l96 1207q4 47 35 73.5t76 26.5q47 0 73.5 -26.5t22.5 -73.5l-43 -517l-2 -36q0 -104 50 -158.5t148 -54.5q119 0 193 76.5t84 207.5l39 482q4 47 34.5 73.5t75.5 26.5q48 0 74.5 -26.5t22.5 -73.5l-68 -836q-2 -43 -33.5 -68.5t-76.5 -25.5t-70 23.5t-21 66.5 l7 76q-51 -80 -136.5 -125t-187.5 -45q-94 0 -162 39l-24 -310q-2 -43 -35 -68.5t-78 -25.5t-70.5 24.5t-23.5 67.5z" />
<glyph unicode="&#xb8;" horiz-adv-x="614" d="M55 -326q0 25 19.5 42.5t46.5 9.5q63 -16 117 -17q113 0 112 66q0 25 -17.5 38t-49.5 13q-25 0 -51.5 -8t-36.5 -8q-18 0 -29.5 12t-7.5 28l39 191h131l-27 -127q10 2 35 2q72 0 114 -37t42 -100q0 -80 -69 -128t-181 -48q-82 0 -150 22q-18 6 -27.5 19.5t-9.5 29.5z" />
<glyph unicode="&#xba;" horiz-adv-x="718" d="M90 1116q0 154 92 246t248 92q137 0 219 -79t82 -208q0 -154 -93 -246t-247 -92q-137 0 -219 79t-82 208zM268 1122q0 -72 34 -111.5t95 -39.5q76 0 117 51t41 141q0 72 -35 112t-96 40q-74 0 -115 -51.5t-41 -141.5z" />
<glyph unicode="&#xbb;" horiz-adv-x="946" d="M80 233q0 25 14 48l156 262l-109 264q-8 18 -8 37q0 35 24.5 56.5t57.5 21.5q49 0 76 -48l141 -268q16 -33 17 -57q0 -33 -25 -68l-184 -268q-17 -23 -39.5 -34t-44.5 -11q-31 0 -53.5 18.5t-22.5 46.5zM475 233q0 25 14 48l156 262l-109 264q-8 18 -8 37q0 35 24.5 56.5 t57.5 21.5q49 0 76 -48l141 -268q16 -33 17 -57q0 -33 -25 -68l-184 -268q-17 -23 -39.5 -34t-44.5 -11q-31 0 -53.5 18.5t-22.5 46.5z" />
<glyph unicode="&#xc0;" horiz-adv-x="1503" d="M35 82q0 23 12 49l658 1253q18 35 50.5 53.5t67.5 18.5q39 0 70 -20.5t45 -57.5l467 -1257q6 -19 6 -37q0 -41 -31.5 -68.5t-70.5 -27.5q-29 0 -52.5 16t-35.5 49l-107 303h-737l-156 -307q-29 -57 -90 -57q-39 0 -67.5 25.5t-28.5 64.5zM463 524h590l-242 684zM584 1823 q0 31 24.5 52t55.5 21q45 0 71 -47l123 -213q8 -14 8 -30q0 -20 -16 -35t-39 -15q-33 0 -51 25l-154 186q-23 25 -22 56z" />
<glyph unicode="&#xc1;" horiz-adv-x="1503" d="M35 82q0 23 12 49l658 1253q18 35 50.5 53.5t67.5 18.5q39 0 70 -20.5t45 -57.5l467 -1257q6 -19 6 -37q0 -41 -31.5 -68.5t-70.5 -27.5q-29 0 -52.5 16t-35.5 49l-107 303h-737l-156 -307q-29 -57 -90 -57q-39 0 -67.5 25.5t-28.5 64.5zM463 524h590l-242 684zM811 1606 q0 18 15 39l147 206q29 43 74 43q31 0 54.5 -22.5t23.5 -52.5q0 -35 -31 -64l-178 -174q-27 -25 -54 -25q-23 0 -37 14.5t-14 35.5z" />
<glyph unicode="&#xc2;" horiz-adv-x="1503" d="M35 82q0 23 12 49l658 1253q18 35 50.5 53.5t67.5 18.5q39 0 70 -20.5t45 -57.5l467 -1257q6 -19 6 -37q0 -41 -31.5 -68.5t-70.5 -27.5q-29 0 -52.5 16t-35.5 49l-107 303h-737l-156 -307q-29 -57 -90 -57q-39 0 -67.5 25.5t-28.5 64.5zM463 524h590l-242 684zM580 1616 q0 27 20 49l172 188q37 39 92 39q53 0 84 -39l136 -186q16 -23 16 -45q0 -27 -20.5 -46.5t-49.5 -19.5q-41 0 -67 43l-105 168l-145 -176q-29 -35 -68 -35q-27 0 -46 17.5t-19 42.5z" />
<glyph unicode="&#xc3;" horiz-adv-x="1503" d="M35 82q0 23 12 49l658 1253q18 35 50.5 53.5t67.5 18.5q39 0 70 -20.5t45 -57.5l467 -1257q6 -19 6 -37q0 -41 -31.5 -68.5t-70.5 -27.5q-29 0 -52.5 16t-35.5 49l-107 303h-737l-156 -307q-29 -57 -90 -57q-39 0 -67.5 25.5t-28.5 64.5zM463 524h590l-242 684zM514 1669 q0 39 24.5 80t71 68.5t103.5 27.5q35 0 69.5 -12t88.5 -39q33 -16 65.5 -28.5t56.5 -12.5q35 0 55.5 13.5t39.5 37.5q16 20 26.5 27.5t24.5 7.5q23 0 35 -15.5t12 -39.5q0 -39 -24.5 -81t-70.5 -69.5t-104 -27.5q-34 0 -69 12t-88 39q-33 16 -66 28.5t-57 12.5 q-33 0 -53.5 -13.5t-43.5 -37.5q-16 -20 -26 -27.5t-25 -7.5q-20 0 -32.5 16.5t-12.5 40.5z" />
<glyph unicode="&#xc4;" horiz-adv-x="1503" d="M35 82q0 23 12 49l658 1253q18 35 50.5 53.5t67.5 18.5q39 0 70 -20.5t45 -57.5l467 -1257q6 -19 6 -37q0 -41 -31.5 -68.5t-70.5 -27.5q-29 0 -52.5 16t-35.5 49l-107 303h-737l-156 -307q-29 -57 -90 -57q-39 0 -67.5 25.5t-28.5 64.5zM463 524h590l-242 684zM553 1724 q0 51 33 82t84 31q49 0 83 -31.5t34 -81.5q0 -49 -33 -79.5t-84 -30.5t-84 30.5t-33 79.5zM916 1724q0 49 32.5 81t81.5 32q51 0 84 -30.5t33 -82.5q0 -49 -32.5 -79.5t-84.5 -30.5q-49 0 -81.5 30.5t-32.5 79.5z" />
<glyph unicode="&#xc5;" horiz-adv-x="1503" d="M33 80q0 25 14 51l672 1280q-45 29 -70.5 75t-25.5 99q0 88 61 148.5t152 60.5q88 0 149.5 -60.5t61.5 -148.5q0 -59 -32 -109.5t-83 -74.5l473 -1280q6 -19 6 -37q0 -41 -31.5 -68.5t-70.5 -27.5q-29 0 -52.5 16t-35.5 49l-107 303h-737l-156 -307q-14 -29 -38.5 -44 t-51.5 -15q-39 0 -68.5 25.5t-29.5 64.5zM463 524h590l-242 684zM739 1585q0 -41 28 -70.5t69 -29.5t67.5 28.5t26.5 71.5t-26.5 72t-67.5 29t-69 -30t-28 -71z" />
<glyph unicode="&#xc6;" horiz-adv-x="2035" d="M14 72q0 35 27 73l856 1237q20 29 53 45.5t72 16.5h913q45 0 70 -22.5t25 -59.5q0 -43 -27 -66.5t-76 -23.5h-778l61 -453h635q45 0 69.5 -22.5t24.5 -59.5q0 -43 -25.5 -66.5t-76.5 -23.5h-602l65 -475h535q45 0 69.5 -22.5t24.5 -61.5q0 -43 -26.5 -65.5t-77.5 -22.5 h-606q-41 0 -68 19.5t-31 52.5l-39 284h-667l-207 -309q-20 -31 -47 -46t-56 -15q-37 0 -63.5 24.5t-26.5 61.5zM526 524h533l-90 660z" />
<glyph unicode="&#xc7;" horiz-adv-x="1386" d="M135 666q0 240 87 420t249 277t377 97q150 0 273.5 -41t203.5 -112q45 -33 45 -84q0 -35 -23.5 -61.5t-56.5 -26.5q-29 0 -57 20q-156 129 -381 129q-238 0 -369 -165t-131 -455q0 -244 114 -374t325 -130q100 0 195 33.5t175 95.5q29 20 58 20q33 0 52 -23.5t19 -58.5 q0 -49 -41 -82q-80 -72 -195.5 -114.5t-254.5 -46.5l-15 -70q10 2 35 2q72 0 114 -37t42 -100q0 -80 -68.5 -128t-181.5 -48q-82 0 -150 22q-18 6 -27 19.5t-9 29.5q0 25 19.5 42.5t45.5 9.5q63 -16 117 -17q113 0 113 66q0 25 -17.5 38t-50.5 13q-25 0 -51.5 -8t-36.5 -8 q-18 0 -29.5 12t-7.5 28l29 140q-248 31 -391.5 210t-143.5 466z" />
<glyph unicode="&#xc8;" horiz-adv-x="1198" d="M137 104l99 1239q2 49 30.5 75t77.5 26h756q43 0 67.5 -22.5t24.5 -59.5q0 -88 -102 -88h-652l-37 -455h609q43 0 67.5 -22.5t24.5 -59.5q0 -43 -26.5 -66.5t-76.5 -23.5h-610l-39 -477h649q45 0 70 -22.5t25 -59.5q0 -41 -27 -64.5t-78 -23.5h-756q-51 0 -75.5 26.5 t-20.5 77.5zM500 1823q0 31 24.5 52t55.5 21q45 0 71 -47l123 -213q8 -14 8 -30q0 -20 -16 -35t-39 -15q-33 0 -51 25l-154 186q-23 25 -22 56z" />
<glyph unicode="&#xc9;" horiz-adv-x="1198" d="M137 104l99 1239q2 49 30.5 75t77.5 26h756q43 0 67.5 -22.5t24.5 -59.5q0 -88 -102 -88h-652l-37 -455h609q43 0 67.5 -22.5t24.5 -59.5q0 -43 -26.5 -66.5t-76.5 -23.5h-610l-39 -477h649q45 0 70 -22.5t25 -59.5q0 -41 -27 -64.5t-78 -23.5h-756q-51 0 -75.5 26.5 t-20.5 77.5zM727 1606q0 18 15 39l147 206q29 43 74 43q31 0 54.5 -22.5t23.5 -52.5q0 -35 -31 -64l-178 -174q-27 -25 -54 -25q-23 0 -37 14.5t-14 35.5z" />
<glyph unicode="&#xca;" horiz-adv-x="1198" d="M137 104l99 1239q2 49 30.5 75t77.5 26h756q43 0 67.5 -22.5t24.5 -59.5q0 -88 -102 -88h-652l-37 -455h609q43 0 67.5 -22.5t24.5 -59.5q0 -43 -26.5 -66.5t-76.5 -23.5h-610l-39 -477h649q45 0 70 -22.5t25 -59.5q0 -41 -27 -64.5t-78 -23.5h-756q-51 0 -75.5 26.5 t-20.5 77.5zM496 1616q0 27 20 49l172 188q37 39 92 39q53 0 84 -39l136 -186q16 -23 16 -45q0 -27 -20.5 -46.5t-49.5 -19.5q-41 0 -67 43l-105 168l-145 -176q-29 -35 -68 -35q-27 0 -46 17.5t-19 42.5z" />
<glyph unicode="&#xcb;" horiz-adv-x="1198" d="M137 104l99 1239q2 49 30.5 75t77.5 26h756q43 0 67.5 -22.5t24.5 -59.5q0 -88 -102 -88h-652l-37 -455h609q43 0 67.5 -22.5t24.5 -59.5q0 -43 -26.5 -66.5t-76.5 -23.5h-610l-39 -477h649q45 0 70 -22.5t25 -59.5q0 -41 -27 -64.5t-78 -23.5h-756q-51 0 -75.5 26.5 t-20.5 77.5zM469 1724q0 51 33 82t84 31q49 0 83 -31.5t34 -81.5q0 -49 -33 -79.5t-84 -30.5t-84 30.5t-33 79.5zM832 1724q0 49 32.5 81t81.5 32q51 0 84 -30.5t33 -82.5q0 -49 -32.5 -79.5t-84.5 -30.5q-49 0 -81.5 30.5t-32.5 79.5z" />
<glyph unicode="&#xcc;" horiz-adv-x="546" d="M107 1823q0 31 24.5 52t55.5 21q45 0 71 -47l123 -213q8 -14 8 -30q0 -20 -16 -35t-39 -15q-33 0 -51 25l-154 186q-23 25 -22 56zM137 96l99 1256q2 47 32.5 74.5t77.5 27.5q49 0 77 -28.5t23 -77.5l-98 -1256q-2 -47 -33.5 -74.5t-78.5 -27.5q-48 0 -75.5 28.5 t-23.5 77.5z" />
<glyph unicode="&#xcd;" horiz-adv-x="546" d="M137 96l99 1256q2 47 32.5 74.5t77.5 27.5q49 0 77 -28.5t23 -77.5l-98 -1256q-2 -47 -33.5 -74.5t-78.5 -27.5q-48 0 -75.5 28.5t-23.5 77.5zM334 1606q0 18 15 39l147 206q29 43 74 43q31 0 54.5 -22.5t23.5 -52.5q0 -35 -31 -64l-178 -174q-27 -25 -54 -25 q-23 0 -37 14.5t-14 35.5z" />
<glyph unicode="&#xce;" horiz-adv-x="546" d="M103 1616q0 27 20 49l172 188q37 39 92 39q53 0 84 -39l136 -186q16 -23 16 -45q0 -27 -20.5 -46.5t-49.5 -19.5q-41 0 -67 43l-105 168l-145 -176q-29 -35 -68 -35q-27 0 -46 17.5t-19 42.5zM137 96l99 1256q2 47 32.5 74.5t77.5 27.5q49 0 77 -28.5t23 -77.5l-98 -1256 q-2 -47 -33.5 -74.5t-78.5 -27.5q-48 0 -75.5 28.5t-23.5 77.5z" />
<glyph unicode="&#xcf;" horiz-adv-x="546" d="M76 1724q0 51 33 82t84 31q49 0 83 -31.5t34 -81.5q0 -49 -33 -79.5t-84 -30.5t-84 30.5t-33 79.5zM137 96l99 1256q2 47 32.5 74.5t77.5 27.5q49 0 77 -28.5t23 -77.5l-98 -1256q-2 -47 -33.5 -74.5t-78.5 -27.5q-48 0 -75.5 28.5t-23.5 77.5zM439 1724q0 49 32.5 81 t81.5 32q51 0 84 -30.5t33 -82.5q0 -49 -32.5 -79.5t-84.5 -30.5q-49 0 -81.5 30.5t-32.5 79.5z" />
<glyph unicode="&#xd0;" horiz-adv-x="1564" d="M18 729q0 41 28 63.5t75 22.5h108l41 526q4 49 34 76t77 27h397q326 0 506 -176t180 -490q0 -244 -88 -418t-257 -267t-406 -93h-441q-49 0 -75.5 29.5t-22.5 79.5l43 540h-104q-45 0 -70 21.5t-25 58.5zM391 176h307q275 0 413 153.5t138 450.5q0 240 -124 364t-367 124 h-281l-35 -453h308q47 0 70.5 -21.5t23.5 -60.5q0 -41 -25.5 -62.5t-75.5 -21.5h-315z" />
<glyph unicode="&#xd1;" horiz-adv-x="1521" d="M135 96l101 1254q2 47 31.5 75.5t74.5 28.5q55 0 84 -43l717 -1053l78 996q4 47 32.5 73.5t73.5 26.5q43 0 69.5 -29.5t24.5 -74.5l-100 -1258q-4 -47 -30.5 -74.5t-71.5 -27.5q-57 0 -89 43l-716 1057l-80 -1000q-4 -45 -33 -72.5t-72 -27.5q-45 0 -70.5 29.5 t-23.5 76.5zM522 1669q0 39 24.5 80t71 68.5t103.5 27.5q35 0 69.5 -12t88.5 -39q33 -16 65.5 -28.5t56.5 -12.5q35 0 55.5 13.5t39.5 37.5q16 20 26.5 27.5t24.5 7.5q23 0 35 -15.5t12 -39.5q0 -39 -24.5 -81t-70.5 -69.5t-104 -27.5q-34 0 -69 12t-88 39q-33 16 -66 28.5 t-57 12.5q-33 0 -53.5 -13.5t-43.5 -37.5q-16 -20 -26 -27.5t-25 -7.5q-20 0 -32.5 16.5t-12.5 40.5z" />
<glyph unicode="&#xd2;" horiz-adv-x="1579" d="M135 666q0 240 85 420t239.5 278t359.5 98q203 0 351.5 -82t228.5 -236.5t80 -365.5q0 -240 -85 -420t-240 -278t-361 -98q-203 0 -351.5 81.5t-227.5 236.5t-79 366zM350 664q0 -244 115 -375t328 -131q145 0 250.5 73.5t163 214t57.5 332.5q0 246 -115 377t-328 131 q-219 0 -345 -166t-126 -456zM621 1823q0 31 24.5 52t55.5 21q45 0 71 -47l123 -213q8 -14 8 -30q0 -20 -16 -35t-39 -15q-33 0 -51 25l-154 186q-23 25 -22 56z" />
<glyph unicode="&#xd3;" horiz-adv-x="1579" d="M135 666q0 240 85 420t239.5 278t359.5 98q203 0 351.5 -82t228.5 -236.5t80 -365.5q0 -240 -85 -420t-240 -278t-361 -98q-203 0 -351.5 81.5t-227.5 236.5t-79 366zM350 664q0 -244 115 -375t328 -131q145 0 250.5 73.5t163 214t57.5 332.5q0 246 -115 377t-328 131 q-219 0 -345 -166t-126 -456zM848 1606q0 18 15 39l147 206q29 43 74 43q31 0 54.5 -22.5t23.5 -52.5q0 -35 -31 -64l-178 -174q-27 -25 -54 -25q-23 0 -37 14.5t-14 35.5z" />
<glyph unicode="&#xd4;" horiz-adv-x="1579" d="M135 666q0 240 85 420t239.5 278t359.5 98q203 0 351.5 -82t228.5 -236.5t80 -365.5q0 -240 -85 -420t-240 -278t-361 -98q-203 0 -351.5 81.5t-227.5 236.5t-79 366zM350 664q0 -244 115 -375t328 -131q145 0 250.5 73.5t163 214t57.5 332.5q0 246 -115 377t-328 131 q-219 0 -345 -166t-126 -456zM617 1616q0 27 20 49l172 188q37 39 92 39q53 0 84 -39l136 -186q16 -23 16 -45q0 -27 -20.5 -46.5t-49.5 -19.5q-41 0 -67 43l-105 168l-145 -176q-29 -35 -68 -35q-27 0 -46 17.5t-19 42.5z" />
<glyph unicode="&#xd5;" horiz-adv-x="1579" d="M135 666q0 240 85 420t239.5 278t359.5 98q203 0 351.5 -82t228.5 -236.5t80 -365.5q0 -240 -85 -420t-240 -278t-361 -98q-203 0 -351.5 81.5t-227.5 236.5t-79 366zM350 664q0 -244 115 -375t328 -131q145 0 250.5 73.5t163 214t57.5 332.5q0 246 -115 377t-328 131 q-219 0 -345 -166t-126 -456zM551 1669q0 39 24.5 80t71 68.5t103.5 27.5q35 0 69.5 -12t88.5 -39q33 -16 65.5 -28.5t56.5 -12.5q35 0 55.5 13.5t39.5 37.5q16 20 26.5 27.5t24.5 7.5q23 0 35 -15.5t12 -39.5q0 -39 -24.5 -81t-70.5 -69.5t-104 -27.5q-34 0 -69 12t-88 39 q-33 16 -66 28.5t-57 12.5q-33 0 -53.5 -13.5t-43.5 -37.5q-16 -20 -26 -27.5t-25 -7.5q-20 0 -32.5 16.5t-12.5 40.5z" />
<glyph unicode="&#xd6;" horiz-adv-x="1579" d="M135 666q0 240 85 420t239.5 278t359.5 98q203 0 351.5 -82t228.5 -236.5t80 -365.5q0 -240 -85 -420t-240 -278t-361 -98q-203 0 -351.5 81.5t-227.5 236.5t-79 366zM350 664q0 -244 115 -375t328 -131q145 0 250.5 73.5t163 214t57.5 332.5q0 246 -115 377t-328 131 q-219 0 -345 -166t-126 -456zM590 1724q0 51 33 82t84 31q49 0 83 -31.5t34 -81.5q0 -49 -33 -79.5t-84 -30.5t-84 30.5t-33 79.5zM953 1724q0 49 32.5 81t81.5 32q51 0 84 -30.5t33 -82.5q0 -49 -32.5 -79.5t-84.5 -30.5q-49 0 -81.5 30.5t-32.5 79.5z" />
<glyph unicode="&#xd8;" horiz-adv-x="1579" d="M135 666q0 240 85 420t239.5 278t359.5 98q195 0 336 -73l70 106q29 43 73 43q31 0 54.5 -22.5t23.5 -53.5q0 -29 -16 -53l-74 -113q94 -90 143.5 -221t49.5 -297q0 -240 -85 -420t-240 -278t-361 -98q-188 0 -332 71l-70 -104q-29 -43 -74 -43q-31 0 -54 22.5t-23 53.5 q0 29 16 53l74 110q-94 90 -144.5 221.5t-50.5 299.5zM350 664q0 -216 92 -349l609 918q-96 53 -230 53q-219 0 -345 -166t-126 -456zM563 209q98 -51 230 -51q145 0 250.5 73.5t163 214t57.5 332.5q0 219 -93 348z" />
<glyph unicode="&#xd9;" horiz-adv-x="1490" d="M160 504q0 27 4 80l61 768q2 45 33 73.5t78 28.5t73.5 -29.5t24.5 -76.5l-61 -766q-2 -23 -2 -66q0 -360 360 -360q182 0 281.5 95t115.5 300l64 801q2 45 32.5 73.5t75.5 28.5q47 0 75 -28.5t24 -77.5l-62 -779q-23 -293 -177 -439t-437 -146q-279 0 -421 133t-142 387z M578 1823q0 31 24.5 52t55.5 21q45 0 71 -47l123 -213q8 -14 8 -30q0 -20 -16 -35t-39 -15q-33 0 -51 25l-154 186q-23 25 -22 56z" />
<glyph unicode="&#xda;" horiz-adv-x="1490" d="M160 504q0 27 4 80l61 768q2 45 33 73.5t78 28.5t73.5 -29.5t24.5 -76.5l-61 -766q-2 -23 -2 -66q0 -360 360 -360q182 0 281.5 95t115.5 300l64 801q2 45 32.5 73.5t75.5 28.5q47 0 75 -28.5t24 -77.5l-62 -779q-23 -293 -177 -439t-437 -146q-279 0 -421 133t-142 387z M805 1606q0 18 15 39l147 206q29 43 74 43q31 0 54.5 -22.5t23.5 -52.5q0 -35 -31 -64l-178 -174q-27 -25 -54 -25q-23 0 -37 14.5t-14 35.5z" />
<glyph unicode="&#xdb;" horiz-adv-x="1490" d="M160 504q0 27 4 80l61 768q2 45 33 73.5t78 28.5t73.5 -29.5t24.5 -76.5l-61 -766q-2 -23 -2 -66q0 -360 360 -360q182 0 281.5 95t115.5 300l64 801q2 45 32.5 73.5t75.5 28.5q47 0 75 -28.5t24 -77.5l-62 -779q-23 -293 -177 -439t-437 -146q-279 0 -421 133t-142 387z M574 1616q0 27 20 49l172 188q37 39 92 39q53 0 84 -39l136 -186q16 -23 16 -45q0 -27 -20.5 -46.5t-49.5 -19.5q-41 0 -67 43l-105 168l-145 -176q-29 -35 -68 -35q-27 0 -46 17.5t-19 42.5z" />
<glyph unicode="&#xdc;" horiz-adv-x="1490" d="M160 504q0 27 4 80l61 768q2 45 33 73.5t78 28.5t73.5 -29.5t24.5 -76.5l-61 -766q-2 -23 -2 -66q0 -360 360 -360q182 0 281.5 95t115.5 300l64 801q2 45 32.5 73.5t75.5 28.5q47 0 75 -28.5t24 -77.5l-62 -779q-23 -293 -177 -439t-437 -146q-279 0 -421 133t-142 387z M547 1724q0 51 33 82t84 31q49 0 83 -31.5t34 -81.5q0 -49 -33 -79.5t-84 -30.5t-84 30.5t-33 79.5zM910 1724q0 49 32.5 81t81.5 32q51 0 84 -30.5t33 -82.5q0 -49 -32.5 -79.5t-84.5 -30.5q-49 0 -81.5 30.5t-32.5 79.5z" />
<glyph unicode="&#xdd;" horiz-adv-x="1251" d="M88 1354q0 41 33 70.5t74 29.5q47 0 73 -43l381 -563l469 563q37 45 84 45q37 0 64.5 -26.5t27.5 -63.5q0 -39 -28 -70l-521 -622l-45 -582q-4 -49 -35.5 -75.5t-74.5 -26.5q-47 0 -76 27.5t-27 78.5l48 576l-429 626q-18 29 -18 56zM684 1606q0 18 15 39l147 206 q29 43 74 43q31 0 54.5 -22.5t23.5 -52.5q0 -35 -31 -64l-178 -174q-27 -25 -54 -25q-23 0 -37 14.5t-14 35.5z" />
<glyph unicode="&#xde;" horiz-adv-x="1335" d="M137 96l99 1256q2 47 32.5 74.5t77.5 27.5t73.5 -28.5t24.5 -77.5l-16 -213h399q211 0 327 -97.5t116 -279.5q0 -201 -125 -312.5t-359 -111.5h-421l-19 -242q-4 -47 -33.5 -74.5t-76.5 -27.5t-75 28.5t-24 77.5zM379 502h393q295 0 295 246q0 113 -64.5 165t-195.5 52 h-393z" />
<glyph unicode="&#xdf;" horiz-adv-x="1298" d="M111 88l71 877q18 238 150.5 364.5t363.5 126.5q168 0 265.5 -68.5t97.5 -187.5q0 -90 -45 -152.5t-131 -140.5q-61 -53 -91 -90t-30 -80q0 -53 45 -82.5t139 -62.5q88 -33 144.5 -62.5t96.5 -84t40 -140.5q0 -145 -111.5 -232t-296.5 -87q-96 0 -186 26.5t-152 73.5 q-39 27 -39 74q0 33 21.5 58.5t54.5 25.5q27 0 49 -15q70 -45 132.5 -64.5t136.5 -19.5q90 0 142 39t52 105q0 55 -46 84.5t-146 66.5q-88 31 -143.5 58.5t-94.5 78t-39 130.5q0 84 43 143t125 131q68 57 100.5 99t32.5 94q0 59 -46 91.5t-128 32.5q-272 0 -297 -317 l-74 -893q-4 -47 -33.5 -72.5t-76.5 -25.5t-74 26.5t-22 71.5z" />
<glyph unicode="&#xe0;" horiz-adv-x="1095" d="M92 274q0 115 59.5 181.5t189.5 97.5t349 31h74l4 51q8 117 -41 171t-160 54q-135 0 -299 -90q-18 -10 -41 -10q-31 0 -51 22.5t-20 53.5q0 49 51 82q74 49 175 77.5t206 28.5q379 0 379 -352q0 -39 -2 -60l-41 -528q-2 -45 -30 -69.5t-73 -24.5t-71.5 27.5t-22.5 70.5 l4 70q-43 -84 -118.5 -128t-176.5 -44q-150 0 -247 80.5t-97 207.5zM299 295q0 -72 50 -114t136 -42q107 0 180.5 76t84.5 195l4 57h-58q-152 0 -237.5 -16.5t-122.5 -53.5t-37 -102zM354 1479q0 35 26.5 58.5t59.5 23.5q27 0 50.5 -15.5t35.5 -48.5l123 -293q6 -14 6 -28 q0 -25 -17.5 -39.5t-41.5 -14.5q-41 0 -64 35l-160 264q-18 31 -18 58z" />
<glyph unicode="&#xe1;" horiz-adv-x="1095" d="M92 274q0 115 59.5 181.5t189.5 97.5t349 31h74l4 51q8 117 -41 171t-160 54q-135 0 -299 -90q-18 -10 -41 -10q-31 0 -51 22.5t-20 53.5q0 49 51 82q74 49 175 77.5t206 28.5q379 0 379 -352q0 -39 -2 -60l-41 -528q-2 -45 -30 -69.5t-73 -24.5t-71.5 27.5t-22.5 70.5 l4 70q-43 -84 -118.5 -128t-176.5 -44q-150 0 -247 80.5t-97 207.5zM299 295q0 -72 50 -114t136 -42q107 0 180.5 76t84.5 195l4 57h-58q-152 0 -237.5 -16.5t-122.5 -53.5t-37 -102zM579 1174q0 18 12 38l216 297q33 49 79 50q37 0 65 -26t28 -60q0 -37 -31 -68l-260 -256 q-27 -27 -56 -27q-23 0 -38 14.5t-15 37.5z" />
<glyph unicode="&#xe2;" horiz-adv-x="1095" d="M92 274q0 115 59.5 181.5t189.5 97.5t349 31h74l4 51q8 117 -41 171t-160 54q-135 0 -299 -90q-18 -10 -41 -10q-31 0 -51 22.5t-20 53.5q0 49 51 82q74 49 175 77.5t206 28.5q379 0 379 -352q0 -39 -2 -60l-41 -528q-2 -45 -30 -69.5t-73 -24.5t-71.5 27.5t-22.5 70.5 l4 70q-43 -84 -118.5 -128t-176.5 -44q-150 0 -247 80.5t-97 207.5zM299 295q0 -72 50 -114t136 -42q107 0 180.5 76t84.5 195l4 57h-58q-152 0 -237.5 -16.5t-122.5 -53.5t-37 -102zM352 1188q0 25 18 49l176 262q20 27 47 42t56 15q27 0 51.5 -14t38.5 -43l139 -268 q10 -20 10 -37q0 -31 -23.5 -51.5t-55.5 -20.5q-23 0 -41.5 12.5t-28.5 36.5l-102 236l-140 -240q-26 -47 -71 -47q-31 0 -52.5 19.5t-21.5 48.5z" />
<glyph unicode="&#xe3;" horiz-adv-x="1095" d="M92 274q0 115 59.5 181.5t189.5 97.5t349 31h74l4 51q8 117 -41 171t-160 54q-135 0 -299 -90q-18 -10 -41 -10q-31 0 -51 22.5t-20 53.5q0 49 51 82q74 49 175 77.5t206 28.5q379 0 379 -352q0 -39 -2 -60l-41 -528q-2 -45 -30 -69.5t-73 -24.5t-71.5 27.5t-22.5 70.5 l4 70q-43 -84 -118.5 -128t-176.5 -44q-150 0 -247 80.5t-97 207.5zM292 1274q0 41 28 89t74 81t99 33q41 0 78 -17.5t86 -50.5q39 -27 64.5 -40t50.5 -13q33 0 53 17.5t41 47.5q20 27 30.5 37t26.5 10q20 0 31.5 -16t11.5 -43q0 -41 -27.5 -89t-73.5 -81t-99 -33 q-41 0 -77 17.5t-87 52.5q-41 27 -65.5 39t-47.5 12q-33 0 -53.5 -17.5t-40.5 -47.5q-20 -27 -30.5 -37.5t-26.5 -10.5q-20 0 -33 16.5t-13 43.5zM299 295q0 -72 50 -114t136 -42q107 0 180.5 76t84.5 195l4 57h-58q-152 0 -237.5 -16.5t-122.5 -53.5t-37 -102z" />
<glyph unicode="&#xe4;" horiz-adv-x="1095" d="M92 274q0 115 59.5 181.5t189.5 97.5t349 31h74l4 51q8 117 -41 171t-160 54q-135 0 -299 -90q-18 -10 -41 -10q-31 0 -51 22.5t-20 53.5q0 49 51 82q74 49 175 77.5t206 28.5q379 0 379 -352q0 -39 -2 -60l-41 -528q-2 -45 -30 -69.5t-73 -24.5t-71.5 27.5t-22.5 70.5 l4 70q-43 -84 -118.5 -128t-176.5 -44q-150 0 -247 80.5t-97 207.5zM299 295q0 -72 50 -114t136 -42q107 0 180.5 76t84.5 195l4 57h-58q-152 0 -237.5 -16.5t-122.5 -53.5t-37 -102zM333 1339q0 49 33 80t84 31q49 0 83 -30.5t34 -80.5q0 -51 -33 -81.5t-84 -30.5t-84 30.5 t-33 81.5zM696 1339q0 49 32.5 80t82.5 31q51 0 83.5 -30.5t32.5 -80.5q0 -51 -32.5 -81.5t-83.5 -30.5q-50 0 -82.5 31.5t-32.5 80.5z" />
<glyph unicode="&#xe5;" horiz-adv-x="1095" d="M92 274q0 115 59.5 181.5t189.5 97.5t349 31h74l4 51q8 117 -41 171t-160 54q-135 0 -299 -90q-18 -10 -41 -10q-31 0 -51 22.5t-20 53.5q0 49 51 82q74 49 175 77.5t206 28.5q379 0 379 -352q0 -39 -2 -60l-41 -528q-2 -45 -30 -69.5t-73 -24.5t-71.5 27.5t-22.5 70.5 l4 70q-43 -84 -118.5 -128t-176.5 -44q-150 0 -247 80.5t-97 207.5zM299 295q0 -72 50 -114t136 -42q107 0 180.5 76t84.5 195l4 57h-58q-152 0 -237.5 -16.5t-122.5 -53.5t-37 -102zM417 1339q0 88 61.5 147.5t149.5 59.5q90 0 151.5 -59.5t61.5 -147.5t-61.5 -148.5 t-151.5 -60.5q-88 0 -149.5 60.5t-61.5 148.5zM534 1339q0 -43 26.5 -71.5t67.5 -28.5q43 0 70 28.5t27 71.5t-27 71t-70 28q-41 0 -67.5 -29t-26.5 -70z" />
<glyph unicode="&#xe6;" horiz-adv-x="1736" d="M92 274q0 113 59.5 180.5t189.5 98.5t349 31h76l4 51l2 37q0 96 -49 142t-154 46q-139 0 -301 -90q-20 -10 -43 -10q-31 0 -49 21.5t-18 52.5q0 51 49 84q74 49 177 77.5t214 28.5q231 0 315 -152q61 74 148.5 113t193.5 39q193 0 299.5 -123t106.5 -352 q0 -41 -21.5 -62.5t-58.5 -21.5h-623q2 -152 78 -235t219 -83q129 0 252 82q23 14 47 15q29 0 46.5 -21.5t17.5 -52.5q0 -49 -41 -82q-55 -45 -149.5 -73.5t-184.5 -28.5q-147 0 -251.5 61.5t-157.5 173.5q-53 -113 -156 -174t-232 -61q-158 0 -256 80.5t-98 207.5zM299 291 q0 -68 50 -110t132 -42q109 0 185.5 78t87.5 203l4 47h-62q-160 0 -245.5 -17.5t-118.5 -55.5t-33 -103zM967 584h514q4 139 -56.5 213.5t-169.5 74.5q-120 0 -194 -73.5t-94 -214.5z" />
<glyph unicode="&#xe7;" horiz-adv-x="989" d="M86 469q0 168 63.5 293t182.5 193.5t278 68.5q98 0 185.5 -26.5t142.5 -69.5q39 -27 39 -76q0 -35 -21.5 -61.5t-52.5 -26.5q-18 0 -39 12q-121 82 -248 82q-151 0 -233 -102.5t-82 -286.5q0 -150 74 -233.5t211 -83.5q68 0 124 19t111 60q25 12 43 13q29 0 47.5 -22.5 t18.5 -53.5q0 -49 -37 -74q-57 -49 -141 -77.5t-177 -30.5l-14 -72q10 2 35 2q72 0 114 -37t42 -100q0 -80 -69 -128t-181 -48q-82 0 -150 22q-18 6 -27.5 19.5t-9.5 29.5q0 25 19.5 42.5t46.5 9.5q63 -16 117 -17q113 0 112 66q0 25 -17.5 38t-49.5 13q-25 0 -51.5 -8 t-36.5 -8q-18 0 -29.5 12t-7.5 28l31 148q-170 35 -266.5 159t-96.5 312z" />
<glyph unicode="&#xe8;" horiz-adv-x="1083" d="M86 471q0 162 62.5 288t175 195.5t260.5 69.5q205 0 314.5 -122t109.5 -353q0 -41 -21.5 -62.5t-58.5 -21.5h-637q2 -152 77.5 -235t219.5 -83q143 0 266 82q23 14 45 15q29 0 47.5 -22.5t18.5 -53.5q0 -47 -41 -80q-55 -45 -152.5 -73.5t-196.5 -28.5q-147 0 -257.5 59 t-171 170t-60.5 256zM299 584h528q4 141 -58 214.5t-177 73.5q-125 0 -199 -73.5t-94 -214.5zM356 1479q0 35 26.5 58.5t59.5 23.5q27 0 50.5 -15.5t35.5 -48.5l123 -293q6 -14 6 -28q0 -25 -17.5 -39.5t-41.5 -14.5q-41 0 -64 35l-160 264q-18 31 -18 58z" />
<glyph unicode="&#xe9;" horiz-adv-x="1083" d="M86 471q0 162 62.5 288t175 195.5t260.5 69.5q205 0 314.5 -122t109.5 -353q0 -41 -21.5 -62.5t-58.5 -21.5h-637q2 -152 77.5 -235t219.5 -83q143 0 266 82q23 14 45 15q29 0 47.5 -22.5t18.5 -53.5q0 -47 -41 -80q-55 -45 -152.5 -73.5t-196.5 -28.5q-147 0 -257.5 59 t-171 170t-60.5 256zM299 584h528q4 141 -58 214.5t-177 73.5q-125 0 -199 -73.5t-94 -214.5zM581 1174q0 18 12 38l216 297q33 49 79 50q37 0 65 -26t28 -60q0 -37 -31 -68l-260 -256q-27 -27 -56 -27q-23 0 -38 14.5t-15 37.5z" />
<glyph unicode="&#xea;" horiz-adv-x="1083" d="M86 471q0 162 62.5 288t175 195.5t260.5 69.5q205 0 314.5 -122t109.5 -353q0 -41 -21.5 -62.5t-58.5 -21.5h-637q2 -152 77.5 -235t219.5 -83q143 0 266 82q23 14 45 15q29 0 47.5 -22.5t18.5 -53.5q0 -47 -41 -80q-55 -45 -152.5 -73.5t-196.5 -28.5q-147 0 -257.5 59 t-171 170t-60.5 256zM299 584h528q4 141 -58 214.5t-177 73.5q-125 0 -199 -73.5t-94 -214.5zM354 1188q0 25 18 49l176 262q20 27 47 42t56 15q27 0 51.5 -14t38.5 -43l139 -268q10 -20 10 -37q0 -31 -23.5 -51.5t-55.5 -20.5q-23 0 -41.5 12.5t-28.5 36.5l-102 236 l-140 -240q-26 -47 -71 -47q-31 0 -52.5 19.5t-21.5 48.5z" />
<glyph unicode="&#xeb;" horiz-adv-x="1083" d="M86 471q0 162 62.5 288t175 195.5t260.5 69.5q205 0 314.5 -122t109.5 -353q0 -41 -21.5 -62.5t-58.5 -21.5h-637q2 -152 77.5 -235t219.5 -83q143 0 266 82q23 14 45 15q29 0 47.5 -22.5t18.5 -53.5q0 -47 -41 -80q-55 -45 -152.5 -73.5t-196.5 -28.5q-147 0 -257.5 59 t-171 170t-60.5 256zM299 584h528q4 141 -58 214.5t-177 73.5q-125 0 -199 -73.5t-94 -214.5zM335 1339q0 49 33 80t84 31q49 0 83 -30.5t34 -80.5q0 -51 -33 -81.5t-84 -30.5t-84 30.5t-33 81.5zM698 1339q0 49 32.5 80t82.5 31q51 0 83.5 -30.5t32.5 -80.5 q0 -51 -32.5 -81.5t-83.5 -30.5q-50 0 -82.5 31.5t-32.5 80.5z" />
<glyph unicode="&#xec;" horiz-adv-x="495" d="M39 1479q0 35 26.5 58.5t59.5 23.5q27 0 50.5 -15.5t35.5 -48.5l123 -293q6 -14 6 -28q0 -25 -17.5 -39.5t-41.5 -14.5q-41 0 -64 35l-160 264q-18 31 -18 58zM111 88l67 836q2 47 35 71.5t76 24.5q45 0 71.5 -24.5t24.5 -71.5l-68 -836q-4 -51 -34.5 -74.5t-75.5 -23.5 t-73 24.5t-23 73.5z" />
<glyph unicode="&#xed;" horiz-adv-x="495" d="M111 88l67 836q2 47 35 71.5t76 24.5q45 0 71.5 -24.5t24.5 -71.5l-68 -836q-4 -51 -34.5 -74.5t-75.5 -23.5t-73 24.5t-23 73.5zM264 1174q0 18 12 38l216 297q33 49 79 50q37 0 65 -26t28 -60q0 -37 -31 -68l-260 -256q-27 -27 -56 -27q-23 0 -38 14.5t-15 37.5z" />
<glyph unicode="&#xee;" horiz-adv-x="495" d="M37 1188q0 25 18 49l176 262q20 27 47 42t56 15q27 0 51.5 -14t38.5 -43l139 -268q10 -20 10 -37q0 -31 -23.5 -51.5t-55.5 -20.5q-23 0 -41.5 12.5t-28.5 36.5l-102 236l-140 -240q-26 -47 -71 -47q-31 0 -52.5 19.5t-21.5 48.5zM111 88l67 836q2 47 35 71.5t76 24.5 q45 0 71.5 -24.5t24.5 -71.5l-68 -836q-4 -51 -34.5 -74.5t-75.5 -23.5t-73 24.5t-23 73.5z" />
<glyph unicode="&#xef;" horiz-adv-x="495" d="M18 1339q0 49 33 80t84 31q49 0 83 -30.5t34 -80.5q0 -51 -33 -81.5t-84 -30.5t-84 30.5t-33 81.5zM111 88l67 836q2 47 35 71.5t76 24.5q45 0 71.5 -24.5t24.5 -71.5l-68 -836q-4 -51 -34.5 -74.5t-75.5 -23.5t-73 24.5t-23 73.5zM381 1339q0 49 32.5 80t82.5 31 q51 0 83.5 -30.5t32.5 -80.5q0 -51 -32.5 -81.5t-83.5 -30.5q-50 0 -82.5 31.5t-32.5 80.5z" />
<glyph unicode="&#xf0;" horiz-adv-x="1165" d="M82 432q0 150 62.5 263.5t174 175t252.5 61.5q104 0 187.5 -37t134.5 -107q-25 186 -148 324l-294 -96q-16 -4 -23 -4q-27 0 -43 18.5t-16 42.5q0 20 11 35.5t34 24.5l225 73q-86 59 -203 99q-31 8 -47 29.5t-16 45.5q0 31 22.5 53.5t61.5 22.5q10 0 30 -4 q205 -53 349 -182l215 69q16 4 24 4q27 0 43.5 -18t16.5 -43q0 -20 -11.5 -35.5t-33.5 -23.5l-162 -54q162 -211 162 -514q0 -342 -142.5 -505.5t-384.5 -163.5q-145 0 -253.5 54t-168 155.5t-59.5 236.5zM291 430q0 -131 70.5 -205.5t203.5 -74.5q142 0 217.5 93t75.5 253 q0 127 -71.5 200.5t-200.5 73.5q-141 0 -218 -93t-77 -247z" />
<glyph unicode="&#xf1;" horiz-adv-x="1179" d="M111 88l67 838q2 43 35 68.5t78 25.5q43 0 67.5 -24.5t22.5 -67.5l-6 -72q51 80 138 124t196 44q168 0 255 -88t87 -260q0 -41 -2 -62l-41 -526q-4 -47 -34 -72.5t-77 -25.5t-73.5 25.5t-22.5 72.5l41 516q2 14 2 43q0 209 -201 209q-127 0 -201.5 -75.5t-85.5 -211.5 l-39 -481q-4 -47 -33.5 -72.5t-76.5 -25.5t-72.5 25.5t-23.5 72.5zM321 1274q0 41 28 89t74 81t99 33q41 0 78 -17.5t86 -50.5q39 -27 64.5 -40t50.5 -13q33 0 53 17.5t41 47.5q20 27 30.5 37t26.5 10q20 0 31.5 -16t11.5 -43q0 -41 -27.5 -89t-73.5 -81t-99 -33 q-41 0 -77 17.5t-87 52.5q-41 27 -65.5 39t-47.5 12q-33 0 -53.5 -17.5t-40.5 -47.5q-20 -27 -30.5 -37.5t-26.5 -10.5q-20 0 -33 16.5t-13 43.5z" />
<glyph unicode="&#xf2;" horiz-adv-x="1155" d="M86 471q0 168 62.5 293t176 192.5t263.5 67.5q147 0 255.5 -60.5t168 -170t59.5 -256.5q0 -168 -62.5 -292t-176 -191.5t-265.5 -67.5q-145 0 -253.5 59t-168 170t-59.5 256zM295 465q0 -156 70.5 -235.5t203.5 -79.5q142 0 217.5 106t75.5 287q0 154 -70.5 234.5 t-201.5 80.5q-143 0 -219 -106.5t-76 -286.5zM369 1479q0 35 26.5 58.5t59.5 23.5q27 0 50.5 -15.5t35.5 -48.5l123 -293q6 -14 6 -28q0 -25 -17.5 -39.5t-41.5 -14.5q-41 0 -64 35l-160 264q-18 31 -18 58z" />
<glyph unicode="&#xf3;" horiz-adv-x="1155" d="M86 471q0 168 62.5 293t176 192.5t263.5 67.5q147 0 255.5 -60.5t168 -170t59.5 -256.5q0 -168 -62.5 -292t-176 -191.5t-265.5 -67.5q-145 0 -253.5 59t-168 170t-59.5 256zM295 465q0 -156 70.5 -235.5t203.5 -79.5q142 0 217.5 106t75.5 287q0 154 -70.5 234.5 t-201.5 80.5q-143 0 -219 -106.5t-76 -286.5zM594 1174q0 18 12 38l216 297q33 49 79 50q37 0 65 -26t28 -60q0 -37 -31 -68l-260 -256q-27 -27 -56 -27q-23 0 -38 14.5t-15 37.5z" />
<glyph unicode="&#xf4;" horiz-adv-x="1155" d="M86 471q0 168 62.5 293t176 192.5t263.5 67.5q147 0 255.5 -60.5t168 -170t59.5 -256.5q0 -168 -62.5 -292t-176 -191.5t-265.5 -67.5q-145 0 -253.5 59t-168 170t-59.5 256zM295 465q0 -156 70.5 -235.5t203.5 -79.5q142 0 217.5 106t75.5 287q0 154 -70.5 234.5 t-201.5 80.5q-143 0 -219 -106.5t-76 -286.5zM367 1188q0 25 18 49l176 262q20 27 47 42t56 15q27 0 51.5 -14t38.5 -43l139 -268q10 -20 10 -37q0 -31 -23.5 -51.5t-55.5 -20.5q-23 0 -41.5 12.5t-28.5 36.5l-102 236l-140 -240q-26 -47 -71 -47q-31 0 -52.5 19.5 t-21.5 48.5z" />
<glyph unicode="&#xf5;" horiz-adv-x="1155" d="M86 471q0 168 62.5 293t176 192.5t263.5 67.5q147 0 255.5 -60.5t168 -170t59.5 -256.5q0 -168 -62.5 -292t-176 -191.5t-265.5 -67.5q-145 0 -253.5 59t-168 170t-59.5 256zM295 465q0 -156 70.5 -235.5t203.5 -79.5q142 0 217.5 106t75.5 287q0 154 -70.5 234.5 t-201.5 80.5q-143 0 -219 -106.5t-76 -286.5zM307 1274q0 41 28 89t74 81t99 33q41 0 78 -17.5t86 -50.5q39 -27 64.5 -40t50.5 -13q33 0 53 17.5t41 47.5q20 27 30.5 37t26.5 10q20 0 31.5 -16t11.5 -43q0 -41 -27.5 -89t-73.5 -81t-99 -33q-41 0 -77 17.5t-87 52.5 q-41 27 -65.5 39t-47.5 12q-33 0 -53.5 -17.5t-40.5 -47.5q-20 -27 -30.5 -37.5t-26.5 -10.5q-20 0 -33 16.5t-13 43.5z" />
<glyph unicode="&#xf6;" horiz-adv-x="1155" d="M86 471q0 168 62.5 293t176 192.5t263.5 67.5q147 0 255.5 -60.5t168 -170t59.5 -256.5q0 -168 -62.5 -292t-176 -191.5t-265.5 -67.5q-145 0 -253.5 59t-168 170t-59.5 256zM295 465q0 -156 70.5 -235.5t203.5 -79.5q142 0 217.5 106t75.5 287q0 154 -70.5 234.5 t-201.5 80.5q-143 0 -219 -106.5t-76 -286.5zM348 1339q0 49 33 80t84 31q49 0 83 -30.5t34 -80.5q0 -51 -33 -81.5t-84 -30.5t-84 30.5t-33 81.5zM711 1339q0 49 32.5 80t82.5 31q51 0 83.5 -30.5t32.5 -80.5q0 -51 -32.5 -81.5t-83.5 -30.5q-50 0 -82.5 31.5t-32.5 80.5z " />
<glyph unicode="&#xf7;" d="M123 584q0 33 22.5 54t57.5 21h311q10 31 37 50.5t61 19.5q35 0 61.5 -19.5t37.5 -50.5h338q32 0 51.5 -21.5t19.5 -53.5q0 -33 -23.5 -54.5t-58.5 -21.5h-333q-12 -31 -39 -50.5t-60 -19.5t-60.5 19.5t-39.5 50.5h-311q-33 0 -52.5 21.5t-19.5 54.5z" />
<glyph unicode="&#xf8;" horiz-adv-x="1155" d="M86 471q0 168 62.5 293t176 192.5t263.5 67.5q129 0 229 -47l51 80q25 37 62 37q25 0 43 -16.5t18 -41.5q0 -23 -14 -43l-55 -84q71 -65 110 -160.5t39 -211.5q0 -168 -62.5 -292t-176 -191.5t-265.5 -67.5q-123 0 -225 45l-53 -80q-23 -35 -60 -35q-25 0 -44 16.5 t-19 40.5q0 18 14 39l58 86q-74 66 -113 160t-39 213zM293 465q0 -129 49 -209l379 578q-53 27 -131 26q-143 0 -220 -107.5t-77 -287.5zM436 174q53 -27 133 -27q144 0 220.5 106.5t76.5 289.5q0 131 -51 207z" />
<glyph unicode="&#xf9;" horiz-adv-x="1165" d="M127 336q0 37 2 55l43 529q4 47 35 73.5t76 26.5q47 0 73.5 -26.5t22.5 -73.5l-43 -517l-2 -36q0 -213 198 -213q121 0 193 75.5t82 208.5l41 482q2 47 32.5 73.5t77.5 26.5q48 0 73.5 -25.5t23.5 -74.5l-68 -836q-2 -43 -33.5 -68.5t-76.5 -25.5q-43 0 -69 23.5 t-24 66.5l7 72q-51 -80 -136.5 -123t-189.5 -43q-166 0 -252 89t-86 261zM373 1479q0 35 26.5 58.5t59.5 23.5q27 0 50.5 -15.5t35.5 -48.5l123 -293q6 -14 6 -28q0 -25 -17.5 -39.5t-41.5 -14.5q-41 0 -64 35l-160 264q-18 31 -18 58z" />
<glyph unicode="&#xfa;" horiz-adv-x="1165" d="M127 336q0 37 2 55l43 529q4 47 35 73.5t76 26.5q47 0 73.5 -26.5t22.5 -73.5l-43 -517l-2 -36q0 -213 198 -213q121 0 193 75.5t82 208.5l41 482q2 47 32.5 73.5t77.5 26.5q48 0 73.5 -25.5t23.5 -74.5l-68 -836q-2 -43 -33.5 -68.5t-76.5 -25.5q-43 0 -69 23.5 t-24 66.5l7 72q-51 -80 -136.5 -123t-189.5 -43q-166 0 -252 89t-86 261zM598 1174q0 18 12 38l216 297q33 49 79 50q37 0 65 -26t28 -60q0 -37 -31 -68l-260 -256q-27 -27 -56 -27q-23 0 -38 14.5t-15 37.5z" />
<glyph unicode="&#xfb;" horiz-adv-x="1165" d="M127 336q0 37 2 55l43 529q4 47 35 73.5t76 26.5q47 0 73.5 -26.5t22.5 -73.5l-43 -517l-2 -36q0 -213 198 -213q121 0 193 75.5t82 208.5l41 482q2 47 32.5 73.5t77.5 26.5q48 0 73.5 -25.5t23.5 -74.5l-68 -836q-2 -43 -33.5 -68.5t-76.5 -25.5q-43 0 -69 23.5 t-24 66.5l7 72q-51 -80 -136.5 -123t-189.5 -43q-166 0 -252 89t-86 261zM371 1188q0 25 18 49l176 262q20 27 47 42t56 15q27 0 51.5 -14t38.5 -43l139 -268q10 -20 10 -37q0 -31 -23.5 -51.5t-55.5 -20.5q-23 0 -41.5 12.5t-28.5 36.5l-102 236l-140 -240q-26 -47 -71 -47 q-31 0 -52.5 19.5t-21.5 48.5z" />
<glyph unicode="&#xfc;" horiz-adv-x="1165" d="M127 336q0 37 2 55l43 529q4 47 35 73.5t76 26.5q47 0 73.5 -26.5t22.5 -73.5l-43 -517l-2 -36q0 -213 198 -213q121 0 193 75.5t82 208.5l41 482q2 47 32.5 73.5t77.5 26.5q48 0 73.5 -25.5t23.5 -74.5l-68 -836q-2 -43 -33.5 -68.5t-76.5 -25.5q-43 0 -69 23.5 t-24 66.5l7 72q-51 -80 -136.5 -123t-189.5 -43q-166 0 -252 89t-86 261zM352 1339q0 49 33 80t84 31q49 0 83 -30.5t34 -80.5q0 -51 -33 -81.5t-84 -30.5t-84 30.5t-33 81.5zM715 1339q0 49 32.5 80t82.5 31q51 0 83.5 -30.5t32.5 -80.5q0 -51 -32.5 -81.5t-83.5 -30.5 q-50 0 -82.5 31.5t-32.5 80.5z" />
<glyph unicode="&#xfd;" horiz-adv-x="1064" d="M70 918q0 39 33.5 66.5t74.5 27.5q29 0 51.5 -15.5t32.5 -46.5l250 -719l367 723q29 58 86 58q39 0 67.5 -24.5t28.5 -61.5q0 -20 -12 -43l-633 -1205q-16 -29 -40 -44t-50 -15q-35 0 -61.5 22.5t-26.5 57.5q0 23 12 47l141 277l-315 864q-6 16 -6 31zM549 1174 q0 18 12 38l216 297q33 49 79 50q37 0 65 -26t28 -60q0 -37 -31 -68l-260 -256q-27 -27 -56 -27q-23 0 -38 14.5t-15 37.5z" />
<glyph unicode="&#xfe;" horiz-adv-x="1210" d="M82 -287l131 1645q2 47 32.5 72.5t78.5 25.5q47 0 73.5 -25.5t22.5 -72.5l-39 -494q49 76 133 118t184 42q125 0 222.5 -59.5t150.5 -168t53 -253.5q0 -166 -59 -292t-166.5 -195.5t-247.5 -69.5q-113 0 -196.5 47t-130.5 133l-35 -457q-2 -41 -33 -65.5t-76 -24.5 q-47 0 -73.5 25.5t-24.5 68.5zM346 473q0 -158 71.5 -240.5t205.5 -82.5q137 0 213.5 102t76.5 280q0 156 -71.5 241t-204.5 85q-135 0 -213 -103.5t-78 -281.5z" />
<glyph unicode="&#xff;" horiz-adv-x="1064" d="M70 918q0 39 33.5 66.5t74.5 27.5q29 0 51.5 -15.5t32.5 -46.5l250 -719l367 723q29 58 86 58q39 0 67.5 -24.5t28.5 -61.5q0 -20 -12 -43l-633 -1205q-16 -29 -40 -44t-50 -15q-35 0 -61.5 22.5t-26.5 57.5q0 23 12 47l141 277l-315 864q-6 16 -6 31zM303 1339 q0 49 33 80t84 31q49 0 83 -30.5t34 -80.5q0 -51 -33 -81.5t-84 -30.5t-84 30.5t-33 81.5zM666 1339q0 49 32.5 80t82.5 31q51 0 83.5 -30.5t32.5 -80.5q0 -51 -32.5 -81.5t-83.5 -30.5q-50 0 -82.5 31.5t-32.5 80.5z" />
<glyph unicode="&#x100;" horiz-adv-x="1503" d="M35 82q0 23 12 49l658 1253q18 35 50.5 53.5t67.5 18.5q39 0 70 -20.5t45 -57.5l467 -1257q6 -19 6 -37q0 -41 -31.5 -68.5t-70.5 -27.5q-29 0 -52.5 16t-35.5 49l-107 303h-737l-156 -307q-29 -57 -90 -57q-39 0 -67.5 25.5t-28.5 64.5zM463 524h590l-242 684zM520 1722 q0 35 23.5 54.5t62.5 19.5h498q35 0 55.5 -19.5t20.5 -52.5q0 -35 -23.5 -53t-62.5 -18h-498q-35 0 -55.5 18.5t-20.5 50.5z" />
<glyph unicode="&#x101;" horiz-adv-x="1095" d="M92 274q0 115 59.5 181.5t189.5 97.5t349 31h74l4 51q8 117 -41 171t-160 54q-135 0 -299 -90q-18 -10 -41 -10q-31 0 -51 22.5t-20 53.5q0 49 51 82q74 49 175 77.5t206 28.5q379 0 379 -352q0 -39 -2 -60l-41 -528q-2 -45 -30 -69.5t-73 -24.5t-71.5 27.5t-22.5 70.5 l4 70q-43 -84 -118.5 -128t-176.5 -44q-150 0 -247 80.5t-97 207.5zM299 295q0 -72 50 -114t136 -42q107 0 180.5 76t84.5 195l4 57h-58q-152 0 -237.5 -16.5t-122.5 -53.5t-37 -102zM301 1335q0 37 23.5 55.5t62.5 18.5h497q35 0 55.5 -17.5t20.5 -50.5q0 -35 -23.5 -55 t-62.5 -20h-498q-34 0 -54.5 18.5t-20.5 50.5z" />
<glyph unicode="&#x102;" horiz-adv-x="1503" d="M35 82q0 23 12 49l658 1253q18 35 50.5 53.5t67.5 18.5q39 0 70 -20.5t45 -57.5l467 -1257q6 -19 6 -37q0 -41 -31.5 -68.5t-70.5 -27.5q-29 0 -52.5 16t-35.5 49l-107 303h-737l-156 -307q-29 -57 -90 -57q-39 0 -67.5 25.5t-28.5 64.5zM463 524h590l-242 684zM524 1800 q0 25 18.5 41.5t45.5 16.5q37 0 63 -33q66 -98 199 -99q131 0 209 99q31 33 70 33q25 0 41 -14.5t16 -37.5q0 -20 -16 -47q-51 -82 -135.5 -126t-190.5 -44q-109 0 -187.5 44t-119.5 126q-12 23 -13 41z" />
<glyph unicode="&#x103;" horiz-adv-x="1095" d="M92 274q0 115 59.5 181.5t189.5 97.5t349 31h74l4 51q8 117 -41 171t-160 54q-135 0 -299 -90q-18 -10 -41 -10q-31 0 -51 22.5t-20 53.5q0 49 51 82q74 49 175 77.5t206 28.5q379 0 379 -352q0 -39 -2 -60l-41 -528q-2 -45 -30 -69.5t-73 -24.5t-71.5 27.5t-22.5 70.5 l4 70q-43 -84 -118.5 -128t-176.5 -44q-150 0 -247 80.5t-97 207.5zM299 295q0 -72 50 -114t136 -42q107 0 180.5 76t84.5 195l4 57h-58q-152 0 -237.5 -16.5t-122.5 -53.5t-37 -102zM301 1434q0 29 21.5 48t47.5 19q41 0 62 -43q29 -61 81 -94t119 -33q133 0 213 127 q27 43 68 43q25 0 43 -16.5t18 -42.5q0 -14 -10 -39q-45 -100 -137 -157.5t-205 -57.5q-110 0 -192 56t-123 159q-6 16 -6 31z" />
<glyph unicode="&#x104;" horiz-adv-x="1503" d="M33 80q0 25 14 51l658 1253q18 35 49.5 53.5t68.5 18.5q39 0 70 -20.5t45 -57.5l461 -1251q8 -18 8 -43q0 -31 -18.5 -54.5t-47.5 -31.5q-59 -10 -100 -52t-41 -104q0 -55 31 -85.5t86 -30.5q41 0 96 22q13 6 25 6q18 0 28.5 -14t10.5 -33q0 -18 -9.5 -35.5t-27.5 -27.5 q-74 -41 -156 -41q-106 0 -170.5 57t-64.5 150q0 84 44 147t126 98l-107 301h-735l-156 -307q-29 -57 -90 -57q-39 0 -68.5 25.5t-29.5 62.5zM463 524h590l-244 684z" />
<glyph unicode="&#x105;" horiz-adv-x="1095" d="M92 274q0 113 59.5 180.5t189.5 98.5t349 31h74l4 51q8 115 -40 170t-161 55q-139 0 -299 -90q-20 -10 -43 -10q-31 0 -49 21.5t-18 52.5q0 51 49 84q76 49 178 77.5t203 28.5q379 0 379 -352q0 -39 -2 -60l-41 -526q-2 -63 -60 -84q-68 -18 -110.5 -58t-42.5 -102 q0 -55 31.5 -85.5t86.5 -30.5q35 0 97 22q8 4 22 4q18 0 29.5 -13t11.5 -34q0 -18 -9 -34.5t-28 -26.5q-74 -41 -153 -41q-109 0 -174.5 57t-65.5 150q0 78 45 140t127 97q-6 20 -4 41l4 70q-43 -84 -121 -128t-178 -44q-150 0 -245 80.5t-95 207.5zM299 291q0 -68 50 -110 t136 -42q107 0 181.5 76t83.5 195l4 57h-58q-160 0 -244.5 -17.5t-118.5 -55.5t-34 -103z" />
<glyph unicode="&#x106;" horiz-adv-x="1386" d="M135 666q0 240 87 420t249 277t377 97q150 0 273.5 -41t203.5 -112q45 -33 45 -84q0 -35 -23.5 -61.5t-56.5 -26.5q-29 0 -57 20q-156 129 -381 129q-238 0 -369 -165t-131 -455q0 -244 114 -374t325 -130q100 0 195 33.5t175 95.5q29 20 58 20q33 0 52 -23.5t19 -58.5 q0 -49 -41 -82q-86 -76 -208.5 -118.5t-270.5 -42.5q-192 0 -335.5 81.5t-221.5 236.5t-78 364zM856 1606q0 18 15 39l147 206q29 43 74 43q31 0 54.5 -22.5t23.5 -52.5q0 -35 -31 -64l-178 -174q-27 -25 -54 -25q-23 0 -37 14.5t-14 35.5z" />
<glyph unicode="&#x107;" horiz-adv-x="989" d="M86 469q0 168 63.5 293t182.5 193.5t278 68.5q98 0 185.5 -26.5t142.5 -69.5q39 -27 39 -76q0 -35 -21.5 -61.5t-52.5 -26.5q-18 0 -39 12q-121 82 -248 82q-152 0 -233.5 -102.5t-81.5 -286.5q0 -150 74 -233.5t211 -83.5q68 0 124 19t111 60q25 12 43 13 q29 0 47.5 -22.5t18.5 -53.5q0 -49 -37 -74q-57 -51 -144 -79.5t-182 -28.5q-145 0 -253.5 59t-168 169t-59.5 255zM598 1174q0 18 12 38l216 297q33 49 79 50q37 0 65 -26t28 -60q0 -37 -31 -68l-260 -256q-27 -27 -56 -27q-23 0 -38 14.5t-15 37.5z" />
<glyph unicode="&#x108;" horiz-adv-x="1386" d="M135 666q0 240 87 420t249 277t377 97q150 0 273.5 -41t203.5 -112q45 -33 45 -84q0 -35 -23.5 -61.5t-56.5 -26.5q-29 0 -57 20q-156 129 -381 129q-238 0 -369 -165t-131 -455q0 -244 114 -374t325 -130q100 0 195 33.5t175 95.5q29 20 58 20q33 0 52 -23.5t19 -58.5 q0 -49 -41 -82q-86 -76 -208.5 -118.5t-270.5 -42.5q-192 0 -335.5 81.5t-221.5 236.5t-78 364zM625 1616q0 27 20 49l172 188q37 39 92 39q53 0 84 -39l136 -186q16 -23 16 -45q0 -27 -20.5 -46.5t-49.5 -19.5q-41 0 -67 43l-105 168l-145 -176q-29 -35 -68 -35 q-27 0 -46 17.5t-19 42.5z" />
<glyph unicode="&#x109;" horiz-adv-x="989" d="M86 469q0 168 63.5 293t182.5 193.5t278 68.5q98 0 185.5 -26.5t142.5 -69.5q39 -27 39 -76q0 -35 -21.5 -61.5t-52.5 -26.5q-18 0 -39 12q-121 82 -248 82q-152 0 -233.5 -102.5t-81.5 -286.5q0 -150 74 -233.5t211 -83.5q68 0 124 19t111 60q25 12 43 13 q29 0 47.5 -22.5t18.5 -53.5q0 -49 -37 -74q-57 -51 -144 -79.5t-182 -28.5q-145 0 -253.5 59t-168 169t-59.5 255zM371 1188q0 25 18 49l176 262q20 27 47 42t56 15q27 0 51.5 -14t38.5 -43l139 -268q10 -20 10 -37q0 -31 -23.5 -51.5t-55.5 -20.5q-23 0 -41.5 12.5 t-28.5 36.5l-102 236l-140 -240q-26 -47 -71 -47q-31 0 -52.5 19.5t-21.5 48.5z" />
<glyph unicode="&#x10a;" horiz-adv-x="1386" d="M135 666q0 240 87 420t249 277t377 97q150 0 273.5 -41t203.5 -112q45 -33 45 -84q0 -35 -23.5 -61.5t-56.5 -26.5q-29 0 -57 20q-156 129 -381 129q-238 0 -369 -165t-131 -455q0 -244 114 -374t325 -130q100 0 195 33.5t175 95.5q29 20 58 20q33 0 52 -23.5t19 -58.5 q0 -49 -41 -82q-86 -76 -208.5 -118.5t-270.5 -42.5q-192 0 -335.5 81.5t-221.5 236.5t-78 364zM766 1724q0 55 35 87t94 32q57 0 93 -31.5t36 -87.5q0 -53 -35 -85.5t-94 -32.5t-94 32.5t-35 85.5z" />
<glyph unicode="&#x10b;" horiz-adv-x="989" d="M86 469q0 168 63.5 293t182.5 193.5t278 68.5q98 0 185.5 -26.5t142.5 -69.5q39 -27 39 -76q0 -35 -21.5 -61.5t-52.5 -26.5q-18 0 -39 12q-121 82 -248 82q-152 0 -233.5 -102.5t-81.5 -286.5q0 -150 74 -233.5t211 -83.5q68 0 124 19t111 60q25 12 43 13 q29 0 47.5 -22.5t18.5 -53.5q0 -49 -37 -74q-57 -51 -144 -79.5t-182 -28.5q-145 0 -253.5 59t-168 169t-59.5 255zM520 1339q0 53 35 85t94 32q57 0 93 -31.5t36 -85.5q0 -53 -34.5 -85.5t-94.5 -32.5q-59 0 -94 32.5t-35 85.5z" />
<glyph unicode="&#x10c;" horiz-adv-x="1386" d="M135 666q0 240 87 420t249 277t377 97q150 0 273.5 -41t203.5 -112q45 -33 45 -84q0 -35 -23.5 -61.5t-56.5 -26.5q-29 0 -57 20q-156 129 -381 129q-238 0 -369 -165t-131 -455q0 -244 114 -374t325 -130q100 0 195 33.5t175 95.5q29 20 58 20q33 0 52 -23.5t19 -58.5 q0 -49 -41 -82q-86 -76 -208.5 -118.5t-270.5 -42.5q-192 0 -335.5 81.5t-221.5 236.5t-78 364zM641 1823q0 27 21.5 46t50.5 19q43 0 67 -41l105 -168l143 176q29 35 68 35q29 0 48 -17.5t19 -41.5q0 -27 -22 -49l-170 -189q-37 -39 -92 -39q-57 0 -84 39l-137 185 q-16 23 -17 45z" />
<glyph unicode="&#x10d;" horiz-adv-x="989" d="M86 469q0 168 63.5 293t182.5 193.5t278 68.5q98 0 185.5 -26.5t142.5 -69.5q39 -27 39 -76q0 -35 -21.5 -61.5t-52.5 -26.5q-18 0 -39 12q-121 82 -248 82q-152 0 -233.5 -102.5t-81.5 -286.5q0 -150 74 -233.5t211 -83.5q68 0 124 19t111 60q25 12 43 13 q29 0 47.5 -22.5t18.5 -53.5q0 -49 -37 -74q-57 -51 -144 -79.5t-182 -28.5q-145 0 -253.5 59t-168 169t-59.5 255zM391 1485q0 31 23.5 50t54.5 19q49 0 72 -49l102 -235l137 239q25 45 72 45q31 0 52.5 -19t21.5 -48q0 -27 -17 -49l-176 -260q-18 -29 -45.5 -43.5 t-56.5 -14.5q-27 0 -52.5 14.5t-39.5 43.5l-137 268q-10 18 -11 39z" />
<glyph unicode="&#x10e;" horiz-adv-x="1527" d="M137 109l99 1232q2 49 31.5 76t76.5 27h397q326 0 506 -176t180 -490q0 -244 -88 -418t-257 -267t-406 -93h-438q-50 0 -77.5 29.5t-23.5 79.5zM354 176h308q274 0 412 153.5t138 450.5q0 242 -122.5 365t-368.5 123h-281zM606 1823q0 27 21.5 46t50.5 19q43 0 67 -41 l105 -168l143 176q29 35 68 35q29 0 48 -17.5t19 -41.5q0 -27 -22 -49l-170 -189q-37 -39 -92 -39q-57 0 -84 39l-137 185q-16 23 -17 45z" />
<glyph unicode="&#x10f;" horiz-adv-x="1210" d="M86 465q0 166 59.5 293t167 196.5t246.5 69.5q111 0 195 -46t131 -132l41 518q2 43 32.5 67.5t75.5 24.5q47 0 74 -26.5t25 -69.5l-101 -1272q-2 -47 -32.5 -72.5t-75.5 -25.5t-72 25.5t-23 72.5l5 64q-47 -78 -133.5 -122t-188.5 -44q-125 0 -222 58t-150.5 166.5 t-53.5 254.5zM295 475q0 -156 72.5 -240.5t203.5 -84.5q138 0 215.5 103t77.5 282q0 158 -71.5 240.5t-204.5 82.5q-137 0 -215 -102.5t-78 -280.5zM1176 1081l22 297q2 37 24.5 57.5t49.5 20.5q25 0 42 -17.5t17 -45.5q0 -14 -2 -23l-65 -297q-4 -20 -18.5 -31.5 t-28.5 -11.5q-18 0 -30.5 14.5t-10.5 36.5z" />
<glyph unicode="&#x110;" horiz-adv-x="1564" d="M18 729q0 41 28 63.5t75 22.5h108l41 526q4 49 34 76t77 27h397q326 0 506 -176t180 -490q0 -244 -88 -418t-257 -267t-406 -93h-441q-49 0 -75.5 29.5t-22.5 79.5l43 540h-104q-45 0 -70 21.5t-25 58.5zM391 176h307q275 0 413 153.5t138 450.5q0 240 -124 364t-367 124 h-281l-35 -453h308q47 0 70.5 -21.5t23.5 -60.5q0 -41 -25.5 -62.5t-75.5 -21.5h-315z" />
<glyph unicode="&#x111;" horiz-adv-x="1210" d="M86 465q0 166 59.5 293t167 196.5t246.5 69.5q113 0 197 -47t129 -135l22 280h-319q-41 0 -62.5 20.5t-21.5 53.5q0 35 24.5 56.5t67.5 21.5h324l6 90q2 43 32.5 67.5t75.5 24.5q47 0 74 -26.5t25 -69.5l-7 -86h117q39 0 60.5 -19.5t21.5 -52.5q0 -37 -23.5 -58.5 t-66.5 -21.5h-121l-82 -1034q-4 -47 -33.5 -72.5t-74.5 -25.5t-72 25.5t-23 72.5l5 64q-47 -78 -133.5 -122t-188.5 -44q-125 0 -222 58t-150.5 166.5t-53.5 254.5zM295 475q0 -156 72.5 -240.5t203.5 -84.5q138 0 215.5 103t77.5 282q0 158 -71.5 240.5t-204.5 82.5 q-137 0 -215 -102.5t-78 -280.5z" />
<glyph unicode="&#x112;" horiz-adv-x="1198" d="M137 104l99 1239q2 49 30.5 75t77.5 26h756q43 0 67.5 -22.5t24.5 -59.5q0 -88 -102 -88h-652l-37 -455h609q43 0 67.5 -22.5t24.5 -59.5q0 -43 -26.5 -66.5t-76.5 -23.5h-610l-39 -477h649q45 0 70 -22.5t25 -59.5q0 -41 -27 -64.5t-78 -23.5h-756q-51 0 -75.5 26.5 t-20.5 77.5zM436 1722q0 35 23.5 54.5t62.5 19.5h498q35 0 55.5 -19.5t20.5 -52.5q0 -35 -23.5 -53t-62.5 -18h-498q-35 0 -55.5 18.5t-20.5 50.5z" />
<glyph unicode="&#x113;" horiz-adv-x="1083" d="M86 471q0 162 62.5 288t175 195.5t260.5 69.5q205 0 314.5 -122t109.5 -353q0 -41 -21.5 -62.5t-58.5 -21.5h-637q2 -152 77.5 -235t219.5 -83q143 0 266 82q23 14 45 15q29 0 47.5 -22.5t18.5 -53.5q0 -47 -41 -80q-55 -45 -152.5 -73.5t-196.5 -28.5q-147 0 -257.5 59 t-171 170t-60.5 256zM299 584h528q4 141 -58 214.5t-177 73.5q-125 0 -199 -73.5t-94 -214.5zM303 1335q0 37 23.5 55.5t62.5 18.5h497q35 0 55.5 -17.5t20.5 -50.5q0 -35 -23.5 -55t-62.5 -20h-498q-34 0 -54.5 18.5t-20.5 50.5z" />
<glyph unicode="&#x114;" horiz-adv-x="1198" d="M137 104l99 1239q2 49 30.5 75t77.5 26h756q43 0 67.5 -22.5t24.5 -59.5q0 -88 -102 -88h-652l-37 -455h609q43 0 67.5 -22.5t24.5 -59.5q0 -43 -26.5 -66.5t-76.5 -23.5h-610l-39 -477h649q45 0 70 -22.5t25 -59.5q0 -41 -27 -64.5t-78 -23.5h-756q-51 0 -75.5 26.5 t-20.5 77.5zM440 1800q0 25 18.5 41.5t45.5 16.5q37 0 63 -33q66 -98 199 -99q131 0 209 99q31 33 70 33q25 0 41 -14.5t16 -37.5q0 -20 -16 -47q-51 -82 -135.5 -126t-190.5 -44q-109 0 -187.5 44t-119.5 126q-12 23 -13 41z" />
<glyph unicode="&#x115;" horiz-adv-x="1083" d="M86 471q0 162 62.5 288t175 195.5t260.5 69.5q205 0 314.5 -122t109.5 -353q0 -41 -21.5 -62.5t-58.5 -21.5h-637q2 -152 77.5 -235t219.5 -83q143 0 266 82q23 14 45 15q29 0 47.5 -22.5t18.5 -53.5q0 -47 -41 -80q-55 -45 -152.5 -73.5t-196.5 -28.5q-147 0 -257.5 59 t-171 170t-60.5 256zM299 584h528q4 141 -58 214.5t-177 73.5q-125 0 -199 -73.5t-94 -214.5zM303 1434q0 29 21.5 48t47.5 19q41 0 62 -43q29 -61 81 -94t119 -33q133 0 213 127q27 43 68 43q25 0 43 -16.5t18 -42.5q0 -14 -10 -39q-45 -100 -137 -157.5t-205 -57.5 q-110 0 -192 56t-123 159q-6 16 -6 31z" />
<glyph unicode="&#x116;" horiz-adv-x="1198" d="M137 104l99 1239q2 49 30.5 75t77.5 26h756q43 0 67.5 -22.5t24.5 -59.5q0 -88 -102 -88h-652l-37 -455h609q43 0 67.5 -22.5t24.5 -59.5q0 -43 -26.5 -66.5t-76.5 -23.5h-610l-39 -477h649q45 0 70 -22.5t25 -59.5q0 -41 -27 -64.5t-78 -23.5h-756q-51 0 -75.5 26.5 t-20.5 77.5zM637 1724q0 55 35 87t94 32q57 0 93 -31.5t36 -87.5q0 -53 -35 -85.5t-94 -32.5t-94 32.5t-35 85.5z" />
<glyph unicode="&#x117;" horiz-adv-x="1083" d="M86 471q0 162 62.5 288t175 195.5t260.5 69.5q205 0 314.5 -122t109.5 -353q0 -41 -21.5 -62.5t-58.5 -21.5h-637q2 -152 77.5 -235t219.5 -83q143 0 266 82q23 14 45 15q29 0 47.5 -22.5t18.5 -53.5q0 -47 -41 -80q-55 -45 -152.5 -73.5t-196.5 -28.5q-147 0 -257.5 59 t-171 170t-60.5 256zM299 584h528q4 141 -58 214.5t-177 73.5q-125 0 -199 -73.5t-94 -214.5zM503 1339q0 53 35 85t94 32q57 0 93 -31.5t36 -85.5q0 -53 -34.5 -85.5t-94.5 -32.5q-59 0 -94 32.5t-35 85.5z" />
<glyph unicode="&#x118;" horiz-adv-x="1198" d="M137 104l99 1239q2 49 30.5 75t77.5 26h756q43 0 67.5 -22.5t24.5 -59.5q0 -88 -102 -88h-652l-37 -455h609q43 0 67.5 -22.5t24.5 -59.5q0 -43 -26.5 -66.5t-76.5 -23.5h-610l-39 -477h649q45 0 70 -22.5t25 -59.5q0 -72 -84 -88q-78 -6 -121 -50t-43 -108 q0 -55 30.5 -85.5t84.5 -30.5q45 0 98 22q12 6 24 6q18 0 29.5 -13t11.5 -34q0 -18 -10 -35.5t-29 -27.5q-70 -41 -155 -41q-106 0 -171 57t-65 150q0 117 90 190h-551q-51 0 -75.5 26.5t-20.5 77.5z" />
<glyph unicode="&#x119;" horiz-adv-x="1083" d="M86 471q0 162 62.5 288t175 195.5t260.5 69.5q205 0 314.5 -122t109.5 -353q0 -41 -21.5 -62.5t-58.5 -21.5h-637q2 -152 77.5 -235t219.5 -83q143 0 266 82q23 14 45 15q29 0 47.5 -22.5t18.5 -53.5q0 -47 -41 -80t-103 -57q-92 -41 -130 -88t-38 -105q0 -53 30 -82.5 t83 -29.5q47 0 100 22q12 6 23 6q18 0 28.5 -13t10.5 -34q0 -18 -9.5 -35.5t-25.5 -27.5q-74 -41 -164 -41q-102 0 -164.5 55t-62.5 147q0 111 80 181h-9q-147 0 -257.5 59t-170 170t-59.5 256zM299 584h528q4 141 -58 214.5t-177 73.5q-125 0 -199 -73.5t-94 -214.5z" />
<glyph unicode="&#x11a;" horiz-adv-x="1198" d="M137 104l99 1239q2 49 30.5 75t77.5 26h756q43 0 67.5 -22.5t24.5 -59.5q0 -88 -102 -88h-652l-37 -455h609q43 0 67.5 -22.5t24.5 -59.5q0 -43 -26.5 -66.5t-76.5 -23.5h-610l-39 -477h649q45 0 70 -22.5t25 -59.5q0 -41 -27 -64.5t-78 -23.5h-756q-51 0 -75.5 26.5 t-20.5 77.5zM512 1823q0 27 21.5 46t50.5 19q43 0 67 -41l105 -168l143 176q29 35 68 35q29 0 48 -17.5t19 -41.5q0 -27 -22 -49l-170 -189q-37 -39 -92 -39q-57 0 -84 39l-137 185q-16 23 -17 45z" />
<glyph unicode="&#x11b;" horiz-adv-x="1083" d="M86 471q0 162 62.5 288t175 195.5t260.5 69.5q205 0 314.5 -122t109.5 -353q0 -41 -21.5 -62.5t-58.5 -21.5h-637q2 -152 77.5 -235t219.5 -83q143 0 266 82q23 14 45 15q29 0 47.5 -22.5t18.5 -53.5q0 -47 -41 -80q-55 -45 -152.5 -73.5t-196.5 -28.5q-147 0 -257.5 59 t-171 170t-60.5 256zM299 584h528q4 141 -58 214.5t-177 73.5q-125 0 -199 -73.5t-94 -214.5zM374 1485q0 31 23.5 50t54.5 19q49 0 72 -49l102 -235l137 239q25 45 72 45q31 0 52.5 -19t21.5 -48q0 -27 -17 -49l-176 -260q-18 -29 -45.5 -43.5t-56.5 -14.5 q-27 0 -52.5 14.5t-39.5 43.5l-137 268q-10 18 -11 39z" />
<glyph unicode="&#x11c;" horiz-adv-x="1490" d="M133 653q0 246 90 428.5t256 280.5t389 98q150 0 271 -40t200 -107q49 -35 50 -90q0 -37 -24 -62.5t-58 -25.5q-29 0 -56 18q-86 68 -175 100.5t-206 32.5q-245 0 -382.5 -167t-137.5 -462q0 -242 119 -372.5t354 -130.5q152 0 301 51l33 401h-260q-43 0 -66.5 20.5 t-23.5 57.5t25.5 59.5t68.5 22.5h363q43 0 67.5 -26.5t20.5 -67.5l-35 -473q-6 -70 -27.5 -100.5t-79.5 -47.5q-84 -31 -195.5 -49t-211.5 -18q-319 0 -494.5 178t-175.5 491zM639 1616q0 27 20 49l172 188q37 39 92 39q53 0 84 -39l136 -186q16 -23 16 -45 q0 -27 -20.5 -46.5t-49.5 -19.5q-41 0 -67 43l-105 168l-145 -176q-29 -35 -68 -35q-27 0 -46 17.5t-19 42.5z" />
<glyph unicode="&#x11d;" horiz-adv-x="1218" d="M88 489q0 156 59.5 278t167 189.5t248.5 67.5q117 0 203 -48t131 -138l6 84q4 47 35 72.5t76 25.5t70.5 -26.5t23.5 -73.5l-68 -840q-16 -229 -146 -346t-368 -117q-113 0 -213 26.5t-172 73.5q-49 33 -49 80q0 35 22.5 59.5t55.5 24.5q18 0 33 -8q156 -94 329 -94 q281 0 304 289l10 122q-49 -76 -135 -117.5t-191 -41.5q-129 0 -227 56t-151.5 160.5t-53.5 241.5zM297 494q0 -143 72.5 -221t208.5 -78q137 0 215.5 96t78.5 264q0 147 -72.5 225t-205.5 78q-139 0 -218 -97t-79 -267zM402 1188q0 25 18 49l176 262q20 27 47 42t56 15 q27 0 51.5 -14t38.5 -43l139 -268q10 -20 10 -37q0 -31 -23.5 -51.5t-55.5 -20.5q-23 0 -41.5 12.5t-28.5 36.5l-102 236l-140 -240q-26 -47 -71 -47q-31 0 -52.5 19.5t-21.5 48.5z" />
<glyph unicode="&#x11e;" horiz-adv-x="1490" d="M133 653q0 246 90 428.5t256 280.5t389 98q150 0 271 -40t200 -107q49 -35 50 -90q0 -37 -24 -62.5t-58 -25.5q-29 0 -56 18q-86 68 -175 100.5t-206 32.5q-245 0 -382.5 -167t-137.5 -462q0 -242 119 -372.5t354 -130.5q152 0 301 51l33 401h-260q-43 0 -66.5 20.5 t-23.5 57.5t25.5 59.5t68.5 22.5h363q43 0 67.5 -26.5t20.5 -67.5l-35 -473q-6 -70 -27.5 -100.5t-79.5 -47.5q-84 -31 -195.5 -49t-211.5 -18q-319 0 -494.5 178t-175.5 491zM583 1800q0 25 18.5 41.5t45.5 16.5q37 0 63 -33q66 -98 199 -99q131 0 209 99q31 33 70 33 q25 0 41 -14.5t16 -37.5q0 -20 -16 -47q-51 -82 -135.5 -126t-190.5 -44q-109 0 -187.5 44t-119.5 126q-12 23 -13 41z" />
<glyph unicode="&#x11f;" horiz-adv-x="1218" d="M88 489q0 156 59.5 278t167 189.5t248.5 67.5q117 0 203 -48t131 -138l6 84q4 47 35 72.5t76 25.5t70.5 -26.5t23.5 -73.5l-68 -840q-16 -229 -146 -346t-368 -117q-113 0 -213 26.5t-172 73.5q-49 33 -49 80q0 35 22.5 59.5t55.5 24.5q18 0 33 -8q156 -94 329 -94 q281 0 304 289l10 122q-49 -76 -135 -117.5t-191 -41.5q-129 0 -227 56t-151.5 160.5t-53.5 241.5zM297 494q0 -143 72.5 -221t208.5 -78q137 0 215.5 96t78.5 264q0 147 -72.5 225t-205.5 78q-139 0 -218 -97t-79 -267zM351 1434q0 29 21.5 48t47.5 19q41 0 62 -43 q29 -61 81 -94t119 -33q133 0 213 127q27 43 68 43q25 0 43 -16.5t18 -42.5q0 -14 -10 -39q-45 -100 -137 -157.5t-205 -57.5q-110 0 -192 56t-123 159q-6 16 -6 31z" />
<glyph unicode="&#x120;" horiz-adv-x="1490" d="M133 653q0 246 90 428.5t256 280.5t389 98q150 0 271 -40t200 -107q49 -35 50 -90q0 -37 -24 -62.5t-58 -25.5q-29 0 -56 18q-86 68 -175 100.5t-206 32.5q-245 0 -382.5 -167t-137.5 -462q0 -242 119 -372.5t354 -130.5q152 0 301 51l33 401h-260q-43 0 -66.5 20.5 t-23.5 57.5t25.5 59.5t68.5 22.5h363q43 0 67.5 -26.5t20.5 -67.5l-35 -473q-6 -70 -27.5 -100.5t-79.5 -47.5q-84 -31 -195.5 -49t-211.5 -18q-319 0 -494.5 178t-175.5 491zM780 1724q0 55 35 87t94 32q57 0 93 -31.5t36 -87.5q0 -53 -35 -85.5t-94 -32.5t-94 32.5 t-35 85.5z" />
<glyph unicode="&#x121;" horiz-adv-x="1218" d="M88 489q0 156 59.5 278t167 189.5t248.5 67.5q117 0 203 -48t131 -138l6 84q4 47 35 72.5t76 25.5t70.5 -26.5t23.5 -73.5l-68 -840q-16 -229 -146 -346t-368 -117q-113 0 -213 26.5t-172 73.5q-49 33 -49 80q0 35 22.5 59.5t55.5 24.5q18 0 33 -8q156 -94 329 -94 q281 0 304 289l10 122q-49 -76 -135 -117.5t-191 -41.5q-129 0 -227 56t-151.5 160.5t-53.5 241.5zM297 494q0 -143 72.5 -221t208.5 -78q137 0 215.5 96t78.5 264q0 147 -72.5 225t-205.5 78q-139 0 -218 -97t-79 -267zM551 1339q0 53 35 85t94 32q57 0 93 -31.5t36 -85.5 q0 -53 -34.5 -85.5t-94.5 -32.5q-59 0 -94 32.5t-35 85.5z" />
<glyph unicode="&#x122;" horiz-adv-x="1490" d="M133 653q0 246 90 428.5t256 280.5t389 98q150 0 271 -40t200 -107q49 -35 50 -90q0 -37 -24 -62.5t-58 -25.5q-29 0 -56 18q-86 68 -175 100.5t-206 32.5q-245 0 -382.5 -167t-137.5 -462q0 -242 119 -372.5t354 -130.5q152 0 301 51l33 401h-260q-43 0 -66.5 20.5 t-23.5 57.5t25.5 59.5t68.5 22.5h363q43 0 67.5 -26.5t20.5 -67.5l-35 -473q-6 -70 -27.5 -100.5t-79.5 -47.5q-84 -31 -195.5 -49t-211.5 -18q-319 0 -494.5 178t-175.5 491zM652 -246q0 49 33.5 81t82.5 32q60 0 93.5 -35t33.5 -96q0 -66 -26.5 -129.5t-75.5 -112.5 q-27 -29 -59 -29q-23 0 -37.5 11.5t-14.5 31.5q0 18 17 37q49 55 61 113h-2q-47 0 -76.5 24.5t-29.5 71.5z" />
<glyph unicode="&#x123;" horiz-adv-x="1218" d="M88 489q0 156 59.5 278t167 189.5t248.5 67.5q117 0 203 -48t131 -138l6 84q4 47 35 72.5t76 25.5t70.5 -26.5t23.5 -73.5l-68 -840q-16 -229 -146 -346t-368 -117q-113 0 -213 26.5t-172 73.5q-49 33 -49 80q0 35 22.5 59.5t55.5 24.5q18 0 33 -8q156 -94 329 -94 q281 0 304 289l10 122q-49 -76 -135 -117.5t-191 -41.5q-129 0 -227 56t-151.5 160.5t-53.5 241.5zM297 494q0 -143 72.5 -221t208.5 -78q137 0 215.5 96t78.5 264q0 147 -72.5 225t-205.5 78q-139 0 -218 -97t-79 -267zM551 1311q0 68 27 130t74 111q29 31 61 31 q20 0 34.5 -12t14.5 -31q0 -20 -16 -39q-49 -55 -62 -112h5q45 0 74.5 -25t29.5 -72q0 -49 -31.5 -80.5t-79.5 -31.5q-59 0 -95 34.5t-36 96.5z" />
<glyph unicode="&#x124;" horiz-adv-x="1560" d="M137 96l99 1256q2 47 32.5 74.5t77.5 27.5t73.5 -28.5t24.5 -77.5l-41 -529h805l41 533q2 47 33 74.5t78 27.5t73.5 -28.5t24.5 -77.5l-98 -1256q-4 -47 -34 -74.5t-77 -27.5t-74.5 28.5t-23.5 77.5l43 551h-805l-43 -555q-4 -47 -33.5 -74.5t-76.5 -27.5t-75 28.5 t-24 77.5zM608 1616q0 27 20 49l172 188q37 39 92 39q53 0 84 -39l136 -186q16 -23 16 -45q0 -27 -20.5 -46.5t-49.5 -19.5q-41 0 -67 43l-105 168l-145 -176q-29 -35 -68 -35q-27 0 -46 17.5t-19 42.5z" />
<glyph unicode="&#x125;" horiz-adv-x="1179" d="M78 1616q0 27 20 49l172 188q37 39 92 39q53 0 84 -39l136 -186q16 -23 16 -45q0 -27 -20.5 -46.5t-49.5 -19.5q-41 0 -67 43l-105 168l-145 -176q-29 -35 -68 -35q-27 0 -46 17.5t-19 42.5zM111 88l102 1272q2 43 34 69.5t77 26.5t71.5 -24.5t24.5 -67.5l-41 -502 q51 78 137 120t193 42q168 0 255 -88t87 -260q0 -41 -2 -62l-41 -526q-4 -47 -34 -72.5t-77 -25.5t-73.5 25.5t-22.5 72.5l41 516q2 14 2 43q0 209 -201 209q-127 0 -201.5 -75.5t-85.5 -211.5l-39 -481q-2 -47 -32.5 -72.5t-77.5 -25.5t-74 25.5t-22 72.5z" />
<glyph unicode="&#x126;" horiz-adv-x="1634" d="M51 1135q0 39 25.5 61.5t70.5 22.5h117l10 133q2 47 33 74.5t76 27.5q47 0 74.5 -28.5t25.5 -77.5l-10 -129h805l10 133q2 47 33 74.5t76 27.5q47 0 74.5 -28.5t25.5 -77.5l-10 -129h108q41 0 66 -21.5t25 -56.5q0 -39 -27 -61.5t-72 -22.5h-112l-78 -965 q-2 -47 -33 -74.5t-76 -27.5q-47 0 -74.5 28.5t-25.5 77.5l45 551h-805l-45 -555q-2 -47 -33 -74.5t-76 -27.5q-47 0 -74.5 28.5t-25.5 77.5l76 961h-111q-41 0 -64.5 21.5t-23.5 56.5zM440 819h805l19 238h-803z" />
<glyph unicode="&#x127;" horiz-adv-x="1179" d="M-6 1198q0 35 24.5 55.5t67.5 20.5h121l6 86q2 43 34 69.5t77 26.5t71.5 -24.5t24.5 -67.5l-8 -90h321q39 0 60.5 -20.5t21.5 -53.5q0 -37 -23.5 -57.5t-66.5 -20.5h-326l-20 -260q51 78 137 120t193 42q168 0 255 -88t87 -260q0 -41 -2 -62l-41 -526q-4 -47 -34 -72.5 t-77 -25.5t-73.5 25.5t-22.5 72.5l41 516q2 14 2 43q0 209 -201 209q-127 0 -201.5 -75.5t-85.5 -211.5l-39 -481q-2 -47 -32.5 -72.5t-77.5 -25.5t-74 25.5t-22 72.5l84 1034h-117q-39 0 -61.5 21.5t-22.5 54.5z" />
<glyph unicode="&#x128;" horiz-adv-x="546" d="M37 1669q0 39 24.5 80t71 68.5t103.5 27.5q35 0 69.5 -12t88.5 -39q33 -16 65.5 -28.5t56.5 -12.5q35 0 55.5 13.5t39.5 37.5q16 20 26.5 27.5t24.5 7.5q23 0 35 -15.5t12 -39.5q0 -39 -24.5 -81t-70.5 -69.5t-104 -27.5q-34 0 -69 12t-88 39q-33 16 -66 28.5t-57 12.5 q-33 0 -53.5 -13.5t-43.5 -37.5q-16 -20 -26 -27.5t-25 -7.5q-20 0 -32.5 16.5t-12.5 40.5zM137 96l99 1256q2 47 32.5 74.5t77.5 27.5q49 0 77 -28.5t23 -77.5l-98 -1256q-2 -47 -33.5 -74.5t-78.5 -27.5q-48 0 -75.5 28.5t-23.5 77.5z" />
<glyph unicode="&#x129;" horiz-adv-x="495" d="M-23 1274q0 41 28 89t74 81t99 33q41 0 78 -17.5t86 -50.5q39 -27 64.5 -40t50.5 -13q33 0 53 17.5t41 47.5q20 27 30.5 37t26.5 10q20 0 31.5 -16t11.5 -43q0 -41 -27.5 -89t-73.5 -81t-99 -33q-41 0 -77 17.5t-87 52.5q-41 27 -65.5 39t-47.5 12q-33 0 -53.5 -17.5 t-40.5 -47.5q-20 -27 -30.5 -37.5t-26.5 -10.5q-20 0 -33 16.5t-13 43.5zM111 88l67 836q2 47 35 71.5t76 24.5q45 0 71.5 -24.5t24.5 -71.5l-68 -836q-4 -51 -34.5 -74.5t-75.5 -23.5t-73 24.5t-23 73.5z" />
<glyph unicode="&#x12a;" horiz-adv-x="546" d="M43 1722q0 35 23.5 54.5t62.5 19.5h498q35 0 55.5 -19.5t20.5 -52.5q0 -35 -23.5 -53t-62.5 -18h-498q-35 0 -55.5 18.5t-20.5 50.5zM137 96l99 1256q2 47 32.5 74.5t77.5 27.5q49 0 77 -28.5t23 -77.5l-98 -1256q-2 -47 -33.5 -74.5t-78.5 -27.5q-48 0 -75.5 28.5 t-23.5 77.5z" />
<glyph unicode="&#x12b;" horiz-adv-x="495" d="M-14 1335q0 37 23.5 55.5t62.5 18.5h497q35 0 55.5 -17.5t20.5 -50.5q0 -35 -23.5 -55t-62.5 -20h-498q-34 0 -54.5 18.5t-20.5 50.5zM111 88l67 836q2 47 35 71.5t76 24.5q45 0 71.5 -24.5t24.5 -71.5l-68 -836q-4 -51 -34.5 -74.5t-75.5 -23.5t-73 24.5t-23 73.5z" />
<glyph unicode="&#x12c;" horiz-adv-x="546" d="M47 1800q0 25 18.5 41.5t45.5 16.5q37 0 63 -33q66 -98 199 -99q131 0 209 99q31 33 70 33q25 0 41 -14.5t16 -37.5q0 -20 -16 -47q-51 -82 -135.5 -126t-190.5 -44q-109 0 -187.5 44t-119.5 126q-12 23 -13 41zM137 96l99 1256q2 47 32.5 74.5t77.5 27.5q49 0 77 -28.5 t23 -77.5l-98 -1256q-2 -47 -33.5 -74.5t-78.5 -27.5q-48 0 -75.5 28.5t-23.5 77.5z" />
<glyph unicode="&#x12d;" horiz-adv-x="495" d="M-14 1434q0 29 21.5 48t47.5 19q41 0 62 -43q29 -61 81 -94t119 -33q133 0 213 127q27 43 68 43q25 0 43 -16.5t18 -42.5q0 -14 -10 -39q-45 -100 -137 -157.5t-205 -57.5q-110 0 -192 56t-123 159q-6 16 -6 31zM111 88l67 836q2 47 35 71.5t76 24.5q45 0 71.5 -24.5 t24.5 -71.5l-68 -836q-4 -51 -34.5 -74.5t-75.5 -23.5t-73 24.5t-23 73.5z" />
<glyph unicode="&#x12e;" horiz-adv-x="546" d="M-20 -188q0 86 41.5 146t121.5 91q-8 25 -6 49l99 1254q2 47 32.5 74.5t77.5 27.5q49 0 77 -28.5t23 -77.5l-98 -1256q-2 -35 -22.5 -59.5t-49.5 -32.5q-69 -16 -107 -56t-38 -102q0 -55 32 -85.5t87 -30.5q45 0 98 22q12 6 25 6q18 0 28.5 -13t10.5 -32 q0 -18 -9.5 -35.5t-27.5 -29.5q-68 -41 -160 -41q-109 0 -172 57t-63 152z" />
<glyph unicode="&#x12f;" horiz-adv-x="495" d="M-45 -193q0 80 42 143.5t118 96.5q-4 12 -4 41l67 836q2 47 35 71.5t76 24.5q45 0 71.5 -24.5t24.5 -71.5l-68 -836q-2 -33 -19 -56.5t-50 -33.5q-63 -12 -102.5 -53t-39.5 -107q0 -53 31 -82.5t82 -29.5q45 0 100 22q8 4 23 4q18 0 29.5 -13t11.5 -34q0 -18 -9 -34.5 t-28 -26.5q-76 -41 -164 -41q-102 0 -164.5 56t-62.5 148zM184 1339q0 53 35 85t94 32q58 0 93.5 -31.5t35.5 -85.5q0 -53 -34.5 -85.5t-94.5 -32.5q-59 0 -94 32.5t-35 85.5z" />
<glyph unicode="&#x130;" horiz-adv-x="546" d="M137 96l99 1256q2 47 32.5 74.5t77.5 27.5q49 0 77 -28.5t23 -77.5l-98 -1256q-2 -47 -33.5 -74.5t-78.5 -27.5q-48 0 -75.5 28.5t-23.5 77.5zM244 1724q0 55 35 87t94 32q57 0 93 -31.5t36 -87.5q0 -53 -35 -85.5t-94 -32.5t-94 32.5t-35 85.5z" />
<glyph unicode="&#x131;" horiz-adv-x="495" d="M111 88l67 836q2 47 35 71.5t76 24.5q45 0 71.5 -24.5t24.5 -71.5l-68 -836q-4 -51 -34.5 -74.5t-75.5 -23.5t-73 24.5t-23 73.5z" />
<glyph unicode="&#x134;" horiz-adv-x="698" d="M-57 76q0 80 90 86l65 4q193 12 211 229l76 955q2 47 35 75.5t80 28.5t73.5 -28.5t24.5 -75.5l-76 -955q-14 -188 -115.5 -290.5t-283.5 -110.5l-68 -4q-57 -4 -84.5 19.5t-27.5 66.5zM252 1616q0 27 20 49l172 188q37 39 92 39q53 0 84 -39l136 -186q16 -23 16 -45 q0 -27 -20.5 -46.5t-49.5 -19.5q-41 0 -67 43l-105 168l-145 -176q-29 -35 -68 -35q-27 0 -46 17.5t-19 42.5z" />
<glyph unicode="&#x135;" horiz-adv-x="495" d="M-240 -301q0 35 21.5 57.5t64.5 24.5l60 4q94 6 142 58.5t56 154.5l74 924q4 47 35 72.5t74 25.5q45 0 73.5 -25.5t24.5 -72.5l-72 -906q-14 -184 -111.5 -279t-285.5 -108l-45 -4q-51 -2 -81 17.5t-30 56.5zM37 1188q0 25 18 49l176 262q20 27 47 42t56 15 q27 0 51.5 -14t38.5 -43l139 -268q10 -20 10 -37q0 -31 -23.5 -51.5t-55.5 -20.5q-23 0 -41.5 12.5t-28.5 36.5l-102 236l-140 -240q-26 -47 -71 -47q-31 0 -52.5 19.5t-21.5 48.5z" />
<glyph unicode="&#x136;" horiz-adv-x="1314" d="M137 96l99 1256q4 45 34.5 73.5t75.5 28.5q47 0 76 -30.5t24 -75.5l-43 -560l721 637q31 29 68 29q35 0 61.5 -26.5t26.5 -63.5q0 -41 -37 -76l-639 -549l594 -596q23 -23 23 -55q0 -37 -30 -67.5t-69 -30.5q-37 0 -69 35l-658 657l-47 -590q-2 -47 -33.5 -74.5 t-78.5 -27.5t-75 29.5t-24 76.5zM488 -246q0 49 33.5 81t82.5 32q60 0 93.5 -35t33.5 -96q0 -66 -26.5 -129.5t-75.5 -112.5q-27 -29 -59 -29q-23 0 -37.5 11.5t-14.5 31.5q0 18 17 37q49 55 61 113h-2q-47 0 -76.5 24.5t-29.5 71.5z" />
<glyph unicode="&#x137;" horiz-adv-x="1058" d="M113 90l100 1268q2 47 35 71.5t76 24.5q45 0 71.5 -25.5t24.5 -74.5l-64 -801l484 432q29 29 65 29q37 0 64.5 -28t27.5 -62q0 -37 -30 -66l-389 -342l368 -371q25 -25 25 -59q0 -37 -32 -67.5t-71 -30.5q-37 0 -65 30l-453 449l-31 -381q-4 -47 -34.5 -71.5t-73.5 -24.5 q-45 0 -73.5 26.5t-24.5 73.5zM355 -246q0 49 33.5 81t82.5 32q60 0 93.5 -35t33.5 -96q0 -66 -26.5 -129.5t-75.5 -112.5q-27 -29 -59 -29q-23 0 -37.5 11.5t-14.5 31.5q0 18 17 37q49 55 61 113h-2q-47 0 -76.5 24.5t-29.5 71.5z" />
<glyph unicode="&#x138;" horiz-adv-x="1058" d="M111 90l67 834q2 47 35 71.5t76 24.5q45 0 71.5 -24.5t24.5 -71.5l-31 -373l486 434q29 29 65 29q37 0 64.5 -28t27.5 -62q0 -37 -30 -66l-389 -342l368 -371q25 -25 25 -59q0 -37 -32 -67.5t-71 -30.5q-37 0 -65 30l-455 449l-31 -377q-4 -51 -35.5 -75.5t-74.5 -24.5 q-45 0 -73 24.5t-23 75.5z" />
<glyph unicode="&#x139;" horiz-adv-x="1120" d="M137 104l99 1248q2 47 33.5 74.5t78.5 27.5q49 0 76 -28.5t22 -77.5l-92 -1172h621q45 0 68.5 -21.5t23.5 -60.5q0 -94 -102 -94h-732q-51 0 -75.5 26.5t-20.5 77.5zM332 1606q0 18 15 39l147 206q29 43 74 43q31 0 54.5 -22.5t23.5 -52.5q0 -35 -31 -64l-178 -174 q-27 -25 -54 -25q-23 0 -37 14.5t-14 35.5z" />
<glyph unicode="&#x13a;" horiz-adv-x="495" d="M111 88l102 1270q2 49 35 73.5t76 24.5t70.5 -24.5t25.5 -73.5l-103 -1270q-4 -51 -34.5 -74.5t-75.5 -23.5t-73 24.5t-23 73.5zM307 1606q0 18 15 39l147 206q29 43 74 43q31 0 54.5 -22.5t23.5 -52.5q0 -35 -31 -64l-178 -174q-27 -25 -54 -25q-23 0 -37 14.5t-14 35.5 z" />
<glyph unicode="&#x13b;" horiz-adv-x="1120" d="M137 104l99 1248q2 47 33.5 74.5t78.5 27.5q49 0 76 -28.5t22 -77.5l-92 -1172h621q45 0 68.5 -21.5t23.5 -60.5q0 -94 -102 -94h-732q-51 0 -75.5 26.5t-20.5 77.5zM461 -246q0 49 33.5 81t82.5 32q60 0 93.5 -35t33.5 -96q0 -66 -26.5 -129.5t-75.5 -112.5 q-27 -29 -59 -29q-23 0 -37.5 11.5t-14.5 31.5q0 18 17 37q49 55 61 113h-2q-47 0 -76.5 24.5t-29.5 71.5z" />
<glyph unicode="&#x13c;" horiz-adv-x="495" d="M74 -246q0 49 33.5 81t82.5 32q60 0 93.5 -35t33.5 -96q0 -66 -26.5 -129.5t-75.5 -112.5q-27 -29 -59 -29q-23 0 -37.5 11.5t-14.5 31.5q0 18 17 37q49 55 61 113h-2q-47 0 -76.5 24.5t-29.5 71.5zM111 88l102 1270q2 49 35 73.5t76 24.5t70.5 -24.5t25.5 -73.5 l-103 -1270q-4 -51 -34.5 -74.5t-75.5 -23.5t-73 24.5t-23 73.5z" />
<glyph unicode="&#x13d;" horiz-adv-x="1120" d="M137 104l99 1248q2 47 33.5 74.5t78.5 27.5q49 0 76 -28.5t22 -77.5l-92 -1172h621q45 0 68.5 -21.5t23.5 -60.5q0 -94 -102 -94h-732q-51 0 -75.5 26.5t-20.5 77.5zM600 1083l22 301q2 37 25 55.5t53 18.5q29 0 50.5 -18.5t21.5 -50.5q0 -12 -2 -21l-64 -291 q-6 -22 -21 -33.5t-34 -11.5q-20 0 -36.5 14.5t-14.5 36.5z" />
<glyph unicode="&#x13e;" horiz-adv-x="495" d="M111 88l102 1270q2 49 35 73.5t76 24.5t70.5 -24.5t25.5 -73.5l-103 -1270q-4 -51 -34.5 -74.5t-75.5 -23.5t-73 24.5t-23 73.5zM465 1081l22 297q2 37 25 57.5t49 20.5q25 0 42.5 -17.5t17.5 -45.5q0 -14 -3 -23l-67 -297q-4 -20 -17.5 -31.5t-29.5 -11.5 q-18 0 -29.5 14.5t-9.5 36.5z" />
<glyph unicode="&#x13f;" horiz-adv-x="1120" d="M137 104l99 1248q2 47 33.5 74.5t78.5 27.5q49 0 76 -28.5t22 -77.5l-92 -1172h621q45 0 68.5 -21.5t23.5 -60.5q0 -94 -102 -94h-732q-51 0 -75.5 26.5t-20.5 77.5zM631 723q0 55 35 87t94 32q57 0 93 -31.5t36 -87.5q0 -53 -34.5 -86t-94.5 -33q-59 0 -94 33t-35 86z " />
<glyph unicode="&#x140;" horiz-adv-x="602" d="M111 88l102 1270q2 49 35 73.5t76 24.5t70.5 -24.5t25.5 -73.5l-103 -1270q-4 -51 -34.5 -74.5t-75.5 -23.5t-73 24.5t-23 73.5zM420 723q0 55 35 87t94 32q57 0 93 -31.5t36 -87.5q0 -53 -34.5 -86t-94.5 -33q-59 0 -94 33t-35 86z" />
<glyph unicode="&#x141;" horiz-adv-x="1157" d="M8 596q0 47 47 74l170 94l47 588q4 47 35 74.5t78 27.5q49 0 75.5 -28.5t22.5 -77.5l-37 -463l291 159q18 10 41 11q31 0 53.5 -23.5t22.5 -54.5q0 -45 -47 -72l-375 -207l-41 -522h621q45 0 68.5 -22.5t23.5 -59.5q0 -94 -103 -94h-731q-51 0 -75.5 26.5t-20.5 77.5 l37 471l-84 -47q-25 -12 -45 -12q-31 0 -52.5 24.5t-21.5 55.5z" />
<glyph unicode="&#x142;" horiz-adv-x="618" d="M6 596q0 47 45 72l176 96l47 594q4 49 36 73.5t75 24.5q45 0 72.5 -24.5t23.5 -73.5l-37 -475l88 49q23 12 43 12q31 0 53.5 -24.5t22.5 -55.5q0 -47 -47 -73l-176 -97l-47 -606q-4 -51 -35 -74.5t-76 -23.5t-72.5 24.5t-23.5 73.5l39 487l-88 -49q-18 -10 -41 -10 q-33 0 -55.5 24.5t-22.5 55.5z" />
<glyph unicode="&#x143;" horiz-adv-x="1521" d="M135 96l101 1254q2 47 31.5 75.5t74.5 28.5q55 0 84 -43l717 -1053l78 996q4 47 32.5 73.5t73.5 26.5q43 0 69.5 -29.5t24.5 -74.5l-100 -1258q-4 -47 -30.5 -74.5t-71.5 -27.5q-57 0 -89 43l-716 1057l-80 -1000q-4 -45 -33 -72.5t-72 -27.5q-45 0 -70.5 29.5 t-23.5 76.5zM819 1606q0 18 15 39l147 206q29 43 74 43q31 0 54.5 -22.5t23.5 -52.5q0 -35 -31 -64l-178 -174q-27 -25 -54 -25q-23 0 -37 14.5t-14 35.5z" />
<glyph unicode="&#x144;" horiz-adv-x="1179" d="M111 88l67 838q2 43 35 68.5t78 25.5q43 0 67.5 -24.5t22.5 -67.5l-6 -72q51 80 138 124t196 44q168 0 255 -88t87 -260q0 -41 -2 -62l-41 -526q-4 -47 -34 -72.5t-77 -25.5t-73.5 25.5t-22.5 72.5l41 516q2 14 2 43q0 209 -201 209q-127 0 -201.5 -75.5t-85.5 -211.5 l-39 -481q-4 -47 -33.5 -72.5t-76.5 -25.5t-72.5 25.5t-23.5 72.5zM608 1174q0 18 12 38l216 297q33 49 79 50q37 0 65 -26t28 -60q0 -37 -31 -68l-260 -256q-27 -27 -56 -27q-23 0 -38 14.5t-15 37.5z" />
<glyph unicode="&#x145;" horiz-adv-x="1521" d="M135 96l101 1254q2 47 31.5 75.5t74.5 28.5q55 0 84 -43l717 -1053l78 996q4 47 32.5 73.5t73.5 26.5q43 0 69.5 -29.5t24.5 -74.5l-100 -1258q-4 -47 -30.5 -74.5t-71.5 -27.5q-57 0 -89 43l-716 1057l-80 -1000q-4 -45 -33 -72.5t-72 -27.5q-45 0 -70.5 29.5 t-23.5 76.5zM588 -246q0 49 33.5 81t82.5 32q60 0 93.5 -35t33.5 -96q0 -66 -26.5 -129.5t-75.5 -112.5q-27 -29 -59 -29q-23 0 -37.5 11.5t-14.5 31.5q0 18 17 37q49 55 61 113h-2q-47 0 -76.5 24.5t-29.5 71.5z" />
<glyph unicode="&#x146;" horiz-adv-x="1179" d="M111 88l67 838q2 43 35 68.5t78 25.5q43 0 67.5 -24.5t22.5 -67.5l-6 -72q51 80 138 124t196 44q168 0 255 -88t87 -260q0 -41 -2 -62l-41 -526q-4 -47 -34 -72.5t-77 -25.5t-73.5 25.5t-22.5 72.5l41 516q2 14 2 43q0 209 -201 209q-127 0 -201.5 -75.5t-85.5 -211.5 l-39 -481q-4 -47 -33.5 -72.5t-76.5 -25.5t-72.5 25.5t-23.5 72.5zM418 -246q0 49 33.5 81t82.5 32q60 0 93.5 -35t33.5 -96q0 -66 -26.5 -129.5t-75.5 -112.5q-27 -29 -59 -29q-23 0 -37.5 11.5t-14.5 31.5q0 18 17 37q49 55 61 113h-2q-47 0 -76.5 24.5t-29.5 71.5z" />
<glyph unicode="&#x147;" horiz-adv-x="1521" d="M135 96l101 1254q2 47 31.5 75.5t74.5 28.5q55 0 84 -43l717 -1053l78 996q4 47 32.5 73.5t73.5 26.5q43 0 69.5 -29.5t24.5 -74.5l-100 -1258q-4 -47 -30.5 -74.5t-71.5 -27.5q-57 0 -89 43l-716 1057l-80 -1000q-4 -45 -33 -72.5t-72 -27.5q-45 0 -70.5 29.5 t-23.5 76.5zM604 1823q0 27 21.5 46t50.5 19q43 0 67 -41l105 -168l143 176q29 35 68 35q29 0 48 -17.5t19 -41.5q0 -27 -22 -49l-170 -189q-37 -39 -92 -39q-57 0 -84 39l-137 185q-16 23 -17 45z" />
<glyph unicode="&#x148;" horiz-adv-x="1179" d="M111 88l67 838q2 43 35 68.5t78 25.5q43 0 67.5 -24.5t22.5 -67.5l-6 -72q51 80 138 124t196 44q168 0 255 -88t87 -260q0 -41 -2 -62l-41 -526q-4 -47 -34 -72.5t-77 -25.5t-73.5 25.5t-22.5 72.5l41 516q2 14 2 43q0 209 -201 209q-127 0 -201.5 -75.5t-85.5 -211.5 l-39 -481q-4 -47 -33.5 -72.5t-76.5 -25.5t-72.5 25.5t-23.5 72.5zM401 1485q0 31 23.5 50t54.5 19q49 0 72 -49l102 -235l137 239q25 45 72 45q31 0 52.5 -19t21.5 -48q0 -27 -17 -49l-176 -260q-18 -29 -45.5 -43.5t-56.5 -14.5q-27 0 -52.5 14.5t-39.5 43.5l-137 268 q-10 18 -11 39z" />
<glyph unicode="&#x149;" horiz-adv-x="1179" d="M111 88l67 838q2 43 35 68.5t78 25.5q43 0 67.5 -24.5t22.5 -67.5l-6 -72q51 80 138 124t196 44q168 0 255 -88t87 -260q0 -41 -2 -62l-41 -526q-4 -47 -34 -72.5t-77 -25.5t-73.5 25.5t-22.5 72.5l41 516q2 14 2 43q0 209 -201 209q-127 0 -201.5 -75.5t-85.5 -211.5 l-39 -481q-4 -47 -33.5 -72.5t-76.5 -25.5t-72.5 25.5t-23.5 72.5zM252 1444q0 49 35 79.5t86 30.5q57 0 90 -31.5t33 -97.5t-27 -130t-74 -113q-29 -29 -61 -29q-23 0 -37 12.5t-14 30.5q0 23 16 39q51 55 63 113h-4q-45 0 -75.5 25.5t-30.5 70.5z" />
<glyph unicode="&#x14a;" horiz-adv-x="1521" d="M135 96l101 1254q2 47 31.5 75.5t74.5 28.5q53 0 84 -43l717 -1053l78 996q4 47 32.5 73.5t73.5 26.5q43 0 69.5 -29.5t24.5 -74.5l-104 -1321q-31 -379 -399 -404l-70 -4q-55 -2 -84 20.5t-29 65.5q2 37 24.5 57.5t65.5 22.5l76 4q92 4 149.5 64.5t65.5 164.5l2 31 l-704 1039l-80 -1000q-4 -45 -33 -72.5t-72 -27.5q-45 0 -70.5 29.5t-23.5 76.5z" />
<glyph unicode="&#x14b;" horiz-adv-x="1179" d="M111 88l67 838q2 43 35 68.5t78 25.5q43 0 67.5 -24.5t22.5 -67.5l-6 -72q51 80 138 124t196 44q165 0 253.5 -88t88.5 -260q0 -41 -2 -62l-48 -598q-14 -186 -110 -280t-285 -107l-47 -4q-53 -2 -81.5 17.5t-28.5 58.5q0 74 88 80l59 4q94 6 141 58.5t56 154.5l49 606 q2 14 2 43q0 209 -201 209q-127 0 -201.5 -75.5t-85.5 -211.5l-39 -481q-4 -47 -33.5 -72.5t-76.5 -25.5t-72.5 25.5t-23.5 72.5z" />
<glyph unicode="&#x14c;" horiz-adv-x="1579" d="M135 666q0 240 85 420t239.5 278t359.5 98q203 0 351.5 -82t228.5 -236.5t80 -365.5q0 -240 -85 -420t-240 -278t-361 -98q-203 0 -351.5 81.5t-227.5 236.5t-79 366zM350 664q0 -244 115 -375t328 -131q145 0 250.5 73.5t163 214t57.5 332.5q0 246 -115 377t-328 131 q-219 0 -345 -166t-126 -456zM557 1722q0 35 23.5 54.5t62.5 19.5h498q35 0 55.5 -19.5t20.5 -52.5q0 -35 -23.5 -53t-62.5 -18h-498q-35 0 -55.5 18.5t-20.5 50.5z" />
<glyph unicode="&#x14d;" horiz-adv-x="1155" d="M86 471q0 168 62.5 293t176 192.5t263.5 67.5q147 0 255.5 -60.5t168 -170t59.5 -256.5q0 -168 -62.5 -292t-176 -191.5t-265.5 -67.5q-145 0 -253.5 59t-168 170t-59.5 256zM295 465q0 -156 70.5 -235.5t203.5 -79.5q142 0 217.5 106t75.5 287q0 154 -70.5 234.5 t-201.5 80.5q-143 0 -219 -106.5t-76 -286.5zM316 1335q0 37 23.5 55.5t62.5 18.5h497q35 0 55.5 -17.5t20.5 -50.5q0 -35 -23.5 -55t-62.5 -20h-498q-34 0 -54.5 18.5t-20.5 50.5z" />
<glyph unicode="&#x14e;" horiz-adv-x="1579" d="M135 666q0 240 85 420t239.5 278t359.5 98q203 0 351.5 -82t228.5 -236.5t80 -365.5q0 -240 -85 -420t-240 -278t-361 -98q-203 0 -351.5 81.5t-227.5 236.5t-79 366zM350 664q0 -244 115 -375t328 -131q145 0 250.5 73.5t163 214t57.5 332.5q0 246 -115 377t-328 131 q-219 0 -345 -166t-126 -456zM561 1800q0 25 18.5 41.5t45.5 16.5q37 0 63 -33q66 -98 199 -99q131 0 209 99q31 33 70 33q25 0 41 -14.5t16 -37.5q0 -20 -16 -47q-51 -82 -135.5 -126t-190.5 -44q-109 0 -187.5 44t-119.5 126q-12 23 -13 41z" />
<glyph unicode="&#x14f;" horiz-adv-x="1155" d="M86 471q0 168 62.5 293t176 192.5t263.5 67.5q147 0 255.5 -60.5t168 -170t59.5 -256.5q0 -168 -62.5 -292t-176 -191.5t-265.5 -67.5q-145 0 -253.5 59t-168 170t-59.5 256zM295 465q0 -156 70.5 -235.5t203.5 -79.5q142 0 217.5 106t75.5 287q0 154 -70.5 234.5 t-201.5 80.5q-143 0 -219 -106.5t-76 -286.5zM316 1434q0 29 21.5 48t47.5 19q41 0 62 -43q29 -61 81 -94t119 -33q133 0 213 127q27 43 68 43q25 0 43 -16.5t18 -42.5q0 -14 -10 -39q-45 -100 -137 -157.5t-205 -57.5q-110 0 -192 56t-123 159q-6 16 -6 31z" />
<glyph unicode="&#x150;" horiz-adv-x="1579" d="M135 666q0 240 85 420t239.5 278t359.5 98q203 0 351.5 -82t228.5 -236.5t80 -365.5q0 -240 -85 -420t-240 -278t-361 -98q-203 0 -351.5 81.5t-227.5 236.5t-79 366zM350 664q0 -244 115 -375t328 -131q145 0 250.5 73.5t163 214t57.5 332.5q0 246 -115 377t-328 131 q-219 0 -345 -166t-126 -456zM721 1595q0 12 6 27l109 219q25 51 72 51q27 0 46 -19.5t19 -45.5q0 -25 -20 -51l-150 -193q-18 -24 -45 -24q-16 0 -26.5 10t-10.5 26zM977 1597q0 12 6 25l111 219q27 51 70 51q27 0 46 -19.5t19 -45.5q0 -25 -20 -51l-150 -193 q-18 -24 -45 -24q-16 0 -26.5 10t-10.5 28z" />
<glyph unicode="&#x151;" horiz-adv-x="1155" d="M86 471q0 168 62.5 293t176 192.5t263.5 67.5q147 0 255.5 -60.5t168 -170t59.5 -256.5q0 -168 -62.5 -292t-176 -191.5t-265.5 -67.5q-145 0 -253.5 59t-168 170t-59.5 256zM295 465q0 -156 70.5 -235.5t203.5 -79.5q142 0 217.5 106t75.5 287q0 154 -70.5 234.5 t-201.5 80.5q-143 0 -219 -106.5t-76 -286.5zM463 1165q0 10 2 17l84 301q10 39 33.5 58.5t52.5 19.5t49.5 -20.5t20.5 -51.5q0 -27 -15 -55l-139 -285q-14 -31 -45 -31q-18 0 -30.5 12.5t-12.5 34.5zM721 1165q0 10 2 17l84 301q10 39 34 58.5t52 19.5q29 0 49.5 -20.5 t20.5 -51.5q0 -27 -15 -55l-139 -285q-14 -31 -45 -31q-18 0 -30.5 12.5t-12.5 34.5z" />
<glyph unicode="&#x152;" horiz-adv-x="2140" d="M135 666q0 244 88 417.5t257 267t407 93.5h1155q45 0 69.5 -22.5t24.5 -59.5q0 -43 -26.5 -65.5t-77.5 -22.5h-654l-37 -455h611q45 0 69.5 -22.5t24.5 -59.5q0 -41 -26.5 -65.5t-75.5 -24.5h-615l-39 -477h652q45 0 69.5 -22.5t24.5 -59.5q0 -41 -27 -64.5t-76 -23.5 h-1114q-326 0 -505 176t-179 490zM350 664q0 -242 124 -368t366 -126h243l88 1104h-270q-274 0 -412.5 -156.5t-138.5 -453.5z" />
<glyph unicode="&#x153;" horiz-adv-x="1847" d="M86 471q0 166 62.5 292t175 193.5t260.5 67.5q141 0 239.5 -53t151.5 -154q61 98 160.5 152.5t228.5 54.5q195 0 301.5 -123t106.5 -352q0 -41 -21.5 -62.5t-58.5 -21.5h-627q2 -152 78 -235t221 -83q131 0 254 82q23 14 45 15q29 0 47.5 -22.5t18.5 -53.5q0 -47 -41 -80 q-55 -45 -149.5 -73.5t-186.5 -28.5q-139 0 -239.5 55t-158.5 156q-59 -100 -159.5 -155.5t-233.5 -55.5q-141 0 -248.5 59t-167 170t-59.5 256zM295 465q0 -156 70.5 -235.5t203.5 -79.5q140 0 214.5 106t74.5 287q0 154 -69.5 234.5t-198.5 80.5q-143 0 -219 -106.5 t-76 -286.5zM1073 584h520q2 143 -58 215.5t-171 72.5q-121 0 -195.5 -73.5t-95.5 -214.5z" />
<glyph unicode="&#x154;" horiz-adv-x="1413" d="M137 98l99 1243q2 49 31.5 76t76.5 27h512q221 0 342 -102.5t121 -290.5t-99.5 -299t-297.5 -136q47 -16 80.5 -52t68.5 -101l178 -338q12 -25 13 -45q0 -41 -33 -67.5t-74 -26.5q-29 0 -54.5 15t-39.5 46l-215 416q-39 74 -91.5 103.5t-138.5 29.5h-231l-39 -504 q-2 -47 -32.5 -74.5t-77.5 -27.5q-49 0 -76 28.5t-23 79.5zM399 766h398q160 0 239.5 67.5t79.5 204.5q0 121 -69.5 178.5t-210.5 57.5h-398zM764 1606q0 18 15 39l147 206q29 43 74 43q31 0 54.5 -22.5t23.5 -52.5q0 -35 -31 -64l-178 -174q-27 -25 -54 -25q-23 0 -37 14.5 t-14 35.5z" />
<glyph unicode="&#x155;" horiz-adv-x="749" d="M111 88l67 838q2 45 35 69.5t76 24.5q41 0 65.5 -23.5t22.5 -68.5l-6 -84q102 158 323 174l23 2q39 4 62.5 -16.5t23.5 -59.5q0 -94 -103 -102l-55 -6q-141 -14 -209.5 -82t-79.5 -199l-39 -467q-4 -51 -34.5 -74.5t-75.5 -23.5t-73 24.5t-23 73.5zM467 1174q0 18 12 38 l216 297q33 49 79 50q37 0 65 -26t28 -60q0 -37 -31 -68l-260 -256q-27 -27 -56 -27q-23 0 -38 14.5t-15 37.5z" />
<glyph unicode="&#x156;" horiz-adv-x="1413" d="M137 98l99 1243q2 49 31.5 76t76.5 27h512q221 0 342 -102.5t121 -290.5t-99.5 -299t-297.5 -136q47 -16 80.5 -52t68.5 -101l178 -338q12 -25 13 -45q0 -41 -33 -67.5t-74 -26.5q-29 0 -54.5 15t-39.5 46l-215 416q-39 74 -91.5 103.5t-138.5 29.5h-231l-39 -504 q-2 -47 -32.5 -74.5t-77.5 -27.5q-49 0 -76 28.5t-23 79.5zM399 766h398q160 0 239.5 67.5t79.5 204.5q0 121 -69.5 178.5t-210.5 57.5h-398zM531 -246q0 49 33.5 81t82.5 32q60 0 93.5 -35t33.5 -96q0 -66 -26.5 -129.5t-75.5 -112.5q-27 -29 -59 -29q-23 0 -37.5 11.5 t-14.5 31.5q0 18 17 37q49 55 61 113h-2q-47 0 -76.5 24.5t-29.5 71.5z" />
<glyph unicode="&#x157;" horiz-adv-x="749" d="M74 -246q0 49 33.5 81t82.5 32q60 0 93.5 -35t33.5 -96q0 -66 -26.5 -129.5t-75.5 -112.5q-27 -29 -59 -29q-23 0 -37.5 11.5t-14.5 31.5q0 18 17 37q49 55 61 113h-2q-47 0 -76.5 24.5t-29.5 71.5zM111 88l67 838q2 45 35 69.5t76 24.5q41 0 65.5 -23.5t22.5 -68.5 l-6 -84q102 158 323 174l23 2q39 4 62.5 -16.5t23.5 -59.5q0 -94 -103 -102l-55 -6q-141 -14 -209.5 -82t-79.5 -199l-39 -467q-4 -51 -34.5 -74.5t-75.5 -23.5t-73 24.5t-23 73.5z" />
<glyph unicode="&#x158;" horiz-adv-x="1413" d="M137 98l99 1243q2 49 31.5 76t76.5 27h512q221 0 342 -102.5t121 -290.5t-99.5 -299t-297.5 -136q47 -16 80.5 -52t68.5 -101l178 -338q12 -25 13 -45q0 -41 -33 -67.5t-74 -26.5q-29 0 -54.5 15t-39.5 46l-215 416q-39 74 -91.5 103.5t-138.5 29.5h-231l-39 -504 q-2 -47 -32.5 -74.5t-77.5 -27.5q-49 0 -76 28.5t-23 79.5zM399 766h398q160 0 239.5 67.5t79.5 204.5q0 121 -69.5 178.5t-210.5 57.5h-398zM549 1823q0 27 21.5 46t50.5 19q43 0 67 -41l105 -168l143 176q29 35 68 35q29 0 48 -17.5t19 -41.5q0 -27 -22 -49l-170 -189 q-37 -39 -92 -39q-57 0 -84 39l-137 185q-16 23 -17 45z" />
<glyph unicode="&#x159;" horiz-adv-x="749" d="M111 88l67 838q2 45 35 69.5t76 24.5q41 0 65.5 -23.5t22.5 -68.5l-6 -84q102 158 323 174l23 2q39 4 62.5 -16.5t23.5 -59.5q0 -94 -103 -102l-55 -6q-141 -14 -209.5 -82t-79.5 -199l-39 -467q-4 -51 -34.5 -74.5t-75.5 -23.5t-73 24.5t-23 73.5zM260 1485 q0 31 23.5 50t54.5 19q49 0 72 -49l102 -235l137 239q25 45 72 45q31 0 52.5 -19t21.5 -48q0 -27 -17 -49l-176 -260q-18 -29 -45.5 -43.5t-56.5 -14.5q-27 0 -52.5 14.5t-39.5 43.5l-137 268q-10 18 -11 39z" />
<glyph unicode="&#x15a;" horiz-adv-x="1284" d="M61 223q0 37 21.5 61.5t54.5 24.5q29 0 56 -18q180 -135 440 -135q164 0 251 58t87 165q0 68 -44 110.5t-109.5 68.5t-182.5 60q-152 45 -247 87.5t-161.5 123t-66.5 211.5q0 127 68.5 222.5t193.5 146.5t293 51q150 0 279.5 -43t213.5 -117q35 -29 35 -73 q0 -37 -23.5 -63.5t-58.5 -26.5q-29 0 -65 24q-72 57 -172.5 92t-212.5 35q-162 0 -250 -61.5t-88 -171.5q0 -74 47 -122t116.5 -76t190.5 -62q147 -43 237.5 -83t155 -116t64.5 -199q0 -193 -148.5 -303t-408.5 -110q-328 0 -514 147q-51 37 -52 92zM704 1606q0 18 15 39 l147 206q29 43 74 43q31 0 54.5 -22.5t23.5 -52.5q0 -35 -31 -64l-178 -174q-27 -25 -54 -25q-23 0 -37 14.5t-14 35.5z" />
<glyph unicode="&#x15b;" horiz-adv-x="987" d="M53 166q0 33 21.5 57.5t52.5 24.5q23 0 45 -15q139 -90 303 -90q215 0 215 127q0 59 -55 91t-172 65q-106 31 -172 59.5t-113 85t-47 146.5q0 139 113.5 223t304.5 84q88 0 176 -27.5t141 -72.5q43 -31 43 -76q0 -31 -19.5 -54.5t-49.5 -23.5q-27 0 -52 16 q-121 80 -249 80q-102 0 -157.5 -34.5t-55.5 -102.5q0 -59 54 -90t171 -64q106 -31 171.5 -59.5t113 -84.5t47.5 -148q0 -139 -113 -218t-309 -79q-99 0 -193 25.5t-162 68.5q-53 33 -53 86zM528 1174q0 18 12 38l216 297q33 49 79 50q37 0 65 -26t28 -60q0 -37 -31 -68 l-260 -256q-27 -27 -56 -27q-23 0 -38 14.5t-15 37.5z" />
<glyph unicode="&#x15c;" horiz-adv-x="1284" d="M61 223q0 37 21.5 61.5t54.5 24.5q29 0 56 -18q180 -135 440 -135q164 0 251 58t87 165q0 68 -44 110.5t-109.5 68.5t-182.5 60q-152 45 -247 87.5t-161.5 123t-66.5 211.5q0 127 68.5 222.5t193.5 146.5t293 51q150 0 279.5 -43t213.5 -117q35 -29 35 -73 q0 -37 -23.5 -63.5t-58.5 -26.5q-29 0 -65 24q-72 57 -172.5 92t-212.5 35q-162 0 -250 -61.5t-88 -171.5q0 -74 47 -122t116.5 -76t190.5 -62q147 -43 237.5 -83t155 -116t64.5 -199q0 -193 -148.5 -303t-408.5 -110q-328 0 -514 147q-51 37 -52 92zM473 1616q0 27 20 49 l172 188q37 39 92 39q53 0 84 -39l136 -186q16 -23 16 -45q0 -27 -20.5 -46.5t-49.5 -19.5q-41 0 -67 43l-105 168l-145 -176q-29 -35 -68 -35q-27 0 -46 17.5t-19 42.5z" />
<glyph unicode="&#x15d;" horiz-adv-x="987" d="M53 166q0 33 21.5 57.5t52.5 24.5q23 0 45 -15q139 -90 303 -90q215 0 215 127q0 59 -55 91t-172 65q-106 31 -172 59.5t-113 85t-47 146.5q0 139 113.5 223t304.5 84q88 0 176 -27.5t141 -72.5q43 -31 43 -76q0 -31 -19.5 -54.5t-49.5 -23.5q-27 0 -52 16 q-121 80 -249 80q-102 0 -157.5 -34.5t-55.5 -102.5q0 -59 54 -90t171 -64q106 -31 171.5 -59.5t113 -84.5t47.5 -148q0 -139 -113 -218t-309 -79q-99 0 -193 25.5t-162 68.5q-53 33 -53 86zM301 1188q0 25 18 49l176 262q20 27 47 42t56 15q27 0 51.5 -14t38.5 -43 l139 -268q10 -20 10 -37q0 -31 -23.5 -51.5t-55.5 -20.5q-23 0 -41.5 12.5t-28.5 36.5l-102 236l-140 -240q-26 -47 -71 -47q-31 0 -52.5 19.5t-21.5 48.5z" />
<glyph unicode="&#x15e;" horiz-adv-x="1284" d="M61 223q0 37 21.5 61.5t54.5 24.5q29 0 56 -18q180 -135 440 -135q164 0 251 58t87 165q0 68 -44 110.5t-109.5 68.5t-182.5 60q-152 45 -247 87.5t-161.5 123t-66.5 211.5q0 127 68.5 222.5t193.5 146.5t293 51q150 0 279.5 -43t213.5 -117q35 -29 35 -73 q0 -37 -23.5 -63.5t-58.5 -26.5q-29 0 -65 24q-72 57 -172.5 92t-212.5 35q-162 0 -250 -61.5t-88 -171.5q0 -74 47 -122t116.5 -76t190.5 -62q147 -43 237.5 -83t155 -116t64.5 -199q0 -188 -142.5 -298.5t-392.5 -114.5l-14 -70q10 2 35 2q72 0 113.5 -37t41.5 -100 q0 -80 -68.5 -128t-181.5 -48q-82 0 -149 22q-18 6 -27.5 19.5t-9.5 29.5q0 25 19.5 42.5t46.5 9.5q63 -16 116 -17q113 0 113 66q0 25 -17.5 38t-50.5 13q-25 0 -51 -8t-37 -8q-18 0 -29.5 12t-6.5 28l28 138q-252 20 -407 143q-51 37 -52 92z" />
<glyph unicode="&#x15f;" horiz-adv-x="987" d="M53 166q0 33 21.5 57.5t52.5 24.5q23 0 45 -15q139 -90 303 -90q215 0 215 127q0 59 -55 91t-172 65q-106 31 -172 59.5t-113 85t-47 146.5q0 139 113.5 223t304.5 84q88 0 176 -27.5t141 -72.5q43 -31 43 -76q0 -31 -19.5 -54.5t-49.5 -23.5q-27 0 -52 16 q-121 80 -249 80q-103 0 -158 -34.5t-55 -102.5q0 -59 54 -90t171 -64q106 -31 171.5 -59.5t113 -84.5t47.5 -148q0 -131 -102.5 -210t-282.5 -87l-17 -72q10 2 35 2q72 0 114 -37t42 -100q0 -80 -68.5 -128t-181.5 -48q-82 0 -150 22q-18 6 -27 19.5t-9 29.5q0 25 19 42.5 t46 9.5q63 -16 117 -17q113 0 112 66q0 25 -17 38t-50 13q-25 0 -51.5 -8t-36.5 -8q-18 0 -29.5 12t-7.5 28l29 142q-152 18 -261 88q-53 33 -53 86z" />
<glyph unicode="&#x160;" horiz-adv-x="1284" d="M61 223q0 37 21.5 61.5t54.5 24.5q29 0 56 -18q180 -135 440 -135q164 0 251 58t87 165q0 68 -44 110.5t-109.5 68.5t-182.5 60q-152 45 -247 87.5t-161.5 123t-66.5 211.5q0 127 68.5 222.5t193.5 146.5t293 51q150 0 279.5 -43t213.5 -117q35 -29 35 -73 q0 -37 -23.5 -63.5t-58.5 -26.5q-29 0 -65 24q-72 57 -172.5 92t-212.5 35q-162 0 -250 -61.5t-88 -171.5q0 -74 47 -122t116.5 -76t190.5 -62q147 -43 237.5 -83t155 -116t64.5 -199q0 -193 -148.5 -303t-408.5 -110q-328 0 -514 147q-51 37 -52 92zM489 1823q0 27 21.5 46 t50.5 19q43 0 67 -41l105 -168l143 176q29 35 68 35q29 0 48 -17.5t19 -41.5q0 -27 -22 -49l-170 -189q-37 -39 -92 -39q-57 0 -84 39l-137 185q-16 23 -17 45z" />
<glyph unicode="&#x161;" horiz-adv-x="987" d="M53 166q0 33 21.5 57.5t52.5 24.5q23 0 45 -15q139 -90 303 -90q215 0 215 127q0 59 -55 91t-172 65q-106 31 -172 59.5t-113 85t-47 146.5q0 139 113.5 223t304.5 84q88 0 176 -27.5t141 -72.5q43 -31 43 -76q0 -31 -19.5 -54.5t-49.5 -23.5q-27 0 -52 16 q-121 80 -249 80q-102 0 -157.5 -34.5t-55.5 -102.5q0 -59 54 -90t171 -64q106 -31 171.5 -59.5t113 -84.5t47.5 -148q0 -139 -113 -218t-309 -79q-99 0 -193 25.5t-162 68.5q-53 33 -53 86zM321 1485q0 31 23.5 50t54.5 19q49 0 72 -49l102 -235l137 239q25 45 72 45 q31 0 52.5 -19t21.5 -48q0 -27 -17 -49l-176 -260q-18 -29 -45.5 -43.5t-56.5 -14.5q-27 0 -52.5 14.5t-39.5 43.5l-137 268q-10 18 -11 39z" />
<glyph unicode="&#x162;" horiz-adv-x="1239" d="M74 1350q0 94 102 94h1032q45 0 70 -22.5t25 -61.5q0 -92 -103 -92h-414l-92 -1176q-2 -33 -20.5 -58.5t-46.5 -35.5l-19 -84q10 2 35 2q72 0 114 -37t42 -100q0 -80 -68.5 -128t-181.5 -48q-82 0 -150 22q-18 6 -27.5 19.5t-9.5 29.5q0 25 19.5 42.5t46.5 9.5 q63 -16 117 -17q113 0 112 66q0 25 -17 38t-50 13q-25 0 -51.5 -8t-36.5 -8q-18 0 -29.5 12t-7.5 28l37 177q-23 31 -21 69l94 1172h-407q-45 0 -69.5 21.5t-24.5 60.5z" />
<glyph unicode="&#x163;" horiz-adv-x="722" d="M27 918q0 39 24.5 60t71.5 21h123l16 213q4 43 35 70t76 27q47 0 73.5 -27t22.5 -72l-16 -211h202q39 0 61.5 -20.5t22.5 -54.5q0 -84 -94 -84h-205l-37 -469q-2 -12 -2 -37q0 -92 42 -140.5t118 -48.5q25 0 49.5 3.5t38.5 3.5q25 0 39 -19.5t14 -54.5q0 -51 -39.5 -71.5 t-140.5 -20.5q-37 0 -53 2l-16 -74q10 2 34 2q72 0 114 -37t42 -100q0 -80 -68.5 -128t-181.5 -48q-82 0 -149 22q-18 6 -27.5 19.5t-9.5 29.5q0 25 19.5 42.5t45.5 9.5q63 -16 117 -17q113 0 113 66q0 25 -17.5 38t-50.5 13q-25 0 -51.5 -8t-36.5 -8q-18 0 -29.5 12 t-7.5 28l35 175q-72 37 -110.5 110.5t-38.5 177.5q0 35 2 52l36 475h-120q-41 0 -63.5 20.5t-22.5 57.5z" />
<glyph unicode="&#x164;" horiz-adv-x="1239" d="M74 1350q0 94 102 94h1032q45 0 70 -22.5t25 -61.5q0 -92 -103 -92h-414l-92 -1176q-4 -45 -34.5 -73.5t-77.5 -28.5t-75 29.5t-26 76.5l94 1172h-407q-45 0 -69.5 21.5t-24.5 60.5zM463 1823q0 27 21.5 46t50.5 19q43 0 67 -41l105 -168l143 176q29 35 68 35 q29 0 48 -17.5t19 -41.5q0 -27 -22 -49l-170 -189q-37 -39 -92 -39q-57 0 -84 39l-137 185q-16 23 -17 45z" />
<glyph unicode="&#x165;" horiz-adv-x="722" d="M27 918q0 39 24.5 60t71.5 21h123l16 213q4 43 35 70t76 27q47 0 73.5 -27t22.5 -72l-16 -211h202q39 0 61.5 -20.5t22.5 -54.5q0 -84 -94 -84h-205l-37 -469q-2 -12 -2 -37q0 -92 42 -140.5t118 -48.5q25 0 49.5 3.5t38.5 3.5q25 0 39 -19.5t14 -54.5q0 -51 -39.5 -71.5 t-140.5 -20.5q-156 0 -241.5 86t-85.5 241q0 33 2 52l36 475h-120q-41 0 -63.5 20.5t-22.5 57.5zM565 1120l25 271q2 32 27.5 49.5t56.5 17.5q33 0 56.5 -17.5t23.5 -45.5q0 -12 -2 -19l-70 -262q-6 -18 -23.5 -29.5t-37.5 -11.5q-23 0 -40.5 13.5t-15.5 33.5z" />
<glyph unicode="&#x166;" horiz-adv-x="1239" d="M74 1350q0 94 102 94h1032q45 0 70 -22.5t25 -61.5q0 -92 -103 -92h-414l-34 -453h211q41 0 64.5 -22.5t23.5 -59.5q0 -39 -26 -61.5t-73 -22.5h-215l-43 -557q-4 -45 -34.5 -73.5t-77.5 -28.5t-75 29.5t-26 76.5l45 553h-213q-43 0 -66.5 21.5t-23.5 58.5 q0 41 26.5 63.5t72.5 22.5h217l36 453h-407q-45 0 -69.5 21.5t-24.5 60.5z" />
<glyph unicode="&#x167;" horiz-adv-x="743" d="M37 918q0 39 24.5 60t71.5 21h123l16 213q4 45 35 71t76 26q47 0 73.5 -27t22.5 -72l-16 -211h203q39 0 61.5 -20.5t22.5 -54.5q0 -84 -95 -84h-204l-15 -191h164q39 0 60.5 -19.5t21.5 -51.5q0 -37 -24.5 -58.5t-65.5 -21.5h-168l-10 -127q-2 -12 -2 -37 q0 -188 172 -189q20 0 73 5q20 2 34 -13.5t14 -38.5q0 -31 -23 -47q-6 -35 -38 -50t-101 -15q-162 0 -250 87t-88 244q0 31 2 48l10 133h-84q-39 0 -60.5 20.5t-21.5 54.5q0 35 24.5 55.5t65.5 20.5h88l15 191h-121q-39 0 -62.5 21.5t-23.5 56.5z" />
<glyph unicode="&#x168;" horiz-adv-x="1490" d="M160 504q0 27 4 80l61 768q2 45 33 73.5t78 28.5t73.5 -29.5t24.5 -76.5l-61 -766q-2 -23 -2 -66q0 -360 360 -360q182 0 281.5 95t115.5 300l64 801q2 45 32.5 73.5t75.5 28.5q47 0 75 -28.5t24 -77.5l-62 -779q-23 -293 -177 -439t-437 -146q-279 0 -421 133t-142 387z M508 1669q0 39 24.5 80t71 68.5t103.5 27.5q35 0 69.5 -12t88.5 -39q33 -16 65.5 -28.5t56.5 -12.5q35 0 55.5 13.5t39.5 37.5q16 20 26.5 27.5t24.5 7.5q23 0 35 -15.5t12 -39.5q0 -39 -24.5 -81t-70.5 -69.5t-104 -27.5q-34 0 -69 12t-88 39q-33 16 -66 28.5t-57 12.5 q-33 0 -53.5 -13.5t-43.5 -37.5q-16 -20 -26 -27.5t-25 -7.5q-20 0 -32.5 16.5t-12.5 40.5z" />
<glyph unicode="&#x169;" horiz-adv-x="1165" d="M127 336q0 37 2 55l43 529q4 47 35 73.5t76 26.5q47 0 73.5 -26.5t22.5 -73.5l-43 -517l-2 -36q0 -213 198 -213q121 0 193 75.5t82 208.5l41 482q2 47 32.5 73.5t77.5 26.5q48 0 73.5 -25.5t23.5 -74.5l-68 -836q-2 -43 -33.5 -68.5t-76.5 -25.5q-43 0 -69 23.5 t-24 66.5l7 72q-51 -80 -136.5 -123t-189.5 -43q-166 0 -252 89t-86 261zM311 1274q0 41 28 89t74 81t99 33q41 0 78 -17.5t86 -50.5q39 -27 64.5 -40t50.5 -13q33 0 53 17.5t41 47.5q20 27 30.5 37t26.5 10q20 0 31.5 -16t11.5 -43q0 -41 -27.5 -89t-73.5 -81t-99 -33 q-41 0 -77 17.5t-87 52.5q-41 27 -65.5 39t-47.5 12q-33 0 -53.5 -17.5t-40.5 -47.5q-20 -27 -30.5 -37.5t-26.5 -10.5q-20 0 -33 16.5t-13 43.5z" />
<glyph unicode="&#x16a;" horiz-adv-x="1490" d="M160 504q0 27 4 80l61 768q2 45 33 73.5t78 28.5t73.5 -29.5t24.5 -76.5l-61 -766q-2 -23 -2 -66q0 -360 360 -360q182 0 281.5 95t115.5 300l64 801q2 45 32.5 73.5t75.5 28.5q47 0 75 -28.5t24 -77.5l-62 -779q-23 -293 -177 -439t-437 -146q-279 0 -421 133t-142 387z M514 1722q0 35 23.5 54.5t62.5 19.5h498q35 0 55.5 -19.5t20.5 -52.5q0 -35 -23.5 -53t-62.5 -18h-498q-35 0 -55.5 18.5t-20.5 50.5z" />
<glyph unicode="&#x16b;" horiz-adv-x="1165" d="M127 336q0 37 2 55l43 529q4 47 35 73.5t76 26.5q47 0 73.5 -26.5t22.5 -73.5l-43 -517l-2 -36q0 -213 198 -213q121 0 193 75.5t82 208.5l41 482q2 47 32.5 73.5t77.5 26.5q48 0 73.5 -25.5t23.5 -74.5l-68 -836q-2 -43 -33.5 -68.5t-76.5 -25.5q-43 0 -69 23.5 t-24 66.5l7 72q-51 -80 -136.5 -123t-189.5 -43q-166 0 -252 89t-86 261zM320 1335q0 37 23.5 55.5t62.5 18.5h497q35 0 55.5 -17.5t20.5 -50.5q0 -35 -23.5 -55t-62.5 -20h-498q-34 0 -54.5 18.5t-20.5 50.5z" />
<glyph unicode="&#x16c;" horiz-adv-x="1490" d="M160 504q0 27 4 80l61 768q2 45 33 73.5t78 28.5t73.5 -29.5t24.5 -76.5l-61 -766q-2 -23 -2 -66q0 -360 360 -360q182 0 281.5 95t115.5 300l64 801q2 45 32.5 73.5t75.5 28.5q47 0 75 -28.5t24 -77.5l-62 -779q-23 -293 -177 -439t-437 -146q-279 0 -421 133t-142 387z M518 1800q0 25 18.5 41.5t45.5 16.5q37 0 63 -33q66 -98 199 -99q131 0 209 99q31 33 70 33q25 0 41 -14.5t16 -37.5q0 -20 -16 -47q-51 -82 -135.5 -126t-190.5 -44q-109 0 -187.5 44t-119.5 126q-12 23 -13 41z" />
<glyph unicode="&#x16d;" horiz-adv-x="1165" d="M127 336q0 37 2 55l43 529q4 47 35 73.5t76 26.5q47 0 73.5 -26.5t22.5 -73.5l-43 -517l-2 -36q0 -213 198 -213q121 0 193 75.5t82 208.5l41 482q2 47 32.5 73.5t77.5 26.5q48 0 73.5 -25.5t23.5 -74.5l-68 -836q-2 -43 -33.5 -68.5t-76.5 -25.5q-43 0 -69 23.5 t-24 66.5l7 72q-51 -80 -136.5 -123t-189.5 -43q-166 0 -252 89t-86 261zM320 1434q0 29 21.5 48t47.5 19q41 0 62 -43q29 -61 81 -94t119 -33q133 0 213 127q27 43 68 43q25 0 43 -16.5t18 -42.5q0 -14 -10 -39q-45 -100 -137 -157.5t-205 -57.5q-110 0 -192 56t-123 159 q-6 16 -6 31z" />
<glyph unicode="&#x16e;" horiz-adv-x="1490" d="M160 504q0 27 4 80l61 768q2 45 33 73.5t78 28.5t73.5 -29.5t24.5 -76.5l-61 -766q-2 -23 -2 -66q0 -360 360 -360q182 0 281.5 95t115.5 300l64 801q2 45 32.5 73.5t75.5 28.5q47 0 75 -28.5t24 -77.5l-62 -779q-23 -293 -177 -439t-437 -146q-279 0 -421 133t-142 387z M633 1765q0 88 61.5 147.5t149.5 59.5q90 0 151.5 -59.5t61.5 -147.5t-61.5 -148.5t-151.5 -60.5q-88 0 -149.5 60.5t-61.5 148.5zM750 1765q0 -43 26.5 -71.5t67.5 -28.5q43 0 69.5 28.5t26.5 71.5t-26.5 71t-69.5 28q-41 0 -67.5 -29t-26.5 -70z" />
<glyph unicode="&#x16f;" horiz-adv-x="1165" d="M127 336q0 37 2 55l43 529q4 47 35 73.5t76 26.5q47 0 73.5 -26.5t22.5 -73.5l-43 -517l-2 -36q0 -213 198 -213q121 0 193 75.5t82 208.5l41 482q2 47 32.5 73.5t77.5 26.5q48 0 73.5 -25.5t23.5 -74.5l-68 -836q-2 -43 -33.5 -68.5t-76.5 -25.5q-43 0 -69 23.5 t-24 66.5l7 72q-51 -80 -136.5 -123t-189.5 -43q-166 0 -252 89t-86 261zM436 1339q0 88 61.5 147.5t149.5 59.5q90 0 151.5 -59.5t61.5 -147.5t-61.5 -148.5t-151.5 -60.5q-88 0 -149.5 60.5t-61.5 148.5zM553 1339q0 -43 26.5 -71.5t67.5 -28.5q43 0 70 28.5t27 71.5 t-27 71t-70 28q-41 0 -67.5 -29t-26.5 -70z" />
<glyph unicode="&#x170;" horiz-adv-x="1490" d="M160 504q0 27 4 80l61 768q2 45 33 73.5t78 28.5t73.5 -29.5t24.5 -76.5l-61 -766q-2 -23 -2 -66q0 -360 360 -360q182 0 281.5 95t115.5 300l64 801q2 45 32.5 73.5t75.5 28.5q47 0 75 -28.5t24 -77.5l-62 -779q-23 -293 -177 -439t-437 -146q-279 0 -421 133t-142 387z M678 1595q0 12 6 27l109 219q25 51 72 51q27 0 46 -19.5t19 -45.5q0 -25 -20 -51l-150 -193q-18 -24 -45 -24q-16 0 -26.5 10t-10.5 26zM934 1597q0 12 6 25l111 219q27 51 70 51q27 0 46 -19.5t19 -45.5q0 -25 -20 -51l-150 -193q-18 -24 -45 -24q-16 0 -26.5 10t-10.5 28z " />
<glyph unicode="&#x171;" horiz-adv-x="1165" d="M127 336q0 37 2 55l43 529q4 47 35 73.5t76 26.5q47 0 73.5 -26.5t22.5 -73.5l-43 -517l-2 -36q0 -213 198 -213q121 0 193 75.5t82 208.5l41 482q2 47 32.5 73.5t77.5 26.5q48 0 73.5 -25.5t23.5 -74.5l-68 -836q-2 -43 -33.5 -68.5t-76.5 -25.5q-43 0 -69 23.5 t-24 66.5l7 72q-51 -80 -136.5 -123t-189.5 -43q-166 0 -252 89t-86 261zM467 1165q0 10 2 17l84 301q10 39 33.5 58.5t52.5 19.5t49.5 -20.5t20.5 -51.5q0 -27 -15 -55l-139 -285q-14 -31 -45 -31q-18 0 -30.5 12.5t-12.5 34.5zM725 1165q0 10 2 17l84 301q10 39 34 58.5 t52 19.5q29 0 49.5 -20.5t20.5 -51.5q0 -27 -15 -55l-139 -285q-14 -31 -45 -31q-18 0 -30.5 12.5t-12.5 34.5z" />
<glyph unicode="&#x172;" horiz-adv-x="1490" d="M160 504q0 27 4 80l61 768q2 45 33 73.5t78 28.5t73.5 -29.5t24.5 -76.5l-61 -766q-2 -23 -2 -66q0 -360 360 -360q182 0 281.5 95t115.5 300l64 801q2 45 32.5 73.5t75.5 28.5q48 0 75.5 -28.5t23.5 -77.5l-62 -779q-37 -463 -405 -563q-82 -25 -123 -63.5t-41 -100.5 q0 -55 31.5 -85.5t87.5 -30.5q41 0 94 22q12 6 25 6q18 0 28 -13t10 -32q0 -18 -9 -36.5t-27 -28.5q-74 -41 -154 -41q-109 0 -173.5 57t-64.5 150q0 109 82 174q-264 4 -401 137t-137 383z" />
<glyph unicode="&#x173;" horiz-adv-x="1165" d="M127 334q0 37 2 55l43 531q4 47 35 73.5t76 26.5q47 0 73.5 -26.5t22.5 -73.5l-43 -517l-2 -36q0 -213 198 -213q121 0 193 75.5t82 208.5l41 482q2 47 32.5 73.5t77.5 26.5t73 -25.5t24 -74.5l-68 -836q-2 -61 -61 -82q-150 -41 -150 -160q0 -55 32 -85.5t87 -30.5 q41 0 94 22q12 6 25 6q18 0 28.5 -13t10.5 -32q0 -18 -9.5 -36.5t-27.5 -28.5q-74 -41 -154 -41q-109 0 -173 57t-64 150q0 78 43 138t120 97q-4 10 -4 35l7 72q-51 -80 -136.5 -123t-189.5 -43q-166 0 -252 88t-86 260z" />
<glyph unicode="&#x174;" horiz-adv-x="2263" d="M162 1358q0 45 31.5 71.5t74.5 26.5q33 0 58.5 -17.5t33.5 -52.5l283 -1087l463 1083q14 35 43 54.5t59 19.5q33 0 59.5 -20.5t35.5 -55.5l284 -1087l461 1098q12 32 40 48.5t58 16.5q37 0 63.5 -22.5t26.5 -61.5q0 -23 -12 -51l-543 -1264q-14 -35 -44.5 -53t-65.5 -18 t-64.5 20.5t-40.5 56.5l-286 1051l-455 -1057q-14 -35 -45 -53t-66 -18t-64.5 20.5t-39.5 56.5l-344 1260q-4 12 -4 35zM959 1616q0 27 20 49l172 188q37 39 92 39q53 0 84 -39l136 -186q16 -23 16 -45q0 -27 -20.5 -46.5t-49.5 -19.5q-41 0 -67 43l-105 168l-145 -176 q-29 -35 -68 -35q-27 0 -46 17.5t-19 42.5z" />
<glyph unicode="&#x175;" horiz-adv-x="1736" d="M102 918q0 43 33 70.5t76 27.5q29 0 53.5 -16.5t32.5 -49.5l197 -704l309 692q16 37 45 56.5t61 19.5q33 0 59.5 -20.5t37.5 -55.5l194 -690l313 706q13 29 37.5 44.5t51.5 15.5q39 0 68.5 -25.5t29.5 -62.5q0 -25 -10 -45l-383 -820q-16 -35 -49 -53t-70 -18 q-39 0 -71 19.5t-44 56.5l-190 647l-291 -652q-14 -33 -48 -51t-71 -18q-41 0 -71.5 19.5t-43.5 54.5l-249 819q-6 18 -7 33zM658 1188q0 25 18 49l176 262q20 27 47 42t56 15q27 0 51.5 -14t38.5 -43l139 -268q10 -20 10 -37q0 -31 -23.5 -51.5t-55.5 -20.5 q-23 0 -41.5 12.5t-28.5 36.5l-102 236l-140 -240q-26 -47 -71 -47q-31 0 -52.5 19.5t-21.5 48.5z" />
<glyph unicode="&#x176;" horiz-adv-x="1251" d="M88 1354q0 41 33 70.5t74 29.5q47 0 73 -43l381 -563l469 563q37 45 84 45q37 0 64.5 -26.5t27.5 -63.5q0 -39 -28 -70l-521 -622l-45 -582q-4 -49 -35.5 -75.5t-74.5 -26.5q-47 0 -76 27.5t-27 78.5l48 576l-429 626q-18 29 -18 56zM453 1616q0 27 20 49l172 188 q37 39 92 39q53 0 84 -39l136 -186q16 -23 16 -45q0 -27 -20.5 -46.5t-49.5 -19.5q-41 0 -67 43l-105 168l-145 -176q-29 -35 -68 -35q-27 0 -46 17.5t-19 42.5z" />
<glyph unicode="&#x177;" horiz-adv-x="1064" d="M70 918q0 39 33.5 66.5t74.5 27.5q29 0 51.5 -15.5t32.5 -46.5l250 -719l367 723q29 58 86 58q39 0 67.5 -24.5t28.5 -61.5q0 -20 -12 -43l-633 -1205q-16 -29 -40 -44t-50 -15q-35 0 -61.5 22.5t-26.5 57.5q0 23 12 47l141 277l-315 864q-6 16 -6 31zM322 1188 q0 25 18 49l176 262q20 27 47 42t56 15q27 0 51.5 -14t38.5 -43l139 -268q10 -20 10 -37q0 -31 -23.5 -51.5t-55.5 -20.5q-23 0 -41.5 12.5t-28.5 36.5l-102 236l-140 -240q-26 -47 -71 -47q-31 0 -52.5 19.5t-21.5 48.5z" />
<glyph unicode="&#x178;" horiz-adv-x="1251" d="M88 1354q0 41 33 70.5t74 29.5q47 0 73 -43l381 -563l469 563q37 45 84 45q37 0 64.5 -26.5t27.5 -63.5q0 -39 -28 -70l-521 -622l-45 -582q-4 -49 -35.5 -75.5t-74.5 -26.5q-47 0 -76 27.5t-27 78.5l48 576l-429 626q-18 29 -18 56zM426 1724q0 51 33 82t84 31 q49 0 83 -31.5t34 -81.5q0 -49 -33 -79.5t-84 -30.5t-84 30.5t-33 79.5zM789 1724q0 49 32.5 81t81.5 32q51 0 84 -30.5t33 -82.5q0 -49 -32.5 -79.5t-84.5 -30.5q-49 0 -81.5 30.5t-32.5 79.5z" />
<glyph unicode="&#x179;" horiz-adv-x="1218" d="M45 84q0 41 31 80l860 1108h-698q-45 0 -69 21.5t-24 58.5q0 92 103 92h874q41 0 63.5 -23.5t22.5 -60.5q0 -39 -30 -80l-861 -1108h723q45 0 70 -21.5t25 -60.5q0 -90 -105 -90h-899q-39 0 -62.5 23.5t-23.5 60.5zM670 1606q0 18 15 39l147 206q29 43 74 43 q31 0 54.5 -22.5t23.5 -52.5q0 -35 -31 -64l-178 -174q-27 -25 -54 -25q-23 0 -37 14.5t-14 35.5z" />
<glyph unicode="&#x17a;" horiz-adv-x="1036" d="M51 80q0 41 33 76l621 684h-494q-41 0 -63.5 20.5t-22.5 54.5q0 84 94 84h678q39 0 60.5 -23.5t21.5 -57.5q0 -45 -33 -80l-618 -678h528q41 0 63.5 -20.5t22.5 -55.5q0 -41 -24.5 -62.5t-71.5 -21.5h-713q-39 0 -60.5 22.5t-21.5 57.5zM545 1174q0 18 12 38l216 297 q33 49 79 50q37 0 65 -26t28 -60q0 -37 -31 -68l-260 -256q-27 -27 -56 -27q-23 0 -38 14.5t-15 37.5z" />
<glyph unicode="&#x17b;" horiz-adv-x="1218" d="M45 84q0 41 31 80l860 1108h-698q-45 0 -69 21.5t-24 58.5q0 92 103 92h874q41 0 63.5 -23.5t22.5 -60.5q0 -39 -30 -80l-861 -1108h723q45 0 70 -21.5t25 -60.5q0 -90 -105 -90h-899q-39 0 -62.5 23.5t-23.5 60.5zM580 1724q0 55 35 87t94 32q57 0 93 -31.5t36 -87.5 q0 -53 -35 -85.5t-94 -32.5t-94 32.5t-35 85.5z" />
<glyph unicode="&#x17c;" horiz-adv-x="1036" d="M51 80q0 41 33 76l621 684h-494q-41 0 -63.5 20.5t-22.5 54.5q0 84 94 84h678q39 0 60.5 -23.5t21.5 -57.5q0 -45 -33 -80l-618 -678h528q41 0 63.5 -20.5t22.5 -55.5q0 -41 -24.5 -62.5t-71.5 -21.5h-713q-39 0 -60.5 22.5t-21.5 57.5zM467 1339q0 53 35 85t94 32 q57 0 93 -31.5t36 -85.5q0 -53 -34.5 -85.5t-94.5 -32.5q-59 0 -94 32.5t-35 85.5z" />
<glyph unicode="&#x17d;" horiz-adv-x="1218" d="M45 84q0 41 31 80l860 1108h-698q-45 0 -69 21.5t-24 58.5q0 92 103 92h874q41 0 63.5 -23.5t22.5 -60.5q0 -39 -30 -80l-861 -1108h723q45 0 70 -21.5t25 -60.5q0 -90 -105 -90h-899q-39 0 -62.5 23.5t-23.5 60.5zM455 1823q0 27 21.5 46t50.5 19q43 0 67 -41l105 -168 l143 176q29 35 68 35q29 0 48 -17.5t19 -41.5q0 -27 -22 -49l-170 -189q-37 -39 -92 -39q-57 0 -84 39l-137 185q-16 23 -17 45z" />
<glyph unicode="&#x17e;" horiz-adv-x="1036" d="M51 80q0 41 33 76l621 684h-494q-41 0 -63.5 20.5t-22.5 54.5q0 84 94 84h678q39 0 60.5 -23.5t21.5 -57.5q0 -45 -33 -80l-618 -678h528q41 0 63.5 -20.5t22.5 -55.5q0 -41 -24.5 -62.5t-71.5 -21.5h-713q-39 0 -60.5 22.5t-21.5 57.5zM338 1485q0 31 23.5 50t54.5 19 q49 0 72 -49l102 -235l137 239q25 45 72 45q31 0 52.5 -19t21.5 -48q0 -27 -17 -49l-176 -260q-18 -29 -45.5 -43.5t-56.5 -14.5q-27 0 -52.5 14.5t-39.5 43.5l-137 268q-10 18 -11 39z" />
<glyph unicode="&#x192;" d="M-6 -305q0 37 27.5 64.5t74.5 27.5h39q162 0 217 193l260 888h-190q-29 0 -47.5 18.5t-18.5 47.5q0 31 22.5 50.5t53.5 19.5h219l29 98q51 178 163.5 264t266.5 86h41q45 0 68.5 -21.5t23.5 -52.5q0 -37 -28.5 -64.5t-75.5 -27.5h-37q-84 0 -137.5 -46t-79.5 -146 l-27 -90h191q31 0 49 -19.5t18 -48.5q0 -31 -22.5 -49.5t-53.5 -18.5h-221l-264 -897q-49 -178 -164 -264t-266 -86h-41q-45 0 -67.5 21.5t-22.5 52.5z" />
<glyph unicode="&#x2c6;" horiz-adv-x="614" d="M96 1188q0 25 18 49l176 262q20 27 47 42t56 15q27 0 51.5 -14t38.5 -43l139 -268q10 -20 10 -37q0 -31 -23.5 -51.5t-55.5 -20.5q-23 0 -41.5 12.5t-28.5 36.5l-102 236l-140 -240q-26 -47 -71 -47q-31 0 -52.5 19.5t-21.5 48.5z" />
<glyph unicode="&#x2da;" horiz-adv-x="614" d="M161 1339q0 88 61.5 147.5t149.5 59.5q90 0 151.5 -59.5t61.5 -147.5t-61.5 -148.5t-151.5 -60.5q-88 0 -149.5 60.5t-61.5 148.5zM278 1339q0 -43 26.5 -71.5t67.5 -28.5q43 0 70 28.5t27 71.5t-27 71t-70 28q-41 0 -67.5 -29t-26.5 -70z" />
<glyph unicode="&#x2dc;" horiz-adv-x="614" d="M36 1274q0 41 28 89t74 81t99 33q41 0 78 -17.5t86 -50.5q39 -27 64.5 -40t50.5 -13q33 0 53 17.5t41 47.5q20 27 30.5 37t26.5 10q20 0 31.5 -16t11.5 -43q0 -41 -27.5 -89t-73.5 -81t-99 -33q-41 0 -77 17.5t-87 52.5q-41 27 -65.5 39t-47.5 12q-33 0 -53.5 -17.5 t-40.5 -47.5q-20 -27 -30.5 -37.5t-26.5 -10.5q-20 0 -33 16.5t-13 43.5z" />
<glyph unicode="&#x3a9;" horiz-adv-x="1613" d="M76 84q0 90 104 90h277q-127 199 -194.5 323t-95.5 215t-28 183q0 170 87 298t251 198.5t389 70.5q207 0 358.5 -61.5t233.5 -178t82 -276.5q0 -104 -44 -209.5t-134 -233.5t-256 -329h274q45 0 69 -21.5t24 -58.5q0 -94 -103 -94h-389q-45 0 -69.5 23.5t-24.5 62.5 q0 45 31 90q164 225 250.5 363.5t121.5 229.5t35 171q0 166 -122 257t-339 91q-248 0 -379 -104.5t-131 -290.5q0 -119 63.5 -272.5t229.5 -442.5q20 -39 21 -74q0 -47 -30 -75.5t-79 -28.5h-389q-45 0 -69.5 22.5t-24.5 61.5z" />
<glyph unicode="&#x3c0;" horiz-adv-x="1208" d="M23 915q0 41 24.5 62.5t71.5 21.5h975q43 0 65.5 -20.5t22.5 -54.5q0 -41 -24.5 -62.5t-72.5 -21.5h-161l-39 -486q-8 -98 36 -147t144 -57q39 -2 59.5 -24t20.5 -50q0 -35 -32 -60.5t-91 -23.5q-174 6 -259 85t-85 245q0 37 2 57l37 461h-271q-43 -453 -178 -785 q-14 -33 -41.5 -50t-58.5 -17q-43 0 -74 25.5t-31 66.5q0 16 7 35q133 352 172 725h-131q-43 0 -65.5 20.5t-22.5 54.5z" />
<glyph unicode="&#x2000;" horiz-adv-x="986" />
<glyph unicode="&#x2001;" horiz-adv-x="1972" />
<glyph unicode="&#x2002;" horiz-adv-x="986" />
<glyph unicode="&#x2003;" horiz-adv-x="1972" />
<glyph unicode="&#x2004;" horiz-adv-x="657" />
<glyph unicode="&#x2005;" horiz-adv-x="493" />
<glyph unicode="&#x2006;" horiz-adv-x="328" />
<glyph unicode="&#x2007;" horiz-adv-x="328" />
<glyph unicode="&#x2008;" horiz-adv-x="246" />
<glyph unicode="&#x2009;" horiz-adv-x="394" />
<glyph unicode="&#x200a;" horiz-adv-x="109" />
<glyph unicode="&#x2010;" horiz-adv-x="878" d="M129 543q0 39 25.5 62.5t76.5 23.5h437q43 0 66.5 -22.5t23.5 -57.5q0 -41 -25.5 -63.5t-77.5 -22.5h-434q-45 0 -68.5 21.5t-23.5 58.5z" />
<glyph unicode="&#x2011;" horiz-adv-x="878" d="M129 543q0 39 25.5 62.5t76.5 23.5h437q43 0 66.5 -22.5t23.5 -57.5q0 -41 -25.5 -63.5t-77.5 -22.5h-434q-45 0 -68.5 21.5t-23.5 58.5z" />
<glyph unicode="&#x2012;" horiz-adv-x="878" d="M129 543q0 39 25.5 62.5t76.5 23.5h437q43 0 66.5 -22.5t23.5 -57.5q0 -41 -25.5 -63.5t-77.5 -22.5h-434q-45 0 -68.5 21.5t-23.5 58.5z" />
<glyph unicode="&#x2013;" horiz-adv-x="1024" d="M4 545q0 29 23.5 47t62.5 18h862q35 0 55.5 -18.5t20.5 -44.5q0 -29 -23.5 -47.5t-60.5 -18.5h-862q-35 0 -56.5 18.5t-21.5 45.5z" />
<glyph unicode="&#x2014;" horiz-adv-x="2048" d="M4 545q0 29 23.5 47t62.5 18h1886q35 0 55.5 -18.5t20.5 -44.5q0 -29 -23.5 -47.5t-60.5 -18.5h-1886q-35 0 -56.5 18.5t-21.5 45.5z" />
<glyph unicode="&#x2018;" horiz-adv-x="487" d="M164 1108q0 92 38 175t103 147q25 25 53 24q25 0 42.5 -16.5t17.5 -38.5q0 -25 -23 -47q-59 -59 -82 -144q49 -6 78 -39.5t29 -85.5q0 -61 -37 -97t-92 -36q-59 0 -93 41t-34 117z" />
<glyph unicode="&#x2019;" horiz-adv-x="487" d="M178 1321q0 61 37 97t92 36q60 0 94.5 -41t34.5 -117q0 -92 -38 -175t-103 -146q-27 -25 -55 -25q-25 0 -42.5 16.5t-17.5 39.5q0 25 23 47q61 61 84 143q-49 6 -79 40t-30 85z" />
<glyph unicode="&#x201a;" horiz-adv-x="487" d="M84 121q0 63 36 98t91 35q59 0 94 -41t35 -117q0 -90 -38 -174t-103 -147q-25 -25 -54 -25q-25 0 -42 16.5t-17 38.5q0 25 23 48q59 59 81 143q-49 6 -77.5 40t-28.5 85z" />
<glyph unicode="&#x201c;" horiz-adv-x="849" d="M164 1108q0 92 38 175t103 147q25 25 53 24q25 0 42.5 -16.5t17.5 -38.5q0 -25 -23 -47q-59 -59 -82 -144q49 -6 78 -39.5t29 -85.5q0 -61 -37 -97t-92 -36q-59 0 -93 41t-34 117zM529 1108q0 92 38 175t103 147q25 25 53 24q25 0 42.5 -16.5t17.5 -38.5q0 -25 -23 -47 q-59 -59 -82 -144q49 -6 78 -39.5t29 -85.5q0 -61 -37 -97t-92 -36q-59 0 -93 41t-34 117z" />
<glyph unicode="&#x201d;" horiz-adv-x="849" d="M178 1321q0 61 37 97t92 36q60 0 94.5 -41t34.5 -117q0 -92 -38 -175t-103 -146q-27 -25 -55 -25q-25 0 -42.5 16.5t-17.5 39.5q0 25 23 47q61 61 84 143q-49 6 -79 40t-30 85zM543 1321q0 61 37 97t92 36q60 0 94.5 -41t34.5 -117q0 -92 -38 -175t-103 -146 q-27 -25 -55 -25q-25 0 -42.5 16.5t-17.5 39.5q0 25 23 47q61 61 84 143q-49 6 -79 40t-30 85z" />
<glyph unicode="&#x201e;" horiz-adv-x="849" d="M84 121q0 63 36 98t91 35q59 0 94 -41t35 -117q0 -90 -38 -174t-103 -147q-25 -25 -54 -25q-25 0 -42 16.5t-17 38.5q0 25 23 48q59 59 81 143q-49 6 -77.5 40t-28.5 85zM449 121q0 63 36 98t91 35q59 0 94 -41t35 -117q0 -90 -38 -174t-103 -147q-25 -25 -54 -25 q-25 0 -42 16.5t-17 38.5q0 25 23 48q59 59 81 143q-49 6 -77.5 40t-28.5 85z" />
<glyph unicode="&#x2026;" horiz-adv-x="1460" d="M84 121q0 57 37 95t94 38q55 0 92 -38t37 -95t-37 -94t-92 -37q-57 0 -94 36.5t-37 94.5zM569 121q0 57 38 95t93 38t93 -38t38 -95t-37.5 -94t-93.5 -37q-55 0 -93 36.5t-38 94.5zM1057 121q0 57 36.5 95t94.5 38q55 0 92 -38t37 -95t-37 -94t-92 -37q-58 0 -94.5 36.5 t-36.5 94.5z" />
<glyph unicode="&#x202f;" horiz-adv-x="394" />
<glyph unicode="&#x2030;" horiz-adv-x="2732" d="M143 975q0 229 97.5 359t269.5 130q168 0 258 -101t90 -294q0 -231 -97 -359t-272 -128q-167 0 -256.5 101t-89.5 292zM322 954q0 -119 40.5 -176t126.5 -57q93 0 141 95t48 274q0 119 -41 176t-127 57q-94 0 -141 -94t-47 -275zM446 35q0 27 19 53l889 1350q31 45 78 45 q31 0 54 -21.5t23 -52.5q0 -25 -18 -53l-889 -1350q-29 -45 -76 -45q-31 0 -55.5 21.5t-24.5 52.5zM1098 379q0 229 97 359t269 130q170 0 259 -101t89 -294q0 -231 -96 -359t-270 -128q-168 0 -258 101t-90 292zM1278 360q0 -121 40 -178t128 -57q92 0 139 95t47 274 q0 121 -40 178t-126 57q-94 0 -141 -94t-47 -275zM1911 379q0 229 98 359t270 130q168 0 257.5 -101t89.5 -294q0 -231 -96.5 -359t-270.5 -128q-168 0 -258 101t-90 292zM2091 360q0 -121 41 -178t127 -57q92 0 140 95t48 274q0 121 -41 178t-127 57q-94 0 -141 -94 t-47 -275z" />
<glyph unicode="&#x2039;" horiz-adv-x="557" d="M117 539q0 31 24 67l183 268q33 47 84 48q31 0 53 -18.5t22 -47.5q0 -25 -14 -47l-154 -264l107 -264q8 -16 8 -37q0 -33 -23.5 -54.5t-56.5 -21.5q-23 0 -44 12.5t-34 34.5l-141 268q-14 27 -14 56z" />
<glyph unicode="&#x203a;" horiz-adv-x="550" d="M80 233q0 25 14 48l156 262l-109 264q-8 18 -8 37q0 35 24.5 56.5t57.5 21.5q49 0 76 -48l141 -268q16 -33 17 -57q0 -33 -25 -68l-184 -268q-17 -23 -39.5 -34t-44.5 -11q-31 0 -53.5 18.5t-22.5 46.5z" />
<glyph unicode="&#x2044;" horiz-adv-x="370" d="M-326 35q0 27 19 53l885 1350q31 45 77 45q31 0 54.5 -21.5t23.5 -52.5q0 -25 -18 -53l-887 -1350q-29 -45 -76 -45q-31 0 -54.5 21.5t-23.5 52.5z" />
<glyph unicode="&#x205f;" horiz-adv-x="493" />
<glyph unicode="&#x20ac;" d="M23 567q0 31 21.5 50.5t55.5 19.5h138q0 80 10 172h-135q-29 0 -47.5 19.5t-18.5 48.5q0 33 21.5 52t56.5 19h145q55 246 198.5 379t354.5 133q254 0 412 -153q33 -31 33 -72q0 -37 -23.5 -64.5t-58.5 -27.5q-33 0 -66 26q-131 117 -297 117q-127 0 -214 -86t-128 -252 h295q29 0 47.5 -19.5t18.5 -49.5q0 -31 -21.5 -50.5t-56.5 -19.5h-307q-6 -55 -11 -172h306q29 0 47 -19.5t18 -48.5q0 -31 -22.5 -51t-55.5 -20h-286q33 -340 309 -340q74 0 152.5 33.5t152.5 95.5q25 18 51 18q31 0 51.5 -23.5t20.5 -58.5q0 -45 -41 -80 q-80 -72 -189.5 -115.5t-207.5 -43.5q-215 0 -346.5 134t-159.5 380h-158q-29 0 -47 20.5t-18 48.5z" />
<glyph unicode="&#x2122;" horiz-adv-x="1892" d="M70 1362q0 82 94 82h592q84 0 84 -74q0 -82 -97 -82h-200l-49 -624q-2 -43 -32 -68t-71 -25t-66.5 25t-23.5 68l51 624h-198q-84 0 -84 74zM891 666l55 694q4 43 32 67.5t64 24.5q53 0 82 -63l213 -480l289 480q39 63 94 63q37 0 61.5 -24.5t20.5 -67.5l-55 -694 q-6 -94 -90 -95q-39 0 -59.5 23.5t-16.5 71.5l35 442l-203 -342q-20 -33 -40.5 -47t-49.5 -14q-27 0 -44 14t-32 47l-151 330l-35 -430q-2 -47 -26.5 -71t-65.5 -24q-39 0 -59.5 23.5t-18.5 71.5z" />
<glyph unicode="&#x2202;" d="M92 461q0 178 65.5 313t182.5 209t266 74q223 0 320 -160q-8 264 -131 385t-320 121h-39q-41 0 -61.5 20.5t-20.5 51.5q0 27 16.5 49t45.5 30q47 16 116 17q287 0 445 -202t158 -570q0 -395 -148.5 -613.5t-417.5 -218.5q-221 0 -349 132t-128 362zM301 465 q0 -150 74 -239t200 -89q95 0 168.5 53.5t115.5 151.5t42 233q0 143 -73.5 227.5t-196.5 84.5q-150 0 -240 -111.5t-90 -310.5z" />
<glyph unicode="&#x2206;" horiz-adv-x="1613" d="M76 84q0 90 104 90h277q-127 199 -194.5 323t-95.5 215t-28 183q0 170 87 298t251 198.5t389 70.5q207 0 358.5 -61.5t233.5 -178t82 -276.5q0 -104 -44 -209.5t-134 -233.5t-256 -329h274q45 0 69 -21.5t24 -58.5q0 -94 -103 -94h-389q-45 0 -69.5 23.5t-24.5 62.5 q0 45 31 90q164 225 250.5 363.5t121.5 229.5t35 171q0 166 -122 257t-339 91q-248 0 -379 -104.5t-131 -290.5q0 -119 63.5 -272.5t229.5 -442.5q20 -39 21 -74q0 -47 -30 -75.5t-79 -28.5h-389q-45 0 -69.5 22.5t-24.5 61.5z" />
<glyph unicode="&#x220f;" d="M53 -283l129 1631q4 41 34 68.5t71 27.5h807q41 0 66.5 -27.5t21.5 -68.5l-129 -1631q-4 -41 -34 -68.5t-73 -27.5q-39 0 -64.5 27.5t-23.5 68.5l123 1553h-612l-123 -1553q-4 -41 -33 -68.5t-72 -27.5q-41 0 -66.5 27.5t-21.5 68.5z" />
<glyph unicode="&#x2211;" horiz-adv-x="1206" d="M8 -287q0 41 31 82l582 752l-465 731q-20 29 -21 63q0 43 30 73t77 30h868q47 0 70.5 -22.5t23.5 -61.5q0 -43 -26.5 -66.5t-77.5 -23.5h-707l393 -627q35 -53 35 -94q0 -47 -49 -113l-491 -631h700q47 0 70.5 -21.5t23.5 -59.5q0 -43 -25.5 -68t-76.5 -25h-873 q-45 0 -68.5 22.5t-23.5 59.5z" />
<glyph unicode="&#x221a;" d="M20 584q0 33 24 54t58 21h185q25 0 44 -14t21 -37l174 -747l537 1554q10 29 33.5 44.5t50.5 15.5q29 0 50.5 -16.5t21.5 -45.5q0 -14 -7 -31l-585 -1669q-20 -61 -47 -86.5t-70 -25.5q-41 0 -64.5 25.5t-35.5 82.5l-195 799h-123q-31 0 -51.5 22.5t-20.5 53.5z" />
<glyph unicode="&#x221e;" d="M86 555q0 145 80 238.5t217 93.5q72 0 140.5 -39t109.5 -123q51 84 118.5 123t139.5 39q121 0 192.5 -77t71.5 -198q0 -154 -79 -245t-218 -91q-72 0 -139.5 39t-108.5 123q-51 -84 -118.5 -123t-139.5 -39q-121 0 -193.5 77t-72.5 202zM227 565q0 -70 39 -114.5 t103 -44.5q55 0 104 39.5t94 138.5q-53 174 -188 174q-72 0 -112 -55.5t-40 -137.5zM674 584q57 -178 190 -178q72 0 112 56t40 142q0 66 -39 110t-103 44q-57 0 -106 -38t-94 -136z" />
<glyph unicode="&#x222b;" d="M166 -295q0 35 25.5 59.5t60.5 24.5h33q84 0 131 45t55 146l88 1122q14 172 115.5 262t279.5 90q59 0 87 -19.5t28 -64.5q0 -35 -25.5 -60.5t-62.5 -25.5h-31q-86 0 -131 -45t-53 -145l-90 -1123q-12 -172 -114.5 -261t-282.5 -89q-113 0 -113 84z" />
<glyph unicode="&#x2248;" d="M113 340q0 20 16 47q47 68 111.5 105.5t140.5 37.5q63 0 121.5 -23.5t138.5 -66.5q66 -35 102.5 -51t71.5 -16q80 0 133 67q33 39 74 39q27 0 44 -17.5t17 -43.5q0 -25 -16 -47q-47 -68 -110.5 -105t-139.5 -37q-63 0 -123.5 23.5t-138.5 66.5q-57 33 -96 49.5t-76 16.5 q-84 0 -135 -66q-31 -39 -72 -38q-27 0 -45 16t-18 43zM143 750q0 20 17 47q47 68 111.5 105.5t140.5 37.5q63 0 121.5 -23.5t138.5 -66.5q66 -35 102.5 -51.5t71.5 -16.5q80 0 133 68q33 39 74 39q27 0 44 -17.5t17 -44.5q0 -25 -16 -47q-47 -68 -110.5 -104.5 t-139.5 -36.5q-64 0 -124 23.5t-138 66.5q-57 33 -96 49.5t-76 16.5q-80 0 -135 -66q-31 -39 -72 -39q-27 0 -45.5 16.5t-18.5 43.5z" />
<glyph unicode="&#x2260;" d="M104 379q0 33 24 54.5t58 21.5h281l129 258h-389q-31 0 -51.5 21.5t-20.5 53.5q0 33 23.5 54.5t58.5 21.5h453l100 201q25 49 76 49q31 0 50 -19.5t19 -47.5q0 -18 -10 -39l-71 -144h229q33 0 52.5 -21.5t19.5 -54.5t-24 -54t-58 -21h-293l-129 -258h399q33 0 52.5 -21.5 t19.5 -54.5t-22.5 -54.5t-57.5 -21.5h-465l-100 -201q-10 -23 -29.5 -36t-42.5 -13q-35 0 -53.5 19.5t-18.5 50.5q0 20 9 37l71 143h-217q-31 0 -51.5 21.5t-20.5 54.5z" />
<glyph unicode="&#x2264;" d="M82 76q0 33 23.5 54.5t58.5 21.5h844q32 0 51.5 -21.5t19.5 -54.5t-23.5 -54.5t-56.5 -21.5h-845q-33 0 -52.5 21.5t-19.5 54.5zM131 674q0 37 21.5 66.5t54.5 39.5l840 281q10 4 30 4q33 0 55.5 -20.5t20.5 -51.5q0 -23 -14.5 -41t-36.5 -26l-766 -252l717 -246 q23 -8 36 -25.5t13 -42.5q0 -35 -21.5 -55t-56.5 -20q-18 0 -37 6l-786 276q-33 8 -52.5 39t-17.5 68z" />
<glyph unicode="&#x2265;" d="M82 76q0 33 23.5 54.5t58.5 21.5h844q32 0 51.5 -21.5t19.5 -54.5t-23.5 -54.5t-56.5 -21.5h-845q-33 0 -52.5 21.5t-19.5 54.5zM106 356q0 25 14.5 43.5t37.5 26.5l766 250l-717 248q-23 8 -37 26.5t-14 42.5q2 33 25.5 52.5t58.5 19.5q20 0 32 -4l787 -279 q31 -10 50 -38.5t19 -63.5q0 -39 -21.5 -69.5t-53.5 -41.5l-840 -278q-10 -4 -33 -4q-33 0 -54.5 19.5t-19.5 49.5z" />
<glyph unicode="&#x25fc;" horiz-adv-x="1013" d="M0 0v1014h1014v-1014h-1014z" />
</font>
</defs>
</svg>
