<?xml version="1.0" standalone="no"?>
<!DOCTYPE svg PUBLIC "-//W3C//DTD SVG 1.1//EN" "http://www.w3.org/Graphics/SVG/1.1/DTD/svg11.dtd" >
<svg xmlns="http://www.w3.org/2000/svg" xmlns:xlink="http://www.w3.org/1999/xlink" version="1.1">
<metadata></metadata>
<defs>
<font id="nunitoextrabold_italic" horiz-adv-x="1228" >
<font-face units-per-em="2048" ascent="1638" descent="-410" />
<missing-glyph horiz-adv-x="571" />
<glyph horiz-adv-x="0" />
<glyph unicode="&#xd;" horiz-adv-x="571" />
<glyph horiz-adv-x="0" />
<glyph horiz-adv-x="0" />
<glyph unicode=" "  horiz-adv-x="571" />
<glyph unicode="&#x09;" horiz-adv-x="571" />
<glyph unicode="&#xa0;" horiz-adv-x="571" />
<glyph unicode="!" horiz-adv-x="532" d="M66 164q0 76 49 126t125 50t125 -50t49 -126t-49.5 -126t-124.5 -50q-76 0 -125 50t-49 126zM143 1260q-6 100 49.5 147t147.5 47q76 0 126 -41t50 -113q0 -27 -4 -43l-150 -714q-8 -47 -34.5 -72t-63.5 -25t-61.5 25t-26.5 72z" />
<glyph unicode="&#x22;" horiz-adv-x="960" d="M160 1268q-8 88 39 137t133 49q72 0 113.5 -38t41.5 -107q0 -31 -8 -62l-80 -329q-12 -49 -36.5 -72t-67.5 -23t-71.5 25.5t-30.5 69.5zM598 1268q-8 88 39 137t133 49q72 0 113.5 -38t41.5 -107q0 -31 -8 -62l-80 -329q-12 -49 -36.5 -72t-67.5 -23t-71.5 25.5 t-30.5 69.5z" />
<glyph unicode="#" d="M74 436q0 41 27.5 67.5t70.5 26.5h119l78 400h-156q-43 0 -70.5 28.5t-27.5 69.5t27.5 67.5t70.5 26.5h195l51 264q4 33 29.5 53.5t60.5 20.5q47 0 75.5 -28.5t28.5 -71.5q0 -16 -2 -25l-43 -213h174l52 264q6 33 31.5 53.5t62.5 20.5q47 0 75.5 -27.5t28.5 -72.5 q0 -16 -2 -25l-41 -213h70q43 0 70.5 -28.5t27.5 -69.5t-27.5 -67.5t-70.5 -26.5h-109l-78 -400h146q43 0 70.5 -28.5t27.5 -69.5t-27.5 -67.5t-70.5 -26.5h-184l-54 -275q-6 -33 -31.5 -53t-62.5 -20q-45 0 -73.5 27.5t-28.5 70.5q0 18 2 27l43 223h-174l-56 -275 q-6 -33 -31.5 -53t-58.5 -20q-45 0 -73.5 27.5t-28.5 72.5q0 16 2 25l43 223h-80q-43 0 -70.5 28.5t-27.5 69.5zM492 530h176l77 400h-174z" />
<glyph unicode="$" d="M37 207q0 53 32.5 93t84.5 40q33 0 63 -16q86 -45 176 -70t205 -25q125 0 189.5 45t64.5 129q0 47 -35 80t-88 54.5t-149 52.5q-143 45 -234.5 88t-157 124t-65.5 210q0 117 58.5 213t164 156.5t242.5 76.5l8 109q4 55 39 89t88 34q57 0 90 -35t29 -88l-8 -115 q217 -29 344 -125q47 -35 47 -94q0 -53 -37 -94t-92 -41q-39 0 -70 18q-174 98 -350 98q-109 0 -172.5 -47t-63.5 -127q0 -53 38 -90t95.5 -60.5t157.5 -55.5q139 -43 227.5 -84t150.5 -119t62 -201q0 -180 -123.5 -300t-332.5 -142l-8 -111q-4 -57 -38 -90t-87 -33 q-57 0 -91 35t-30 88l8 111q-225 18 -365 102q-35 18 -51 50t-16 67z" />
<glyph unicode="%" horiz-adv-x="1953" d="M115 985q0 225 102 354t283 129q176 0 272 -104t96 -297q0 -229 -101 -355t-284 -126q-176 0 -272 103.5t-96 295.5zM369 958q0 -94 26.5 -137t85.5 -43q133 1 133 318q0 92 -27.5 135t-86.5 43q-68 0 -99.5 -79t-31.5 -237zM449 57q0 37 22 70l860 1305q39 59 101 59 q45 0 78.5 -30.5t33.5 -74.5q0 -35 -22 -69l-863 -1305q-39 -59 -100 -59q-45 0 -77.5 30.5t-32.5 73.5zM1122 387q0 225 101.5 353t281.5 128q176 0 272.5 -104.5t96.5 -296.5q0 -229 -100.5 -355t-282.5 -126q-178 0 -273.5 103.5t-95.5 297.5zM1374 358q0 -94 28 -137 t87 -43q133 1 133 318q0 92 -27.5 136t-87.5 44q-70 0 -101.5 -80t-31.5 -238z" />
<glyph unicode="&#x26;" horiz-adv-x="1415" d="M57 383q0 147 81 249.5t233 178.5q-117 143 -117 287q0 162 114.5 260t297.5 98q174 0 280.5 -87t106.5 -230q0 -121 -69 -213t-212 -166l234 -246q63 119 90 268q10 60 51 91.5t90 31.5q47 0 80 -27.5t33 -78.5q0 -18 -2 -29q-39 -252 -166 -440l123 -129q37 -37 36 -86 q0 -53 -43 -95.5t-98 -42.5q-51 0 -94 46l-105 110q-193 -150 -432 -149q-147 0 -264 51t-182.5 142t-65.5 206zM356 406q0 -86 61.5 -136.5t166.5 -50.5q139 0 256 88l-318 340q-82 -45 -124 -103.5t-42 -137.5zM528 1100q0 -39 19.5 -80t70.5 -100q102 49 144.5 97 t42.5 109q0 55 -35 90t-92 35q-66 0 -108 -41t-42 -110z" />
<glyph unicode="'" horiz-adv-x="522" d="M160 1268q-8 88 39 137t133 49q72 0 113.5 -38t41.5 -107q0 -31 -8 -62l-80 -329q-12 -49 -36.5 -72t-67.5 -23t-71.5 25.5t-30.5 69.5z" />
<glyph unicode="(" horiz-adv-x="768" d="M201 397q0 553 317 1002q23 31 55.5 47t65.5 16q45 0 75.5 -25.5t30.5 -68.5q0 -25 -16 -63q-106 -223 -159.5 -453.5t-53.5 -454.5q0 -174 21.5 -322.5t66.5 -299.5q8 -25 8 -51q0 -49 -32.5 -80t-77.5 -31q-39 0 -74 22.5t-57 65.5q-82 158 -126 335t-44 361z" />
<glyph unicode=")" horiz-adv-x="768" d="M27 -293q0 25 16 64q215 438 215 907q0 174 -21.5 322.5t-66.5 299.5q-8 25 -8 52q0 51 32.5 80.5t77.5 29.5q39 0 74 -21.5t57 -64.5q168 -336 168 -698q0 -551 -315 -1002q-23 -31 -55.5 -47t-67.5 -16q-45 0 -75.5 25.5t-30.5 68.5z" />
<glyph unicode="*" horiz-adv-x="929" d="M86 1071q0 43 25.5 74t70.5 29l170 -11l-94 142q-16 23 -16 49q0 41 35.5 69.5t78.5 28.5q53 0 78 -47l76 -154l76 154q27 49 80 49q41 0 76.5 -29.5t35.5 -70.5q0 -23 -16 -49l-94 -142l170 11q45 2 70.5 -29t25.5 -72q0 -43 -25.5 -73.5t-70.5 -28.5l-170 10l94 -141 q16 -27 16 -49q0 -41 -36.5 -72t-79.5 -31q-53 0 -76 49l-76 154l-76 -154q-23 -49 -78 -49q-43 0 -78.5 31t-35.5 72q0 23 16 49l94 141l-170 -10q-45 -2 -70.5 28.5t-25.5 71.5z" />
<glyph unicode="+" d="M123 582q0 47 32.5 78.5t80.5 31.5h290l23 289q4 45 35.5 75.5t77.5 30.5q45 0 73.5 -30.5t24.5 -75.5l-23 -289h287q43 0 70.5 -28.5t27.5 -71.5q0 -47 -32.5 -79t-79.5 -32h-291l-23 -288q-4 -45 -36.5 -75t-77.5 -30t-73 29.5t-24 75.5l23 288h-287q-43 0 -70.5 29 t-27.5 72z" />
<glyph unicode="," horiz-adv-x="532" d="M66 162q0 86 50 132t124 46q82 0 126 -52t44 -155q0 -109 -49.5 -211t-133.5 -182q-29 -29 -67 -29q-33 0 -56.5 22.5t-23.5 51.5q0 31 26 57q72 72 101 158q-68 8 -104.5 51t-36.5 111z" />
<glyph unicode="-" horiz-adv-x="901" d="M109 541q0 129 153 129h404q66 0 100.5 -31t34.5 -82q0 -129 -156 -129h-401q-66 0 -100.5 30.5t-34.5 82.5z" />
<glyph unicode="." horiz-adv-x="532" d="M66 164q0 76 49 126t125 50t125 -50t49 -126t-49.5 -126t-124.5 -50q-76 0 -125 50t-49 126z" />
<glyph unicode="/" horiz-adv-x="677" d="M-68 -57q0 23 9 41l604 1511q14 37 43.5 55.5t66.5 18.5q49 0 86 -29t37 -74q0 -25 -8 -43l-604 -1509q-14 -37 -44 -55.5t-67 -18.5q-49 0 -86 29t-37 74z" />
<glyph unicode="0" d="M90 629q0 260 68.5 447.5t196.5 285.5t309 98q250 0 381 -165t131 -480q0 -260 -69 -447.5t-198 -285.5t-309 -98q-250 0 -380 164.5t-130 480.5zM399 584q0 -184 51.5 -270.5t157.5 -86.5q125 0 191.5 162t66.5 471q0 184 -50 270.5t-159 86.5q-125 0 -191.5 -163 t-66.5 -470z" />
<glyph unicode="1" d="M156 119q0 70 38.5 103.5t120.5 33.5h193l65 823l-157 -88q-35 -20 -72 -20q-53 0 -89 42t-36 95q0 72 64 109l340 192q80 43 147 43q68 0 106.5 -41t32.5 -113l-82 -1042h191q139 0 139 -121q0 -70 -39 -102.5t-121 -32.5h-700q-141 0 -141 119z" />
<glyph unicode="2" horiz-adv-x="1230" d="M76 121q0 78 71 147l490 475q178 172 178 310q0 78 -48 118.5t-138 40.5q-145 0 -297 -94q-45 -27 -84 -26q-47 0 -77 32.5t-30 79.5q0 37 20.5 73t61.5 64q86 57 200 89t236 32q217 0 343 -109.5t126 -297.5q0 -119 -60 -226.5t-206 -242.5l-342 -330h469 q70 0 104.5 -29.5t34.5 -85.5q0 -72 -38.5 -106.5t-120.5 -34.5h-762q-61 0 -96 34t-35 87z" />
<glyph unicode="3" d="M45 213q0 53 34 92t85 39q35 0 65 -16q90 -47 168 -71t166 -24q121 0 183.5 50.5t62.5 144.5q0 92 -59.5 135t-180.5 43h-116q-47 0 -77 34t-30 89t38 90t95 35h80q127 0 193.5 50t66.5 147q0 78 -51 119.5t-150 41.5q-135 0 -286 -94q-45 -27 -84 -26q-47 0 -77 32.5 t-30 79.5q0 37 20.5 73t61.5 64q86 57 200 89t234 32q137 0 245 -46t167 -129t59 -191q0 -127 -66.5 -219.5t-191.5 -139.5q113 -35 177.5 -113.5t64.5 -195.5q0 -129 -65.5 -229.5t-190.5 -157.5t-297 -57q-141 0 -262 34.5t-188 79.5q-63 41 -64 115z" />
<glyph unicode="4" d="M37 387q0 68 47 129l674 868q27 35 66.5 52.5t80.5 17.5q66 0 110 -41t38 -115l-62 -790h76q76 0 107.5 -29.5t31.5 -91.5q0 -59 -41 -91t-118 -32h-74l-10 -119q-6 -78 -52.5 -117.5t-115.5 -39.5q-70 0 -110 41t-34 118l11 117h-498q-61 0 -94 35t-33 88zM371 508h309 l35 448z" />
<glyph unicode="5" d="M78 233q0 51 40 89t95 38q41 0 84 -24q90 -53 161.5 -78t137.5 -25q121 0 191.5 63.5t70.5 176.5q0 102 -63.5 159.5t-176.5 57.5q-70 0 -118.5 -15.5t-126.5 -60.5q-43 -25 -86 -24q-51 0 -83 30.5t-28 77.5l49 596q4 72 46 111t114 39h659q141 0 142 -113 q0 -61 -43 -96t-117 -35h-498l-24 -313q92 47 213 47q129 0 229.5 -54.5t156.5 -150.5t56 -221q0 -244 -151.5 -384t-413.5 -140q-129 0 -251 38.5t-208 106.5q-57 45 -57 104z" />
<glyph unicode="6" d="M88 623q0 256 79 445t227.5 291.5t353.5 102.5q123 0 238.5 -33.5t166.5 -82.5q63 -43 64 -121q0 -51 -31 -88t-78 -37q-33 0 -72 20q-152 92 -291 92q-143 0 -228 -111.5t-107 -326.5q51 74 135 117t180 43q125 0 222 -56.5t151.5 -156.5t54.5 -229q0 -145 -64.5 -262 t-178 -182.5t-257.5 -65.5q-270 0 -417.5 166.5t-147.5 474.5zM426 449q0 -96 59.5 -158t155.5 -62q94 0 153.5 69t59.5 177q0 96 -57.5 155.5t-151.5 59.5q-98 0 -158.5 -66.5t-60.5 -174.5z" />
<glyph unicode="7" d="M133 1309q0 135 158 135h813q59 0 90 -32t31 -83q0 -63 -41 -133l-668 -1118q-29 -49 -69.5 -73.5t-84.5 -24.5q-57 0 -96 36.5t-39 94.5q0 47 29 96l588 981h-570q-76 0 -108.5 30.5t-32.5 90.5z" />
<glyph unicode="8" d="M49 385q0 133 77 228.5t210 131.5q-96 43 -146.5 122t-50.5 186q0 188 143.5 298.5t387.5 110.5t377 -98t133 -279q0 -117 -69 -211t-181 -135q233 -77 233 -329q0 -127 -70.5 -223.5t-199.5 -149.5t-299 -53q-254 0 -399.5 107.5t-145.5 293.5zM348 410 q0 -86 63.5 -134.5t186.5 -48.5q131 0 198.5 51.5t67.5 149.5q0 90 -59.5 135t-183.5 45q-272 0 -273 -198zM440 1030q0 -84 56.5 -131t156.5 -47q109 0 167.5 50t58.5 145q0 172 -209 172q-113 0 -171.5 -47.5t-58.5 -141.5z" />
<glyph unicode="9" d="M47 217q0 51 31 90t78 39q31 0 71 -22q152 -92 291 -93q143 0 229.5 112t106.5 327q-51 -74 -135 -117t-180 -43q-125 0 -222.5 56.5t-151.5 156.5t-54 229q0 145 64.5 262t178 182.5t256.5 65.5q271 0 418.5 -167t147.5 -474q0 -256 -79 -445.5t-227.5 -291.5 t-353.5 -102q-123 0 -237.5 34.5t-167.5 81.5q-63 43 -64 119zM410 969q0 -96 57 -155.5t151 -59.5q99 0 159.5 66.5t60.5 174.5q0 96 -59.5 157.5t-155.5 61.5q-94 0 -153.5 -68.5t-59.5 -176.5z" />
<glyph unicode=":" horiz-adv-x="532" d="M66 164q0 76 49 126t125 50t125 -50t49 -126t-49.5 -126t-124.5 -50q-76 0 -125 50t-49 126zM121 850q0 76 49 126t125 50t125 -50t49 -126t-49 -126t-125 -50t-125 50t-49 126z" />
<glyph unicode=";" horiz-adv-x="532" d="M66 162q0 86 50 132t124 46q82 0 126 -52t44 -155q0 -109 -49.5 -211t-133.5 -182q-29 -29 -67 -29q-33 0 -56.5 22.5t-23.5 51.5q0 31 26 57q72 72 101 158q-68 8 -104.5 51t-36.5 111zM121 850q0 76 49 126t125 50t125 -50t49 -126t-49 -126t-125 -50t-125 50t-49 126z " />
<glyph unicode="&#x3c;" d="M121 580q0 55 34.5 101t88.5 67l745 294q33 12 62 13q43 0 70.5 -29t27.5 -76q0 -30 -18.5 -56t-49.5 -38l-688 -268l647 -269q25 -10 39.5 -36.5t14.5 -57.5q0 -47 -34 -76.5t-83 -29.5q-29 0 -59 12l-699 295q-98 43 -98 154z" />
<glyph unicode="=" d="M104 377q0 47 33 78.5t80 31.5h789q43 0 70.5 -28.5t27.5 -71.5q0 -47 -33 -79t-80 -32h-788q-43 0 -71 29t-28 72zM137 786q0 47 33 79t80 32h788q43 0 71 -28.5t28 -71.5q0 -47 -34 -79t-81 -32h-786q-43 0 -71 28.5t-28 71.5z" />
<glyph unicode="&#x3e;" d="M94 225q0 29 18.5 55.5t49.5 38.5l688 269l-647 268q-25 12 -39 38t-14 56q2 47 34.5 76t81.5 29q29 0 60 -13l698 -294q98 -39 98 -152q0 -55 -34.5 -101t-88.5 -69l-745 -295q-31 -12 -59 -12q-45 0 -73 28.5t-28 77.5z" />
<glyph unicode="?" horiz-adv-x="958" d="M37 1210q0 74 67 121q190 131 449 131q199 0 317.5 -90t118.5 -239q0 -80 -31.5 -144.5t-77.5 -112t-122 -110.5q-86 -74 -130 -124t-59 -114q-8 -39 -35.5 -60.5t-62.5 -21.5q-49 0 -72.5 30t-19.5 83q8 102 52 173t122 151q61 66 90 109.5t29 99.5q0 55 -43 87.5 t-117 32.5q-129 0 -305 -102q-33 -20 -66 -20q-45 0 -74.5 35.5t-29.5 84.5zM268 164q0 76 50.5 126t123.5 50q76 0 125 -50t49 -126t-49 -126t-125 -50q-73 0 -123.5 50t-50.5 126z" />
<glyph unicode="@" horiz-adv-x="1923" d="M94 543q0 285 116 491.5t320.5 315t464.5 108.5q268 0 461 -100.5t293 -273.5t100 -388q0 -178 -54 -306t-150.5 -194.5t-219.5 -66.5q-109 0 -176 47t-84 125h-4q-55 -80 -123.5 -126t-173.5 -46q-152 0 -236.5 101.5t-84.5 269.5q0 145 55 265t152.5 189.5t222.5 69.5 q84 0 147.5 -35t89.5 -98h7l4 27q8 41 36.5 62t75.5 21t74 -26.5t27 -73.5q0 -20 -2 -31l-62 -348q-10 -61 -10 -96q0 -59 24.5 -90t79.5 -31q41 0 82 39t68.5 127t27.5 225q0 172 -73.5 301t-219 201t-354.5 72q-197 0 -350 -85t-241.5 -250t-88.5 -392q0 -205 81 -358.5 t233.5 -237.5t363.5 -84q133 0 230.5 27.5t189.5 86.5q33 20 62 21q41 0 68.5 -28.5t27.5 -67.5q0 -51 -49 -86q-82 -59 -221.5 -100.5t-307.5 -41.5q-274 0 -477 110t-312.5 306.5t-109.5 452.5zM768 500q0 -88 39 -141.5t106 -53.5q82 0 140.5 50.5t88 131t29.5 170.5 q0 94 -42 141.5t-117 47.5q-76 0 -131.5 -51.5t-84 -131t-28.5 -163.5z" />
<glyph unicode="A" horiz-adv-x="1538" d="M23 123q0 33 20 72l627 1161q27 49 74 75.5t100 26.5t98 -26.5t64 -75.5l450 -1176q10 -31 10 -51q0 -59 -48 -99t-109 -40q-41 0 -74 21.5t-49 66.5l-86 241h-674l-123 -241q-23 -43 -58.5 -64.5t-76.5 -21.5q-57 0 -101 37t-44 94zM549 561h467l-193 541z" />
<glyph unicode="B" horiz-adv-x="1411" d="M117 150l90 1144q6 72 48 111t114 39h493q236 0 360 -98.5t124 -264.5q0 -242 -256 -338q112 -30 174.5 -120.5t62.5 -210.5q0 -197 -142.5 -304.5t-383.5 -107.5h-547q-72 0 -108 39q-30 33 -30 91q0 10 1 20zM436 244h338q131 0 193.5 44t62.5 144q0 90 -56 135 t-175 45h-334zM483 856h303q129 0 189.5 42t60.5 136q0 166 -225 166h-301z" />
<glyph unicode="C" horiz-adv-x="1388" d="M119 674q0 238 93 416t263 275t397 97q137 0 253 -33.5t190 -82.5q76 -49 76 -127q0 -51 -35 -90t-84 -39q-43 0 -78 24q-139 92 -309 92q-209 0 -325 -142t-116 -390q0 -213 94.5 -324.5t274.5 -111.5q154 0 317 96q39 20 74 20q47 0 77 -33.5t30 -80.5q0 -76 -66 -125 q-70 -55 -189.5 -94t-254.5 -39q-209 0 -362.5 84t-236.5 240.5t-83 367.5z" />
<glyph unicode="D" horiz-adv-x="1562" d="M117 150l90 1144q6 72 48 111t114 39h405q217 0 376 -82t244 -233.5t85 -358.5q0 -242 -93.5 -415t-270.5 -264t-425 -91h-436q-72 0 -108 39q-30 33 -30 91q0 10 1 20zM444 258h220q252 0 374.5 127t122.5 387q0 203 -108.5 308.5t-319.5 105.5h-217z" />
<glyph unicode="E" horiz-adv-x="1214" d="M117 150l90 1144q6 72 48 111t114 39h725q70 0 105.5 -31t35.5 -84q0 -133 -160 -133h-565l-27 -338h523q70 0 105.5 -29.5t35.5 -85.5q0 -133 -158 -133h-524l-29 -362h563q68 0 105 -31t37 -86q0 -131 -162 -131h-725q-72 0 -108 39q-30 33 -30 91q0 10 1 20z" />
<glyph unicode="F" horiz-adv-x="1171" d="M117 147l90 1147q6 72 48 111t114 39h704q141 0 141 -119q0 -72 -38.5 -102.5t-120.5 -30.5h-541l-27 -332h500q139 0 139 -115q0 -74 -38.5 -105.5t-120.5 -31.5h-498l-37 -463q-6 -72 -51 -114.5t-117 -42.5t-112 44q-35 38 -36 97q0 9 1 18z" />
<glyph unicode="G" horiz-adv-x="1511" d="M119 672q0 240 93 418t267 275t406 97q150 0 267.5 -33.5t190.5 -82.5q78 -49 78 -127q0 -51 -34.5 -90t-86.5 -39q-37 0 -77 24q-74 47 -150 70.5t-184 23.5q-211 0 -329 -143t-118 -393q0 -215 102.5 -330t309.5 -115q109 0 225 35l27 313h-178q-127 0 -127 107 q0 53 36.5 84t94.5 31h350q57 0 89 -32q28 -28 28 -75v-12l-31 -399q-6 -84 -22.5 -129.5t-52.5 -71t-103 -43.5q-82 -25 -184.5 -39t-192.5 -14q-215 0 -371.5 84t-239.5 239.5t-83 366.5z" />
<glyph unicode="H" horiz-adv-x="1579" d="M117 147l90 1151q6 72 52 114t118 42q73 0 111 -43q33 -37 33 -96q0 -9 -1 -19l-35 -436h664l35 438q6 72 52 114t116 42q71 0 111 -43q35 -37 35 -97q0 -9 -1 -18l-90 -1151q-6 -72 -52 -114.5t-116 -42.5q-72 0 -112 43q-34 37 -34 95q0 10 1 21l36 459h-663l-37 -461 q-6 -72 -52 -114.5t-116 -42.5q-72 0 -112 43q-34 37 -34 97q0 9 1 19z" />
<glyph unicode="I" horiz-adv-x="606" d="M117 147l90 1151q6 72 52 114t118 42q75 0 115 -43q34 -37 35 -97q0 -9 -1 -18l-90 -1151q-6 -72 -52 -114.5t-120 -42.5t-114 43q-34 37 -34 97q0 9 1 19z" />
<glyph unicode="J" horiz-adv-x="772" d="M-61 113q0 63 32.5 94t102.5 35l67 4q147 10 160 174l72 878q4 72 51 114t121 42q72 0 113 -43q35 -37 35 -95q0 -9 -1 -18l-67 -874q-16 -201 -127 -310.5t-314 -121.5l-65 -4q-14 -1 -28 -1q-152 0 -152 126z" />
<glyph unicode="K" horiz-adv-x="1388" d="M117 147l90 1151q6 72 52 114t118 42q75 0 115 -43q34 -37 35 -97q0 -9 -1 -18l-39 -489l607 600q49 49 106 49q53 0 91 -39t38 -94q0 -63 -55 -119l-481 -465l458 -524q29 -31 29 -76q0 -57 -44 -102t-103 -45q-63 0 -111 55l-545 615l-41 -517q-6 -72 -52 -114.5 t-120 -42.5t-114 43q-34 37 -34 97q0 9 1 19z" />
<glyph unicode="L" horiz-adv-x="1153" d="M117 150l90 1148q6 72 52 114t120 42q73 0 113 -43q34 -37 35 -97q0 -9 -1 -18l-82 -1036h523q70 0 105.5 -30.5t35.5 -88.5q0 -74 -40 -107.5t-120 -33.5h-694q-72 0 -108 39q-30 33 -30 91q0 10 1 20z" />
<glyph unicode="M" horiz-adv-x="1724" d="M119 133l92 1165q6 70 51 113t113 43q94 0 141 -104l350 -777l477 777q66 104 158 104q68 0 106 -43q32 -36 32 -92q0 -10 -1 -21l-92 -1165q-6 -68 -46 -106.5t-103 -38.5t-100 40q-32 34 -32 87q0 9 1 18l57 721l-332 -543q-33 -55 -68.5 -79.5t-82.5 -24.5t-79 24.5 t-56 79.5l-250 529l-56 -707q-4 -66 -46 -105.5t-105 -39.5q-61 0 -97 39q-32 35 -32 93v13z" />
<glyph unicode="N" horiz-adv-x="1540" d="M117 147l90 1151q6 70 51 113t113 43q76 0 114 -53l615 -864l59 761q6 70 50 113t110 43q67 0 106 -43q34 -37 34 -95q0 -9 -1 -18l-90 -1153q-6 -72 -50 -114.5t-110 -42.5q-84 0 -121 55l-612 862l-61 -760q-6 -72 -49 -114.5t-111 -42.5t-106 44q-32 38 -32 96 q0 9 1 19z" />
<glyph unicode="O" horiz-adv-x="1611" d="M119 674q0 236 88 415t251 277t376 98q211 0 368.5 -84t242.5 -240.5t85 -369.5q0 -236 -89 -415t-251 -277t-377 -98q-211 0 -367.5 83.5t-241.5 240.5t-85 370zM438 674q0 -213 96.5 -329t276.5 -116q184 0 291.5 143.5t107.5 397.5q0 213 -97 328.5t-275 115.5 q-186 0 -293 -144t-107 -396z" />
<glyph unicode="P" horiz-adv-x="1368" d="M117 147l90 1147q6 72 48 111t114 39h491q230 0 356.5 -113.5t126.5 -308.5q0 -231 -136 -355t-390 -124h-350l-31 -398q-6 -72 -52 -114.5t-120 -42.5t-114 43q-34 37 -34 97q0 9 1 19zM485 784h303q256 1 256 220q0 100 -55 148t-170 48h-301z" />
<glyph unicode="Q" horiz-adv-x="1611" d="M119 674q0 236 88 415t251 277t376 98q215 0 371.5 -83t240.5 -239.5t84 -371.5q0 -256 -103.5 -444.5t-291.5 -276.5q41 -12 72.5 -40.5t60.5 -80.5l49 -90q22 -37 22 -77q0 -64 -49 -103t-112 -39q-43 0 -79 20.5t-57 59.5l-106 201q-43 78 -160 82q-201 4 -349 90 t-228 240.5t-80 361.5zM438 674q0 -213 96.5 -329t276.5 -116q186 0 292.5 144.5t106.5 396.5q0 213 -97 328.5t-275 115.5q-186 0 -293 -144t-107 -396z" />
<glyph unicode="R" horiz-adv-x="1435" d="M117 147l90 1147q6 72 48 111t114 39h520q225 0 350 -110.5t125 -303.5q0 -190 -93 -301t-286 -143q53 -14 90 -50t70 -102l123 -244q16 -37 16 -65q0 -59 -50 -101t-114 -42q-43 0 -78.5 22.5t-58.5 67.5l-190 389q-27 53 -66 76.5t-100 23.5h-164l-31 -416 q-6 -72 -51 -114.5t-117 -42.5q-74 0 -114 43q-34 37 -34 97q0 9 1 19zM481 803h338q121 0 183.5 53t62.5 156q0 96 -53.5 142t-163.5 46h-338z" />
<glyph unicode="S" horiz-adv-x="1333" d="M51 231q0 51 31 88t80 37q41 0 82 -24q72 -45 177 -74t228 -29q133 0 204 41t71 117q0 51 -38 87t-97.5 58.5t-161.5 53.5q-152 45 -247 87t-164 126t-69 217t74 234.5t209 156.5t315 55q152 0 283 -36.5t209 -100.5q51 -39 51 -106q0 -51 -32.5 -90t-84.5 -39 q-43 0 -86 28q-63 41 -155 68.5t-191 27.5q-129 0 -201.5 -45t-72.5 -125q0 -55 40 -92t100.5 -60.5t166.5 -53.5q147 -43 241.5 -85t161 -122t66.5 -209q0 -209 -158.5 -324.5t-445.5 -115.5q-162 0 -295 33.5t-219 88.5q-35 25 -53.5 59t-18.5 68z" />
<glyph unicode="T" horiz-adv-x="1273" d="M61 1303q0 74 40 107.5t120 33.5h983q141 0 142 -121q0 -72 -39 -105.5t-121 -33.5h-332l-84 -1039q-6 -72 -53 -113.5t-119 -41.5t-113 43q-35 37 -35 94q0 10 1 20l81 1037h-331q-68 0 -104 30.5t-36 88.5z" />
<glyph unicode="U" horiz-adv-x="1513" d="M139 530q0 27 4 84l54 684q6 72 52 114t118 42q73 0 111 -43q33 -37 33 -96q0 -9 -1 -19l-53 -690q-2 -23 -2 -63q0 -158 75.5 -236t231.5 -78q137 0 216 79t91 257l57 733q6 72 52.5 114t115.5 42q72 0 112 -43q35 -37 35 -97q0 -9 -1 -18l-56 -708 q-25 -301 -185.5 -453.5t-453.5 -152.5q-301 0 -453.5 138t-152.5 410z" />
<glyph unicode="V" horiz-adv-x="1490" d="M102 1305q0 63 53.5 107t118.5 44q43 0 76 -21.5t47 -64.5l344 -973l494 973q43 86 135 86q59 0 103.5 -37t44.5 -94q0 -35 -19 -72l-620 -1167q-25 -47 -74 -73.5t-103 -26.5q-51 0 -94 25.5t-61 74.5l-434 1167q-10 31 -11 52z" />
<glyph unicode="W" horiz-adv-x="2283" d="M154 1307q0 68 50 109.5t113 41.5q47 0 85 -26.5t51 -75.5l231 -907l391 905q20 51 61.5 77.5t88.5 26.5t82.5 -27.5t50.5 -78.5l235 -916l383 922q21 49 61 75.5t87 26.5q55 0 94 -33.5t39 -93.5q0 -33 -19 -80l-505 -1165q-23 -49 -69 -75.5t-99 -26.5t-94 26.5 t-56 75.5l-239 866l-373 -866q-20 -49 -66.5 -76.5t-99.5 -27.5q-51 0 -94 27.5t-58 76.5l-323 1165q-8 25 -8 54z" />
<glyph unicode="X" horiz-adv-x="1382" d="M41 125q0 55 43 104l440 508l-346 477q-28 36 -28 81q0 64 49 112.5t110 48.5t101 -53l319 -445l387 445q46 53 109 53q55 0 96 -41t41 -98q0 -53 -41 -103l-426 -485l375 -500q30 -38 30 -83q0 -64 -49 -112t-110 -48q-59 0 -101 53l-348 477l-405 -477 q-45 -53 -109 -53q-55 0 -96 41t-41 98z" />
<glyph unicode="Y" horiz-adv-x="1302" d="M84 1298q0 61 49 108.5t111 47.5q68 0 106 -59l330 -486l410 492q48 57 114 57q55 0 97 -42t42 -99q0 -53 -40 -103l-480 -563l-39 -506q-6 -76 -54 -116.5t-116 -40.5q-72 0 -114 41q-36 36 -36 99q0 9 1 19l39 504l-395 572q-25 33 -25 75z" />
<glyph unicode="Z" horiz-adv-x="1249" d="M43 121q0 66 49 127l748 944h-559q-70 0 -106 28.5t-36 84.5q0 74 39 106.5t121 32.5h817q62 0 95.5 -35t33.5 -88q0 -63 -49 -125l-747 -944h589q141 0 142 -117q0 -72 -39 -103.5t-121 -31.5h-848q-61 0 -95 34t-34 87z" />
<glyph unicode="[" horiz-adv-x="763" d="M166 -96l102 1267q8 129 86 201t207 72h156q49 0 80.5 -27.5t31.5 -77.5q0 -66 -35.5 -96.5t-86.5 -30.5h-50q-43 0 -65.5 -19t-26.5 -69l-94 -1173q-2 -49 16.5 -68.5t61.5 -19.5h49q45 0 76 -29t31 -78q0 -66 -37 -95.5t-95 -29.5h-155q-129 0 -195.5 72t-56.5 201z " />
<glyph unicode="\" horiz-adv-x="675" d="M49 1448q0 49 42 82t93 33q39 0 69 -21.5t40 -64.5l360 -1497q2 -8 2 -23q0 -49 -41 -81t-92 -32q-41 0 -71.5 22.5t-40.5 65.5l-357 1491q-4 16 -4 25z" />
<glyph unicode="]" horiz-adv-x="763" d="M-59 -264q0 66 35.5 96.5t86.5 30.5h50q43 0 65.5 19.5t26.5 68.5l94 1173q2 49 -17.5 68.5t-62.5 19.5h-47q-45 0 -75.5 29t-30.5 78q0 66 36.5 95.5t92.5 29.5h157q121 0 187.5 -63.5t66.5 -176.5l-2 -33l-102 -1267q-10 -129 -88 -201t-205 -72h-158q-47 0 -78.5 28 t-31.5 77z" />
<glyph unicode="^" d="M133 389q0 25 12 49l367 748q23 49 68 77.5t98 28.5t94 -28.5t57 -77.5l250 -766q4 -11 4 -27q0 -43 -37.5 -72.5t-84.5 -29.5q-29 0 -51.5 15.5t-32.5 43.5l-218 670l-321 -670q-29 -57 -94 -57q-43 0 -77 27.5t-34 68.5z" />
<glyph unicode="_" horiz-adv-x="1024" d="M-47 -92q0 41 33.5 66.5t91.5 25.5h790q49 0 79 -23.5t30 -60.5q0 -45 -33 -69.5t-90 -24.5h-791q-49 0 -79.5 24.5t-30.5 61.5z" />
<glyph unicode="`" horiz-adv-x="614" d="M77 1460q0 47 36 78t83 31q37 0 66.5 -20.5t46.5 -63.5l94 -240q8 -18 8 -41q0 -35 -24.5 -55.5t-57.5 -20.5q-55 0 -88 50l-135 202q-29 41 -29 80z" />
<glyph unicode="a" horiz-adv-x="1118" d="M63 281q0 117 58.5 185.5t184.5 100t339 31.5h74l2 27q1 11 1 21q0 72 -38 110q-43 43 -137 43q-106 0 -254 -66q-31 -14 -60 -14q-45 0 -73.5 29.5t-28.5 72.5q0 33 18.5 63.5t57.5 53.5q74 43 172 67.5t205 24.5q430 0 430 -387q0 -41 -2 -63l-37 -449 q-4 -70 -45 -106.5t-111 -36.5q-65 0 -103 40q-32 34 -33 86q0 8 1 17v6q-39 -74 -108.5 -113.5t-161.5 -39.5q-98 0 -178 38.5t-126.5 106.5t-46.5 152zM365 313q0 -53 36.5 -84.5t98.5 -31.5q84 0 140 60t65 157l2 35h-56q-158 0 -222 -30t-64 -106z" />
<glyph unicode="b" horiz-adv-x="1255" d="M90 133l92 1180q4 63 52.5 102t119.5 39q68 0 105 -37q33 -33 33 -86v-12l-35 -430q49 66 129 103.5t174 37.5q127 0 224 -58.5t150.5 -168t53.5 -256.5q0 -164 -60.5 -292t-170 -199.5t-250.5 -71.5q-209 0 -312 157v-8q-4 -66 -48 -105.5t-114 -39.5q-71 0 -109 40 q-35 36 -34 93v12zM424 489q0 -133 57.5 -202.5t163.5 -69.5q111 0 173.5 83t62.5 226q0 131 -58.5 201t-167.5 70q-106 0 -168.5 -83t-62.5 -225z" />
<glyph unicode="c" horiz-adv-x="1011" d="M70 475q0 170 67.5 295t194.5 192.5t299 67.5q98 0 183 -21.5t142 -56.5q29 -16 42.5 -44.5t13.5 -61.5q0 -49 -28 -86t-71 -37q-25 0 -51 12q-104 57 -215 58q-123 0 -191.5 -82t-68.5 -232q0 -121 61.5 -189.5t169.5 -68.5q57 0 105.5 12.5t101.5 40.5q29 14 58 15 q39 0 62.5 -30t23.5 -73q0 -35 -16.5 -67.5t-49.5 -52.5q-53 -37 -137 -59.5t-168 -22.5q-160 0 -279.5 60t-184 172t-64.5 259z" />
<glyph unicode="d" horiz-adv-x="1255" d="M70 467q0 164 60 292t169 199.5t250 71.5q203 0 305 -147l35 436q4 61 48 98t112 37q71 0 112 -39q37 -36 37 -91v-11l-94 -1180q-2 -66 -46 -105.5t-114 -39.5q-68 0 -106 36q-37 35 -37 95v6q-49 -68 -128 -104.5t-175 -36.5q-127 0 -224.5 58t-150.5 167.5t-53 257.5z M377 485q0 -129 58.5 -198.5t166.5 -69.5q107 0 169.5 84t62.5 223q0 133 -57.5 203t-164.5 70q-111 0 -173 -83t-62 -229z" />
<glyph unicode="e" horiz-adv-x="1091" d="M70 477q0 160 65.5 286t181 196.5t263.5 70.5q215 0 331.5 -129t116.5 -362q0 -45 -24.5 -70t-65.5 -25h-571q18 -229 251 -229q66 0 115 14.5t109 44.5q29 14 55 15q39 0 62.5 -31t23.5 -74q0 -35 -15.5 -66.5t-47.5 -51.5q-55 -37 -143.5 -59.5t-180.5 -22.5 q-158 0 -276.5 61t-184 173t-65.5 259zM373 598h397q0 106 -46 162.5t-134 56.5q-182 0 -217 -219z" />
<glyph unicode="f" horiz-adv-x="770" d="M10 883q0 123 148 123h82q16 199 132.5 310t309.5 126l53 4q14 2 41 2q129 0 129 -102q0 -113 -129 -123l-53 -4q-84 -7 -124 -52t-48 -127l-2 -34h143q66 0 97.5 -29t31.5 -80q0 -123 -145 -123h-146l-51 -639q-6 -72 -52 -108.5t-112 -36.5q-68 0 -109 36 q-37 32 -37 91q0 9 1 18l51 639h-80q-66 0 -98.5 28.5t-32.5 80.5z" />
<glyph unicode="g" horiz-adv-x="1263" d="M72 492q0 154 60.5 276.5t171 192t251.5 69.5q213 0 313 -158l2 13q6 66 50.5 103.5t113.5 37.5q70 0 108 -40q34 -36 34 -93v-12l-64 -772q-16 -244 -166.5 -369t-425.5 -125q-102 0 -201.5 21.5t-171.5 62.5q-69 36 -69 106q0 49 32.5 85t77.5 36q23 0 41 -8 q66 -29 146 -50.5t155 -21.5q131 0 198 59.5t77 180.5l8 76q-49 -63 -129 -98t-180 -35q-129 0 -226.5 57t-151.5 161.5t-54 244.5zM379 504q0 -113 59.5 -176.5t167.5 -63.5q109 0 172.5 76t63.5 205q0 125 -58.5 188.5t-167.5 63.5q-111 0 -174 -78t-63 -215z" />
<glyph unicode="h" horiz-adv-x="1218" d="M90 133l92 1180q4 63 51.5 102t118.5 39q68 0 106 -37q34 -33 34 -87v-11l-33 -424q53 63 135 99t182 36q168 0 254 -93t86 -273q0 -43 -2 -66l-37 -465q-6 -68 -50 -106.5t-116 -38.5q-73 0 -111 39q-33 34 -33 88q0 9 1 18l37 453q1 17 1 32q0 77 -33 119 q-40 51 -124 51q-96 0 -151.5 -60t-63.5 -165l-35 -430q-4 -68 -48 -106.5t-115 -38.5q-72 0 -112 39q-35 34 -35 89q0 8 1 17z" />
<glyph unicode="i" horiz-adv-x="546" d="M90 133l60 748q6 72 54 108.5t113 36.5q66 0 107 -37q36 -32 36 -90q0 -9 -1 -18l-60 -748q-6 -72 -52 -108.5t-111 -36.5q-68 0 -110 36q-37 32 -37 92q0 8 1 17zM166 1346q0 72 47 112.5t129 40.5q80 0 128.5 -42t48.5 -111q0 -72 -47.5 -114t-129.5 -42t-129 42 t-47 114z" />
<glyph unicode="j" horiz-adv-x="546" d="M-229 -268q0 111 127 118l59 5q53 4 85 36.5t36 94.5l72 895q6 72 54 108.5t113 36.5q66 0 107 -37q36 -32 36 -90q0 -9 -1 -18l-70 -873q-25 -350 -389 -377l-57 -4q-15 -1 -29 -1q-61 0 -98 22q-45 26 -45 84zM164 1346q0 72 47 112.5t129 40.5q80 0 128.5 -42 t48.5 -111q0 -72 -47.5 -114t-129.5 -42t-129 42t-47 114z" />
<glyph unicode="k" horiz-adv-x="1142" d="M90 135l92 1174q6 72 52.5 108.5t113.5 36.5q68 0 109 -37q36 -32 36 -90q0 -9 -1 -18l-58 -731l412 401q45 45 100 45q57 0 98 -41t41 -94t-43 -96l-288 -275l264 -299q33 -39 33 -82q0 -59 -48.5 -105t-109.5 -46q-55 0 -100 47l-369 411l-25 -309q-6 -72 -52 -108.5 t-111 -36.5q-68 0 -110 36q-37 32 -37 92q0 8 1 17z" />
<glyph unicode="l" horiz-adv-x="546" d="M90 133l92 1176q6 72 52.5 108.5t113.5 36.5q66 0 108 -37q37 -32 37 -91q0 -8 -1 -17l-93 -1176q-6 -72 -52 -108.5t-111 -36.5q-68 0 -110 36q-37 32 -37 92q0 8 1 17z" />
<glyph unicode="m" horiz-adv-x="1812" d="M90 133l60 752q6 68 55 104.5t114 36.5q59 0 97 -35q37 -33 37 -90v-6q59 68 134 101.5t171 33.5q102 0 176 -43t110 -125q59 82 147.5 125t194.5 43q158 0 240 -92t82 -270q0 -45 -2 -68l-37 -467q-6 -74 -51 -109.5t-113 -35.5q-67 0 -109 36q-36 32 -37 91q0 9 1 18 l37 459q2 14 2 41q0 155 -133 155h-2q-176 0 -197 -241l-33 -414q-6 -72 -52 -108.5t-112 -36.5q-68 0 -110 36q-36 32 -36 91q0 9 1 18l37 457q2 14 2 41q0 157 -133 157h-2q-176 0 -197 -241l-33 -414q-6 -72 -52 -108.5t-111 -36.5q-68 0 -110 36q-37 32 -37 92q0 8 1 17 z" />
<glyph unicode="n" horiz-adv-x="1218" d="M90 133l60 752q4 63 51 102t118 39q66 0 102 -37q32 -33 32 -86v-12v-2q53 68 137 104.5t186 36.5q168 0 254 -93t86 -273q0 -43 -2 -66l-37 -465q-6 -68 -50 -106.5t-116 -38.5q-73 0 -111 39q-33 34 -33 88q0 9 1 18l37 453q1 17 1 32q0 77 -33 119q-40 51 -124 51 q-96 0 -151.5 -60t-63.5 -165l-35 -430q-6 -68 -50 -106.5t-113 -38.5q-72 0 -111 39q-35 35 -35 94v12z" />
<glyph unicode="o" horiz-adv-x="1204" d="M70 479q0 168 66.5 293t188 191.5t283.5 66.5t281 -61.5t183.5 -173t64.5 -260.5q0 -170 -66.5 -294t-188.5 -190.5t-284 -66.5t-280.5 61t-183 173t-64.5 261zM377 473q0 -256 217 -256q119 0 177 90t58 236q0 254 -217 254q-119 0 -177 -90.5t-58 -233.5z" />
<glyph unicode="p" horiz-adv-x="1255" d="M59 -244l88 1125q4 66 48.5 105.5t113.5 39.5q68 0 107 -37q37 -35 37 -94v-6q49 68 127.5 104.5t175.5 36.5q127 0 224 -58.5t150.5 -168t53.5 -256.5q0 -164 -60.5 -292t-170 -199.5t-251.5 -71.5q-201 0 -303 147l-30 -381q-4 -61 -48.5 -98t-111.5 -37q-72 0 -113 39 q-37 36 -37 91v11zM420 489q0 -133 57.5 -202.5t163.5 -69.5q111 0 173.5 83t62.5 226q0 131 -58.5 201t-167.5 70q-106 0 -168.5 -83t-62.5 -225z" />
<glyph unicode="q" horiz-adv-x="1255" d="M70 467q0 164 60 292t169 199.5t250 71.5q106 0 184 -42t127 -120l2 13q4 66 48 105.5t114 39.5t108 -40q35 -36 35 -93v-12l-90 -1125q-4 -63 -51 -102t-119 -39q-68 0 -105 37q-34 33 -34 86v12l31 373q-49 -66 -128 -102.5t-173 -36.5q-127 0 -224.5 58t-150.5 167.5 t-53 257.5zM377 485q0 -129 58.5 -198.5t166.5 -69.5q107 0 168 83t61 224q0 135 -56 204t-163 69q-111 0 -173 -83t-62 -229z" />
<glyph unicode="r" horiz-adv-x="821" d="M90 133l60 752q6 68 54 104.5t111 36.5q61 0 99 -36q33 -32 33 -85q0 -7 -1 -14l-2 -25q55 72 135 112t166 46l23 2h12q48 0 78 -28q28 -28 28 -77q0 -9 -1 -18q-6 -70 -41 -101.5t-119 -39.5l-55 -6q-125 -14 -177.5 -66.5t-62.5 -165.5l-31 -391q-6 -72 -52 -108.5 t-111 -36.5q-68 0 -110 36q-37 32 -37 92q0 8 1 17z" />
<glyph unicode="s" horiz-adv-x="997" d="M29 180q0 45 29.5 80t74.5 35q33 0 60 -16q66 -35 144.5 -55.5t154.5 -20.5q155 0 155 81q0 44 -46 66.5t-148 52.5q-109 29 -179.5 60t-122 90t-51.5 154q0 94 57.5 167.5t162 114.5t241.5 41q76 0 162 -21.5t141 -54.5q35 -20 52.5 -51t17.5 -63q0 -45 -26.5 -78 t-67.5 -33q-25 0 -58 16q-125 66 -245 66q-78 0 -119 -22.5t-41 -63.5q0 -43 46 -66.5t148 -52.5q109 -29 179.5 -59.5t122 -90t51.5 -153.5q0 -150 -120 -234.5t-337 -84.5h-5q-187 0 -347 75q-43 20 -64.5 52t-21.5 69z" />
<glyph unicode="t" horiz-adv-x="792" d="M10 885q0 121 148 121h82l12 159q6 68 51 107t117 39t110 -39q32 -34 32 -89q0 -9 -1 -18l-12 -159h143q61 0 95 -29t34 -80q0 -123 -145 -123h-146l-30 -379l-2 -33q0 -151 129 -151h2q23 0 45 3t41 3q31 0 50 -27.5t19 -70.5q0 -74 -50 -104.5t-177 -30.5 q-178 0 -273.5 92t-95.5 264q0 37 2 55l31 379h-80q-63 0 -97 28.5t-34 82.5z" />
<glyph unicode="u" horiz-adv-x="1206" d="M102 344q0 43 2 66l37 471q6 68 52.5 106.5t117.5 38.5q72 0 109 -39q32 -34 32 -88q0 -9 -1 -18l-37 -453q-1 -17 -1 -33q-1 -77 31 -119q38 -52 121 -51q90 0 144.5 60.5t62.5 163.5l35 432q6 68 51 106.5t117 38.5q71 0 109 -39q32 -34 33 -88q0 -9 -1 -18l-59 -752 q-4 -63 -50 -102t-116 -39q-67 0 -103 36q-35 35 -34 93v6v2q-53 -68 -135 -104.5t-181 -36.5q-164 0 -250 92t-86 268z" />
<glyph unicode="v" horiz-adv-x="1093" d="M66 883q0 57 52 99t113 42q41 0 73 -21.5t46 -64.5l191 -571l278 571q43 86 131 86q55 0 98.5 -36t43.5 -89q0 -29 -17 -61l-389 -744q-29 -53 -77 -81.5t-103 -28.5t-100.5 29.5t-63.5 84.5l-270 746q-6 18 -6 39z" />
<glyph unicode="w" horiz-adv-x="1767" d="M84 881q0 63 50 103t112 40q43 0 76.5 -22.5t46.5 -65.5l166 -565l258 559q20 45 57 68.5t78 23.5t75.5 -23.5t47.5 -68.5l166 -561l256 567q20 45 56 66.5t79 21.5q55 0 98 -35t43 -90q0 -35 -16 -68l-373 -751q-23 -45 -69 -68.5t-99 -23.5t-96 23.5t-56 68.5l-153 491 l-225 -491q-20 -45 -66.5 -68.5t-99.5 -23.5q-55 0 -98.5 23.5t-57.5 68.5l-248 754q-8 23 -8 47z" />
<glyph unicode="x" horiz-adv-x="1105" d="M20 115q0 59 52 108l297 293l-234 268q-37 43 -37 93q0 59 46 103t104 44q61 0 106 -53l217 -258l258 256q53 53 113 53q53 0 91 -37t38 -90q0 -57 -49 -104l-281 -275l250 -291q35 -41 35 -90q0 -57 -45 -102t-102 -45q-59 0 -105 51l-235 283l-283 -287 q-49 -49 -109 -49q-51 0 -89 37.5t-38 91.5z" />
<glyph unicode="y" horiz-adv-x="1093" d="M66 883q0 57 52 99t113 42q41 0 73 -21.5t46 -64.5l191 -571l278 571q43 86 131 86q55 0 98.5 -36t43.5 -89q0 -29 -17 -61l-596 -1133q-25 -45 -58.5 -66.5t-70.5 -21.5q-51 0 -90 36t-39 89q0 33 19 70l120 233l-288 799q-6 18 -6 39z" />
<glyph unicode="z" horiz-adv-x="1052" d="M45 121q0 66 49 117l514 536h-385q-63 0 -96 27.5t-33 79.5q0 125 148 125h641q57 0 91 -35t34 -86q0 -66 -52 -119l-512 -535h410q66 0 98.5 -27.5t32.5 -78.5q0 -63 -37 -94t-112 -31h-666q-57 0 -91 35t-34 86z" />
<glyph unicode="{" horiz-adv-x="839" d="M55 530q0 53 32 87t93 38q70 6 99.5 42t35.5 116l27 358q10 131 78.5 202t195.5 71h183q43 0 74.5 -27.5t31.5 -77.5q0 -66 -35.5 -96.5t-87.5 -30.5h-49q-43 0 -65.5 -19t-26.5 -69l-29 -348q-8 -92 -63 -156.5t-123 -78.5q66 -16 112 -83t37 -161l-28 -346 q-2 -49 16.5 -68.5t61.5 -19.5h49q43 0 74.5 -29t31.5 -78q0 -63 -35.5 -94t-89.5 -31h-141q-131 0 -207 73t-65 200l28 356l2 33q0 61 -25.5 90t-86.5 35q-51 4 -78 33.5t-27 78.5z" />
<glyph unicode="|" horiz-adv-x="593" d="M96 -236l123 1547q4 63 47 103t107 40q61 0 99 -40t34 -103l-123 -1547q-4 -63 -48 -103t-108 -40q-61 0 -98 40t-33 103z" />
<glyph unicode="}" horiz-adv-x="839" d="M-59 -264q0 66 35.5 96.5t86.5 30.5h50q43 0 65.5 19.5t26.5 68.5l26 348q8 92 63.5 156.5t125.5 79.5q-66 16 -112 82.5t-38 160.5l27 346q4 49 -15.5 68.5t-62.5 19.5h-47q-45 0 -75.5 29t-30.5 78q0 63 35.5 94t86.5 31h144q131 0 205.5 -73t66.5 -200l-31 -356 l-2 -33q0 -61 26 -89.5t89 -35.5q51 -4 78 -33.5t27 -78.5q0 -53 -32 -86t-93 -39q-70 -6 -99.5 -42t-36.5 -116l-28 -358q-10 -131 -78 -202t-195 -71h-182q-43 0 -74.5 28t-31.5 77z" />
<glyph unicode="~" d="M139 551q0 35 23 65q45 68 111.5 105t140.5 37q59 0 116.5 -21.5t131.5 -60.5q55 -29 90.5 -43.5t68.5 -14.5q57 0 97 37q49 49 100 50q37 0 60.5 -25t23.5 -59q0 -35 -23 -64q-47 -66 -114.5 -102.5t-139.5 -36.5q-59 0 -116.5 21.5t-130.5 60.5q-63 33 -95 46t-63 13 q-59 0 -98 -39q-47 -49 -99 -49q-37 0 -60.5 22.5t-23.5 57.5z" />
<glyph unicode="&#xa2;" d="M156 475q0 215 107.5 356.5t299.5 182.5l10 121q4 55 41 90t91 35q55 0 86.5 -35t27.5 -90l-8 -111q135 -14 231 -72q29 -16 42.5 -44.5t13.5 -61.5q0 -49 -28 -86t-71 -37q-23 0 -51 12q-104 57 -213 58q-125 0 -193.5 -82t-68.5 -232q0 -121 61.5 -189.5t172.5 -68.5 q55 0 103 12.5t101 40.5q29 14 58 15q39 0 62.5 -31t23.5 -74q0 -35 -16.5 -66.5t-47.5 -51.5q-47 -33 -118.5 -54.5t-145.5 -25.5l-8 -109q-4 -55 -38 -89t-87 -34q-55 0 -90 34t-31 89l10 135q-154 47 -240.5 169t-86.5 294z" />
<glyph unicode="&#xa3;" d="M27 123q0 68 38.5 100.5t120.5 32.5h29l29 373h-80q-39 0 -64.5 25.5t-25.5 64.5q0 41 30.5 69.5t75.5 28.5h78l18 236q14 186 148.5 297.5t351.5 111.5q250 0 430 -129q57 -43 58 -104q0 -51 -38 -90t-91 -39q-47 0 -91 28q-61 39 -130.5 61.5t-133.5 22.5 q-84 0 -133 -46t-55 -134l-17 -215h263q39 0 64.5 -25.5t25.5 -64.5q0 -41 -31 -69.5t-76 -28.5h-262l-29 -373h496q141 0 141 -115q0 -74 -38.5 -107.5t-122.5 -33.5h-840q-139 0 -139 123z" />
<glyph unicode="&#xa5;" d="M98 412q0 45 32 71.5t75 26.5h250l12 127h-252q-39 0 -65.5 25.5t-26.5 64.5q0 45 31.5 71.5t74.5 26.5h162l-258 418q-23 39 -22 74q0 57 49 99t108 42q78 0 119 -69l256 -441l344 449q47 63 121 63q57 0 101 -38t44 -91q0 -43 -30 -82l-334 -424h164q37 0 63.5 -25.5 t26.5 -62.5q0 -45 -31 -72.5t-74 -27.5h-254l-10 -127h254q39 0 64.5 -25.5t25.5 -64.5q0 -45 -31.5 -71.5t-74.5 -26.5h-252l-15 -175q-6 -78 -53 -118.5t-117 -40.5q-72 0 -112.5 41t-36.5 118l14 175h-252q-39 0 -64.5 25.5t-25.5 64.5z" />
<glyph unicode="&#xa8;" horiz-adv-x="614" d="M26 1346q0 66 43 104.5t111 38.5t110.5 -39t42.5 -104q0 -66 -42 -107t-111 -41q-68 0 -111 41t-43 107zM417 1346q0 66 42 104.5t110 38.5t111 -39t43 -104q0 -66 -43 -107t-111 -41t-110 41t-42 107z" />
<glyph unicode="&#xa9;" horiz-adv-x="1669" d="M121 723q0 205 96 372t264 263t373 96t372 -96t263 -263t96 -372t-96 -372t-264 -264t-371 -97q-205 0 -373 97t-264 264t-96 372zM256 723q0 -172 77 -310.5t213 -217t308 -78.5q170 0 306 78.5t213 217t77 310.5t-77 309t-213 216t-306 79q-172 0 -308 -79t-213 -216 t-77 -309zM438 723q0 131 54.5 231.5t153.5 154.5t231 54q172 0 264 -73q27 -18 36 -39t9 -52q0 -41 -23.5 -75.5t-66.5 -34.5q-25 0 -48.5 10t-31.5 14q-70 35 -123 35q-88 0 -132 -53t-44 -172q0 -121 44 -174t132 -53q53 0 123 34q8 4 31.5 14.5t48.5 10.5q43 0 66.5 -35 t23.5 -76q0 -33 -9.5 -53t-35.5 -37q-57 -35 -120 -54t-144 -19q-132 0 -231 54t-153.5 154.5t-54.5 233.5z" />
<glyph unicode="&#xaa;" horiz-adv-x="694" d="M74 1010q0 96 77.5 139t251.5 43h60l2 20q2 33 -17.5 46.5t-68.5 13.5q-57 0 -152 -27q-20 -4 -26 -4q-35 0 -55.5 24.5t-20.5 57.5q0 27 14.5 50.5t42.5 35.5q45 23 111.5 34t132.5 11q143 0 211 -64.5t68 -197.5l-3 -43l-14 -203q-4 -57 -38 -91t-83 -34 q-57 0 -87.5 31t-30.5 82q-55 -113 -181 -113q-80 0 -137 55.5t-57 133.5zM303 1030q0 -23 16.5 -35t42.5 -12q37 0 62 23.5t29 60.5l2 12h-72q-39 0 -59.5 -13t-20.5 -36z" />
<glyph unicode="&#xab;" horiz-adv-x="1075" d="M111 537q0 49 39 100l176 248q47 63 116 63q45 0 77 -27.5t32 -70.5q0 -35 -21 -70l-133 -233l92 -236q10 -23 11 -53q0 -49 -36 -82t-83 -33q-33 0 -61.5 16.5t-47.5 49.5l-137 246q-25 43 -24 82zM566 537q0 49 39 100l176 248q47 63 116 63q45 0 77 -27.5t32 -70.5 q0 -35 -21 -70l-133 -233l92 -236q10 -23 11 -53q0 -49 -36 -82t-83 -33q-33 0 -61.5 16.5t-47.5 49.5l-137 246q-25 43 -24 82z" />
<glyph unicode="&#xac;" d="M139 788q0 47 33 79t80 32h788q45 0 74 -30.5t25 -75.5l-33 -410q-4 -47 -37 -77t-80 -30q-49 0 -76.5 31t-23.5 76l24 305h-675q-43 0 -71 28.5t-28 71.5z" />
<glyph unicode="&#xad;" horiz-adv-x="901" d="M109 541q0 129 153 129h404q66 0 100.5 -31t34.5 -82q0 -129 -156 -129h-401q-66 0 -100.5 30.5t-34.5 82.5z" />
<glyph unicode="&#xae;" horiz-adv-x="1669" d="M121 723q0 205 96 372t264 263t373 96t372 -96t263 -263t96 -372t-96 -372t-264 -264t-371 -97q-205 0 -372 97t-264 264t-97 372zM256 723q0 -172 78 -310.5t214 -217t306 -78.5t306 78.5t213 217t77 310.5t-77 310t-213 216t-306 78t-307 -78t-214 -216t-77 -310z M473 418l49 612q4 61 39 94t96 33h267q158 0 242.5 -68.5t84.5 -191.5q0 -106 -57 -179t-160 -100q39 -6 69 -26.5t60 -61.5l45 -61q27 -33 27 -68q0 -49 -47 -84.5t-105 -35.5q-72 0 -108 57l-144 231q-18 31 -47 31h-26l-17 -182q-2 -68 -42 -102.5t-97 -34.5 q-61 0 -97 34.5t-32 102.5zM770 788h119q53 0 77.5 23t24.5 70q0 37 -25.5 54t-78.5 17h-105z" />
<glyph unicode="&#xb1;" d="M84 100q0 47 33 79t80 32h788q43 0 70.5 -29.5t27.5 -72.5q0 -47 -32.5 -78t-81.5 -31h-787q-43 0 -70.5 28.5t-27.5 71.5zM131 684q0 49 33 81t80 32h291l14 184q4 45 35.5 75.5t77.5 30.5q45 0 73.5 -30.5t24.5 -75.5l-15 -184h287q43 0 70.5 -31t27.5 -74 q0 -49 -32.5 -78.5t-81.5 -29.5h-289l-14 -187q-4 -45 -37 -74.5t-78 -29.5t-72.5 29.5t-23.5 74.5l14 187h-287q-43 0 -70.5 28.5t-27.5 71.5z" />
<glyph unicode="&#xb4;" horiz-adv-x="614" d="M313 1198q0 25 14 51l131 246q41 72 111 72q49 0 86 -32t37 -79q0 -43 -39 -88l-178 -197q-37 -43 -88 -43q-31 0 -52.5 19.5t-21.5 50.5z" />
<glyph unicode="&#xb5;" horiz-adv-x="1206" d="M55 -244l88 1125q6 68 51.5 106.5t116.5 38.5q72 0 110 -39t32 -106l-39 -453q-8 -92 31.5 -147.5t119.5 -55.5q90 0 145.5 61.5t63.5 162.5l35 432q6 68 50 106.5t116 38.5t110.5 -39t32.5 -106l-59 -752q-4 -63 -51 -102t-117 -39q-66 0 -102.5 36.5t-32.5 98.5v6 q-51 -68 -132 -106.5t-175 -38.5q-27 0 -68 4l-16 -226q-4 -63 -51.5 -102t-118.5 -39q-70 0 -108 37t-32 98z" />
<glyph unicode="&#xb8;" horiz-adv-x="614" d="M29 -326q0 31 19.5 52.5t47.5 13.5q59 -16 113 -16q98 0 98 53q0 39 -57 39q-23 0 -47.5 -6.5t-32.5 -6.5q-20 0 -30.5 12.5t-6.5 30.5l41 195h166l-27 -123h15q78 0 124 -38t46 -101q0 -82 -76 -132t-199 -50q-86 0 -151 18q-23 6 -33 22.5t-10 36.5z" />
<glyph unicode="&#xba;" horiz-adv-x="765" d="M80 1112q0 158 101.5 250t271.5 92q154 0 243.5 -80t89.5 -213q0 -156 -102 -248t-268 -92q-154 0 -245 80t-91 211zM334 1126q0 -49 24.5 -77.5t69.5 -28.5q51 0 81 36t30 97q0 49 -27 76.5t-70 27.5q-51 0 -79.5 -33.5t-28.5 -97.5z" />
<glyph unicode="&#xbb;" horiz-adv-x="1062" d="M76 242q0 35 20 69l133 234l-92 233q-10 23 -10 53q0 51 37 84t84 33q31 0 59.5 -16.5t46.5 -48.5l138 -246q25 -43 24 -82q0 -51 -39 -102l-176 -246q-47 -64 -117 -64q-45 0 -76.5 28t-31.5 71zM531 242q0 35 20 69l133 234l-92 233q-10 23 -10 53q0 51 37 84t84 33 q31 0 59.5 -16.5t46.5 -48.5l138 -246q25 -43 24 -82q0 -51 -39 -102l-176 -246q-47 -64 -117 -64q-45 0 -76.5 28t-31.5 71z" />
<glyph unicode="&#xc0;" horiz-adv-x="1538" d="M23 123q0 33 20 72l627 1161q27 49 74 75.5t100 26.5t98 -26.5t64 -75.5l450 -1176q10 -31 10 -51q0 -59 -48 -99t-109 -40q-41 0 -74 21.5t-49 66.5l-86 241h-674l-123 -241q-23 -43 -58.5 -64.5t-76.5 -21.5q-57 0 -101 37t-44 94zM549 561h467l-193 541zM583 1802 q0 39 33 67.5t76 28.5q57 0 88 -53l102 -178q10 -18 11 -39q0 -31 -23.5 -51.5t-54.5 -20.5q-39 0 -70 33l-133 148q-29 31 -29 65z" />
<glyph unicode="&#xc1;" horiz-adv-x="1538" d="M23 123q0 33 20 72l627 1161q27 49 74 75.5t100 26.5t98 -26.5t64 -75.5l450 -1176q10 -31 10 -51q0 -59 -48 -99t-109 -40q-41 0 -74 21.5t-49 66.5l-86 241h-674l-123 -241q-23 -43 -58.5 -64.5t-76.5 -21.5q-57 0 -101 37t-44 94zM549 561h467l-193 541zM821 1626 q0 25 18 51l119 172q35 49 88 49q41 0 74 -30.5t33 -69.5t-37 -74l-154 -137q-30 -28 -67 -28q-31 0 -52.5 19t-21.5 48z" />
<glyph unicode="&#xc2;" horiz-adv-x="1538" d="M23 123q0 33 20 72l627 1161q27 49 74 75.5t100 26.5t98 -26.5t64 -75.5l450 -1176q10 -31 10 -51q0 -59 -48 -99t-109 -40q-41 0 -74 21.5t-49 66.5l-86 241h-674l-123 -241q-23 -43 -58.5 -64.5t-76.5 -21.5q-57 0 -101 37t-44 94zM549 561h467l-193 541zM581 1628 q0 31 31 68l148 157q45 45 118 45q74 0 111 -45l121 -157q23 -29 22 -56q0 -35 -28.5 -58t-67.5 -23q-55 0 -86 51l-78 131l-112 -133q-44 -49 -97 -49q-35 0 -58.5 19t-23.5 50z" />
<glyph unicode="&#xc3;" horiz-adv-x="1538" d="M23 123q0 33 20 72l627 1161q27 49 74 75.5t100 26.5t98 -26.5t64 -75.5l450 -1176q10 -31 10 -51q0 -59 -48 -99t-109 -40q-41 0 -74 21.5t-49 66.5l-86 241h-674l-123 -241q-23 -43 -58.5 -64.5t-76.5 -21.5q-57 0 -101 37t-44 94zM512 1665q0 47 25.5 96t73.5 81 t112 32q37 0 73.5 -12.5t85.5 -36.5q86 -43 132 -43q29 0 45 10t39 33q20 20 32.5 28.5t32.5 8.5q57 0 57 -70q0 -47 -25.5 -96t-73.5 -81t-112 -32q-36 0 -73 12.5t-86 36.5q-86 43 -131 43q-29 0 -46.5 -11t-37.5 -34q-20 -20 -32.5 -28.5t-33.5 -8.5q-29 0 -43 19.5 t-14 52.5zM549 561h467l-193 541z" />
<glyph unicode="&#xc4;" horiz-adv-x="1538" d="M23 123q0 33 20 72l627 1161q27 49 74 75.5t100 26.5t98 -26.5t64 -75.5l450 -1176q10 -31 10 -51q0 -59 -48 -99t-109 -40q-41 0 -74 21.5t-49 66.5l-86 241h-674l-123 -241q-23 -43 -58.5 -64.5t-76.5 -21.5q-57 0 -101 37t-44 94zM518 1729q0 66 43 104.5t111 38.5 t110.5 -39t42.5 -104q0 -66 -42 -106t-111 -40q-68 0 -111 40t-43 106zM549 561h467l-193 541zM909 1729q0 66 42 104.5t110 38.5t110.5 -39t42.5 -104q0 -66 -43 -106t-110 -40q-68 0 -110 40t-42 106z" />
<glyph unicode="&#xc5;" horiz-adv-x="1538" d="M23 121q0 35 20 74l664 1232q-35 31 -54.5 74t-19.5 92q0 92 64.5 155.5t158.5 63.5t158.5 -63t64.5 -156q0 -55 -25.5 -104t-68.5 -78l471 -1231q10 -31 10 -51q0 -59 -48 -99t-109 -40q-41 0 -74 21.5t-49 66.5l-86 241h-674l-123 -241q-23 -43 -58.5 -65.5 t-76.5 -22.5q-57 0 -101 36.5t-44 94.5zM549 561h467l-193 541zM768 1593q0 -41 24.5 -67.5t63.5 -26.5t63.5 26.5t24.5 67.5q0 39 -24.5 66t-63.5 27t-63.5 -27t-24.5 -66z" />
<glyph unicode="&#xc6;" horiz-adv-x="2048" d="M10 104q0 57 43 117l803 1135q29 41 79 64.5t107 23.5h885q70 0 105.5 -30t35.5 -85q0 -133 -159 -133h-674l49 -338h555q70 0 105.5 -29.5t35.5 -85.5q0 -68 -38.5 -100.5t-118.5 -32.5h-504l53 -362h461q70 0 105.5 -31t35.5 -86q0 -131 -159 -131h-576q-55 0 -91 24.5 t-42 65.5l-33 229h-610l-162 -241q-33 -49 -75 -72.5t-85 -23.5q-55 0 -93 34.5t-38 87.5zM625 561h413l-71 508z" />
<glyph unicode="&#xc7;" horiz-adv-x="1388" d="M119 674q0 238 93 416t263 275t397 97q137 0 253 -33.5t190 -82.5q76 -49 76 -127q0 -51 -35 -90t-84 -39q-43 0 -78 24q-139 92 -309 92q-209 0 -325 -142t-116 -390q0 -213 94.5 -324.5t274.5 -111.5q154 0 317 96q39 20 74 20q47 0 77 -33.5t30 -80.5q0 -76 -66 -125 q-66 -53 -177.5 -91t-240.5 -42l-14 -64h14q78 0 124 -38t46 -101q0 -82 -75.5 -132t-198.5 -50q-86 0 -152 18q-23 6 -33 22.5t-10 36.5q0 31 19.5 52.5t48.5 13.5q59 -16 113 -16q98 0 98 53q0 39 -57 39q-23 0 -47.5 -6.5t-32.5 -6.5q-20 0 -30.5 12.5t-6.5 30.5l31 146 q-256 41 -400.5 220t-144.5 462z" />
<glyph unicode="&#xc8;" horiz-adv-x="1214" d="M117 150l90 1144q6 72 48 111t114 39h725q70 0 105.5 -31t35.5 -84q0 -133 -160 -133h-565l-27 -338h523q70 0 105.5 -29.5t35.5 -85.5q0 -133 -158 -133h-524l-29 -362h563q68 0 105 -31t37 -86q0 -131 -162 -131h-725q-72 0 -107.5 39t-29.5 111zM493 1802 q0 39 33 67.5t76 28.5q57 0 88 -53l102 -178q10 -18 11 -39q0 -31 -23.5 -51.5t-54.5 -20.5q-39 0 -70 33l-133 148q-29 31 -29 65z" />
<glyph unicode="&#xc9;" horiz-adv-x="1214" d="M117 150l90 1144q6 72 48 111t114 39h725q70 0 105.5 -31t35.5 -84q0 -133 -160 -133h-565l-27 -338h523q70 0 105.5 -29.5t35.5 -85.5q0 -133 -158 -133h-524l-29 -362h563q68 0 105 -31t37 -86q0 -131 -162 -131h-725q-72 0 -107.5 39t-29.5 111zM731 1626q0 25 18 51 l119 172q35 49 88 49q41 0 74 -30.5t33 -69.5t-37 -74l-154 -137q-30 -28 -67 -28q-31 0 -52.5 19t-21.5 48z" />
<glyph unicode="&#xca;" horiz-adv-x="1214" d="M117 150l90 1144q6 72 48 111t114 39h725q70 0 105.5 -31t35.5 -84q0 -133 -160 -133h-565l-27 -338h523q70 0 105.5 -29.5t35.5 -85.5q0 -133 -158 -133h-524l-29 -362h563q68 0 105 -31t37 -86q0 -131 -162 -131h-725q-72 0 -107.5 39t-29.5 111zM491 1628q0 31 31 68 l148 157q45 45 118 45q74 0 111 -45l121 -157q23 -29 22 -56q0 -35 -28.5 -58t-67.5 -23q-55 0 -86 51l-78 131l-112 -133q-44 -49 -97 -49q-35 0 -58.5 19t-23.5 50z" />
<glyph unicode="&#xcb;" horiz-adv-x="1214" d="M117 150l90 1144q6 72 48 111t114 39h725q70 0 105.5 -31t35.5 -84q0 -133 -160 -133h-565l-27 -338h523q70 0 105.5 -29.5t35.5 -85.5q0 -133 -158 -133h-524l-29 -362h563q68 0 105 -31t37 -86q0 -131 -162 -131h-725q-72 0 -107.5 39t-29.5 111zM428 1729 q0 66 43 104.5t111 38.5t110.5 -39t42.5 -104q0 -66 -42 -106t-111 -40q-68 0 -111 40t-43 106zM819 1729q0 66 42 104.5t110 38.5t110.5 -39t42.5 -104q0 -66 -43 -106t-110 -40q-68 0 -110 40t-42 106z" />
<glyph unicode="&#xcc;" horiz-adv-x="606" d="M117 147l90 1151q6 72 52 114t118 42q76 0 115.5 -43t33.5 -115l-90 -1151q-6 -72 -52 -114.5t-120 -42.5t-113.5 43t-33.5 116zM120 1802q0 39 33 67.5t76 28.5q57 0 88 -53l102 -178q10 -18 11 -39q0 -31 -23.5 -51.5t-54.5 -20.5q-39 0 -70 33l-133 148q-29 31 -29 65 z" />
<glyph unicode="&#xcd;" horiz-adv-x="606" d="M117 147l90 1151q6 72 52 114t118 42q76 0 115.5 -43t33.5 -115l-90 -1151q-6 -72 -52 -114.5t-120 -42.5t-113.5 43t-33.5 116zM358 1626q0 25 18 51l119 172q35 49 88 49q41 0 74 -30.5t33 -69.5t-37 -74l-154 -137q-30 -28 -67 -28q-31 0 -52.5 19t-21.5 48z" />
<glyph unicode="&#xce;" horiz-adv-x="606" d="M117 147l90 1151q6 72 52 114t118 42q76 0 115.5 -43t33.5 -115l-90 -1151q-6 -72 -52 -114.5t-120 -42.5t-113.5 43t-33.5 116zM118 1628q0 31 31 68l148 157q45 45 118 45q74 0 111 -45l121 -157q23 -29 22 -56q0 -35 -28.5 -58t-67.5 -23q-55 0 -86 51l-78 131 l-112 -133q-44 -49 -97 -49q-35 0 -58.5 19t-23.5 50z" />
<glyph unicode="&#xcf;" horiz-adv-x="606" d="M55 1729q0 66 43 104.5t111 38.5t110.5 -39t42.5 -104q0 -66 -42 -106t-111 -40q-68 0 -111 40t-43 106zM117 147l90 1151q6 72 52 114t118 42q76 0 115.5 -43t33.5 -115l-90 -1151q-6 -72 -52 -114.5t-120 -42.5t-113.5 43t-33.5 116zM446 1729q0 66 42 104.5t110 38.5 t110.5 -39t42.5 -104q0 -66 -43 -106t-110 -40q-68 0 -110 40t-42 106z" />
<glyph unicode="&#xd0;" horiz-adv-x="1624" d="M18 723q0 63 40 95t114 32h59l35 444q6 72 48 111t114 39h406q217 0 375.5 -82t243.5 -233.5t85 -358.5q0 -242 -93 -415t-270.5 -264t-424.5 -91h-437q-72 0 -107.5 39t-29.5 111l37 458h-61q-63 0 -98.5 31t-35.5 84zM504 258h219q250 0 373 127t123 387 q0 203 -107.5 308.5t-318.5 105.5h-218l-26 -336h270q63 0 98 -31t35 -84q0 -63 -40 -95t-113 -32h-269z" />
<glyph unicode="&#xd1;" horiz-adv-x="1540" d="M117 147l90 1151q6 70 51 113t113 43q76 0 114 -53l615 -864l59 761q6 70 50 113t110 43q67 0 106 -43t33 -113l-90 -1153q-6 -72 -50 -114.5t-110 -42.5q-84 0 -121 55l-612 862l-61 -760q-6 -72 -49 -114.5t-111 -42.5t-105.5 44t-31.5 115zM514 1665q0 47 25.5 96 t73.5 81t112 32q37 0 73.5 -12.5t85.5 -36.5q86 -43 132 -43q29 0 45 10t39 33q20 20 32.5 28.5t32.5 8.5q57 0 57 -70q0 -47 -25.5 -96t-73.5 -81t-112 -32q-36 0 -73 12.5t-86 36.5q-86 43 -131 43q-29 0 -46.5 -11t-37.5 -34q-20 -20 -32.5 -28.5t-33.5 -8.5 q-29 0 -43 19.5t-14 52.5z" />
<glyph unicode="&#xd2;" horiz-adv-x="1611" d="M119 674q0 236 88 415t251 277t376 98q211 0 368.5 -84t242.5 -240.5t85 -369.5q0 -236 -89 -415t-251 -277t-377 -98q-211 0 -367.5 83.5t-241.5 240.5t-85 370zM438 674q0 -213 96.5 -329t276.5 -116q184 0 291.5 143.5t107.5 397.5q0 213 -97 328.5t-275 115.5 q-186 0 -293 -144t-107 -396zM620 1802q0 39 33 67.5t76 28.5q57 0 88 -53l102 -178q10 -18 11 -39q0 -31 -23.5 -51.5t-54.5 -20.5q-39 0 -70 33l-133 148q-29 31 -29 65z" />
<glyph unicode="&#xd3;" horiz-adv-x="1611" d="M119 674q0 236 88 415t251 277t376 98q211 0 368.5 -84t242.5 -240.5t85 -369.5q0 -236 -89 -415t-251 -277t-377 -98q-211 0 -367.5 83.5t-241.5 240.5t-85 370zM438 674q0 -213 96.5 -329t276.5 -116q184 0 291.5 143.5t107.5 397.5q0 213 -97 328.5t-275 115.5 q-186 0 -293 -144t-107 -396zM858 1626q0 25 18 51l119 172q35 49 88 49q41 0 74 -30.5t33 -69.5t-37 -74l-154 -137q-30 -28 -67 -28q-31 0 -52.5 19t-21.5 48z" />
<glyph unicode="&#xd4;" horiz-adv-x="1611" d="M119 674q0 236 88 415t251 277t376 98q211 0 368.5 -84t242.5 -240.5t85 -369.5q0 -236 -89 -415t-251 -277t-377 -98q-211 0 -367.5 83.5t-241.5 240.5t-85 370zM438 674q0 -213 96.5 -329t276.5 -116q184 0 291.5 143.5t107.5 397.5q0 213 -97 328.5t-275 115.5 q-186 0 -293 -144t-107 -396zM618 1628q0 31 31 68l148 157q45 45 118 45q74 0 111 -45l121 -157q23 -29 22 -56q0 -35 -28.5 -58t-67.5 -23q-55 0 -86 51l-78 131l-112 -133q-44 -49 -97 -49q-35 0 -58.5 19t-23.5 50z" />
<glyph unicode="&#xd5;" horiz-adv-x="1611" d="M119 674q0 236 88 415t251 277t376 98q211 0 368.5 -84t242.5 -240.5t85 -369.5q0 -236 -89 -415t-251 -277t-377 -98q-211 0 -367.5 83.5t-241.5 240.5t-85 370zM438 674q0 -213 96.5 -329t276.5 -116q184 0 291.5 143.5t107.5 397.5q0 213 -97 328.5t-275 115.5 q-186 0 -293 -144t-107 -396zM549 1665q0 47 25.5 96t73.5 81t112 32q37 0 73.5 -12.5t85.5 -36.5q86 -43 132 -43q29 0 45 10t39 33q20 20 32.5 28.5t32.5 8.5q57 0 57 -70q0 -47 -25.5 -96t-73.5 -81t-112 -32q-36 0 -73 12.5t-86 36.5q-86 43 -131 43q-29 0 -46.5 -11 t-37.5 -34q-20 -20 -32.5 -28.5t-33.5 -8.5q-29 0 -43 19.5t-14 52.5z" />
<glyph unicode="&#xd6;" horiz-adv-x="1611" d="M119 674q0 236 88 415t251 277t376 98q211 0 368.5 -84t242.5 -240.5t85 -369.5q0 -236 -89 -415t-251 -277t-377 -98q-211 0 -367.5 83.5t-241.5 240.5t-85 370zM438 674q0 -213 96.5 -329t276.5 -116q184 0 291.5 143.5t107.5 397.5q0 213 -97 328.5t-275 115.5 q-186 0 -293 -144t-107 -396zM555 1729q0 66 43 104.5t111 38.5t110.5 -39t42.5 -104q0 -66 -42 -106t-111 -40q-68 0 -111 40t-43 106zM946 1729q0 66 42 104.5t110 38.5t110.5 -39t42.5 -104q0 -66 -43 -106t-110 -40q-68 0 -110 40t-42 106z" />
<glyph unicode="&#xd8;" horiz-adv-x="1611" d="M119 674q0 236 88 415t251 277t376 98q174 0 309 -55l63 96q41 61 107 62q45 0 78.5 -31t33.5 -76q0 -33 -24 -74l-68 -100q97 -92 147 -222t50 -294q0 -236 -89 -415t-251 -277t-377 -98q-172 0 -307 55l-64 -96q-41 -61 -104 -62q-45 0 -79 31t-34 78q0 39 23 71 l65 101q-94 92 -144 223t-50 293zM438 674q0 -152 49 -254l508 766q-74 29 -157 28q-186 0 -293 -144t-107 -396zM653 258q74 -29 158 -29q184 0 291.5 143.5t107.5 397.5q0 154 -49 254z" />
<glyph unicode="&#xd9;" horiz-adv-x="1513" d="M139 530q0 27 4 84l54 684q6 72 52 114t118 42t110.5 -43t32.5 -115l-53 -690q-2 -23 -2 -63q0 -158 75.5 -236t231.5 -78q137 0 216 79t91 257l57 733q6 72 52.5 114t115.5 42q72 0 112 -43t34 -115l-56 -708q-25 -301 -185.5 -453.5t-453.5 -152.5q-301 0 -453.5 138 t-152.5 410zM571 1802q0 39 33 67.5t76 28.5q57 0 88 -53l102 -178q10 -18 11 -39q0 -31 -23.5 -51.5t-54.5 -20.5q-39 0 -70 33l-133 148q-29 31 -29 65z" />
<glyph unicode="&#xda;" horiz-adv-x="1513" d="M139 530q0 27 4 84l54 684q6 72 52 114t118 42t110.5 -43t32.5 -115l-53 -690q-2 -23 -2 -63q0 -158 75.5 -236t231.5 -78q137 0 216 79t91 257l57 733q6 72 52.5 114t115.5 42q72 0 112 -43t34 -115l-56 -708q-25 -301 -185.5 -453.5t-453.5 -152.5q-301 0 -453.5 138 t-152.5 410zM809 1626q0 25 18 51l119 172q35 49 88 49q41 0 74 -30.5t33 -69.5t-37 -74l-154 -137q-30 -28 -67 -28q-31 0 -52.5 19t-21.5 48z" />
<glyph unicode="&#xdb;" horiz-adv-x="1513" d="M139 530q0 27 4 84l54 684q6 72 52 114t118 42t110.5 -43t32.5 -115l-53 -690q-2 -23 -2 -63q0 -158 75.5 -236t231.5 -78q137 0 216 79t91 257l57 733q6 72 52.5 114t115.5 42q72 0 112 -43t34 -115l-56 -708q-25 -301 -185.5 -453.5t-453.5 -152.5q-301 0 -453.5 138 t-152.5 410zM569 1628q0 31 31 68l148 157q45 45 118 45q74 0 111 -45l121 -157q23 -29 22 -56q0 -35 -28.5 -58t-67.5 -23q-55 0 -86 51l-78 131l-112 -133q-44 -49 -97 -49q-35 0 -58.5 19t-23.5 50z" />
<glyph unicode="&#xdc;" horiz-adv-x="1513" d="M139 530q0 27 4 84l54 684q6 72 52 114t118 42t110.5 -43t32.5 -115l-53 -690q-2 -23 -2 -63q0 -158 75.5 -236t231.5 -78q137 0 216 79t91 257l57 733q6 72 52.5 114t115.5 42q72 0 112 -43t34 -115l-56 -708q-25 -301 -185.5 -453.5t-453.5 -152.5q-301 0 -453.5 138 t-152.5 410zM506 1729q0 66 43 104.5t111 38.5t110.5 -39t42.5 -104q0 -66 -42 -106t-111 -40q-68 0 -111 40t-43 106zM897 1729q0 66 42 104.5t110 38.5t110.5 -39t42.5 -104q0 -66 -43 -106t-110 -40q-68 0 -110 40t-42 106z" />
<glyph unicode="&#xdd;" horiz-adv-x="1302" d="M84 1298q0 61 49 108.5t111 47.5q68 0 106 -59l330 -486l410 492q48 57 114 57q55 0 97 -42t42 -99q0 -53 -40 -103l-480 -563l-39 -506q-6 -76 -54 -116.5t-116 -40.5q-72 0 -113.5 41t-35.5 118l39 504l-395 572q-25 33 -25 75zM704 1626q0 25 18 51l119 172 q35 49 88 49q41 0 74 -30.5t33 -69.5t-37 -74l-154 -137q-30 -28 -67 -28q-31 0 -52.5 19t-21.5 48z" />
<glyph unicode="&#xde;" horiz-adv-x="1370" d="M117 147l90 1151q6 72 52 114t118 42t110.5 -43t32.5 -115l-10 -143h362q213 0 332 -103.5t119 -289.5q0 -215 -127 -331t-362 -116h-392l-12 -168q-6 -72 -52 -114.5t-116 -42.5q-72 0 -111.5 43t-33.5 116zM463 555h344q219 0 219 186q0 86 -47 127t-143 41h-347z" />
<glyph unicode="&#xdf;" horiz-adv-x="1390" d="M90 133l62 778q20 270 169.5 409.5t417.5 139.5q199 0 311.5 -74.5t112.5 -203.5q0 -88 -43 -152.5t-121 -138.5q-53 -51 -77.5 -84t-24.5 -68q0 -37 37 -59.5t115 -48.5q90 -31 146 -61.5t98 -88t42 -149.5q0 -160 -121.5 -254t-326.5 -94q-96 0 -183.5 22.5 t-150.5 65.5q-53 35 -53 98q0 47 30.5 84t77.5 37q33 0 66 -19q61 -37 115.5 -49t123.5 -12q66 0 103 24.5t37 65.5t-40 64.5t-122 50.5q-90 33 -145.5 60.5t-95.5 80.5t-40 137q0 86 41 147.5t117 133.5q55 53 79.5 85t24.5 70q0 109 -149 109q-238 0 -258 -283l-66 -823 q-6 -68 -50 -106.5t-113 -38.5q-72 0 -112 39t-34 106z" />
<glyph unicode="&#xe0;" horiz-adv-x="1118" d="M63 281q0 117 58.5 185.5t184.5 100t339 31.5h74l2 27q6 88 -37 131t-137 43q-106 0 -254 -66q-31 -14 -60 -14q-45 0 -73.5 29.5t-28.5 72.5q0 33 18.5 63.5t57.5 53.5q74 43 172 67.5t205 24.5q430 0 430 -387q0 -41 -2 -63l-37 -449q-4 -70 -45 -106.5t-111 -36.5 q-66 0 -103.5 40t-31.5 103v6q-39 -74 -108.5 -113.5t-161.5 -39.5q-98 0 -178 38.5t-126.5 106.5t-46.5 152zM342 1460q0 47 36 78t83 31q37 0 66.5 -20.5t46.5 -63.5l94 -240q8 -18 8 -41q0 -35 -24.5 -55.5t-57.5 -20.5q-55 0 -88 50l-135 202q-29 41 -29 80zM365 313 q0 -53 36.5 -84.5t98.5 -31.5q84 0 140 60t65 157l2 35h-56q-158 0 -222 -30t-64 -106z" />
<glyph unicode="&#xe1;" horiz-adv-x="1118" d="M63 281q0 117 58.5 185.5t184.5 100t339 31.5h74l2 27q6 88 -37 131t-137 43q-106 0 -254 -66q-31 -14 -60 -14q-45 0 -73.5 29.5t-28.5 72.5q0 33 18.5 63.5t57.5 53.5q74 43 172 67.5t205 24.5q430 0 430 -387q0 -41 -2 -63l-37 -449q-4 -70 -45 -106.5t-111 -36.5 q-66 0 -103.5 40t-31.5 103v6q-39 -74 -108.5 -113.5t-161.5 -39.5q-98 0 -178 38.5t-126.5 106.5t-46.5 152zM365 313q0 -53 36.5 -84.5t98.5 -31.5q84 0 140 60t65 157l2 35h-56q-158 0 -222 -30t-64 -106zM578 1198q0 25 14 51l131 246q41 72 111 72q49 0 86 -32t37 -79 q0 -43 -39 -88l-178 -197q-37 -43 -88 -43q-31 0 -52.5 19.5t-21.5 50.5z" />
<glyph unicode="&#xe2;" horiz-adv-x="1118" d="M63 281q0 117 58.5 185.5t184.5 100t339 31.5h74l2 27q6 88 -37 131t-137 43q-106 0 -254 -66q-31 -14 -60 -14q-45 0 -73.5 29.5t-28.5 72.5q0 33 18.5 63.5t57.5 53.5q74 43 172 67.5t205 24.5q430 0 430 -387q0 -41 -2 -63l-37 -449q-4 -70 -45 -106.5t-111 -36.5 q-66 0 -103.5 40t-31.5 103v6q-39 -74 -108.5 -113.5t-161.5 -39.5q-98 0 -178 38.5t-126.5 106.5t-46.5 152zM342 1214q0 33 23 64l156 215q27 35 63.5 54.5t73.5 19.5q39 0 72.5 -19.5t52.5 -54.5l129 -229q14 -27 14 -50q0 -37 -30.5 -61.5t-69.5 -24.5q-33 0 -61.5 17.5 t-45.5 54.5l-78 174l-102 -184q-18 -33 -44 -48.5t-54 -15.5q-39 0 -69 26t-30 62zM365 313q0 -53 36.5 -84.5t98.5 -31.5q84 0 140 60t65 157l2 35h-56q-158 0 -222 -30t-64 -106z" />
<glyph unicode="&#xe3;" horiz-adv-x="1118" d="M63 281q0 117 58.5 185.5t184.5 100t339 31.5h74l2 27q6 88 -37 131t-137 43q-106 0 -254 -66q-31 -14 -60 -14q-45 0 -73.5 29.5t-28.5 72.5q0 33 18.5 63.5t57.5 53.5q74 43 172 67.5t205 24.5q430 0 430 -387q0 -41 -2 -63l-37 -449q-4 -70 -45 -106.5t-111 -36.5 q-66 0 -103.5 40t-31.5 103v6q-39 -74 -108.5 -113.5t-161.5 -39.5q-98 0 -178 38.5t-126.5 106.5t-46.5 152zM283 1278q0 51 29.5 103.5t79 87t104.5 34.5q47 0 85 -16.5t87 -46.5q41 -25 65.5 -36t49.5 -11q29 0 47 14t39 43q20 25 35.5 37t37.5 12q53 0 54 -80 q0 -51 -30 -103t-80 -86t-105 -34q-47 0 -85 16.5t-87 47.5q-43 25 -64.5 35t-46.5 10q-29 0 -48.5 -14.5t-41.5 -43.5q-18 -25 -33.5 -37t-38.5 -12q-27 0 -40 21.5t-13 58.5zM365 313q0 -53 36.5 -84.5t98.5 -31.5q84 0 140 60t65 157l2 35h-56q-158 0 -222 -30t-64 -106z " />
<glyph unicode="&#xe4;" horiz-adv-x="1118" d="M63 281q0 117 58.5 185.5t184.5 100t339 31.5h74l2 27q6 88 -37 131t-137 43q-106 0 -254 -66q-31 -14 -60 -14q-45 0 -73.5 29.5t-28.5 72.5q0 33 18.5 63.5t57.5 53.5q74 43 172 67.5t205 24.5q430 0 430 -387q0 -41 -2 -63l-37 -449q-4 -70 -45 -106.5t-111 -36.5 q-66 0 -103.5 40t-31.5 103v6q-39 -74 -108.5 -113.5t-161.5 -39.5q-98 0 -178 38.5t-126.5 106.5t-46.5 152zM291 1346q0 66 43 104.5t111 38.5t110.5 -39t42.5 -104q0 -66 -42 -107t-111 -41q-68 0 -111 41t-43 107zM365 313q0 -53 36.5 -84.5t98.5 -31.5q84 0 140 60 t65 157l2 35h-56q-158 0 -222 -30t-64 -106zM682 1346q0 66 42 104.5t110 38.5t111 -39t43 -104q0 -66 -43 -107t-111 -41t-110 41t-42 107z" />
<glyph unicode="&#xe5;" horiz-adv-x="1118" d="M63 281q0 117 58.5 185.5t184.5 100t339 31.5h74l2 27q6 88 -37 131t-137 43q-106 0 -254 -66q-31 -14 -60 -14q-45 0 -73.5 29.5t-28.5 72.5q0 33 18.5 63.5t57.5 53.5q74 43 172 67.5t205 24.5q430 0 430 -387q0 -41 -2 -63l-37 -449q-4 -70 -45 -106.5t-111 -36.5 q-66 0 -103.5 40t-31.5 103v6q-39 -74 -108.5 -113.5t-161.5 -39.5q-98 0 -178 38.5t-126.5 106.5t-46.5 152zM365 313q0 -53 36.5 -84.5t98.5 -31.5q84 0 140 60t65 157l2 35h-56q-158 0 -222 -30t-64 -106zM416 1348q0 92 64.5 155.5t158.5 63.5t159 -63.5t65 -155.5 q0 -94 -64.5 -158t-159.5 -64q-94 0 -158.5 63.5t-64.5 158.5zM551 1348q0 -41 24.5 -68t63.5 -27t63.5 27t24.5 68q0 39 -24.5 65.5t-63.5 26.5t-63.5 -27t-24.5 -65z" />
<glyph unicode="&#xe6;" horiz-adv-x="1714" d="M63 281q0 115 58.5 184.5t185.5 101t338 31.5h72l2 27q6 90 -37 132t-139 42q-102 0 -250 -66q-31 -14 -60 -14q-45 0 -73.5 29.5t-28.5 72.5q0 33 18.5 63.5t57.5 53.5q160 92 397 92q213 0 307 -123q61 59 143.5 91t174.5 32q195 0 308.5 -130t113.5 -361 q0 -45 -24.5 -70t-65.5 -25h-557q8 -115 71.5 -172t173.5 -57q59 0 107.5 14.5t105.5 44.5q29 14 58 15q39 0 62.5 -31t23.5 -74q0 -35 -16.5 -66.5t-47.5 -51.5q-55 -37 -141 -59.5t-174 -22.5q-141 0 -244.5 52t-163.5 150q-59 -98 -158.5 -150t-222.5 -52 q-168 0 -271.5 83t-103.5 214zM365 307q0 -49 36.5 -79.5t96.5 -30.5q82 0 139 60t65 157l3 35h-54q-160 0 -223 -32t-63 -110zM1010 598h383q0 106 -45 162.5t-125 56.5q-178 0 -213 -219z" />
<glyph unicode="&#xe7;" horiz-adv-x="1011" d="M70 475q0 170 67.5 295t194.5 192.5t299 67.5q98 0 183 -21.5t142 -56.5q29 -16 42.5 -44.5t13.5 -61.5q0 -49 -28 -86t-71 -37q-25 0 -51 12q-104 57 -215 58q-123 0 -191.5 -82t-68.5 -232q0 -121 61.5 -189.5t169.5 -68.5q57 0 105.5 12.5t101.5 40.5q29 14 58 15 q39 0 62.5 -30t23.5 -73q0 -35 -16.5 -67.5t-49.5 -52.5q-51 -37 -133 -58.5t-166 -23.5l-14 -66h14q78 0 124 -38t46 -101q0 -82 -75.5 -132t-198.5 -50q-88 0 -152 18q-23 6 -33 22.5t-10 36.5q0 31 19.5 52.5t48.5 13.5q59 -16 112 -16q98 0 99 53q0 39 -58 39 q-23 0 -47 -6.5t-33 -6.5q-20 0 -30 12.5t-6 30.5l32 154q-174 41 -273 166t-99 309z" />
<glyph unicode="&#xe8;" horiz-adv-x="1091" d="M70 477q0 160 65.5 286t181 196.5t263.5 70.5q215 0 331.5 -129t116.5 -362q0 -45 -24.5 -70t-65.5 -25h-571q18 -229 251 -229q66 0 115 14.5t109 44.5q29 14 55 15q39 0 62.5 -31t23.5 -74q0 -35 -15.5 -66.5t-47.5 -51.5q-55 -37 -143.5 -59.5t-180.5 -22.5 q-158 0 -276.5 61t-184 173t-65.5 259zM335 1460q0 47 36 78t83 31q37 0 66.5 -20.5t46.5 -63.5l94 -240q8 -18 8 -41q0 -35 -24.5 -55.5t-57.5 -20.5q-55 0 -88 50l-135 202q-29 41 -29 80zM373 598h397q0 106 -46 162.5t-134 56.5q-182 0 -217 -219z" />
<glyph unicode="&#xe9;" horiz-adv-x="1091" d="M70 477q0 160 65.5 286t181 196.5t263.5 70.5q215 0 331.5 -129t116.5 -362q0 -45 -24.5 -70t-65.5 -25h-571q18 -229 251 -229q66 0 115 14.5t109 44.5q29 14 55 15q39 0 62.5 -31t23.5 -74q0 -35 -15.5 -66.5t-47.5 -51.5q-55 -37 -143.5 -59.5t-180.5 -22.5 q-158 0 -276.5 61t-184 173t-65.5 259zM373 598h397q0 106 -46 162.5t-134 56.5q-182 0 -217 -219zM571 1198q0 25 14 51l131 246q41 72 111 72q49 0 86 -32t37 -79q0 -43 -39 -88l-178 -197q-37 -43 -88 -43q-31 0 -52.5 19.5t-21.5 50.5z" />
<glyph unicode="&#xea;" horiz-adv-x="1091" d="M70 477q0 160 65.5 286t181 196.5t263.5 70.5q215 0 331.5 -129t116.5 -362q0 -45 -24.5 -70t-65.5 -25h-571q18 -229 251 -229q66 0 115 14.5t109 44.5q29 14 55 15q39 0 62.5 -31t23.5 -74q0 -35 -15.5 -66.5t-47.5 -51.5q-55 -37 -143.5 -59.5t-180.5 -22.5 q-158 0 -276.5 61t-184 173t-65.5 259zM335 1214q0 33 23 64l156 215q27 35 63.5 54.5t73.5 19.5q39 0 72.5 -19.5t52.5 -54.5l129 -229q14 -27 14 -50q0 -37 -30.5 -61.5t-69.5 -24.5q-33 0 -61.5 17.5t-45.5 54.5l-78 174l-102 -184q-18 -33 -44 -48.5t-54 -15.5 q-39 0 -69 26t-30 62zM373 598h397q0 106 -46 162.5t-134 56.5q-182 0 -217 -219z" />
<glyph unicode="&#xeb;" horiz-adv-x="1091" d="M70 477q0 160 65.5 286t181 196.5t263.5 70.5q215 0 331.5 -129t116.5 -362q0 -45 -24.5 -70t-65.5 -25h-571q18 -229 251 -229q66 0 115 14.5t109 44.5q29 14 55 15q39 0 62.5 -31t23.5 -74q0 -35 -15.5 -66.5t-47.5 -51.5q-55 -37 -143.5 -59.5t-180.5 -22.5 q-158 0 -276.5 61t-184 173t-65.5 259zM284 1346q0 66 43 104.5t111 38.5t110.5 -39t42.5 -104q0 -66 -42 -107t-111 -41q-68 0 -111 41t-43 107zM373 598h397q0 106 -46 162.5t-134 56.5q-182 0 -217 -219zM675 1346q0 66 42 104.5t110 38.5t111 -39t43 -104 q0 -66 -43 -107t-111 -41t-110 41t-42 107z" />
<glyph unicode="&#xec;" horiz-adv-x="546" d="M45 1460q0 47 36 78t83 31q37 0 66.5 -20.5t46.5 -63.5l94 -240q8 -18 8 -41q0 -35 -24.5 -55.5t-57.5 -20.5q-55 0 -88 50l-135 202q-29 41 -29 80zM90 133l60 748q6 72 54 108.5t113 36.5q66 0 107 -37t35 -108l-60 -748q-6 -72 -52 -108.5t-111 -36.5q-68 0 -110 36.5 t-36 108.5z" />
<glyph unicode="&#xed;" horiz-adv-x="546" d="M90 133l60 748q6 72 54 108.5t113 36.5q66 0 107 -37t35 -108l-60 -748q-6 -72 -52 -108.5t-111 -36.5q-68 0 -110 36.5t-36 108.5zM281 1198q0 25 14 51l131 246q41 72 111 72q49 0 86 -32t37 -79q0 -43 -39 -88l-178 -197q-37 -43 -88 -43q-31 0 -52.5 19.5t-21.5 50.5 z" />
<glyph unicode="&#xee;" horiz-adv-x="546" d="M45 1214q0 33 23 64l156 215q27 35 63.5 54.5t73.5 19.5q39 0 72.5 -19.5t52.5 -54.5l129 -229q14 -27 14 -50q0 -37 -30.5 -61.5t-69.5 -24.5q-33 0 -61.5 17.5t-45.5 54.5l-78 174l-102 -184q-18 -33 -44 -48.5t-54 -15.5q-39 0 -69 26t-30 62zM90 133l60 748 q6 72 54 108.5t113 36.5q66 0 107 -37t35 -108l-60 -748q-6 -72 -52 -108.5t-111 -36.5q-68 0 -110 36.5t-36 108.5z" />
<glyph unicode="&#xef;" horiz-adv-x="546" d="M-6 1346q0 66 43 104.5t111 38.5t110.5 -39t42.5 -104q0 -66 -42 -107t-111 -41q-68 0 -111 41t-43 107zM90 133l60 748q6 72 54 108.5t113 36.5q66 0 107 -37t35 -108l-60 -748q-6 -72 -52 -108.5t-111 -36.5q-68 0 -110 36.5t-36 108.5zM385 1346q0 66 42 104.5 t110 38.5t111 -39t43 -104q0 -66 -43 -107t-111 -41t-110 41t-42 107z" />
<glyph unicode="&#xf0;" horiz-adv-x="1216" d="M66 438q0 150 66.5 261.5t183 172t262.5 60.5q186 0 284 -101q-29 127 -114 226l-293 -78q-20 -4 -31 -4q-35 0 -56.5 23.5t-21.5 54.5q0 27 15.5 48t46.5 29l188 50q-78 45 -168 67q-43 10 -66.5 39t-23.5 66q0 43 34 75.5t93 32.5q12 0 41 -4q238 -45 395 -194l191 51 q20 4 30 4q35 0 55.5 -23.5t20.5 -54.5q0 -27 -15.5 -48.5t-45.5 -29.5l-119 -33q70 -102 105.5 -224t35.5 -253q0 -342 -153.5 -504.5t-411.5 -162.5q-162 0 -280.5 56t-183 158.5t-64.5 239.5zM373 440q0 -98 56 -159.5t161 -61.5q119 0 177 75t58 191q0 100 -56 158.5 t-161 58.5q-119 0 -177 -73.5t-58 -188.5z" />
<glyph unicode="&#xf1;" horiz-adv-x="1218" d="M90 133l60 752q4 63 51 102t118 39q66 0 102 -37t32 -98v-2q53 68 137 104.5t186 36.5q168 0 254 -93t86 -273q0 -43 -2 -66l-37 -465q-6 -68 -50 -106.5t-116 -38.5t-110.5 39t-32.5 106l37 453q8 100 -32 151t-124 51q-96 0 -151.5 -60t-63.5 -165l-35 -430 q-6 -68 -50 -106.5t-113 -38.5q-72 0 -111 39t-35 106zM324 1278q0 51 29.5 103.5t79 87t104.5 34.5q47 0 85 -16.5t87 -46.5q41 -25 65.5 -36t49.5 -11q29 0 47 14t39 43q20 25 35.5 37t37.5 12q53 0 54 -80q0 -51 -30 -103t-80 -86t-105 -34q-47 0 -85 16.5t-87 47.5 q-43 25 -64.5 35t-46.5 10q-29 0 -48.5 -14.5t-41.5 -43.5q-18 -25 -33.5 -37t-38.5 -12q-27 0 -40 21.5t-13 58.5z" />
<glyph unicode="&#xf2;" horiz-adv-x="1204" d="M70 479q0 168 66.5 293t188 191.5t283.5 66.5t281 -61.5t183.5 -173t64.5 -260.5q0 -170 -66.5 -294t-188.5 -190.5t-284 -66.5t-280.5 61t-183 173t-64.5 261zM372 1460q0 47 36 78t83 31q37 0 66.5 -20.5t46.5 -63.5l94 -240q8 -18 8 -41q0 -35 -24.5 -55.5 t-57.5 -20.5q-55 0 -88 50l-135 202q-29 41 -29 80zM377 473q0 -256 217 -256q119 0 177 90t58 236q0 254 -217 254q-119 0 -177 -90.5t-58 -233.5z" />
<glyph unicode="&#xf3;" horiz-adv-x="1204" d="M70 479q0 168 66.5 293t188 191.5t283.5 66.5t281 -61.5t183.5 -173t64.5 -260.5q0 -170 -66.5 -294t-188.5 -190.5t-284 -66.5t-280.5 61t-183 173t-64.5 261zM377 473q0 -256 217 -256q119 0 177 90t58 236q0 254 -217 254q-119 0 -177 -90.5t-58 -233.5zM608 1198 q0 25 14 51l131 246q41 72 111 72q49 0 86 -32t37 -79q0 -43 -39 -88l-178 -197q-37 -43 -88 -43q-31 0 -52.5 19.5t-21.5 50.5z" />
<glyph unicode="&#xf4;" horiz-adv-x="1204" d="M70 479q0 168 66.5 293t188 191.5t283.5 66.5t281 -61.5t183.5 -173t64.5 -260.5q0 -170 -66.5 -294t-188.5 -190.5t-284 -66.5t-280.5 61t-183 173t-64.5 261zM372 1214q0 33 23 64l156 215q27 35 63.5 54.5t73.5 19.5q39 0 72.5 -19.5t52.5 -54.5l129 -229 q14 -27 14 -50q0 -37 -30.5 -61.5t-69.5 -24.5q-33 0 -61.5 17.5t-45.5 54.5l-78 174l-102 -184q-18 -33 -44 -48.5t-54 -15.5q-39 0 -69 26t-30 62zM377 473q0 -256 217 -256q119 0 177 90t58 236q0 254 -217 254q-119 0 -177 -90.5t-58 -233.5z" />
<glyph unicode="&#xf5;" horiz-adv-x="1204" d="M70 479q0 168 66.5 293t188 191.5t283.5 66.5t281 -61.5t183.5 -173t64.5 -260.5q0 -170 -66.5 -294t-188.5 -190.5t-284 -66.5t-280.5 61t-183 173t-64.5 261zM313 1278q0 51 29.5 103.5t79 87t104.5 34.5q47 0 85 -16.5t87 -46.5q41 -25 65.5 -36t49.5 -11q29 0 47 14 t39 43q20 25 35.5 37t37.5 12q53 0 54 -80q0 -51 -30 -103t-80 -86t-105 -34q-47 0 -85 16.5t-87 47.5q-43 25 -64.5 35t-46.5 10q-29 0 -48.5 -14.5t-41.5 -43.5q-18 -25 -33.5 -37t-38.5 -12q-27 0 -40 21.5t-13 58.5zM377 473q0 -256 217 -256q119 0 177 90t58 236 q0 254 -217 254q-119 0 -177 -90.5t-58 -233.5z" />
<glyph unicode="&#xf6;" horiz-adv-x="1204" d="M70 479q0 168 66.5 293t188 191.5t283.5 66.5t281 -61.5t183.5 -173t64.5 -260.5q0 -170 -66.5 -294t-188.5 -190.5t-284 -66.5t-280.5 61t-183 173t-64.5 261zM321 1346q0 66 43 104.5t111 38.5t110.5 -39t42.5 -104q0 -66 -42 -107t-111 -41q-68 0 -111 41t-43 107z M377 473q0 -256 217 -256q119 0 177 90t58 236q0 254 -217 254q-119 0 -177 -90.5t-58 -233.5zM712 1346q0 66 42 104.5t110 38.5t111 -39t43 -104q0 -66 -43 -107t-111 -41t-110 41t-42 107z" />
<glyph unicode="&#xf7;" d="M121 582q0 47 32.5 78.5t79.5 31.5h789q43 0 70.5 -28.5t27.5 -71.5q0 -47 -32.5 -79t-79.5 -32h-789q-43 0 -70.5 29t-27.5 72zM459 227q0 53 35.5 88t87.5 35q51 0 85.5 -35.5t34.5 -87.5q0 -51 -34.5 -87t-85.5 -36q-52 0 -87.5 36t-35.5 87zM516 946q0 53 35 89 t86 36t87 -36t36 -89q0 -51 -36 -87t-87 -36t-86 36t-35 87z" />
<glyph unicode="&#xf8;" horiz-adv-x="1204" d="M70 479q0 168 66.5 293t188 191.5t283.5 66.5q121 0 219 -35l52 76q31 45 79 45q33 0 58.5 -20.5t25.5 -51.5q0 -20 -16 -47l-55 -82q80 -67 123 -163.5t43 -216.5q0 -170 -66.5 -294t-188.5 -190.5t-284 -66.5q-123 0 -221 36l-53 -79q-29 -43 -76 -43q-33 0 -57.5 20.5 t-24.5 50.5q0 23 14 45l56 84q-80 66 -123 163t-43 218zM371 473q-1 -86 22 -137l299 452q-41 10 -80 11q-123 0 -182 -90.5t-59 -235.5zM512 225q41 -10 82 -10q125 0 183.5 90t58.5 238q0 82 -21 135z" />
<glyph unicode="&#xf9;" horiz-adv-x="1206" d="M102 344q0 43 2 66l37 471q6 68 52.5 106.5t117.5 38.5q72 0 109 -39t31 -106l-37 -453q-8 -100 30.5 -151.5t120.5 -51.5q90 0 144.5 60.5t62.5 163.5l35 432q6 68 51 106.5t117 38.5t109.5 -39t31.5 -106l-59 -752q-4 -63 -50 -102t-116 -39q-66 0 -102.5 36.5 t-34.5 98.5v2q-53 -68 -135 -104.5t-181 -36.5q-164 0 -250 92t-86 268zM370 1460q0 47 36 78t83 31q37 0 66.5 -20.5t46.5 -63.5l94 -240q8 -18 8 -41q0 -35 -24.5 -55.5t-57.5 -20.5q-55 0 -88 50l-135 202q-29 41 -29 80z" />
<glyph unicode="&#xfa;" horiz-adv-x="1206" d="M102 344q0 43 2 66l37 471q6 68 52.5 106.5t117.5 38.5q72 0 109 -39t31 -106l-37 -453q-8 -100 30.5 -151.5t120.5 -51.5q90 0 144.5 60.5t62.5 163.5l35 432q6 68 51 106.5t117 38.5t109.5 -39t31.5 -106l-59 -752q-4 -63 -50 -102t-116 -39q-66 0 -102.5 36.5 t-34.5 98.5v2q-53 -68 -135 -104.5t-181 -36.5q-164 0 -250 92t-86 268zM606 1198q0 25 14 51l131 246q41 72 111 72q49 0 86 -32t37 -79q0 -43 -39 -88l-178 -197q-37 -43 -88 -43q-31 0 -52.5 19.5t-21.5 50.5z" />
<glyph unicode="&#xfb;" horiz-adv-x="1206" d="M102 344q0 43 2 66l37 471q6 68 52.5 106.5t117.5 38.5q72 0 109 -39t31 -106l-37 -453q-8 -100 30.5 -151.5t120.5 -51.5q90 0 144.5 60.5t62.5 163.5l35 432q6 68 51 106.5t117 38.5t109.5 -39t31.5 -106l-59 -752q-4 -63 -50 -102t-116 -39q-66 0 -102.5 36.5 t-34.5 98.5v2q-53 -68 -135 -104.5t-181 -36.5q-164 0 -250 92t-86 268zM370 1214q0 33 23 64l156 215q27 35 63.5 54.5t73.5 19.5q39 0 72.5 -19.5t52.5 -54.5l129 -229q14 -27 14 -50q0 -37 -30.5 -61.5t-69.5 -24.5q-33 0 -61.5 17.5t-45.5 54.5l-78 174l-102 -184 q-18 -33 -44 -48.5t-54 -15.5q-39 0 -69 26t-30 62z" />
<glyph unicode="&#xfc;" horiz-adv-x="1206" d="M102 344q0 43 2 66l37 471q6 68 52.5 106.5t117.5 38.5q72 0 109 -39t31 -106l-37 -453q-8 -100 30.5 -151.5t120.5 -51.5q90 0 144.5 60.5t62.5 163.5l35 432q6 68 51 106.5t117 38.5t109.5 -39t31.5 -106l-59 -752q-4 -63 -50 -102t-116 -39q-66 0 -102.5 36.5 t-34.5 98.5v2q-53 -68 -135 -104.5t-181 -36.5q-164 0 -250 92t-86 268zM319 1346q0 66 43 104.5t111 38.5t110.5 -39t42.5 -104q0 -66 -42 -107t-111 -41q-68 0 -111 41t-43 107zM710 1346q0 66 42 104.5t110 38.5t111 -39t43 -104q0 -66 -43 -107t-111 -41t-110 41 t-42 107z" />
<glyph unicode="&#xfd;" horiz-adv-x="1093" d="M66 883q0 57 52 99t113 42q41 0 73 -21.5t46 -64.5l191 -571l278 571q43 86 131 86q55 0 98.5 -36t43.5 -89q0 -29 -17 -61l-596 -1133q-25 -45 -58.5 -66.5t-70.5 -21.5q-51 0 -90 36t-39 89q0 33 19 70l120 233l-288 799q-6 18 -6 39zM553 1198q0 25 14 51l131 246 q41 72 111 72q49 0 86 -32t37 -79q0 -43 -39 -88l-178 -197q-37 -43 -88 -43q-31 0 -52.5 19.5t-21.5 50.5z" />
<glyph unicode="&#xfe;" horiz-adv-x="1255" d="M59 -244l123 1559q4 66 49 105.5t117 39.5t111 -40t33 -105l-33 -418q49 63 127 98t170 35q127 0 224 -58.5t150.5 -168t53.5 -256.5q0 -164 -60.5 -292t-170 -199.5t-251.5 -71.5q-201 0 -303 147l-30 -381q-4 -61 -48.5 -98t-111.5 -37q-72 0 -113 39t-37 102zM420 489 q0 -133 57.5 -202.5t163.5 -69.5q111 0 173.5 83t62.5 226q0 131 -58.5 201t-167.5 70q-106 0 -168.5 -83t-62.5 -225z" />
<glyph unicode="&#xff;" horiz-adv-x="1093" d="M66 883q0 57 52 99t113 42q41 0 73 -21.5t46 -64.5l191 -571l278 571q43 86 131 86q55 0 98.5 -36t43.5 -89q0 -29 -17 -61l-596 -1133q-25 -45 -58.5 -66.5t-70.5 -21.5q-51 0 -90 36t-39 89q0 33 19 70l120 233l-288 799q-6 18 -6 39zM266 1346q0 66 43 104.5t111 38.5 t110.5 -39t42.5 -104q0 -66 -42 -107t-111 -41q-68 0 -111 41t-43 107zM657 1346q0 66 42 104.5t110 38.5t111 -39t43 -104q0 -66 -43 -107t-111 -41t-110 41t-42 107z" />
<glyph unicode="&#x100;" horiz-adv-x="1538" d="M23 123q0 33 20 72l627 1161q27 49 74 75.5t100 26.5t98 -26.5t64 -75.5l450 -1176q10 -31 10 -51q0 -59 -48 -99t-109 -40q-41 0 -74 21.5t-49 66.5l-86 241h-674l-123 -241q-23 -43 -58.5 -64.5t-76.5 -21.5q-57 0 -101 37t-44 94zM516 1720q0 51 30.5 77t79.5 26h496 q41 0 67.5 -25.5t26.5 -68.5q0 -49 -30.5 -74t-79.5 -25h-496q-41 0 -67.5 25.5t-26.5 64.5zM549 561h467l-193 541z" />
<glyph unicode="&#x101;" horiz-adv-x="1118" d="M63 281q0 117 58.5 185.5t184.5 100t339 31.5h74l2 27q6 88 -37 131t-137 43q-106 0 -254 -66q-31 -14 -60 -14q-45 0 -73.5 29.5t-28.5 72.5q0 33 18.5 63.5t57.5 53.5q74 43 172 67.5t205 24.5q430 0 430 -387q0 -41 -2 -63l-37 -449q-4 -70 -45 -106.5t-111 -36.5 q-66 0 -103.5 40t-31.5 103v6q-39 -74 -108.5 -113.5t-161.5 -39.5q-98 0 -178 38.5t-126.5 106.5t-46.5 152zM289 1339q0 49 31 75t80 26h495q41 0 68 -24.5t27 -63.5q0 -51 -31 -78t-80 -27h-496q-43 0 -68.5 24.5t-25.5 67.5zM365 313q0 -53 36.5 -84.5t98.5 -31.5 q84 0 140 60t65 157l2 35h-56q-158 0 -222 -30t-64 -106z" />
<glyph unicode="&#x102;" horiz-adv-x="1538" d="M23 123q0 33 20 72l627 1161q27 49 74 75.5t100 26.5t98 -26.5t64 -75.5l450 -1176q10 -31 10 -51q0 -59 -48 -99t-109 -40q-41 0 -74 21.5t-49 66.5l-86 241h-674l-123 -241q-23 -43 -58.5 -64.5t-76.5 -21.5q-57 0 -101 37t-44 94zM522 1792q0 33 24.5 54.5t57.5 21.5 q41 0 74 -33q72 -68 194 -68q55 0 107.5 17.5t87.5 50.5q39 33 80 33q31 0 51 -18.5t20 -47.5q0 -31 -22 -61q-53 -72 -137 -114t-193 -42q-115 0 -199 41t-129 115q-16 25 -16 51zM549 561h467l-193 541z" />
<glyph unicode="&#x103;" horiz-adv-x="1118" d="M63 281q0 117 58.5 185.5t184.5 100t339 31.5h74l2 27q6 88 -37 131t-137 43q-106 0 -254 -66q-31 -14 -60 -14q-45 0 -73.5 29.5t-28.5 72.5q0 33 18.5 63.5t57.5 53.5q74 43 172 67.5t205 24.5q430 0 430 -387q0 -41 -2 -63l-37 -449q-4 -70 -45 -106.5t-111 -36.5 q-66 0 -103.5 40t-31.5 103v6q-39 -74 -108.5 -113.5t-161.5 -39.5q-98 0 -178 38.5t-126.5 106.5t-46.5 152zM281 1448q0 35 27.5 59.5t62.5 24.5q49 0 76 -43q29 -51 83 -82t120 -31q125 0 202 113q33 45 80 45q33 0 56.5 -22.5t23.5 -57.5q0 -23 -8 -41 q-47 -104 -145.5 -167.5t-221.5 -63.5t-214 63.5t-134 167.5q-8 25 -8 35zM365 313q0 -53 36.5 -84.5t98.5 -31.5q84 0 140 60t65 157l2 35h-56q-158 0 -222 -30t-64 -106z" />
<glyph unicode="&#x104;" horiz-adv-x="1538" d="M23 123q0 33 20 72l627 1161q27 49 74 75.5t100 26.5t98 -26.5t64 -75.5l442 -1161q12 -33 12 -62q0 -43 -23.5 -75.5t-60.5 -49.5q-127 -57 -127 -147q0 -49 29 -77t74 -28q39 0 94 19q16 4 20 4q23 0 36.5 -17.5t13.5 -42.5q0 -53 -43 -75q-80 -47 -168 -47 q-117 0 -187.5 60t-70.5 157q0 150 149 231l-96 274h-674l-123 -241q-23 -43 -58.5 -64.5t-76.5 -21.5q-57 0 -101 37t-44 94zM549 561h465l-191 541z" />
<glyph unicode="&#x105;" horiz-adv-x="1118" d="M63 281q0 115 58.5 184.5t185.5 101t338 31.5h74l2 27q6 88 -37 131t-137 43q-115 0 -254 -66q-31 -14 -60 -14q-45 0 -73.5 29.5t-28.5 72.5q0 33 18.5 63.5t57.5 53.5q76 43 174 67.5t203 24.5q430 0 430 -387q0 -41 -2 -63l-37 -449q-2 -92 -80 -127 q-131 -57 -131 -143q0 -47 29.5 -76t80.5 -29q23 0 89 19q6 2 18 2q23 0 37 -17.5t14 -42.5q0 -23 -10 -42t-33 -31q-82 -47 -168 -47q-117 0 -187.5 59t-70.5 158q0 70 38 129t108 96q-27 37 -25 92v4q-39 -74 -110.5 -112.5t-167.5 -38.5t-175 38.5t-123.5 106.5 t-44.5 152zM365 307q0 -49 36.5 -79.5t98.5 -30.5q84 0 140 60t65 157l2 35h-56q-158 0 -222 -32t-64 -110z" />
<glyph unicode="&#x106;" horiz-adv-x="1388" d="M119 674q0 238 93 416t263 275t397 97q137 0 253 -33.5t190 -82.5q76 -49 76 -127q0 -51 -35 -90t-84 -39q-43 0 -78 24q-139 92 -309 92q-209 0 -325 -142t-116 -390q0 -213 94.5 -324.5t274.5 -111.5q154 0 317 96q39 20 74 20q47 0 77 -33.5t30 -80.5q0 -76 -66 -125 q-70 -55 -189.5 -94t-254.5 -39q-209 0 -362.5 84t-236.5 240.5t-83 367.5zM860 1626q0 25 18 51l119 172q35 49 88 49q41 0 74 -30.5t33 -69.5t-37 -74l-154 -137q-30 -28 -67 -28q-31 0 -52.5 19t-21.5 48z" />
<glyph unicode="&#x107;" horiz-adv-x="1011" d="M70 475q0 170 67.5 295t194.5 192.5t299 67.5q98 0 183 -21.5t142 -56.5q29 -16 42.5 -44.5t13.5 -61.5q0 -49 -28 -86t-71 -37q-25 0 -51 12q-104 57 -215 58q-123 0 -191.5 -82t-68.5 -232q0 -121 61.5 -189.5t169.5 -68.5q57 0 105.5 12.5t101.5 40.5q29 14 58 15 q39 0 62.5 -30t23.5 -73q0 -35 -16.5 -67.5t-49.5 -52.5q-53 -37 -137 -59.5t-168 -22.5q-160 0 -279.5 60t-184 172t-64.5 259zM608 1198q0 25 14 51l131 246q41 72 111 72q49 0 86 -32t37 -79q0 -43 -39 -88l-178 -197q-37 -43 -88 -43q-31 0 -52.5 19.5t-21.5 50.5z" />
<glyph unicode="&#x108;" horiz-adv-x="1388" d="M119 674q0 238 93 416t263 275t397 97q137 0 253 -33.5t190 -82.5q76 -49 76 -127q0 -51 -35 -90t-84 -39q-43 0 -78 24q-139 92 -309 92q-209 0 -325 -142t-116 -390q0 -213 94.5 -324.5t274.5 -111.5q154 0 317 96q39 20 74 20q47 0 77 -33.5t30 -80.5q0 -76 -66 -125 q-70 -55 -189.5 -94t-254.5 -39q-209 0 -362.5 84t-236.5 240.5t-83 367.5zM620 1628q0 31 31 68l148 157q45 45 118 45q74 0 111 -45l121 -157q23 -29 22 -56q0 -35 -28.5 -58t-67.5 -23q-55 0 -86 51l-78 131l-112 -133q-44 -49 -97 -49q-35 0 -58.5 19t-23.5 50z" />
<glyph unicode="&#x109;" horiz-adv-x="1011" d="M70 475q0 170 67.5 295t194.5 192.5t299 67.5q98 0 183 -21.5t142 -56.5q29 -16 42.5 -44.5t13.5 -61.5q0 -49 -28 -86t-71 -37q-25 0 -51 12q-104 57 -215 58q-123 0 -191.5 -82t-68.5 -232q0 -121 61.5 -189.5t169.5 -68.5q57 0 105.5 12.5t101.5 40.5q29 14 58 15 q39 0 62.5 -30t23.5 -73q0 -35 -16.5 -67.5t-49.5 -52.5q-53 -37 -137 -59.5t-168 -22.5q-160 0 -279.5 60t-184 172t-64.5 259zM372 1214q0 33 23 64l156 215q27 35 63.5 54.5t73.5 19.5q39 0 72.5 -19.5t52.5 -54.5l129 -229q14 -27 14 -50q0 -37 -30.5 -61.5t-69.5 -24.5 q-33 0 -61.5 17.5t-45.5 54.5l-78 174l-102 -184q-18 -33 -44 -48.5t-54 -15.5q-39 0 -69 26t-30 62z" />
<glyph unicode="&#x10a;" horiz-adv-x="1388" d="M119 674q0 238 93 416t263 275t397 97q137 0 253 -33.5t190 -82.5q76 -49 76 -127q0 -51 -35 -90t-84 -39q-43 0 -78 24q-139 92 -309 92q-209 0 -325 -142t-116 -390q0 -213 94.5 -324.5t274.5 -111.5q154 0 317 96q39 20 74 20q47 0 77 -33.5t30 -80.5q0 -76 -66 -125 q-70 -55 -189.5 -94t-254.5 -39q-209 0 -362.5 84t-236.5 240.5t-83 367.5zM729 1729q0 72 47 112.5t129 40.5q80 0 128 -42t48 -111q0 -72 -47 -114t-129 -42t-129 42t-47 114z" />
<glyph unicode="&#x10b;" horiz-adv-x="1011" d="M70 475q0 170 67.5 295t194.5 192.5t299 67.5q98 0 183 -21.5t142 -56.5q29 -16 42.5 -44.5t13.5 -61.5q0 -49 -28 -86t-71 -37q-25 0 -51 12q-104 57 -215 58q-123 0 -191.5 -82t-68.5 -232q0 -121 61.5 -189.5t169.5 -68.5q57 0 105.5 12.5t101.5 40.5q29 14 58 15 q39 0 62.5 -30t23.5 -73q0 -35 -16.5 -67.5t-49.5 -52.5q-53 -37 -137 -59.5t-168 -22.5q-160 0 -279.5 60t-184 172t-64.5 259zM493 1346q0 72 47 112.5t129 40.5q80 0 128.5 -42t48.5 -111q0 -72 -47.5 -114t-129.5 -42t-129 42t-47 114z" />
<glyph unicode="&#x10c;" horiz-adv-x="1388" d="M119 674q0 238 93 416t263 275t397 97q137 0 253 -33.5t190 -82.5q76 -49 76 -127q0 -51 -35 -90t-84 -39q-43 0 -78 24q-139 92 -309 92q-209 0 -325 -142t-116 -390q0 -213 94.5 -324.5t274.5 -111.5q154 0 317 96q39 20 74 20q47 0 77 -33.5t30 -80.5q0 -76 -66 -125 q-70 -55 -189.5 -94t-254.5 -39q-209 0 -362.5 84t-236.5 240.5t-83 367.5zM635 1812q0 33 28.5 57.5t65.5 24.5q55 0 88 -53l78 -131l113 135q43 49 96 49q35 0 58.5 -19.5t23.5 -49.5q0 -35 -31 -68l-147 -158q-20 -23 -52 -35t-65 -12q-35 0 -64.5 12.5t-48.5 34.5 l-121 158q-23 29 -22 55z" />
<glyph unicode="&#x10d;" horiz-adv-x="1011" d="M70 475q0 170 67.5 295t194.5 192.5t299 67.5q98 0 183 -21.5t142 -56.5q29 -16 42.5 -44.5t13.5 -61.5q0 -49 -28 -86t-71 -37q-25 0 -51 12q-104 57 -215 58q-123 0 -191.5 -82t-68.5 -232q0 -121 61.5 -189.5t169.5 -68.5q57 0 105.5 12.5t101.5 40.5q29 14 58 15 q39 0 62.5 -30t23.5 -73q0 -35 -16.5 -67.5t-49.5 -52.5q-53 -37 -137 -59.5t-168 -22.5q-160 0 -279.5 60t-184 172t-64.5 259zM383 1477q0 37 30.5 61.5t71.5 24.5q31 0 59.5 -17.5t45.5 -52.5l77 -174l103 182q18 33 44.5 48.5t55.5 15.5q39 0 67.5 -26t28.5 -62 q0 -33 -22 -64l-156 -215q-27 -35 -63.5 -54.5t-73.5 -19.5q-39 0 -73 19.5t-52 54.5l-129 229q-14 27 -14 50z" />
<glyph unicode="&#x10e;" horiz-adv-x="1562" d="M117 150l90 1144q6 72 48 111t114 39h405q217 0 376 -82t244 -233.5t85 -358.5q0 -242 -93.5 -415t-270.5 -264t-425 -91h-436q-72 0 -107.5 39t-29.5 111zM444 258h220q252 0 374.5 127t122.5 387q0 203 -108.5 308.5t-319.5 105.5h-217zM608 1812q0 33 28.5 57.5 t65.5 24.5q55 0 88 -53l78 -131l113 135q43 49 96 49q35 0 58.5 -19.5t23.5 -49.5q0 -35 -31 -68l-147 -158q-20 -23 -52 -35t-65 -12q-35 0 -64.5 12.5t-48.5 34.5l-121 158q-23 29 -22 55z" />
<glyph unicode="&#x10f;" horiz-adv-x="1255" d="M70 467q0 164 60 292t169 199.5t250 71.5q203 0 305 -147l35 436q4 61 48 98t112 37q71 0 112 -39t37 -102l-94 -1180q-2 -66 -46 -105.5t-114 -39.5q-68 0 -106.5 36.5t-36.5 100.5q-49 -68 -128 -104.5t-175 -36.5q-127 0 -224.5 58t-150.5 167.5t-53 257.5zM377 485 q0 -129 58.5 -198.5t166.5 -69.5q107 0 169.5 84t62.5 223q0 133 -57.5 203t-164.5 70q-111 0 -173 -83t-62 -229zM1233 1077l22 291q2 41 28 64.5t58 23.5q27 0 46.5 -18.5t19.5 -51.5q0 -16 -2 -24l-64 -295q-6 -27 -22 -41t-37 -14q-23 0 -37 17.5t-12 47.5z" />
<glyph unicode="&#x110;" horiz-adv-x="1624" d="M18 723q0 63 40 95t114 32h59l35 444q6 72 48 111t114 39h406q217 0 375.5 -82t243.5 -233.5t85 -358.5q0 -242 -93 -415t-270.5 -264t-424.5 -91h-437q-72 0 -107.5 39t-29.5 111l37 458h-61q-63 0 -98.5 31t-35.5 84zM504 258h219q250 0 373 127t123 387 q0 203 -107.5 308.5t-318.5 105.5h-218l-26 -336h270q63 0 98 -31t35 -84q0 -63 -40 -95t-113 -32h-269z" />
<glyph unicode="&#x111;" horiz-adv-x="1255" d="M70 467q0 164 60 292t169 199.5t250 71.5q102 0 180 -39t127 -112l16 213h-278q-59 0 -90 26.5t-31 73.5q0 53 36 83t101 30h279l2 14q4 61 48 98t112 37q72 0 112.5 -39t36.5 -102v-8h76q59 0 90 -27t31 -72q0 -55 -35 -84.5t-102 -29.5h-78l-78 -959q-4 -66 -47 -105.5 t-113 -39.5q-68 0 -106.5 36.5t-36.5 100.5q-49 -68 -128 -104.5t-175 -36.5q-127 0 -224.5 58t-150.5 167.5t-53 257.5zM377 485q0 -129 58.5 -198.5t166.5 -69.5q107 0 169.5 84t62.5 223q0 133 -57.5 203t-164.5 70q-111 0 -173 -83t-62 -229z" />
<glyph unicode="&#x112;" horiz-adv-x="1214" d="M117 150l90 1144q6 72 48 111t114 39h725q70 0 105.5 -31t35.5 -84q0 -133 -160 -133h-565l-27 -338h523q70 0 105.5 -29.5t35.5 -85.5q0 -133 -158 -133h-524l-29 -362h563q68 0 105 -31t37 -86q0 -131 -162 -131h-725q-72 0 -107.5 39t-29.5 111zM426 1720 q0 51 30.5 77t79.5 26h496q41 0 67.5 -25.5t26.5 -68.5q0 -49 -30.5 -74t-79.5 -25h-496q-41 0 -67.5 25.5t-26.5 64.5z" />
<glyph unicode="&#x113;" horiz-adv-x="1091" d="M70 477q0 160 65.5 286t181 196.5t263.5 70.5q215 0 331.5 -129t116.5 -362q0 -45 -24.5 -70t-65.5 -25h-571q18 -229 251 -229q66 0 115 14.5t109 44.5q29 14 55 15q39 0 62.5 -31t23.5 -74q0 -35 -15.5 -66.5t-47.5 -51.5q-55 -37 -143.5 -59.5t-180.5 -22.5 q-158 0 -276.5 61t-184 173t-65.5 259zM282 1339q0 49 31 75t80 26h495q41 0 68 -24.5t27 -63.5q0 -51 -31 -78t-80 -27h-496q-43 0 -68.5 24.5t-25.5 67.5zM373 598h397q0 106 -46 162.5t-134 56.5q-182 0 -217 -219z" />
<glyph unicode="&#x114;" horiz-adv-x="1214" d="M117 150l90 1144q6 72 48 111t114 39h725q70 0 105.5 -31t35.5 -84q0 -133 -160 -133h-565l-27 -338h523q70 0 105.5 -29.5t35.5 -85.5q0 -133 -158 -133h-524l-29 -362h563q68 0 105 -31t37 -86q0 -131 -162 -131h-725q-72 0 -107.5 39t-29.5 111zM432 1792 q0 33 24.5 54.5t57.5 21.5q41 0 74 -33q72 -68 194 -68q55 0 107.5 17.5t87.5 50.5q39 33 80 33q31 0 51 -18.5t20 -47.5q0 -31 -22 -61q-53 -72 -137 -114t-193 -42q-115 0 -199 41t-129 115q-16 25 -16 51z" />
<glyph unicode="&#x115;" horiz-adv-x="1091" d="M70 477q0 160 65.5 286t181 196.5t263.5 70.5q215 0 331.5 -129t116.5 -362q0 -45 -24.5 -70t-65.5 -25h-571q18 -229 251 -229q66 0 115 14.5t109 44.5q29 14 55 15q39 0 62.5 -31t23.5 -74q0 -35 -15.5 -66.5t-47.5 -51.5q-55 -37 -143.5 -59.5t-180.5 -22.5 q-158 0 -276.5 61t-184 173t-65.5 259zM274 1448q0 35 27.5 59.5t62.5 24.5q49 0 76 -43q29 -51 83 -82t120 -31q125 0 202 113q33 45 80 45q33 0 56.5 -22.5t23.5 -57.5q0 -23 -8 -41q-47 -104 -145.5 -167.5t-221.5 -63.5t-214 63.5t-134 167.5q-8 25 -8 35zM373 598h397 q0 106 -46 162.5t-134 56.5q-182 0 -217 -219z" />
<glyph unicode="&#x116;" horiz-adv-x="1214" d="M117 150l90 1144q6 72 48 111t114 39h725q70 0 105.5 -31t35.5 -84q0 -133 -160 -133h-565l-27 -338h523q70 0 105.5 -29.5t35.5 -85.5q0 -133 -158 -133h-524l-29 -362h563q68 0 105 -31t37 -86q0 -131 -162 -131h-725q-72 0 -107.5 39t-29.5 111zM600 1729 q0 72 47 112.5t129 40.5q80 0 128 -42t48 -111q0 -72 -47 -114t-129 -42t-129 42t-47 114z" />
<glyph unicode="&#x117;" horiz-adv-x="1091" d="M70 477q0 160 65.5 286t181 196.5t263.5 70.5q215 0 331.5 -129t116.5 -362q0 -45 -24.5 -70t-65.5 -25h-571q18 -229 251 -229q66 0 115 14.5t109 44.5q29 14 55 15q39 0 62.5 -31t23.5 -74q0 -35 -15.5 -66.5t-47.5 -51.5q-55 -37 -143.5 -59.5t-180.5 -22.5 q-158 0 -276.5 61t-184 173t-65.5 259zM373 598h397q0 106 -46 162.5t-134 56.5q-182 0 -217 -219zM456 1346q0 72 47 112.5t129 40.5q80 0 128.5 -42t48.5 -111q0 -72 -47.5 -114t-129.5 -42t-129 42t-47 114z" />
<glyph unicode="&#x118;" horiz-adv-x="1214" d="M117 150l90 1144q6 72 48 111t114 39h725q70 0 105.5 -31t35.5 -84q0 -133 -160 -133h-565l-27 -338h523q70 0 105.5 -29.5t35.5 -85.5q0 -133 -158 -133h-524l-29 -362h563q68 0 105 -31t37 -86q0 -57 -29 -86t-92 -45q-53 -12 -86 -50t-33 -89q0 -49 28.5 -77t71.5 -28 q23 0 44.5 4t54.5 15q6 2 18 2q23 0 37 -18.5t14 -43.5q0 -49 -43 -71q-82 -47 -170 -47q-117 0 -186.5 60t-69.5 157q0 53 22.5 101t68.5 85h-537q-72 0 -107.5 39t-29.5 111z" />
<glyph unicode="&#x119;" horiz-adv-x="1091" d="M70 477q0 160 65.5 286t181 196.5t263.5 70.5q215 0 331.5 -129t116.5 -362q0 -45 -24.5 -70t-65.5 -25h-571q18 -229 251 -229q66 0 115 14.5t109 44.5q29 14 55 15q39 0 62.5 -31t23.5 -74q0 -35 -15.5 -66.5t-47.5 -51.5q-33 -20 -97 -46q-135 -55 -135 -165 q0 -45 27.5 -72t72.5 -27q27 0 47.5 4t51.5 15q12 4 18 4q23 0 36 -18.5t13 -43.5q0 -23 -10 -42t-31 -31q-82 -47 -184 -47q-111 0 -176.5 56t-65.5 154q0 104 78 177q-147 4 -259.5 67.5t-174 173t-61.5 252.5zM373 598h397q0 106 -46 162.5t-134 56.5q-182 0 -217 -219z " />
<glyph unicode="&#x11a;" horiz-adv-x="1214" d="M117 150l90 1144q6 72 48 111t114 39h725q70 0 105.5 -31t35.5 -84q0 -133 -160 -133h-565l-27 -338h523q70 0 105.5 -29.5t35.5 -85.5q0 -133 -158 -133h-524l-29 -362h563q68 0 105 -31t37 -86q0 -131 -162 -131h-725q-72 0 -107.5 39t-29.5 111zM506 1812 q0 33 28.5 57.5t65.5 24.5q55 0 88 -53l78 -131l113 135q43 49 96 49q35 0 58.5 -19.5t23.5 -49.5q0 -35 -31 -68l-147 -158q-20 -23 -52 -35t-65 -12q-35 0 -64.5 12.5t-48.5 34.5l-121 158q-23 29 -22 55z" />
<glyph unicode="&#x11b;" horiz-adv-x="1091" d="M70 477q0 160 65.5 286t181 196.5t263.5 70.5q215 0 331.5 -129t116.5 -362q0 -45 -24.5 -70t-65.5 -25h-571q18 -229 251 -229q66 0 115 14.5t109 44.5q29 14 55 15q39 0 62.5 -31t23.5 -74q0 -35 -15.5 -66.5t-47.5 -51.5q-55 -37 -143.5 -59.5t-180.5 -22.5 q-158 0 -276.5 61t-184 173t-65.5 259zM346 1477q0 37 30.5 61.5t71.5 24.5q31 0 59.5 -17.5t45.5 -52.5l77 -174l103 182q18 33 44.5 48.5t55.5 15.5q39 0 67.5 -26t28.5 -62q0 -33 -22 -64l-156 -215q-27 -35 -63.5 -54.5t-73.5 -19.5q-39 0 -73 19.5t-52 54.5l-129 229 q-14 27 -14 50zM373 598h397q0 106 -46 162.5t-134 56.5q-182 0 -217 -219z" />
<glyph unicode="&#x11c;" horiz-adv-x="1511" d="M119 672q0 240 93 418t267 275t406 97q150 0 267.5 -33.5t190.5 -82.5q78 -49 78 -127q0 -51 -34.5 -90t-86.5 -39q-37 0 -77 24q-74 47 -150 70.5t-184 23.5q-211 0 -329 -143t-118 -393q0 -215 102.5 -330t309.5 -115q109 0 225 35l27 313h-178q-127 0 -127 107 q0 53 36.5 84t94.5 31h350q57 0 89 -32t28 -87l-31 -399q-6 -84 -22.5 -129.5t-52.5 -71t-103 -43.5q-82 -25 -184.5 -39t-192.5 -14q-215 0 -371.5 84t-239.5 239.5t-83 366.5zM647 1628q0 31 31 68l148 157q45 45 118 45q74 0 111 -45l121 -157q23 -29 22 -56 q0 -35 -28.5 -58t-67.5 -23q-55 0 -86 51l-78 131l-112 -133q-44 -49 -97 -49q-35 0 -58.5 19t-23.5 50z" />
<glyph unicode="&#x11d;" horiz-adv-x="1263" d="M72 492q0 154 60.5 276.5t171 192t251.5 69.5q213 0 313 -158l2 13q6 66 50.5 103.5t113.5 37.5q70 0 108 -40t34 -105l-64 -772q-16 -244 -166.5 -369t-425.5 -125q-102 0 -201.5 21.5t-171.5 62.5q-70 37 -69 108q0 47 32.5 83t77.5 36q23 0 41 -8q66 -29 146 -50.5 t155 -21.5q131 0 198 59.5t77 180.5l8 76q-49 -63 -129 -98t-180 -35q-129 0 -226.5 57t-151.5 161.5t-54 244.5zM379 504q0 -113 59.5 -176.5t167.5 -63.5q109 0 172.5 76t63.5 205q0 125 -58.5 188.5t-167.5 63.5q-111 0 -174 -78t-63 -215zM403 1214q0 33 23 64l156 215 q27 35 63.5 54.5t73.5 19.5q39 0 72.5 -19.5t52.5 -54.5l129 -229q14 -27 14 -50q0 -37 -30.5 -61.5t-69.5 -24.5q-33 0 -61.5 17.5t-45.5 54.5l-78 174l-102 -184q-18 -33 -44 -48.5t-54 -15.5q-39 0 -69 26t-30 62z" />
<glyph unicode="&#x11e;" horiz-adv-x="1511" d="M119 672q0 240 93 418t267 275t406 97q150 0 267.5 -33.5t190.5 -82.5q78 -49 78 -127q0 -51 -34.5 -90t-86.5 -39q-37 0 -77 24q-74 47 -150 70.5t-184 23.5q-211 0 -329 -143t-118 -393q0 -215 102.5 -330t309.5 -115q109 0 225 35l27 313h-178q-127 0 -127 107 q0 53 36.5 84t94.5 31h350q57 0 89 -32t28 -87l-31 -399q-6 -84 -22.5 -129.5t-52.5 -71t-103 -43.5q-82 -25 -184.5 -39t-192.5 -14q-215 0 -371.5 84t-239.5 239.5t-83 366.5zM588 1792q0 33 24.5 54.5t57.5 21.5q41 0 74 -33q72 -68 194 -68q55 0 107.5 17.5t87.5 50.5 q39 33 80 33q31 0 51 -18.5t20 -47.5q0 -31 -22 -61q-53 -72 -137 -114t-193 -42q-115 0 -199 41t-129 115q-16 25 -16 51z" />
<glyph unicode="&#x11f;" horiz-adv-x="1263" d="M72 492q0 154 60.5 276.5t171 192t251.5 69.5q213 0 313 -158l2 13q6 66 50.5 103.5t113.5 37.5q70 0 108 -40t34 -105l-64 -772q-16 -244 -166.5 -369t-425.5 -125q-102 0 -201.5 21.5t-171.5 62.5q-70 37 -69 108q0 47 32.5 83t77.5 36q23 0 41 -8q66 -29 146 -50.5 t155 -21.5q131 0 198 59.5t77 180.5l8 76q-49 -63 -129 -98t-180 -35q-129 0 -226.5 57t-151.5 161.5t-54 244.5zM342 1448q0 35 27.5 59.5t62.5 24.5q49 0 76 -43q29 -51 83 -82t120 -31q125 0 202 113q33 45 80 45q33 0 56.5 -22.5t23.5 -57.5q0 -23 -8 -41 q-47 -104 -145.5 -167.5t-221.5 -63.5t-214 63.5t-134 167.5q-8 25 -8 35zM379 504q0 -113 59.5 -176.5t167.5 -63.5q109 0 172.5 76t63.5 205q0 125 -58.5 188.5t-167.5 63.5q-111 0 -174 -78t-63 -215z" />
<glyph unicode="&#x120;" horiz-adv-x="1511" d="M119 672q0 240 93 418t267 275t406 97q150 0 267.5 -33.5t190.5 -82.5q78 -49 78 -127q0 -51 -34.5 -90t-86.5 -39q-37 0 -77 24q-74 47 -150 70.5t-184 23.5q-211 0 -329 -143t-118 -393q0 -215 102.5 -330t309.5 -115q109 0 225 35l27 313h-178q-127 0 -127 107 q0 53 36.5 84t94.5 31h350q57 0 89 -32t28 -87l-31 -399q-6 -84 -22.5 -129.5t-52.5 -71t-103 -43.5q-82 -25 -184.5 -39t-192.5 -14q-215 0 -371.5 84t-239.5 239.5t-83 366.5zM756 1729q0 72 47 112.5t129 40.5q80 0 128 -42t48 -111q0 -72 -47 -114t-129 -42t-129 42 t-47 114z" />
<glyph unicode="&#x121;" horiz-adv-x="1263" d="M72 492q0 154 60.5 276.5t171 192t251.5 69.5q213 0 313 -158l2 13q6 66 50.5 103.5t113.5 37.5q70 0 108 -40t34 -105l-64 -772q-16 -244 -166.5 -369t-425.5 -125q-102 0 -201.5 21.5t-171.5 62.5q-70 37 -69 108q0 47 32.5 83t77.5 36q23 0 41 -8q66 -29 146 -50.5 t155 -21.5q131 0 198 59.5t77 180.5l8 76q-49 -63 -129 -98t-180 -35q-129 0 -226.5 57t-151.5 161.5t-54 244.5zM379 504q0 -113 59.5 -176.5t167.5 -63.5q109 0 172.5 76t63.5 205q0 125 -58.5 188.5t-167.5 63.5q-111 0 -174 -78t-63 -215zM524 1346q0 72 47 112.5 t129 40.5q80 0 128.5 -42t48.5 -111q0 -72 -47.5 -114t-129.5 -42t-129 42t-47 114z" />
<glyph unicode="&#x122;" horiz-adv-x="1511" d="M119 672q0 240 93 418t267 275t406 97q150 0 267.5 -33.5t190.5 -82.5q78 -49 78 -127q0 -51 -34.5 -90t-86.5 -39q-37 0 -77 24q-74 47 -150 70.5t-184 23.5q-211 0 -329 -143t-118 -393q0 -215 102.5 -330t309.5 -115q109 0 225 35l27 313h-178q-127 0 -127 107 q0 53 36.5 84t94.5 31h350q57 0 89 -32t28 -87l-31 -399q-6 -84 -22.5 -129.5t-52.5 -71t-103 -43.5q-82 -25 -184.5 -39t-192.5 -14q-215 0 -371.5 84t-239.5 239.5t-83 366.5zM635 -262q0 59 44 99t103 40q80 0 124 -45t44 -117q0 -70 -25.5 -131t-66.5 -104 q-37 -39 -84 -39q-27 0 -46 13.5t-19 35.5q0 20 18 45q35 47 49 86h-10q-55 0 -93 30t-38 87z" />
<glyph unicode="&#x123;" horiz-adv-x="1263" d="M72 492q0 154 60.5 276.5t171 192t251.5 69.5q213 0 313 -158l2 13q6 66 50.5 103.5t113.5 37.5q70 0 108 -40t34 -105l-64 -772q-16 -244 -166.5 -369t-425.5 -125q-102 0 -201.5 21.5t-171.5 62.5q-70 37 -69 108q0 47 32.5 83t77.5 36q23 0 41 -8q66 -29 146 -50.5 t155 -21.5q131 0 198 59.5t77 180.5l8 76q-49 -63 -129 -98t-180 -35q-129 0 -226.5 57t-151.5 161.5t-54 244.5zM379 504q0 -113 59.5 -176.5t167.5 -63.5q109 0 172.5 76t63.5 205q0 125 -58.5 188.5t-167.5 63.5q-111 0 -174 -78t-63 -215zM541 1346q0 70 25.5 131 t66.5 106q37 39 82 39q29 0 48 -14.5t19 -36.5q0 -20 -18 -45q-35 -47 -49 -86h10q57 0 94 -30t37 -87q0 -59 -44 -98t-103 -39q-80 0 -124 45t-44 115z" />
<glyph unicode="&#x124;" horiz-adv-x="1579" d="M117 147l90 1151q6 72 52 114t118 42t110.5 -43t32.5 -115l-35 -436h664l35 438q6 72 52 114t116 42q71 0 111 -43t34 -115l-90 -1151q-6 -72 -52 -114.5t-116 -42.5q-72 0 -112 43t-33 116l36 459h-663l-37 -461q-6 -72 -52 -114.5t-116 -42.5q-72 0 -111.5 43 t-33.5 116zM604 1628q0 31 31 68l148 157q45 45 118 45q74 0 111 -45l121 -157q23 -29 22 -56q0 -35 -28.5 -58t-67.5 -23q-55 0 -86 51l-78 131l-112 -133q-44 -49 -97 -49q-35 0 -58.5 19t-23.5 50z" />
<glyph unicode="&#x125;" horiz-adv-x="1218" d="M90 133l92 1180q4 63 51.5 102t118.5 39q68 0 106 -37t34 -98l-33 -424q53 63 135 99t182 36q168 0 254 -93t86 -273q0 -43 -2 -66l-37 -465q-6 -68 -50 -106.5t-116 -38.5t-110.5 39t-32.5 106l37 453q8 100 -32 151t-124 51q-96 0 -151.5 -60t-63.5 -165l-35 -430 q-4 -68 -48 -106.5t-115 -38.5q-72 0 -112 39t-34 106zM92 1628q0 31 31 68l148 157q45 45 118 45q74 0 111 -45l121 -157q23 -29 22 -56q0 -35 -28.5 -58t-67.5 -23q-55 0 -86 51l-78 131l-112 -133q-44 -49 -97 -49q-35 0 -58.5 19t-23.5 50z" />
<glyph unicode="&#x126;" horiz-adv-x="1701" d="M53 1147q0 57 38 90t112 33h63l2 28q6 72 52.5 114t115.5 42q72 0 112 -43t34 -115l-2 -26h663l2 28q6 72 52 114t116 42q72 0 112 -43t34 -115l-3 -26h64q63 0 99 -31t36 -80q0 -57 -40 -90t-113 -33h-64l-70 -891q-6 -72 -52 -114.5t-118 -42.5t-110.5 43t-32.5 116 l37 459h-664l-36 -461q-6 -72 -52.5 -114.5t-115.5 -42.5q-72 0 -112 43t-34 116l70 889h-62q-66 0 -99.5 31t-33.5 80zM547 860h663l15 176h-664z" />
<glyph unicode="&#x127;" horiz-adv-x="1218" d="M-31 1196q0 53 36 81t104 28h73v8q4 63 51.5 102t118.5 39q68 0 106 -37t34 -98l-3 -14h285q57 0 88 -28t31 -73q0 -55 -35 -83.5t-102 -28.5h-283l-14 -197q53 63 135 99t182 36q168 0 254 -93t86 -273q0 -43 -2 -66l-37 -465q-6 -68 -50 -106.5t-116 -38.5t-110.5 39 t-32.5 106l37 453q8 100 -32 151t-124 51q-96 0 -151.5 -60t-63.5 -165l-35 -430q-4 -68 -48 -106.5t-115 -38.5q-72 0 -112 39t-34 106l76 959h-76q-57 0 -89 28.5t-32 75.5z" />
<glyph unicode="&#x128;" horiz-adv-x="606" d="M49 1665q0 47 25.5 96t73.5 81t112 32q37 0 73.5 -12.5t85.5 -36.5q86 -43 132 -43q29 0 45 10t39 33q20 20 32.5 28.5t32.5 8.5q57 0 57 -70q0 -47 -25.5 -96t-73.5 -81t-112 -32q-36 0 -73 12.5t-86 36.5q-86 43 -131 43q-29 0 -46.5 -11t-37.5 -34 q-20 -20 -32.5 -28.5t-33.5 -8.5q-29 0 -43 19.5t-14 52.5zM117 147l90 1151q6 72 52 114t118 42q76 0 115.5 -43t33.5 -115l-90 -1151q-6 -72 -52 -114.5t-120 -42.5t-113.5 43t-33.5 116z" />
<glyph unicode="&#x129;" horiz-adv-x="546" d="M-14 1278q0 51 29.5 103.5t79 87t104.5 34.5q47 0 85 -16.5t87 -46.5q41 -25 65.5 -36t49.5 -11q29 0 47 14t39 43q20 25 35.5 37t37.5 12q53 0 54 -80q0 -51 -30 -103t-80 -86t-105 -34q-47 0 -85 16.5t-87 47.5q-43 25 -64.5 35t-46.5 10q-29 0 -48.5 -14.5 t-41.5 -43.5q-18 -25 -33.5 -37t-38.5 -12q-27 0 -40 21.5t-13 58.5zM90 133l60 748q6 72 54 108.5t113 36.5q66 0 107 -37t35 -108l-60 -748q-6 -72 -52 -108.5t-111 -36.5q-68 0 -110 36.5t-36 108.5z" />
<glyph unicode="&#x12a;" horiz-adv-x="606" d="M53 1720q0 51 30.5 77t79.5 26h496q41 0 67.5 -25.5t26.5 -68.5q0 -49 -30.5 -74t-79.5 -25h-496q-41 0 -67.5 25.5t-26.5 64.5zM117 147l90 1151q6 72 52 114t118 42q76 0 115.5 -43t33.5 -115l-90 -1151q-6 -72 -52 -114.5t-120 -42.5t-113.5 43t-33.5 116z" />
<glyph unicode="&#x12b;" horiz-adv-x="546" d="M-8 1339q0 49 31 75t80 26h495q41 0 68 -24.5t27 -63.5q0 -51 -31 -78t-80 -27h-496q-43 0 -68.5 24.5t-25.5 67.5zM90 133l60 748q6 72 54 108.5t113 36.5q66 0 107 -37t35 -108l-60 -748q-6 -72 -52 -108.5t-111 -36.5q-68 0 -110 36.5t-36 108.5z" />
<glyph unicode="&#x12c;" horiz-adv-x="606" d="M59 1792q0 33 24.5 54.5t57.5 21.5q41 0 74 -33q72 -68 194 -68q55 0 107.5 17.5t87.5 50.5q39 33 80 33q31 0 51 -18.5t20 -47.5q0 -31 -22 -61q-53 -72 -137 -114t-193 -42q-115 0 -199 41t-129 115q-16 25 -16 51zM117 147l90 1151q6 72 52 114t118 42q76 0 115.5 -43 t33.5 -115l-90 -1151q-6 -72 -52 -114.5t-120 -42.5t-113.5 43t-33.5 116z" />
<glyph unicode="&#x12d;" horiz-adv-x="546" d="M-16 1448q0 35 27.5 59.5t62.5 24.5q49 0 76 -43q29 -51 83 -82t120 -31q125 0 202 113q33 45 80 45q33 0 56.5 -22.5t23.5 -57.5q0 -23 -8 -41q-47 -104 -145.5 -167.5t-221.5 -63.5t-214 63.5t-134 167.5q-8 25 -8 35zM90 133l60 748q6 72 54 108.5t113 36.5 q66 0 107 -37t35 -108l-60 -748q-6 -72 -52 -108.5t-111 -36.5q-68 0 -110 36.5t-36 108.5z" />
<glyph unicode="&#x12e;" horiz-adv-x="606" d="M10 -182q0 141 135 219q-35 41 -28 110l90 1151q6 72 52 114t118 42q76 0 115.5 -43t33.5 -115l-90 -1151q-4 -47 -27.5 -82.5t-58.5 -52.5q-67 -28 -102 -62t-35 -87q0 -49 29.5 -77t79.5 -28q41 0 98 19q6 2 20 2q23 0 36 -16.5t13 -41.5q0 -20 -11 -41.5t-32 -33.5 q-72 -47 -176 -47q-119 0 -189.5 61t-70.5 160z" />
<glyph unicode="&#x12f;" horiz-adv-x="546" d="M-14 -190q0 66 33.5 124t99.5 99q-31 35 -29 100l60 748q6 72 54 108.5t113 36.5q66 0 107 -37t35 -108l-60 -748q-8 -92 -82 -125q-59 -27 -94 -61.5t-35 -91.5q0 -45 29 -72t72 -27q41 0 98 19q12 4 19 4q23 0 37 -19.5t14 -44.5q0 -20 -11.5 -39.5t-31.5 -31.5 q-84 -47 -185 -47q-109 0 -176 57t-67 156zM166 1346q0 72 47 112.5t129 40.5q78 0 126 -42t48 -111q0 -72 -47 -114t-127 -42q-82 0 -129 42t-47 114z" />
<glyph unicode="&#x130;" horiz-adv-x="606" d="M117 147l90 1151q6 72 52 114t118 42q76 0 115.5 -43t33.5 -115l-90 -1151q-6 -72 -52 -114.5t-120 -42.5t-113.5 43t-33.5 116zM227 1729q0 72 47 112.5t129 40.5q80 0 128 -42t48 -111q0 -72 -47 -114t-129 -42t-129 42t-47 114z" />
<glyph unicode="&#x131;" horiz-adv-x="546" d="M90 133l60 748q6 72 54 108.5t113 36.5q66 0 107 -37t35 -108l-60 -748q-6 -72 -52 -108.5t-111 -36.5q-68 0 -110 36.5t-36 108.5z" />
<glyph unicode="&#x134;" horiz-adv-x="772" d="M-61 113q0 63 32.5 94t102.5 35l67 4q147 10 160 174l72 878q4 72 51 114t121 42q72 0 112.5 -43t34.5 -113l-67 -874q-16 -201 -127 -310.5t-314 -121.5l-65 -4q-180 -12 -180 125zM282 1628q0 31 31 68l148 157q45 45 118 45q74 0 111 -45l121 -157q23 -29 22 -56 q0 -35 -28.5 -58t-67.5 -23q-55 0 -86 51l-78 131l-112 -133q-44 -49 -97 -49q-35 0 -58.5 19t-23.5 50z" />
<glyph unicode="&#x135;" horiz-adv-x="546" d="M-229 -268q0 111 127 118l59 5q53 4 85 36.5t36 94.5l72 895q6 72 54 108.5t113 36.5q66 0 107 -37t35 -108l-70 -873q-25 -350 -389 -377l-57 -4q-82 -6 -127 20.5t-45 84.5zM43 1214q0 33 23 64l156 215q27 35 63.5 54.5t73.5 19.5q39 0 72.5 -19.5t52.5 -54.5 l129 -229q14 -27 14 -50q0 -37 -30.5 -61.5t-69.5 -24.5q-33 0 -61.5 17.5t-45.5 54.5l-78 174l-102 -184q-18 -33 -44 -48.5t-54 -15.5q-39 0 -69 26t-30 62z" />
<glyph unicode="&#x136;" horiz-adv-x="1388" d="M117 147l90 1151q6 72 52 114t118 42q76 0 115.5 -43t33.5 -115l-39 -489l607 600q49 49 106 49q53 0 91 -39t38 -94q0 -63 -55 -119l-481 -465l458 -524q29 -31 29 -76q0 -57 -44 -102t-103 -45q-63 0 -111 55l-545 615l-41 -517q-6 -72 -52 -114.5t-120 -42.5 t-113.5 43t-33.5 116zM486 -262q0 59 44 99t103 40q80 0 124 -45t44 -117q0 -70 -25.5 -131t-66.5 -104q-37 -39 -84 -39q-27 0 -46 13.5t-19 35.5q0 20 18 45q35 47 49 86h-10q-55 0 -93 30t-38 87z" />
<glyph unicode="&#x137;" horiz-adv-x="1142" d="M90 135l92 1174q6 72 52.5 108.5t113.5 36.5q68 0 109 -37t35 -108l-58 -731l412 401q45 45 100 45q57 0 98 -41t41 -94t-43 -96l-288 -275l264 -299q33 -39 33 -82q0 -59 -48.5 -105t-109.5 -46q-55 0 -100 47l-369 411l-25 -309q-6 -72 -52 -108.5t-111 -36.5 q-68 0 -110 36.5t-36 108.5zM359 -262q0 59 44 99t103 40q80 0 124 -45t44 -117q0 -70 -25.5 -131t-66.5 -104q-37 -39 -84 -39q-27 0 -46 13.5t-19 35.5q0 20 18 45q35 47 49 86h-10q-55 0 -93 30t-38 87z" />
<glyph unicode="&#x138;" horiz-adv-x="1142" d="M90 135l60 746q6 72 54 108.5t113 36.5q66 0 107 -37t35 -108l-25 -303l412 401q45 45 100 45q57 0 98 -41t41 -94t-43 -96l-288 -275l264 -299q33 -39 33 -82q0 -59 -48.5 -105t-109.5 -46q-55 0 -100 47l-369 411l-25 -309q-6 -72 -52 -108.5t-111 -36.5 q-68 0 -110 36.5t-36 108.5z" />
<glyph unicode="&#x139;" horiz-adv-x="1153" d="M117 150l90 1148q6 72 52 114t120 42t113.5 -43t33.5 -115l-82 -1036h523q70 0 105.5 -30.5t35.5 -88.5q0 -74 -40 -107.5t-120 -33.5h-694q-72 0 -107.5 39t-29.5 111zM356 1626q0 25 18 51l119 172q35 49 88 49q41 0 74 -30.5t33 -69.5t-37 -74l-154 -137 q-30 -28 -67 -28q-31 0 -52.5 19t-21.5 48z" />
<glyph unicode="&#x13a;" horiz-adv-x="546" d="M90 133l92 1176q6 72 52.5 108.5t113.5 36.5q66 0 108 -37t36 -108l-93 -1176q-6 -72 -52 -108.5t-111 -36.5q-68 0 -110 36.5t-36 108.5zM328 1626q0 25 18 51l119 172q35 49 88 49q41 0 74 -30.5t33 -69.5t-37 -74l-154 -137q-30 -28 -67 -28q-31 0 -52.5 19t-21.5 48z " />
<glyph unicode="&#x13b;" horiz-adv-x="1153" d="M117 150l90 1148q6 72 52 114t120 42t113.5 -43t33.5 -115l-82 -1036h523q70 0 105.5 -30.5t35.5 -88.5q0 -74 -40 -107.5t-120 -33.5h-694q-72 0 -107.5 39t-29.5 111zM428 -262q0 59 44 99t103 40q80 0 124 -45t44 -117q0 -70 -25.5 -131t-66.5 -104q-37 -39 -84 -39 q-27 0 -46 13.5t-19 35.5q0 20 18 45q35 47 49 86h-10q-55 0 -93 30t-38 87z" />
<glyph unicode="&#x13c;" horiz-adv-x="546" d="M62 -262q0 59 44 99t103 40q80 0 124 -45t44 -117q0 -70 -25.5 -131t-66.5 -104q-37 -39 -84 -39q-27 0 -46 13.5t-19 35.5q0 20 18 45q35 47 49 86h-10q-55 0 -93 30t-38 87zM90 133l92 1176q6 72 52.5 108.5t113.5 36.5q66 0 108 -37t36 -108l-93 -1176 q-6 -72 -52 -108.5t-111 -36.5q-68 0 -110 36.5t-36 108.5z" />
<glyph unicode="&#x13d;" horiz-adv-x="1153" d="M117 150l90 1148q6 72 52 114t120 42t113.5 -43t33.5 -115l-82 -1036h523q70 0 105.5 -30.5t35.5 -88.5q0 -74 -40 -107.5t-120 -33.5h-694q-72 0 -107.5 39t-29.5 111zM688 1081l22 297q2 41 31 62.5t66 21.5t63.5 -21.5t26.5 -58.5q0 -16 -2 -24l-64 -285 q-8 -29 -27.5 -44t-45.5 -15q-31 0 -51.5 18.5t-18.5 48.5z" />
<glyph unicode="&#x13e;" horiz-adv-x="546" d="M90 133l92 1176q6 72 52.5 108.5t113.5 36.5q66 0 108 -37t36 -108l-93 -1176q-6 -72 -52 -108.5t-111 -36.5q-68 0 -110 36.5t-36 108.5zM526 1077l23 291q2 41 27.5 64.5t58.5 23.5q27 0 47 -18.5t20 -48.5q0 -6 -4 -27l-67 -295q-6 -27 -21.5 -41t-36.5 -14 q-23 0 -36 17.5t-11 47.5z" />
<glyph unicode="&#x13f;" horiz-adv-x="1153" d="M117 150l90 1148q6 72 52 114t120 42t113.5 -43t33.5 -115l-82 -1036h523q70 0 105.5 -30.5t35.5 -88.5q0 -74 -40 -107.5t-120 -33.5h-694q-72 0 -107.5 39t-29.5 111zM643 725q0 72 47 113t129 41q80 0 128 -42t48 -112q0 -72 -47 -113.5t-129 -41.5t-129 42t-47 113z " />
<glyph unicode="&#x140;" horiz-adv-x="765" d="M90 133l92 1176q6 72 52.5 108.5t113.5 36.5q66 0 108 -37t36 -108l-93 -1176q-6 -72 -52 -108.5t-111 -36.5q-68 0 -110 36.5t-36 108.5zM483 723q0 72 47 113t129 41q80 0 128 -42t48 -112q0 -72 -47 -113.5t-129 -41.5t-129 42t-47 113z" />
<glyph unicode="&#x141;" horiz-adv-x="1214" d="M4 578q0 31 17.5 60.5t52.5 47.5l153 84l41 528q6 72 52.5 114t117.5 42q76 0 116 -43t34 -115l-29 -342l234 129q35 18 63 19q45 0 76 -34t31 -79q0 -31 -17.5 -59.5t-52.5 -46.5l-354 -197l-35 -426h524q70 0 105.5 -30.5t35.5 -88.5q0 -74 -39.5 -107.5t-119.5 -33.5 h-695q-72 0 -107.5 39t-29.5 111l27 352l-31 -19q-33 -18 -65 -18q-45 0 -75 33.5t-30 79.5z" />
<glyph unicode="&#x142;" horiz-adv-x="718" d="M2 578q0 33 17.5 62.5t52.5 47.5l153 84l43 537q6 72 52.5 108.5t113.5 36.5q66 0 108 -37t36 -108l-29 -359l35 19q34 18 65 18q45 0 75 -33.5t30 -79.5q0 -31 -17.5 -60.5t-52.5 -47.5l-156 -86l-43 -547q-6 -72 -52 -108.5t-111 -36.5q-68 0 -110 36.5t-36 108.5 l29 367l-31 -17q-33 -18 -65 -18q-45 0 -76 33.5t-31 79.5z" />
<glyph unicode="&#x143;" horiz-adv-x="1540" d="M117 147l90 1151q6 70 51 113t113 43q76 0 114 -53l615 -864l59 761q6 70 50 113t110 43q67 0 106 -43t33 -113l-90 -1153q-6 -72 -50 -114.5t-110 -42.5q-84 0 -121 55l-612 862l-61 -760q-6 -72 -49 -114.5t-111 -42.5t-105.5 44t-31.5 115zM823 1626q0 25 18 51 l119 172q35 49 88 49q41 0 74 -30.5t33 -69.5t-37 -74l-154 -137q-30 -28 -67 -28q-31 0 -52.5 19t-21.5 48z" />
<glyph unicode="&#x144;" horiz-adv-x="1218" d="M90 133l60 752q4 63 51 102t118 39q66 0 102 -37t32 -98v-2q53 68 137 104.5t186 36.5q168 0 254 -93t86 -273q0 -43 -2 -66l-37 -465q-6 -68 -50 -106.5t-116 -38.5t-110.5 39t-32.5 106l37 453q8 100 -32 151t-124 51q-96 0 -151.5 -60t-63.5 -165l-35 -430 q-6 -68 -50 -106.5t-113 -38.5q-72 0 -111 39t-35 106zM619 1198q0 25 14 51l131 246q41 72 111 72q49 0 86 -32t37 -79q0 -43 -39 -88l-178 -197q-37 -43 -88 -43q-31 0 -52.5 19.5t-21.5 50.5z" />
<glyph unicode="&#x145;" horiz-adv-x="1540" d="M117 147l90 1151q6 70 51 113t113 43q76 0 114 -53l615 -864l59 761q6 70 50 113t110 43q67 0 106 -43t33 -113l-90 -1153q-6 -72 -50 -114.5t-110 -42.5q-84 0 -121 55l-612 862l-61 -760q-6 -72 -49 -114.5t-111 -42.5t-105.5 44t-31.5 115zM559 -262q0 59 44 99 t103 40q80 0 124 -45t44 -117q0 -70 -25.5 -131t-66.5 -104q-37 -39 -84 -39q-27 0 -46 13.5t-19 35.5q0 20 18 45q35 47 49 86h-10q-55 0 -93 30t-38 87z" />
<glyph unicode="&#x146;" horiz-adv-x="1218" d="M90 133l60 752q4 63 51 102t118 39q66 0 102 -37t32 -98v-2q53 68 137 104.5t186 36.5q168 0 254 -93t86 -273q0 -43 -2 -66l-37 -465q-6 -68 -50 -106.5t-116 -38.5t-110.5 39t-32.5 106l37 453q8 100 -32 151t-124 51q-96 0 -151.5 -60t-63.5 -165l-35 -430 q-6 -68 -50 -106.5t-113 -38.5q-72 0 -111 39t-35 106zM400 -262q0 59 44 99t103 40q80 0 124 -45t44 -117q0 -70 -25.5 -131t-66.5 -104q-37 -39 -84 -39q-27 0 -46 13.5t-19 35.5q0 20 18 45q35 47 49 86h-10q-55 0 -93 30t-38 87z" />
<glyph unicode="&#x147;" horiz-adv-x="1540" d="M117 147l90 1151q6 70 51 113t113 43q76 0 114 -53l615 -864l59 761q6 70 50 113t110 43q67 0 106 -43t33 -113l-90 -1153q-6 -72 -50 -114.5t-110 -42.5q-84 0 -121 55l-612 862l-61 -760q-6 -72 -49 -114.5t-111 -42.5t-105.5 44t-31.5 115zM598 1812q0 33 28.5 57.5 t65.5 24.5q55 0 88 -53l78 -131l113 135q43 49 96 49q35 0 58.5 -19.5t23.5 -49.5q0 -35 -31 -68l-147 -158q-20 -23 -52 -35t-65 -12q-35 0 -64.5 12.5t-48.5 34.5l-121 158q-23 29 -22 55z" />
<glyph unicode="&#x148;" horiz-adv-x="1218" d="M90 133l60 752q4 63 51 102t118 39q66 0 102 -37t32 -98v-2q53 68 137 104.5t186 36.5q168 0 254 -93t86 -273q0 -43 -2 -66l-37 -465q-6 -68 -50 -106.5t-116 -38.5t-110.5 39t-32.5 106l37 453q8 100 -32 151t-124 51q-96 0 -151.5 -60t-63.5 -165l-35 -430 q-6 -68 -50 -106.5t-113 -38.5q-72 0 -111 39t-35 106zM394 1477q0 37 30.5 61.5t71.5 24.5q31 0 59.5 -17.5t45.5 -52.5l77 -174l103 182q18 33 44.5 48.5t55.5 15.5q39 0 67.5 -26t28.5 -62q0 -33 -22 -64l-156 -215q-27 -35 -63.5 -54.5t-73.5 -19.5q-39 0 -73 19.5 t-52 54.5l-129 229q-14 27 -14 50z" />
<glyph unicode="&#x149;" horiz-adv-x="1218" d="M90 133l60 752q4 63 51 102t118 39q66 0 102 -37t32 -98v-2q53 68 137 104.5t186 36.5q168 0 254 -93t86 -273q0 -43 -2 -66l-37 -465q-6 -68 -50 -106.5t-116 -38.5t-110.5 39t-32.5 106l37 453q8 100 -32 151t-124 51q-96 0 -151.5 -60t-63.5 -165l-35 -430 q-6 -68 -50 -106.5t-113 -38.5q-72 0 -111 39t-35 106zM215 1425q0 61 44 98.5t112 37.5q73 0 116 -41t43 -125q0 -68 -26.5 -129.5t-65.5 -102.5q-37 -39 -82 -39q-29 0 -48 15.5t-19 38.5t18 43q37 49 49 84h-10q-55 0 -93 32.5t-38 87.5z" />
<glyph unicode="&#x14a;" horiz-adv-x="1540" d="M117 147l90 1151q6 70 51 113t113 43q74 0 114 -53l615 -864l59 761q6 70 50 113t110 43q67 0 106 -43t33 -113l-96 -1239q-14 -201 -126 -309t-312 -123l-68 -4q-90 -6 -135 26t-45 95q0 55 34.5 84t100.5 33l68 4q78 4 127 51t55 123l2 37l-588 829l-61 -760 q-6 -72 -50.5 -114.5t-109.5 -42.5q-68 0 -105.5 44t-31.5 115z" />
<glyph unicode="&#x14b;" horiz-adv-x="1218" d="M90 133l60 752q4 63 51 102t118 39q66 0 102 -37t32 -98v-2q53 68 137 104.5t186 36.5q166 0 253 -93t87 -273q0 -43 -2 -66l-47 -590q-29 -348 -389 -377l-57 -4q-84 -6 -129.5 21.5t-45.5 83.5q0 111 127 118l60 5q55 4 87 36.5t36 94.5l49 600q8 100 -32 151t-124 51 q-96 0 -151.5 -60t-63.5 -165l-35 -430q-6 -68 -50 -106.5t-113 -38.5q-72 0 -111 39t-35 106z" />
<glyph unicode="&#x14c;" horiz-adv-x="1611" d="M119 674q0 236 88 415t251 277t376 98q211 0 368.5 -84t242.5 -240.5t85 -369.5q0 -236 -89 -415t-251 -277t-377 -98q-211 0 -367.5 83.5t-241.5 240.5t-85 370zM438 674q0 -213 96.5 -329t276.5 -116q184 0 291.5 143.5t107.5 397.5q0 213 -97 328.5t-275 115.5 q-186 0 -293 -144t-107 -396zM553 1720q0 51 30.5 77t79.5 26h496q41 0 67.5 -25.5t26.5 -68.5q0 -49 -30.5 -74t-79.5 -25h-496q-41 0 -67.5 25.5t-26.5 64.5z" />
<glyph unicode="&#x14d;" horiz-adv-x="1204" d="M70 479q0 168 66.5 293t188 191.5t283.5 66.5t281 -61.5t183.5 -173t64.5 -260.5q0 -170 -66.5 -294t-188.5 -190.5t-284 -66.5t-280.5 61t-183 173t-64.5 261zM319 1339q0 49 31 75t80 26h495q41 0 68 -24.5t27 -63.5q0 -51 -31 -78t-80 -27h-496q-43 0 -68.5 24.5 t-25.5 67.5zM377 473q0 -256 217 -256q119 0 177 90t58 236q0 254 -217 254q-119 0 -177 -90.5t-58 -233.5z" />
<glyph unicode="&#x14e;" horiz-adv-x="1611" d="M119 674q0 236 88 415t251 277t376 98q211 0 368.5 -84t242.5 -240.5t85 -369.5q0 -236 -89 -415t-251 -277t-377 -98q-211 0 -367.5 83.5t-241.5 240.5t-85 370zM438 674q0 -213 96.5 -329t276.5 -116q184 0 291.5 143.5t107.5 397.5q0 213 -97 328.5t-275 115.5 q-186 0 -293 -144t-107 -396zM559 1792q0 33 24.5 54.5t57.5 21.5q41 0 74 -33q72 -68 194 -68q55 0 107.5 17.5t87.5 50.5q39 33 80 33q31 0 51 -18.5t20 -47.5q0 -31 -22 -61q-53 -72 -137 -114t-193 -42q-115 0 -199 41t-129 115q-16 25 -16 51z" />
<glyph unicode="&#x14f;" horiz-adv-x="1204" d="M70 479q0 168 66.5 293t188 191.5t283.5 66.5t281 -61.5t183.5 -173t64.5 -260.5q0 -170 -66.5 -294t-188.5 -190.5t-284 -66.5t-280.5 61t-183 173t-64.5 261zM311 1448q0 35 27.5 59.5t62.5 24.5q49 0 76 -43q29 -51 83 -82t120 -31q125 0 202 113q33 45 80 45 q33 0 56.5 -22.5t23.5 -57.5q0 -23 -8 -41q-47 -104 -145.5 -167.5t-221.5 -63.5t-214 63.5t-134 167.5q-8 25 -8 35zM377 473q0 -256 217 -256q119 0 177 90t58 236q0 254 -217 254q-119 0 -177 -90.5t-58 -233.5z" />
<glyph unicode="&#x150;" horiz-adv-x="1611" d="M119 674q0 236 88 415t251 277t376 98q211 0 368.5 -84t242.5 -240.5t85 -369.5q0 -236 -89 -415t-251 -277t-377 -98q-211 0 -367.5 83.5t-241.5 240.5t-85 370zM438 674q0 -213 96.5 -329t276.5 -116q184 0 291.5 143.5t107.5 397.5q0 213 -97 328.5t-275 115.5 q-186 0 -293 -144t-107 -396zM717 1608q0 20 8 37l94 198q25 53 78 53q33 0 59.5 -22.5t26.5 -56.5q0 -33 -25 -64l-127 -160q-28 -34 -65 -34q-20 0 -34.5 13t-14.5 36zM1001 1608q0 20 9 37l92 198q25 53 78 53q35 0 61.5 -23.5t26.5 -55.5q0 -29 -25 -64l-127 -160 q-28 -34 -65 -34q-20 0 -35 13t-15 36z" />
<glyph unicode="&#x151;" horiz-adv-x="1204" d="M70 479q0 168 66.5 293t188 191.5t283.5 66.5t281 -61.5t183.5 -173t64.5 -260.5q0 -170 -66.5 -294t-188.5 -190.5t-284 -66.5t-280.5 61t-183 173t-64.5 261zM377 473q0 -256 217 -256q119 0 177 90t58 236q0 254 -217 254q-119 0 -177 -90.5t-58 -233.5zM465 1188 q0 16 2 24l57 261q10 47 40 72.5t66 25.5q39 0 66 -25.5t27 -66.5q0 -35 -19 -70l-119 -244q-22 -43 -63 -43q-25 0 -41 17.5t-16 48.5zM749 1188q0 16 2 24l58 261q10 47 39.5 72.5t66.5 25.5t64.5 -25.5t27.5 -66.5q0 -33 -18 -70l-121 -244q-10 -20 -26.5 -31.5 t-34.5 -11.5q-25 0 -41.5 17.5t-16.5 48.5z" />
<glyph unicode="&#x152;" horiz-adv-x="2138" d="M119 674q0 242 93 415t270 264t425 91h1110q70 0 106 -31t36 -84q0 -133 -160 -133h-565l-27 -338h522q70 0 106 -29.5t36 -85.5q0 -133 -158 -133h-524l-29 -362h563q68 0 104.5 -31t36.5 -86q0 -131 -161 -131h-1080q-217 0 -375.5 82t-243.5 233.5t-85 358.5zM438 672 q0 -205 108.5 -314.5t315.5 -109.5h187l73 948h-188q-496 0 -496 -524z" />
<glyph unicode="&#x153;" horiz-adv-x="1839" d="M70 479q0 168 66.5 293t186 191.5t275.5 66.5q270 0 393 -162q63 78 155.5 120t207.5 42q195 0 308.5 -130t113.5 -361q0 -45 -25 -70t-65 -25h-558q8 -115 72 -172t174 -57q59 0 107.5 14.5t105.5 44.5q29 14 58 15q39 0 62.5 -31t23.5 -74q0 -35 -16.5 -66.5 t-47.5 -51.5q-55 -37 -141 -59.5t-174 -22.5q-125 0 -221.5 45t-159.5 125q-129 -170 -389 -170q-154 0 -269.5 61t-179 174t-63.5 260zM377 473q0 -256 217 -256q115 0 172 90t57 236q0 254 -211 254q-119 0 -177 -90.5t-58 -233.5zM1135 598h385q0 111 -46.5 165 t-125.5 54q-178 0 -213 -219z" />
<glyph unicode="&#x154;" horiz-adv-x="1435" d="M117 147l90 1147q6 72 48 111t114 39h520q225 0 350 -110.5t125 -303.5q0 -190 -93 -301t-286 -143q53 -14 90 -50t70 -102l123 -244q16 -37 16 -65q0 -59 -50 -101t-114 -42q-43 0 -78.5 22.5t-58.5 67.5l-190 389q-27 53 -66 76.5t-100 23.5h-164l-31 -416 q-6 -72 -51 -114.5t-117 -42.5q-74 0 -113.5 43t-33.5 116zM481 803h338q121 0 183.5 53t62.5 156q0 96 -53.5 142t-163.5 46h-338zM774 1626q0 25 18 51l119 172q35 49 88 49q41 0 74 -30.5t33 -69.5t-37 -74l-154 -137q-30 -28 -67 -28q-31 0 -52.5 19t-21.5 48z" />
<glyph unicode="&#x155;" horiz-adv-x="821" d="M90 133l60 752q6 68 54 104.5t111 36.5q61 0 98.5 -36t32.5 -99l-2 -25q55 72 135 112t166 46l23 2q57 4 90 -28.5t27 -94.5q-6 -70 -41 -101.5t-119 -39.5l-55 -6q-125 -14 -177.5 -66.5t-62.5 -165.5l-31 -391q-6 -72 -52 -108.5t-111 -36.5q-68 0 -110 36.5t-36 108.5 zM485 1198q0 25 14 51l131 246q41 72 111 72q49 0 86 -32t37 -79q0 -43 -39 -88l-178 -197q-37 -43 -88 -43q-31 0 -52.5 19.5t-21.5 50.5z" />
<glyph unicode="&#x156;" horiz-adv-x="1435" d="M117 147l90 1147q6 72 48 111t114 39h520q225 0 350 -110.5t125 -303.5q0 -190 -93 -301t-286 -143q53 -14 90 -50t70 -102l123 -244q16 -37 16 -65q0 -59 -50 -101t-114 -42q-43 0 -78.5 22.5t-58.5 67.5l-190 389q-27 53 -66 76.5t-100 23.5h-164l-31 -416 q-6 -72 -51 -114.5t-117 -42.5q-74 0 -113.5 43t-33.5 116zM481 803h338q121 0 183.5 53t62.5 156q0 96 -53.5 142t-163.5 46h-338zM510 -262q0 59 44 99t103 40q80 0 124 -45t44 -117q0 -70 -25.5 -131t-66.5 -104q-37 -39 -84 -39q-27 0 -46 13.5t-19 35.5q0 20 18 45 q35 47 49 86h-10q-55 0 -93 30t-38 87z" />
<glyph unicode="&#x157;" horiz-adv-x="821" d="M62 -262q0 59 44 99t103 40q80 0 124 -45t44 -117q0 -70 -25.5 -131t-66.5 -104q-37 -39 -84 -39q-27 0 -46 13.5t-19 35.5q0 20 18 45q35 47 49 86h-10q-55 0 -93 30t-38 87zM90 133l60 752q6 68 54 104.5t111 36.5q61 0 98.5 -36t32.5 -99l-2 -25q55 72 135 112t166 46 l23 2q57 4 90 -28.5t27 -94.5q-6 -70 -41 -101.5t-119 -39.5l-55 -6q-125 -14 -177.5 -66.5t-62.5 -165.5l-31 -391q-6 -72 -52 -108.5t-111 -36.5q-68 0 -110 36.5t-36 108.5z" />
<glyph unicode="&#x158;" horiz-adv-x="1435" d="M117 147l90 1147q6 72 48 111t114 39h520q225 0 350 -110.5t125 -303.5q0 -190 -93 -301t-286 -143q53 -14 90 -50t70 -102l123 -244q16 -37 16 -65q0 -59 -50 -101t-114 -42q-43 0 -78.5 22.5t-58.5 67.5l-190 389q-27 53 -66 76.5t-100 23.5h-164l-31 -416 q-6 -72 -51 -114.5t-117 -42.5q-74 0 -113.5 43t-33.5 116zM481 803h338q121 0 183.5 53t62.5 156q0 96 -53.5 142t-163.5 46h-338zM549 1812q0 33 28.5 57.5t65.5 24.5q55 0 88 -53l78 -131l113 135q43 49 96 49q35 0 58.5 -19.5t23.5 -49.5q0 -35 -31 -68l-147 -158 q-20 -23 -52 -35t-65 -12q-35 0 -64.5 12.5t-48.5 34.5l-121 158q-23 29 -22 55z" />
<glyph unicode="&#x159;" horiz-adv-x="821" d="M90 133l60 752q6 68 54 104.5t111 36.5q61 0 98.5 -36t32.5 -99l-2 -25q55 72 135 112t166 46l23 2q57 4 90 -28.5t27 -94.5q-6 -70 -41 -101.5t-119 -39.5l-55 -6q-125 -14 -177.5 -66.5t-62.5 -165.5l-31 -391q-6 -72 -52 -108.5t-111 -36.5q-68 0 -110 36.5t-36 108.5 zM260 1477q0 37 30.5 61.5t71.5 24.5q31 0 59.5 -17.5t45.5 -52.5l77 -174l103 182q18 33 44.5 48.5t55.5 15.5q39 0 67.5 -26t28.5 -62q0 -33 -22 -64l-156 -215q-27 -35 -63.5 -54.5t-73.5 -19.5q-39 0 -73 19.5t-52 54.5l-129 229q-14 27 -14 50z" />
<glyph unicode="&#x15a;" horiz-adv-x="1333" d="M51 231q0 51 31 88t80 37q41 0 82 -24q72 -45 177 -74t228 -29q133 0 204 41t71 117q0 51 -38 87t-97.5 58.5t-161.5 53.5q-152 45 -247 87t-164 126t-69 217t74 234.5t209 156.5t315 55q152 0 283 -36.5t209 -100.5q51 -39 51 -106q0 -51 -32.5 -90t-84.5 -39 q-43 0 -86 28q-63 41 -155 68.5t-191 27.5q-129 0 -201.5 -45t-72.5 -125q0 -55 40 -92t100.5 -60.5t166.5 -53.5q147 -43 241.5 -85t161 -122t66.5 -209q0 -209 -158.5 -324.5t-445.5 -115.5q-162 0 -295 33.5t-219 88.5q-35 25 -53.5 59t-18.5 68zM727 1626q0 25 18 51 l119 172q35 49 88 49q41 0 74 -30.5t33 -69.5t-37 -74l-154 -137q-30 -28 -67 -28q-31 0 -52.5 19t-21.5 48z" />
<glyph unicode="&#x15b;" horiz-adv-x="997" d="M29 180q0 45 29.5 80t74.5 35q33 0 60 -16q66 -35 144.5 -55.5t154.5 -20.5q156 0 155 82q0 43 -46 65.5t-148 52.5q-109 29 -179.5 60t-122 90t-51.5 154q0 94 57.5 167.5t162 114.5t241.5 41q76 0 162 -21.5t141 -54.5q35 -20 52.5 -51t17.5 -63q0 -45 -26.5 -78 t-67.5 -33q-25 0 -58 16q-125 66 -245 66q-78 0 -119 -22.5t-41 -63.5q0 -43 46 -66.5t148 -52.5q109 -29 179.5 -59.5t122 -90t51.5 -153.5q0 -150 -120 -234.5t-337 -84.5q-190 -1 -352 75q-43 20 -64.5 52t-21.5 69zM524 1198q0 25 14 51l131 246q41 72 111 72 q49 0 86 -32t37 -79q0 -43 -39 -88l-178 -197q-37 -43 -88 -43q-31 0 -52.5 19.5t-21.5 50.5z" />
<glyph unicode="&#x15c;" horiz-adv-x="1333" d="M51 231q0 51 31 88t80 37q41 0 82 -24q72 -45 177 -74t228 -29q133 0 204 41t71 117q0 51 -38 87t-97.5 58.5t-161.5 53.5q-152 45 -247 87t-164 126t-69 217t74 234.5t209 156.5t315 55q152 0 283 -36.5t209 -100.5q51 -39 51 -106q0 -51 -32.5 -90t-84.5 -39 q-43 0 -86 28q-63 41 -155 68.5t-191 27.5q-129 0 -201.5 -45t-72.5 -125q0 -55 40 -92t100.5 -60.5t166.5 -53.5q147 -43 241.5 -85t161 -122t66.5 -209q0 -209 -158.5 -324.5t-445.5 -115.5q-162 0 -295 33.5t-219 88.5q-35 25 -53.5 59t-18.5 68zM487 1628q0 31 31 68 l148 157q45 45 118 45q74 0 111 -45l121 -157q23 -29 22 -56q0 -35 -28.5 -58t-67.5 -23q-55 0 -86 51l-78 131l-112 -133q-44 -49 -97 -49q-35 0 -58.5 19t-23.5 50z" />
<glyph unicode="&#x15d;" horiz-adv-x="997" d="M29 180q0 45 29.5 80t74.5 35q33 0 60 -16q66 -35 144.5 -55.5t154.5 -20.5q156 0 155 82q0 43 -46 65.5t-148 52.5q-109 29 -179.5 60t-122 90t-51.5 154q0 94 57.5 167.5t162 114.5t241.5 41q76 0 162 -21.5t141 -54.5q35 -20 52.5 -51t17.5 -63q0 -45 -26.5 -78 t-67.5 -33q-25 0 -58 16q-125 66 -245 66q-78 0 -119 -22.5t-41 -63.5q0 -43 46 -66.5t148 -52.5q109 -29 179.5 -59.5t122 -90t51.5 -153.5q0 -150 -120 -234.5t-337 -84.5q-190 -1 -352 75q-43 20 -64.5 52t-21.5 69zM288 1214q0 33 23 64l156 215q27 35 63.5 54.5 t73.5 19.5q39 0 72.5 -19.5t52.5 -54.5l129 -229q14 -27 14 -50q0 -37 -30.5 -61.5t-69.5 -24.5q-33 0 -61.5 17.5t-45.5 54.5l-78 174l-102 -184q-18 -33 -44 -48.5t-54 -15.5q-39 0 -69 26t-30 62z" />
<glyph unicode="&#x15e;" horiz-adv-x="1333" d="M51 231q0 51 31 88t80 37q41 0 82 -24q72 -45 177 -74t228 -29q133 0 204 41t71 117q0 51 -38 87t-97.5 58.5t-161.5 53.5q-152 45 -247 87t-164 126t-69 217t74 234.5t209 156.5t315 55q152 0 283 -36.5t209 -100.5q51 -39 51 -106q0 -51 -32.5 -90t-84.5 -39 q-43 0 -86 28q-63 41 -155 68.5t-191 27.5q-129 0 -201.5 -45t-72.5 -125q0 -55 40 -92t100.5 -60.5t166.5 -53.5q147 -43 241.5 -85t161 -122t66.5 -209q0 -199 -145.5 -314.5t-411.5 -125.5l-14 -64h14q78 0 124 -38t46 -101q0 -82 -76 -132t-198 -50q-86 0 -152 18 q-23 6 -33 22.5t-10 36.5q0 31 19.5 52.5t48.5 13.5q59 -16 112 -16q98 0 99 53q0 39 -58 39q-23 0 -47 -6.5t-33 -6.5q-20 0 -30.5 12.5t-6.5 30.5l29 140q-123 10 -224 41.5t-171 76.5q-35 25 -53.5 59t-18.5 68z" />
<glyph unicode="&#x15f;" horiz-adv-x="997" d="M29 180q0 45 29.5 80t74.5 35q33 0 60 -16q66 -35 144.5 -55.5t154.5 -20.5q156 0 155 82q0 43 -46 65.5t-148 52.5q-109 29 -179.5 60t-122 90t-51.5 154q0 94 57.5 167.5t162 114.5t241.5 41q76 0 162 -21.5t141 -54.5q35 -20 52.5 -51t17.5 -63q0 -45 -26.5 -78 t-67.5 -33q-25 0 -58 16q-125 66 -245 66q-78 0 -119 -22.5t-41 -63.5q0 -43 46 -66.5t148 -52.5q109 -29 179.5 -59.5t122 -90t51.5 -153.5q0 -139 -105.5 -223t-298.5 -94l-14 -68h14q78 0 124 -38t46 -101q0 -82 -75.5 -132t-198.5 -50q-86 0 -152 18q-23 6 -33 22.5 t-10 36.5q0 31 19.5 52.5t48.5 13.5q59 -16 112 -16q98 0 99 53q0 39 -58 39q-23 0 -47 -6.5t-33 -6.5q-20 0 -30 12.5t-6 30.5l30 144q-135 18 -241 69q-43 20 -64.5 52t-21.5 69z" />
<glyph unicode="&#x160;" horiz-adv-x="1333" d="M51 231q0 51 31 88t80 37q41 0 82 -24q72 -45 177 -74t228 -29q133 0 204 41t71 117q0 51 -38 87t-97.5 58.5t-161.5 53.5q-152 45 -247 87t-164 126t-69 217t74 234.5t209 156.5t315 55q152 0 283 -36.5t209 -100.5q51 -39 51 -106q0 -51 -32.5 -90t-84.5 -39 q-43 0 -86 28q-63 41 -155 68.5t-191 27.5q-129 0 -201.5 -45t-72.5 -125q0 -55 40 -92t100.5 -60.5t166.5 -53.5q147 -43 241.5 -85t161 -122t66.5 -209q0 -209 -158.5 -324.5t-445.5 -115.5q-162 0 -295 33.5t-219 88.5q-35 25 -53.5 59t-18.5 68zM502 1812 q0 33 28.5 57.5t65.5 24.5q55 0 88 -53l78 -131l113 135q43 49 96 49q35 0 58.5 -19.5t23.5 -49.5q0 -35 -31 -68l-147 -158q-20 -23 -52 -35t-65 -12q-35 0 -64.5 12.5t-48.5 34.5l-121 158q-23 29 -22 55z" />
<glyph unicode="&#x161;" horiz-adv-x="997" d="M29 180q0 45 29.5 80t74.5 35q33 0 60 -16q66 -35 144.5 -55.5t154.5 -20.5q156 0 155 82q0 43 -46 65.5t-148 52.5q-109 29 -179.5 60t-122 90t-51.5 154q0 94 57.5 167.5t162 114.5t241.5 41q76 0 162 -21.5t141 -54.5q35 -20 52.5 -51t17.5 -63q0 -45 -26.5 -78 t-67.5 -33q-25 0 -58 16q-125 66 -245 66q-78 0 -119 -22.5t-41 -63.5q0 -43 46 -66.5t148 -52.5q109 -29 179.5 -59.5t122 -90t51.5 -153.5q0 -150 -120 -234.5t-337 -84.5q-190 -1 -352 75q-43 20 -64.5 52t-21.5 69zM299 1477q0 37 30.5 61.5t71.5 24.5q31 0 59.5 -17.5 t45.5 -52.5l77 -174l103 182q18 33 44.5 48.5t55.5 15.5q39 0 67.5 -26t28.5 -62q0 -33 -22 -64l-156 -215q-27 -35 -63.5 -54.5t-73.5 -19.5q-39 0 -73 19.5t-52 54.5l-129 229q-14 27 -14 50z" />
<glyph unicode="&#x162;" horiz-adv-x="1273" d="M61 1303q0 74 40 107.5t120 33.5h983q142 0 142 -121q0 -72 -39 -105.5t-121 -33.5h-332l-84 -1039q-4 -53 -32.5 -91t-75.5 -54l-19 -82h14q78 0 124 -38t46 -101q0 -82 -75.5 -132t-198.5 -50q-86 0 -152 18q-23 6 -33 22.5t-10 36.5q0 31 19.5 52.5t48.5 13.5 q59 -16 113 -16q98 0 98 53q0 39 -57 39q-23 0 -47.5 -6.5t-32.5 -6.5q-20 0 -30.5 12.5t-6.5 30.5l37 174q-55 43 -49 127l81 1037h-331q-68 0 -104 30.5t-36 88.5z" />
<glyph unicode="&#x163;" horiz-adv-x="792" d="M10 885q0 121 148 121h82l12 159q6 68 51 107t117 39t109.5 -39t31.5 -107l-12 -159h143q61 0 95 -29t34 -80q0 -123 -145 -123h-146l-30 -379l-2 -33q0 -152 131 -151q23 0 45 3t41 3q31 0 50 -27.5t19 -70.5q0 -74 -50 -104.5t-177 -30.5q-27 0 -39 2l-14 -68h14 q78 0 124 -38t46 -101q0 -82 -75.5 -132t-198.5 -50q-88 0 -152 18q-23 6 -33 22.5t-10 36.5q0 31 19.5 52.5t48.5 13.5q59 -16 112 -16q98 0 99 53q0 39 -58 39q-23 0 -47 -6.5t-33 -6.5q-20 0 -30.5 12.5t-5.5 30.5l36 177q-84 41 -128 120.5t-44 194.5q0 37 2 57l31 379 h-80q-63 0 -97 28.5t-34 82.5z" />
<glyph unicode="&#x164;" horiz-adv-x="1273" d="M61 1303q0 74 40 107.5t120 33.5h983q141 0 142 -121q0 -72 -39 -105.5t-121 -33.5h-332l-84 -1039q-6 -72 -53 -113.5t-119 -41.5t-113 43t-34 114l81 1037h-331q-68 0 -104 30.5t-36 88.5zM465 1812q0 33 28.5 57.5t65.5 24.5q55 0 88 -53l78 -131l113 135q43 49 96 49 q35 0 58.5 -19.5t23.5 -49.5q0 -35 -31 -68l-147 -158q-20 -23 -52 -35t-65 -12q-35 0 -64.5 12.5t-48.5 34.5l-121 158q-23 29 -22 55z" />
<glyph unicode="&#x165;" horiz-adv-x="792" d="M10 885q0 121 148 121h82l12 159q6 68 51 107t117 39t109.5 -39t31.5 -107l-12 -159h143q62 0 95.5 -29t33.5 -80q0 -123 -145 -123h-146l-30 -379l-2 -33q0 -152 131 -151q23 0 45 3t41 3q31 0 50 -27.5t19 -70.5q0 -74 -50 -104.5t-177 -30.5q-178 0 -273.5 92 t-95.5 264q0 37 2 55l31 379h-80q-63 0 -97 28.5t-34 82.5zM649 1118l27 268q4 37 36.5 56.5t75.5 19.5q45 0 78 -19.5t33 -53.5q0 -4 -4 -21l-76 -256q-8 -27 -32.5 -40t-55.5 -13q-35 0 -59.5 16.5t-22.5 42.5z" />
<glyph unicode="&#x166;" horiz-adv-x="1273" d="M61 1303q0 74 40 107.5t120 33.5h983q142 0 142 -121q0 -72 -39 -105.5t-121 -33.5h-332l-27 -334h164q61 0 96 -31t35 -84q0 -63 -40 -95t-111 -32h-164l-37 -463q-6 -72 -53 -113.5t-119 -41.5t-113 43t-34 114l36 461h-165q-63 0 -98.5 31t-35.5 84q0 63 40 95t112 32 h166l26 334h-331q-68 0 -104 30.5t-36 88.5z" />
<glyph unicode="&#x167;" horiz-adv-x="813" d="M20 885q0 121 148 121h82l12 159q6 68 51 107t117 39t110 -39t31 -107l-12 -159h143q61 0 95 -29t34 -80q0 -123 -145 -123h-145l-9 -94h115q57 0 88 -26.5t31 -71.5q0 -55 -36 -85t-101 -30h-113l-6 -72l-2 -33q0 -152 131 -151q23 0 45.5 3t40.5 3q33 0 52.5 -28.5 t15.5 -71.5q-2 -74 -51.5 -103.5t-172.5 -29.5q-180 0 -275 93t-95 267q0 33 2 51l6 72h-49q-57 0 -89 27.5t-32 76.5q0 53 37 81t100 28h49l8 94h-79q-63 0 -97.5 28.5t-34.5 82.5z" />
<glyph unicode="&#x168;" horiz-adv-x="1513" d="M139 530q0 27 4 84l54 684q6 72 52 114t118 42t110.5 -43t32.5 -115l-53 -690q-2 -23 -2 -63q0 -158 75.5 -236t231.5 -78q137 0 216 79t91 257l57 733q6 72 52.5 114t115.5 42q72 0 112 -43t34 -115l-56 -708q-25 -301 -185.5 -453.5t-453.5 -152.5q-301 0 -453.5 138 t-152.5 410zM500 1665q0 47 25.5 96t73.5 81t112 32q37 0 73.5 -12.5t85.5 -36.5q86 -43 132 -43q29 0 45 10t39 33q20 20 32.5 28.5t32.5 8.5q57 0 57 -70q0 -47 -25.5 -96t-73.5 -81t-112 -32q-36 0 -73 12.5t-86 36.5q-86 43 -131 43q-29 0 -46.5 -11t-37.5 -34 q-20 -20 -32.5 -28.5t-33.5 -8.5q-29 0 -43 19.5t-14 52.5z" />
<glyph unicode="&#x169;" horiz-adv-x="1206" d="M102 344q0 43 2 66l37 471q6 68 52.5 106.5t117.5 38.5q72 0 109 -39t31 -106l-37 -453q-8 -100 30.5 -151.5t120.5 -51.5q90 0 144.5 60.5t62.5 163.5l35 432q6 68 51 106.5t117 38.5t109.5 -39t31.5 -106l-59 -752q-4 -63 -50 -102t-116 -39q-66 0 -102.5 36.5 t-34.5 98.5v2q-53 -68 -135 -104.5t-181 -36.5q-164 0 -250 92t-86 268zM311 1278q0 51 29.5 103.5t79 87t104.5 34.5q47 0 85 -16.5t87 -46.5q41 -25 65.5 -36t49.5 -11q29 0 47 14t39 43q20 25 35.5 37t37.5 12q53 0 54 -80q0 -51 -30 -103t-80 -86t-105 -34 q-47 0 -85 16.5t-87 47.5q-43 25 -64.5 35t-46.5 10q-29 0 -48.5 -14.5t-41.5 -43.5q-18 -25 -33.5 -37t-38.5 -12q-27 0 -40 21.5t-13 58.5z" />
<glyph unicode="&#x16a;" horiz-adv-x="1513" d="M139 530q0 27 4 84l54 684q6 72 52 114t118 42t110.5 -43t32.5 -115l-53 -690q-2 -23 -2 -63q0 -158 75.5 -236t231.5 -78q137 0 216 79t91 257l57 733q6 72 52.5 114t115.5 42q72 0 112 -43t34 -115l-56 -708q-25 -301 -185.5 -453.5t-453.5 -152.5q-301 0 -453.5 138 t-152.5 410zM504 1720q0 51 30.5 77t79.5 26h496q41 0 67.5 -25.5t26.5 -68.5q0 -49 -30.5 -74t-79.5 -25h-496q-41 0 -67.5 25.5t-26.5 64.5z" />
<glyph unicode="&#x16b;" horiz-adv-x="1206" d="M102 344q0 43 2 66l37 471q6 68 52.5 106.5t117.5 38.5q72 0 109 -39t31 -106l-37 -453q-8 -100 30.5 -151.5t120.5 -51.5q90 0 144.5 60.5t62.5 163.5l35 432q6 68 51 106.5t117 38.5t109.5 -39t31.5 -106l-59 -752q-4 -63 -50 -102t-116 -39q-66 0 -102.5 36.5 t-34.5 98.5v2q-53 -68 -135 -104.5t-181 -36.5q-164 0 -250 92t-86 268zM317 1339q0 49 31 75t80 26h495q41 0 68 -24.5t27 -63.5q0 -51 -31 -78t-80 -27h-496q-43 0 -68.5 24.5t-25.5 67.5z" />
<glyph unicode="&#x16c;" horiz-adv-x="1513" d="M139 530q0 27 4 84l54 684q6 72 52 114t118 42t110.5 -43t32.5 -115l-53 -690q-2 -23 -2 -63q0 -158 75.5 -236t231.5 -78q137 0 216 79t91 257l57 733q6 72 52.5 114t115.5 42q72 0 112 -43t34 -115l-56 -708q-25 -301 -185.5 -453.5t-453.5 -152.5q-301 0 -453.5 138 t-152.5 410zM510 1792q0 33 24.5 54.5t57.5 21.5q41 0 74 -33q72 -68 194 -68q55 0 107.5 17.5t87.5 50.5q39 33 80 33q31 0 51 -18.5t20 -47.5q0 -31 -22 -61q-53 -72 -137 -114t-193 -42q-115 0 -199 41t-129 115q-16 25 -16 51z" />
<glyph unicode="&#x16d;" horiz-adv-x="1206" d="M102 344q0 43 2 66l37 471q6 68 52.5 106.5t117.5 38.5q72 0 109 -39t31 -106l-37 -453q-8 -100 30.5 -151.5t120.5 -51.5q90 0 144.5 60.5t62.5 163.5l35 432q6 68 51 106.5t117 38.5t109.5 -39t31.5 -106l-59 -752q-4 -63 -50 -102t-116 -39q-66 0 -102.5 36.5 t-34.5 98.5v2q-53 -68 -135 -104.5t-181 -36.5q-164 0 -250 92t-86 268zM309 1448q0 35 27.5 59.5t62.5 24.5q49 0 76 -43q29 -51 83 -82t120 -31q125 0 202 113q33 45 80 45q33 0 56.5 -22.5t23.5 -57.5q0 -23 -8 -41q-47 -104 -145.5 -167.5t-221.5 -63.5t-214 63.5 t-134 167.5q-8 25 -8 35z" />
<glyph unicode="&#x16e;" horiz-adv-x="1513" d="M139 530q0 27 4 84l54 684q6 72 52 114t118 42t110.5 -43t32.5 -115l-53 -690q-2 -23 -2 -63q0 -158 75.5 -236t231.5 -78q137 0 216 79t91 257l57 733q6 72 52.5 114t115.5 42q72 0 112 -43t34 -115l-56 -708q-25 -301 -185.5 -453.5t-453.5 -152.5q-301 0 -453.5 138 t-152.5 410zM633 1776q0 94 64.5 157.5t158.5 63.5t158.5 -63.5t64.5 -157.5q0 -92 -64.5 -156t-158.5 -64t-158.5 63.5t-64.5 156.5zM768 1776q0 -39 24.5 -66t63.5 -27t63.5 27t24.5 66q0 41 -24.5 67.5t-63.5 26.5t-63.5 -26.5t-24.5 -67.5z" />
<glyph unicode="&#x16f;" horiz-adv-x="1206" d="M102 344q0 43 2 66l37 471q6 68 52.5 106.5t117.5 38.5q72 0 109 -39t31 -106l-37 -453q-8 -100 30.5 -151.5t120.5 -51.5q90 0 144.5 60.5t62.5 163.5l35 432q6 68 51 106.5t117 38.5t109.5 -39t31.5 -106l-59 -752q-4 -63 -50 -102t-116 -39q-66 0 -102.5 36.5 t-34.5 98.5v2q-53 -68 -135 -104.5t-181 -36.5q-164 0 -250 92t-86 268zM444 1348q0 92 64.5 155.5t158.5 63.5t159 -63.5t65 -155.5q0 -94 -64.5 -158t-159.5 -64q-94 0 -158.5 63.5t-64.5 158.5zM579 1348q0 -41 24.5 -68t63.5 -27t63.5 27t24.5 68q0 39 -24.5 65.5 t-63.5 26.5t-63.5 -27t-24.5 -65z" />
<glyph unicode="&#x170;" horiz-adv-x="1513" d="M139 530q0 27 4 84l54 684q6 72 52 114t118 42t110.5 -43t32.5 -115l-53 -690q-2 -23 -2 -63q0 -158 75.5 -236t231.5 -78q137 0 216 79t91 257l57 733q6 72 52.5 114t115.5 42q72 0 112 -43t34 -115l-56 -708q-25 -301 -185.5 -453.5t-453.5 -152.5q-301 0 -453.5 138 t-152.5 410zM668 1608q0 20 8 37l94 198q25 53 78 53q33 0 59.5 -22.5t26.5 -56.5q0 -33 -25 -64l-127 -160q-28 -34 -65 -34q-20 0 -34.5 13t-14.5 36zM952 1608q0 20 9 37l92 198q25 53 78 53q35 0 61.5 -23.5t26.5 -55.5q0 -29 -25 -64l-127 -160q-28 -34 -65 -34 q-20 0 -35 13t-15 36z" />
<glyph unicode="&#x171;" horiz-adv-x="1206" d="M102 344q0 43 2 66l37 471q6 68 52.5 106.5t117.5 38.5q72 0 109 -39t31 -106l-37 -453q-8 -100 30.5 -151.5t120.5 -51.5q90 0 144.5 60.5t62.5 163.5l35 432q6 68 51 106.5t117 38.5t109.5 -39t31.5 -106l-59 -752q-4 -63 -50 -102t-116 -39q-66 0 -102.5 36.5 t-34.5 98.5v2q-53 -68 -135 -104.5t-181 -36.5q-164 0 -250 92t-86 268zM463 1188q0 16 2 24l57 261q10 47 40 72.5t66 25.5q39 0 66 -25.5t27 -66.5q0 -35 -19 -70l-119 -244q-22 -43 -63 -43q-25 0 -41 17.5t-16 48.5zM747 1188q0 16 2 24l58 261q10 47 39.5 72.5 t66.5 25.5t64.5 -25.5t27.5 -66.5q0 -33 -18 -70l-121 -244q-10 -20 -26.5 -31.5t-34.5 -11.5q-25 0 -41.5 17.5t-16.5 48.5z" />
<glyph unicode="&#x172;" horiz-adv-x="1513" d="M139 530q0 27 4 84l54 684q6 72 52 114t118 42t110.5 -43t32.5 -115l-53 -690q-2 -23 -2 -63q0 -158 75.5 -236t231.5 -78q137 0 216 79t91 257l57 733q6 72 52.5 114t115.5 42q72 0 112 -43t34 -115l-56 -708q-18 -240 -124.5 -387.5t-311.5 -200.5q-135 -35 -135 -139 q0 -49 29.5 -77t79.5 -28q33 0 90 19q12 4 20 4q23 0 36 -18.5t13 -43.5q0 -20 -11 -40.5t-32 -32.5q-82 -47 -170 -47q-117 0 -187.5 60t-70.5 157q0 106 76 170q-270 10 -408.5 148t-138.5 398z" />
<glyph unicode="&#x173;" horiz-adv-x="1206" d="M102 344q0 41 2 64l37 473q6 68 51.5 106.5t116.5 38.5q72 0 110 -39t32 -106l-37 -453q-8 -100 30.5 -151.5t120.5 -51.5q90 0 144.5 60.5t62.5 163.5l35 432q6 68 50 106.5t116 38.5t110.5 -39t32.5 -106l-59 -752q-2 -43 -25.5 -76t-62.5 -49q-64 -29 -93.5 -60.5 t-29.5 -82.5q0 -49 29.5 -77t78.5 -28q27 0 88 19q6 2 19 2q23 0 37 -17.5t14 -42.5q0 -23 -10 -42t-33 -31q-43 -25 -81 -36t-87 -11q-117 0 -187.5 60t-70.5 157q0 70 36 126t99 95q-27 37 -24 88v2q-53 -68 -135 -104.5t-181 -36.5q-164 0 -250 92t-86 268z" />
<glyph unicode="&#x174;" horiz-adv-x="2283" d="M154 1307q0 68 50 109.5t113 41.5q47 0 85 -26.5t51 -75.5l231 -907l391 905q20 51 61.5 77.5t88.5 26.5t82.5 -27.5t50.5 -78.5l235 -916l383 922q21 49 61 75.5t87 26.5q55 0 94 -33.5t39 -93.5q0 -33 -19 -80l-505 -1165q-23 -49 -69 -75.5t-99 -26.5t-94 26.5 t-56 75.5l-239 866l-373 -866q-20 -49 -66.5 -76.5t-99.5 -27.5q-51 0 -94 27.5t-58 76.5l-323 1165q-8 25 -8 54zM954 1628q0 31 31 68l148 157q45 45 118 45q74 0 111 -45l121 -157q23 -29 22 -56q0 -35 -28.5 -58t-67.5 -23q-55 0 -86 51l-78 131l-112 -133 q-44 -49 -97 -49q-35 0 -58.5 19t-23.5 50z" />
<glyph unicode="&#x175;" horiz-adv-x="1767" d="M84 881q0 63 50 103t112 40q43 0 76.5 -22.5t46.5 -65.5l166 -565l258 559q20 45 57 68.5t78 23.5t75.5 -23.5t47.5 -68.5l166 -561l256 567q20 45 56 66.5t79 21.5q55 0 98 -35t43 -90q0 -35 -16 -68l-373 -751q-23 -45 -69 -68.5t-99 -23.5t-96 23.5t-56 68.5l-153 491 l-225 -491q-20 -45 -66.5 -68.5t-99.5 -23.5q-55 0 -98.5 23.5t-57.5 68.5l-248 754q-8 23 -8 47zM655 1214q0 33 23 64l156 215q27 35 63.5 54.5t73.5 19.5q39 0 72.5 -19.5t52.5 -54.5l129 -229q14 -27 14 -50q0 -37 -30.5 -61.5t-69.5 -24.5q-33 0 -61.5 17.5t-45.5 54.5 l-78 174l-102 -184q-18 -33 -44 -48.5t-54 -15.5q-39 0 -69 26t-30 62z" />
<glyph unicode="&#x176;" horiz-adv-x="1302" d="M84 1298q0 61 49 108.5t111 47.5q68 0 106 -59l330 -486l410 492q48 57 114 57q55 0 97 -42t42 -99q0 -53 -40 -103l-480 -563l-39 -506q-6 -76 -54 -116.5t-116 -40.5q-72 0 -113.5 41t-35.5 118l39 504l-395 572q-25 33 -25 75zM464 1628q0 31 31 68l148 157 q45 45 118 45q74 0 111 -45l121 -157q23 -29 22 -56q0 -35 -28.5 -58t-67.5 -23q-55 0 -86 51l-78 131l-112 -133q-44 -49 -97 -49q-35 0 -58.5 19t-23.5 50z" />
<glyph unicode="&#x177;" horiz-adv-x="1093" d="M66 883q0 57 52 99t113 42q41 0 73 -21.5t46 -64.5l191 -571l278 571q43 86 131 86q55 0 98.5 -36t43.5 -89q0 -29 -17 -61l-596 -1133q-25 -45 -58.5 -66.5t-70.5 -21.5q-51 0 -90 36t-39 89q0 33 19 70l120 233l-288 799q-6 18 -6 39zM317 1214q0 33 23 64l156 215 q27 35 63.5 54.5t73.5 19.5q39 0 72.5 -19.5t52.5 -54.5l129 -229q14 -27 14 -50q0 -37 -30.5 -61.5t-69.5 -24.5q-33 0 -61.5 17.5t-45.5 54.5l-78 174l-102 -184q-18 -33 -44 -48.5t-54 -15.5q-39 0 -69 26t-30 62z" />
<glyph unicode="&#x178;" horiz-adv-x="1302" d="M84 1298q0 61 49 108.5t111 47.5q68 0 106 -59l330 -486l410 492q48 57 114 57q55 0 97 -42t42 -99q0 -53 -40 -103l-480 -563l-39 -506q-6 -76 -54 -116.5t-116 -40.5q-72 0 -113.5 41t-35.5 118l39 504l-395 572q-25 33 -25 75zM401 1729q0 66 43 104.5t111 38.5 t110.5 -39t42.5 -104q0 -66 -42 -106t-111 -40q-68 0 -111 40t-43 106zM792 1729q0 66 42 104.5t110 38.5t110.5 -39t42.5 -104q0 -66 -43 -106t-110 -40q-68 0 -110 40t-42 106z" />
<glyph unicode="&#x179;" horiz-adv-x="1249" d="M43 121q0 66 49 127l748 944h-559q-70 0 -106 28.5t-36 84.5q0 74 39 106.5t121 32.5h817q62 0 95.5 -35t33.5 -88q0 -63 -49 -125l-747 -944h589q141 0 142 -117q0 -72 -39 -103.5t-121 -31.5h-848q-61 0 -95 34t-34 87zM680 1626q0 25 18 51l119 172q35 49 88 49 q41 0 74 -30.5t33 -69.5t-37 -74l-154 -137q-30 -28 -67 -28q-31 0 -52.5 19t-21.5 48z" />
<glyph unicode="&#x17a;" horiz-adv-x="1052" d="M45 121q0 66 49 117l514 536h-385q-63 0 -96 27.5t-33 79.5q0 125 148 125h641q57 0 91 -35t34 -86q0 -66 -52 -119l-512 -535h410q66 0 98.5 -27.5t32.5 -78.5q0 -63 -37 -94t-112 -31h-666q-57 0 -91 35t-34 86zM549 1198q0 25 14 51l131 246q41 72 111 72q49 0 86 -32 t37 -79q0 -43 -39 -88l-178 -197q-37 -43 -88 -43q-31 0 -52.5 19.5t-21.5 50.5z" />
<glyph unicode="&#x17b;" horiz-adv-x="1249" d="M43 121q0 66 49 127l748 944h-559q-70 0 -106 28.5t-36 84.5q0 74 39 106.5t121 32.5h817q62 0 95.5 -35t33.5 -88q0 -63 -49 -125l-747 -944h589q141 0 142 -117q0 -72 -39 -103.5t-121 -31.5h-848q-61 0 -95 34t-34 87zM549 1729q0 72 47 112.5t129 40.5q80 0 128 -42 t48 -111q0 -72 -47 -114t-129 -42t-129 42t-47 114z" />
<glyph unicode="&#x17c;" horiz-adv-x="1052" d="M45 121q0 66 49 117l514 536h-385q-63 0 -96 27.5t-33 79.5q0 125 148 125h641q57 0 91 -35t34 -86q0 -66 -52 -119l-512 -535h410q66 0 98.5 -27.5t32.5 -78.5q0 -63 -37 -94t-112 -31h-666q-57 0 -91 35t-34 86zM434 1346q0 72 47 112.5t129 40.5q80 0 128.5 -42 t48.5 -111q0 -72 -47.5 -114t-129.5 -42t-129 42t-47 114z" />
<glyph unicode="&#x17d;" horiz-adv-x="1249" d="M43 121q0 66 49 127l748 944h-559q-70 0 -106 28.5t-36 84.5q0 74 39 106.5t121 32.5h817q62 0 95.5 -35t33.5 -88q0 -63 -49 -125l-747 -944h589q141 0 142 -117q0 -72 -39 -103.5t-121 -31.5h-848q-61 0 -95 34t-34 87zM455 1812q0 33 28.5 57.5t65.5 24.5q55 0 88 -53 l78 -131l113 135q43 49 96 49q35 0 58.5 -19.5t23.5 -49.5q0 -35 -31 -68l-147 -158q-20 -23 -52 -35t-65 -12q-35 0 -64.5 12.5t-48.5 34.5l-121 158q-23 29 -22 55z" />
<glyph unicode="&#x17e;" horiz-adv-x="1052" d="M45 121q0 66 49 117l514 536h-385q-63 0 -96 27.5t-33 79.5q0 125 148 125h641q57 0 91 -35t34 -86q0 -66 -52 -119l-512 -535h410q66 0 98.5 -27.5t32.5 -78.5q0 -63 -37 -94t-112 -31h-666q-57 0 -91 35t-34 86zM324 1477q0 37 30.5 61.5t71.5 24.5q31 0 59.5 -17.5 t45.5 -52.5l77 -174l103 182q18 33 44.5 48.5t55.5 15.5q39 0 67.5 -26t28.5 -62q0 -33 -22 -64l-156 -215q-27 -35 -63.5 -54.5t-73.5 -19.5q-39 0 -73 19.5t-52 54.5l-129 229q-14 27 -14 50z" />
<glyph unicode="&#x192;" d="M-35 -274q0 53 43 95t115 42h27q123 0 165 160l238 813h-154q-37 0 -63.5 24.5t-26.5 61.5q0 41 31 66.5t74 25.5h192l12 45q57 207 189.5 301t292.5 94h41q63 0 97 -30.5t34 -75.5q0 -53 -43 -95.5t-115 -42.5h-27q-122 1 -165 -159l-11 -37h152q39 0 65.5 -24.5 t26.5 -63.5t-31.5 -64.5t-72.5 -25.5h-193l-240 -822q-57 -207 -190 -300t-293 -93h-41q-61 0 -95 31t-34 74z" />
<glyph unicode="&#x2c6;" horiz-adv-x="614" d="M77 1214q0 33 23 64l156 215q27 35 63.5 54.5t73.5 19.5q39 0 72.5 -19.5t52.5 -54.5l129 -229q14 -27 14 -50q0 -37 -30.5 -61.5t-69.5 -24.5q-33 0 -61.5 17.5t-45.5 54.5l-78 174l-102 -184q-18 -33 -44 -48.5t-54 -15.5q-39 0 -69 26t-30 62z" />
<glyph unicode="&#x2da;" horiz-adv-x="614" d="M151 1348q0 92 64.5 155.5t158.5 63.5t159 -63.5t65 -155.5q0 -94 -64.5 -158t-159.5 -64q-94 0 -158.5 63.5t-64.5 158.5zM286 1348q0 -41 24.5 -68t63.5 -27t63.5 27t24.5 68q0 39 -24.5 65.5t-63.5 26.5t-63.5 -27t-24.5 -65z" />
<glyph unicode="&#x2dc;" horiz-adv-x="614" d="M18 1278q0 51 29.5 103.5t79 87t104.5 34.5q47 0 85 -16.5t87 -46.5q41 -25 65.5 -36t49.5 -11q29 0 47 14t39 43q20 25 35.5 37t37.5 12q53 0 54 -80q0 -51 -30 -103t-80 -86t-105 -34q-47 0 -85 16.5t-87 47.5q-43 25 -64.5 35t-46.5 10q-29 0 -48.5 -14.5t-41.5 -43.5 q-18 -25 -33.5 -37t-38.5 -12q-27 0 -40 21.5t-13 58.5z" />
<glyph unicode="&#x3a9;" horiz-adv-x="1662" d="M66 121q0 70 39.5 102.5t121.5 32.5h189q-115 172 -176.5 280.5t-87 192.5t-25.5 170q0 170 92 298t263 197.5t405 69.5q221 0 383 -61.5t247 -178t85 -278.5q0 -100 -47.5 -203.5t-126 -211t-218.5 -275.5h187q69 0 105 -29.5t36 -85.5q0 -74 -40 -107.5t-120 -33.5 h-372q-59 0 -92 33t-33 86q0 66 45 129q145 215 220 339t104.5 202.5t29.5 150.5q0 133 -101.5 203.5t-291.5 70.5q-213 0 -327 -86t-114 -243q0 -90 54.5 -227.5t197.5 -407.5q29 -57 29 -107q0 -63 -40 -103t-107 -40h-373q-70 0 -105.5 30.5t-35.5 90.5z" />
<glyph unicode="&#x3c0;" horiz-adv-x="1261" d="M10 883q0 123 148 123h964q63 0 96 -29t33 -80q0 -123 -147 -123h-103l-34 -428q-10 -123 125 -131q53 -4 83.5 -32.5t30.5 -67.5q0 -49 -51 -87t-147 -38q-170 0 -259.5 80t-89.5 256q0 41 3 61l30 387h-151q-23 -201 -60 -366.5t-100 -319.5q-20 -51 -62.5 -77.5 t-93.5 -26.5q-59 0 -104 36.5t-45 96.5q0 25 8 49q113 311 152 608h-95q-66 0 -98.5 28.5t-32.5 80.5z" />
<glyph unicode="&#x2000;" horiz-adv-x="998" />
<glyph unicode="&#x2001;" horiz-adv-x="1997" />
<glyph unicode="&#x2002;" horiz-adv-x="998" />
<glyph unicode="&#x2003;" horiz-adv-x="1997" />
<glyph unicode="&#x2004;" horiz-adv-x="665" />
<glyph unicode="&#x2005;" horiz-adv-x="499" />
<glyph unicode="&#x2006;" horiz-adv-x="332" />
<glyph unicode="&#x2007;" horiz-adv-x="332" />
<glyph unicode="&#x2008;" horiz-adv-x="249" />
<glyph unicode="&#x2009;" horiz-adv-x="399" />
<glyph unicode="&#x200a;" horiz-adv-x="110" />
<glyph unicode="&#x2010;" horiz-adv-x="901" d="M109 541q0 129 153 129h404q66 0 100.5 -31t34.5 -82q0 -129 -156 -129h-401q-66 0 -100.5 30.5t-34.5 82.5z" />
<glyph unicode="&#x2011;" horiz-adv-x="901" d="M109 541q0 129 153 129h404q66 0 100.5 -31t34.5 -82q0 -129 -156 -129h-401q-66 0 -100.5 30.5t-34.5 82.5z" />
<glyph unicode="&#x2012;" horiz-adv-x="901" d="M109 541q0 129 153 129h404q66 0 100.5 -31t34.5 -82q0 -129 -156 -129h-401q-66 0 -100.5 30.5t-34.5 82.5z" />
<glyph unicode="&#x2013;" horiz-adv-x="1024" d="M4 547q0 41 34 66.5t91 25.5h791q49 0 78.5 -24.5t29.5 -63.5q0 -41 -32.5 -66.5t-90.5 -25.5h-790q-49 0 -80 25.5t-31 62.5z" />
<glyph unicode="&#x2014;" horiz-adv-x="2048" d="M4 547q0 41 34 66.5t91 25.5h1815q49 0 78.5 -24.5t29.5 -63.5q0 -41 -32.5 -66.5t-90.5 -25.5h-1814q-49 0 -80 25.5t-31 62.5z" />
<glyph unicode="&#x2018;" horiz-adv-x="532" d="M135 1030q0 109 49 211t133 182q33 31 68 31q33 0 56.5 -22.5t23.5 -53.5t-27 -57q-72 -72 -100 -158q68 -8 104.5 -51t36.5 -111q0 -86 -50 -132t-124 -46q-82 0 -126 52.5t-44 154.5z" />
<glyph unicode="&#x2019;" horiz-adv-x="532" d="M154 1276q0 86 50 132t124 46q82 0 126 -52t44 -155q0 -109 -49.5 -211t-133.5 -182q-33 -31 -67 -31q-33 0 -56.5 22.5t-23.5 53.5t27 59q74 74 100 156q-66 8 -103.5 52t-37.5 110z" />
<glyph unicode="&#x201a;" horiz-adv-x="532" d="M66 162q0 86 50 132t124 46q82 0 126 -52t44 -155q0 -109 -49.5 -211t-133.5 -182q-29 -29 -67 -29q-33 0 -56.5 22.5t-23.5 51.5q0 31 26 57q72 72 101 158q-68 8 -104.5 51t-36.5 111z" />
<glyph unicode="&#x201c;" horiz-adv-x="956" d="M135 1030q0 109 49 211t133 182q33 31 68 31q33 0 56.5 -22.5t23.5 -53.5t-27 -57q-72 -72 -100 -158q68 -8 104.5 -51t36.5 -111q0 -86 -50 -132t-124 -46q-82 0 -126 52.5t-44 154.5zM559 1030q0 109 49 211t133 182q33 31 68 31q33 0 56.5 -22.5t23.5 -53.5t-27 -57 q-72 -72 -100 -158q68 -8 104.5 -51t36.5 -111q0 -86 -50 -132t-124 -46q-82 0 -126 52.5t-44 154.5z" />
<glyph unicode="&#x201d;" horiz-adv-x="956" d="M154 1276q0 86 50 132t124 46q82 0 126 -52t44 -155q0 -109 -49.5 -211t-133.5 -182q-33 -31 -67 -31q-33 0 -56.5 22.5t-23.5 53.5t27 59q74 74 100 156q-66 8 -103.5 52t-37.5 110zM578 1276q0 86 50 132t124 46q82 0 126 -52t44 -155q0 -109 -49.5 -211t-133.5 -182 q-33 -31 -67 -31q-33 0 -56.5 22.5t-23.5 53.5t27 59q74 74 100 156q-66 8 -103.5 52t-37.5 110z" />
<glyph unicode="&#x201e;" horiz-adv-x="956" d="M66 162q0 86 50 132t124 46q82 0 126 -52t44 -155q0 -109 -49.5 -211t-133.5 -182q-29 -29 -67 -29q-33 0 -56.5 22.5t-23.5 51.5q0 31 26 57q72 72 101 158q-68 8 -104.5 51t-36.5 111zM490 162q0 86 50 132t124 46q82 0 126 -52t44 -155q0 -109 -49.5 -211t-133.5 -182 q-29 -29 -67 -29q-33 0 -56.5 22.5t-23.5 51.5q0 31 26 57q72 72 101 158q-68 8 -104.5 51t-36.5 111z" />
<glyph unicode="&#x2026;" horiz-adv-x="1595" d="M66 164q0 76 49 126t125 50t125 -50t49 -126t-49.5 -126t-124.5 -50q-76 0 -125 50t-49 126zM598 164q0 76 49 126t125 50q74 0 123 -50t49 -126t-49 -126t-123 -50q-76 0 -125 50t-49 126zM1128 164q0 76 50.5 126t124.5 50q76 0 125 -50t49 -126t-49.5 -126t-124.5 -50 q-74 0 -124.5 50t-50.5 126z" />
<glyph unicode="&#x202f;" horiz-adv-x="399" />
<glyph unicode="&#x2030;" horiz-adv-x="2772" d="M115 985q0 225 102 354t283 129q176 0 272 -104t96 -297q0 -229 -101 -355t-284 -126q-176 0 -272 103.5t-96 295.5zM369 958q0 -94 26.5 -137t85.5 -43q133 1 133 318q0 92 -27.5 135t-86.5 43q-68 0 -99.5 -79t-31.5 -237zM449 57q0 37 22 70l860 1305q39 59 101 59 q45 0 78.5 -30.5t33.5 -74.5q0 -35 -22 -69l-863 -1305q-39 -59 -100 -59q-45 0 -77.5 30.5t-32.5 73.5zM1122 387q0 225 101.5 353t281.5 128q176 0 272.5 -104.5t96.5 -296.5q0 -229 -100.5 -355t-282.5 -126q-178 0 -273.5 103.5t-95.5 297.5zM1374 358q0 -94 28 -137 t87 -43q133 1 133 318q0 92 -27.5 136t-87.5 44q-70 0 -101.5 -80t-31.5 -238zM1942 387q0 225 101 353t281 128q176 0 272.5 -104.5t96.5 -296.5q0 -229 -100.5 -355t-282.5 -126q-178 0 -273 103.5t-95 297.5zM2193 358q0 -94 28 -137t87 -43q66 0 98.5 82t32.5 236 q0 92 -27.5 136t-84.5 44q-70 0 -102 -80t-32 -238z" />
<glyph unicode="&#x2039;" horiz-adv-x="620" d="M111 537q0 49 39 100l176 248q47 63 116 63q45 0 77 -27.5t32 -70.5q0 -35 -21 -70l-133 -233l92 -236q10 -23 11 -53q0 -49 -36 -82t-83 -33q-33 0 -61.5 16.5t-47.5 49.5l-137 246q-25 43 -24 82z" />
<glyph unicode="&#x203a;" horiz-adv-x="608" d="M76 242q0 35 20 69l133 234l-92 233q-10 23 -10 53q0 51 37 84t84 33q31 0 59.5 -16.5t46.5 -48.5l138 -246q25 -43 24 -82q0 -51 -39 -102l-176 -246q-47 -64 -117 -64q-45 0 -76.5 28t-31.5 71z" />
<glyph unicode="&#x2044;" horiz-adv-x="409" d="M-322 59q0 39 25 74l850 1294q41 63 104 64q45 0 78 -30.5t33 -76.5q0 -37 -25 -73l-852 -1295q-41 -63 -104 -63q-43 0 -76 30.5t-33 75.5z" />
<glyph unicode="&#x205f;" horiz-adv-x="499" />
<glyph unicode="&#x20ac;" d="M18 563q0 41 31 68.5t76 27.5h90q0 66 6 127h-88q-39 0 -64.5 27t-25.5 66q0 41 30.5 68.5t76.5 27.5h104q61 233 209.5 360t363.5 127q231 0 398 -137q45 -37 45 -92q0 -53 -38 -96t-91 -43q-37 0 -76 26q-66 47 -121 67.5t-117 20.5q-184 0 -256 -233h236 q39 0 64.5 -26.5t25.5 -65.5q0 -41 -29.5 -69t-74.5 -28h-258q-4 -41 -9 -127h256q39 0 64.5 -26.5t25.5 -65.5q0 -41 -29.5 -68.5t-74.5 -27.5h-233q18 -121 74.5 -178t156.5 -57q57 0 116.5 22.5t137.5 73.5q33 20 65 20q45 0 76 -35.5t31 -85.5q0 -66 -59 -110 q-92 -68 -192.5 -103.5t-199.5 -35.5q-209 0 -343 128t-171 361h-118q-39 0 -65 26.5t-26 65.5z" />
<glyph unicode="&#x2122;" horiz-adv-x="1935" d="M66 1327q0 59 34.5 88t106.5 29h551q123 -1 123 -105q0 -121 -142 -120h-135l-41 -514q-4 -63 -48 -98.5t-103 -35.5q-57 0 -95 35t-34 99l41 514h-136q-63 0 -92.5 28.5t-29.5 79.5zM922 709l47 612q6 63 48 98t95 35q74 0 115 -90l162 -363l221 363q55 90 135 90 q53 0 88 -35t29 -98l-47 -612q-12 -137 -132 -138q-57 0 -86.5 34t-25.5 104l20 252l-100 -166q-31 -49 -57.5 -68.5t-65.5 -19.5t-63.5 20.5t-47.5 67.5l-73 163l-19 -249q-12 -137 -133 -138q-57 0 -87 35t-23 103z" />
<glyph unicode="&#x2202;" d="M51 457q0 166 63.5 295t176 201.5t258.5 72.5q96 0 171 -31.5t120 -93.5q6 211 -104.5 323.5t-311.5 112.5h-35q-55 0 -84 29t-29 72q0 39 20.5 71.5t55.5 46.5q39 16 73 20.5t87 4.5q303 0 471 -199.5t168 -566.5q0 -262 -71.5 -453.5t-207 -294t-319.5 -102.5 q-236 0 -369 130t-133 362zM365 465q0 -115 52 -183.5t144 -68.5q103 0 168.5 84t65.5 233q0 113 -52.5 178.5t-142.5 65.5q-106 0 -170.5 -80t-64.5 -229z" />
<glyph unicode="&#x2206;" horiz-adv-x="1662" d="M66 121q0 70 39.5 102.5t121.5 32.5h189q-115 172 -176.5 280.5t-87 192.5t-25.5 170q0 170 92 298t263 197.5t405 69.5q221 0 383 -61.5t247 -178t85 -278.5q0 -100 -47.5 -203.5t-126 -211t-218.5 -275.5h187q69 0 105 -29.5t36 -85.5q0 -74 -40 -107.5t-120 -33.5 h-372q-59 0 -92 33t-33 86q0 66 45 129q145 215 220 339t104.5 202.5t29.5 150.5q0 133 -101.5 203.5t-291.5 70.5q-213 0 -327 -86t-114 -243q0 -90 54.5 -227.5t197.5 -407.5q29 -57 29 -107q0 -63 -40 -103t-107 -40h-373q-70 0 -105.5 30.5t-35.5 90.5z" />
<glyph unicode="&#x220f;" d="M57 -236l121 1536q6 63 49 103.5t107 40.5h713q63 0 100 -40t31 -104l-121 -1536q-4 -63 -48 -103t-108 -40q-61 0 -98 41t-33 102l113 1430h-428l-113 -1430q-4 -63 -48 -103t-106 -40q-61 0 -98 40t-33 103z" />
<glyph unicode="&#x2211;" horiz-adv-x="1239" d="M6 -250q0 63 49 129l529 676l-424 641q-33 47 -33 102q0 61 42 103.5t110 42.5h817q139 0 139 -119q0 -70 -39 -103.5t-121 -33.5h-563l332 -516q43 -68 43 -121q0 -63 -64 -145l-409 -519h557q141 0 141 -118q0 -70 -39 -104t-121 -34h-817q-61 0 -95 33t-34 86z" />
<glyph unicode="&#x221a;" d="M20 584q0 47 33 77.5t80 30.5h195q35 0 59.5 -19.5t30.5 -54.5l125 -669l450 1444q14 41 47 62.5t72 21.5q41 0 69.5 -21.5t28.5 -58.5q0 -14 -6 -33l-512 -1606q-29 -90 -68.5 -129t-103.5 -39q-61 0 -95 38t-50 124l-150 729h-106q-43 0 -71 30t-28 73z" />
<glyph unicode="&#x221e;" d="M68 547q0 170 86 278.5t239 108.5q72 0 136.5 -36t105.5 -120q94 156 252 156q131 0 209 -86t78 -227q0 -184 -87.5 -288t-238.5 -104q-70 0 -134.5 36t-107.5 118q-96 -154 -250 -154q-131 0 -209.5 86t-78.5 232zM258 563q0 -68 34 -110.5t91 -42.5q109 0 170 174 q-18 88 -62.5 129t-97.5 41q-66 0 -100.5 -54.5t-34.5 -136.5zM688 584q20 -88 64.5 -131t97.5 -43q65 0 100 55t35 141q0 63 -35 105.5t-90 42.5q-109 0 -172 -170z" />
<glyph unicode="&#x222b;" d="M125 -262q0 51 35 88t86 37h28q68 0 106 41t44 119l84 1036q14 193 131 294t326 101q147 0 147 -119q0 -51 -35 -88t-86 -37h-28q-68 0 -106 -41t-44 -118l-84 -1037q-14 -193 -132 -293t-327 -100q-73 0 -109 32t-36 85z" />
<glyph unicode="&#x2248;" d="M123 348q0 29 22 64q47 68 115 104.5t139 36.5q61 0 118.5 -21.5t131.5 -60.5q53 -29 89 -43t67 -14q59 0 96 37q49 49 100 49q37 0 61.5 -24.5t24.5 -59.5t-22 -64q-49 -66 -115.5 -102.5t-140.5 -36.5q-59 0 -114.5 21.5t-131.5 60.5q-57 31 -92 45t-65 14 q-61 0 -99 -39q-47 -49 -98 -49q-35 0 -60.5 23.5t-25.5 58.5zM152 758q0 29 22 63q47 68 114.5 105t139.5 37q59 0 116.5 -21.5t131.5 -60.5q55 -29 91 -43.5t69 -14.5q57 0 94 37q49 49 100 49q37 0 61.5 -24.5t24.5 -59.5t-22 -63q-49 -66 -116 -102.5t-140 -36.5 q-60 0 -115 21.5t-131 60.5q-57 31 -92 45t-66 14q-59 0 -98 -39q-47 -49 -98 -49q-35 0 -60.5 23.5t-25.5 58.5z" />
<glyph unicode="&#x2260;" d="M104 377q0 47 33 78.5t80 31.5h240l98 199h-319q-43 0 -71 28.5t-28 71.5q0 47 33 79t80 32h409l84 170q16 31 43 48.5t58 17.5q18 0 43 -11q57 -25 57 -86q0 -27 -12 -51l-43 -88h149q43 0 71 -28.5t28 -71.5q0 -47 -34 -79t-81 -32h-238l-98 -199h320q43 0 70.5 -28.5 t27.5 -71.5q0 -47 -33 -79t-80 -32h-409l-84 -167q-14 -31 -42 -48.5t-59 -17.5q-23 0 -41 8q-27 12 -42 36t-15 52q0 25 12 51l43 86h-151q-43 0 -71 29t-28 72z" />
<glyph unicode="&#x2264;" d="M84 100q0 47 33 79t80 32h788q43 0 70.5 -29.5t27.5 -72.5q0 -47 -32.5 -78t-81.5 -31h-787q-43 0 -70.5 28.5t-27.5 71.5zM133 688q0 51 30 92t77 56l778 233q20 4 31 4q43 0 72.5 -30.5t29.5 -73.5q0 -33 -21.5 -59.5t-54.5 -37.5l-631 -182l584 -174 q35 -10 56.5 -38.5t21.5 -65.5q0 -47 -28.5 -77t-73.5 -30q-18 0 -39 6l-727 228q-45 14 -75 56t-30 93z" />
<glyph unicode="&#x2265;" d="M84 100q0 47 33 79t80 32h788q43 0 70.5 -29.5t27.5 -72.5q0 -47 -32.5 -78t-81.5 -31h-787q-43 0 -70.5 28.5t-27.5 71.5zM113 412q0 35 21.5 61.5t53.5 36.5l631 180l-583 176q-35 10 -56.5 38t-21.5 65q0 47 30.5 76.5t77.5 29.5q8 0 33 -4l727 -229q45 -15 74.5 -57 t29.5 -93t-30.5 -92t-77.5 -55l-778 -232q-10 -4 -31 -4q-43 0 -71.5 31t-28.5 72z" />
<glyph unicode="&#x25fc;" horiz-adv-x="1024" d="M0 0v1024h1024v-1024h-1024z" />
</font>
</defs>
</svg>
