<?xml version="1.0" standalone="no"?>
<!DOCTYPE svg PUBLIC "-//W3C//DTD SVG 1.1//EN" "http://www.w3.org/Graphics/SVG/1.1/DTD/svg11.dtd" >
<svg xmlns="http://www.w3.org/2000/svg" xmlns:xlink="http://www.w3.org/1999/xlink" version="1.1">
<metadata>
Created by FontForge 20170924 at Thu Jul 21 23:22:34 2016
 By www-data
Copyright \251 2015 by Radomir Tinkov. All rights reserved.
</metadata>
<defs>
<font id="Gilroy-SemiboldItalic" horiz-adv-x="580" >
  <font-face 
    font-family="Gilroy"
    font-weight="600"
    font-style="italic"
    font-stretch="normal"
    units-per-em="1000"
    panose-1="0 0 9 0 0 0 0 0 0 0"
    ascent="773"
    descent="-227"
    x-height="500"
    cap-height="700"
    bbox="-394 -270 1109.36 980"
    underline-thickness="50"
    underline-position="-100"
    slope="-10"
    unicode-range="U+0020-FB02"
  />
<missing-glyph horiz-adv-x="500" 
d="M93 800h317v-1000h-317v1000zM333 700v33h-165v-33h65v-37h-66v-33h166v33h-66v37h66zM267 534v70h-100v-104h166v34h-66zM200 570h33v-36h-33v36zM333 440v33h-166v-33h66v-37h-66v-33h100v70h66zM333 313v100h-33v-66h-133v-34h166zM333 178v113h-100v-56h34v23h33v-47
h-100v80h-33v-113h166zM333 5v113h-166v-113h166zM200 85h100v-47h-100v47zM333 -51v33h-166v-33h70l-70 -47v-33h166v33h-102l70 47h32z" />
    <glyph glyph-name="fi" unicode="fi" horiz-adv-x="570" 
d="M281 500h278l-88 -500h-150l63 356h-128l-63 -356h-150l63 356h-67l25 144h67c25 149 114 214 281 214c39 0 79 -5 122 -14l-24 -138c-29 5 -63 8 -100 8c-78 0 -121 -23 -129 -70z" />
    <glyph glyph-name="fl" unicode="fl" horiz-adv-x="570" 
d="M412 714c52 0 112 -8 181 -24l-122 -690h-150l102 583c-7 1 -19 1 -34 1c-63 0 -99 -28 -108 -84h73l-25 -144h-73l-63 -356h-150l63 356h-67l25 144h67c25 149 114 214 281 214z" />
    <glyph glyph-name="f_f" unicode="ff" horiz-adv-x="610" 
d="M694 724l-26 -144c-61 5 -96 -18 -105 -70l-2 -10h93l-25 -144h-93l-63 -356h-150l63 356h-130l-63 -356h-150l63 356h-67l25 144h67c27 153 120 224 281 214l-25 -144c-62 5 -97 -18 -106 -70h130l2 10c27 153 120 224 281 214z" />
    <glyph glyph-name="f_f_i" unicode="ffi" horiz-adv-x="850" 
d="M561 500h278l-88 -500h-150l63 356h-128l-63 -356h-150l63 356h-130l-63 -356h-150l63 356h-67l25 144h67c27 153 120 224 281 214l-25 -144c-62 5 -97 -18 -106 -70h130l2 10c25 148 112 214 271 214c45 0 89 -5 132 -14l-24 -138c-29 5 -63 8 -100 8
c-78 0 -121 -23 -129 -70z" />
    <glyph glyph-name="f_f_l" unicode="ffl" horiz-adv-x="850" 
d="M694 724c52 0 112 -8 180 -24l-123 -700h-150l104 593c-7 1 -19 1 -34 1c-63 0 -99 -28 -108 -84l-2 -10h73l-25 -144h-73l-63 -356h-150l63 356h-130l-63 -356h-150l63 356h-67l25 144h67c27 153 120 224 281 214l-25 -144c-62 5 -97 -18 -106 -70h130l2 10
c25 149 114 214 281 214z" />
    <glyph glyph-name=".notdef" horiz-adv-x="500" 
d="M93 800h317v-1000h-317v1000zM333 700v33h-165v-33h65v-37h-66v-33h166v33h-66v37h66zM267 534v70h-100v-104h166v34h-66zM200 570h33v-36h-33v36zM333 440v33h-166v-33h66v-37h-66v-33h100v70h66zM333 313v100h-33v-66h-133v-34h166zM333 178v113h-100v-56h34v23h33v-47
h-100v80h-33v-113h166zM333 5v113h-166v-113h166zM200 85h100v-47h-100v47zM333 -51v33h-166v-33h70l-70 -47v-33h166v33h-102l70 47h32z" />
    <glyph glyph-name="NULL" horiz-adv-x="0" 
 />
    <glyph glyph-name="CR" horiz-adv-x="333" 
 />
    <glyph glyph-name="space" unicode=" " horiz-adv-x="250" 
 />
    <glyph glyph-name="exclam" unicode="!" horiz-adv-x="280" 
d="M200 250h-120l14 250l35 200h180l-35 -200zM93 -14c-52 0 -87 45 -78 97s56 93 112 93c52 0 87 -45 78 -97c-9 -53 -55 -93 -112 -93z" />
    <glyph glyph-name="quotedbl" unicode="&#x22;" horiz-adv-x="400" 
d="M197 460h-100l22 240h140zM377 460h-100l22 240h140z" />
    <glyph glyph-name="numbersign" unicode="#" horiz-adv-x="621" 
d="M645 500l-37 -110h-105l-28 -80h106l-37 -110h-106l-52 -150h-114l52 150h-92l-52 -150h-114l52 150h-107l38 110h106l28 80h-107l37 110h108l51 150h114l-51 -150h92l51 150h114l-51 -150h104zM269 310h92l28 80h-92z" />
    <glyph glyph-name="dollar" unicode="$" horiz-adv-x="559" 
d="M376 547l-23 -131c59 -27 99 -49 119 -66c49 -41 68 -97 55 -169c-21 -120 -117 -187 -250 -194l-15 -87h-70l16 89c-107 13 -181 72 -206 160l146 75c15 -45 44 -72 87 -81l25 143h-1l-1 1c-59 25 -94 45 -131 81s-50 88 -39 152c11 62 40 110 87 143s101 50 161 51
l15 86h70l-17 -94c73 -17 132 -67 161 -140l-141 -74c-13 25 -29 44 -48 55zM251 507c-3 -22 9 -42 38 -59l19 111c-32 -5 -53 -24 -57 -52zM362 199c4 23 -8 43 -37 58l-20 -113c32 9 51 27 57 55z" />
    <glyph glyph-name="percent" unicode="%" horiz-adv-x="784" 
d="M241 374c-51 0 -90 17 -117 50c-27 34 -38 73 -32 118c6 47 27 87 62 121s81 51 137 51c53 0 93 -19 120 -57s36 -80 26 -127c-20 -88 -92 -156 -196 -156zM161 69l-64 42l539 501l64 -41zM318 544c5 32 -11 55 -43 55c-31 0 -57 -24 -62 -55c-7 -31 11 -55 42 -55
s58 26 63 55zM530 -12c-51 0 -91 17 -118 52s-37 76 -30 121c7 46 28 85 63 118s80 49 135 49c51 0 91 -19 118 -56c28 -37 37 -79 28 -124s-31 -83 -66 -114c-34 -31 -77 -46 -130 -46zM607 158c5 32 -11 55 -43 55c-31 0 -55 -23 -62 -55c-7 -31 11 -55 42 -55
s58 26 63 55z" />
    <glyph glyph-name="ampersand" unicode="&#x26;" horiz-adv-x="691" 
d="M521 367l131 -80c-27 -59 -59 -109 -94 -151l75 -104l-135 -71l-55 76c-58 -34 -122 -51 -193 -51c-77 0 -136 21 -176 64c-39 43 -53 96 -41 159c17 83 67 147 152 192c-18 39 -23 80 -16 123c10 59 38 105 83 139c46 34 101 51 166 51c112 0 185 -51 219 -153l-146 -77
c-16 49 -45 74 -87 74c-40 0 -73 -22 -78 -62c-4 -32 8 -55 39 -96l104 -143c19 31 36 68 52 110zM286 132c26 0 51 6 75 17l-100 137l-8 11c-32 -21 -51 -48 -57 -81c-8 -48 23 -84 90 -84z" />
    <glyph glyph-name="quotesingle" unicode="'" horiz-adv-x="220" 
d="M197 460h-100l22 240h140z" />
    <glyph glyph-name="parenleft" unicode="(" horiz-adv-x="320" 
d="M248 -100h-150c-48 143 -58 297 -29 460c27 153 89 300 188 440h150c-199 -292 -252 -608 -159 -900z" />
    <glyph glyph-name="parenright" unicode=")" horiz-adv-x="319" 
d="M107 800h150c48 -143 58 -297 29 -460c-27 -153 -89 -300 -188 -440h-150c199 292 252 608 159 900z" />
    <glyph glyph-name="asterisk" unicode="*" horiz-adv-x="400" 
d="M322 599l91 9l-15 -88l-89 9l43 -69l-77 -46l-27 85l-57 -85l-69 46l67 69l-91 -9l15 88l89 -9l-43 69l77 46l27 -85l57 85l69 -46z" />
    <glyph glyph-name="plus" unicode="+" horiz-adv-x="560" 
d="M380 420h160l-25 -140h-160l-28 -160h-140l28 160h-160l25 140h160l28 160h140z" />
    <glyph glyph-name="comma" unicode="," horiz-adv-x="290" 
d="M68 155h160l-132 -295h-120z" />
    <glyph glyph-name="hyphen" unicode="-" horiz-adv-x="500" 
d="M436 227h-380l25 144h380z" />
    <glyph glyph-name="period" unicode="." horiz-adv-x="280" 
d="M93 -14c-52 0 -86 45 -77 97c9 53 56 93 111 93c52 0 87 -45 78 -97c-9 -53 -55 -93 -112 -93z" />
    <glyph glyph-name="slash" unicode="/" horiz-adv-x="520" 
d="M587 800l-554 -900h-65l554 900h65z" />
    <glyph glyph-name="zero" unicode="0" horiz-adv-x="630" 
d="M279 -14c-91 0 -157 35 -198 104c-41 70 -51 160 -32 270c19 109 59 196 118 259s133 95 220 95c91 0 156 -35 197 -105c41 -69 51 -159 32 -269c-19 -109 -59 -196 -118 -259s-132 -95 -219 -95zM296 142c82 0 135 69 160 208s-4 208 -87 208c-82 0 -135 -69 -160 -208
s4 -208 87 -208z" />
    <glyph glyph-name="one" unicode="1" horiz-adv-x="404" 
d="M78 634l195 66h140l-123 -700h-160l92 525l-129 -34z" />
    <glyph glyph-name="two" unicode="2" horiz-adv-x="534" 
d="M455 0h-476l20 116l278 244c56 49 87 91 93 124c8 44 -15 74 -58 74s-81 -26 -114 -79l-128 82c63 101 158 153 263 153c63 0 114 -22 155 -66c41 -43 55 -99 43 -167c-15 -80 -57 -139 -138 -210l-136 -117h225z" />
    <glyph glyph-name="three" unicode="3" horiz-adv-x="550" 
d="M121 700h450l-22 -130l-147 -158c80 -37 127 -111 111 -202c-13 -73 -45 -129 -98 -167c-52 -38 -114 -57 -186 -57c-111 0 -196 50 -229 150l147 78c15 -48 42 -72 99 -72c63 0 99 31 107 78s-16 78 -79 78h-34l-45 91l149 161h-249z" />
    <glyph glyph-name="four" unicode="4" 
d="M502 260h70l-26 -148h-70l-20 -112h-162l20 112h-318l26 148l292 440h180l-293 -440h139l26 150h162z" />
    <glyph glyph-name="five" unicode="5" horiz-adv-x="549" 
d="M568 700l-26 -150h-251l-24 -96h53c64 0 116 -22 156 -67s54 -104 41 -177s-45 -129 -97 -167s-113 -57 -182 -57c-121 0 -200 50 -238 150l148 77c16 -47 52 -71 107 -71c59 0 94 33 102 78c8 47 -17 78 -74 78h-219l99 402h405z" />
    <glyph glyph-name="six" unicode="6" horiz-adv-x="560" 
d="M546 700l-192 -223c62 -10 110 -39 145 -87c35 -47 47 -103 36 -167c-13 -73 -45 -130 -98 -173c-52 -43 -116 -64 -193 -64s-137 25 -180 74s-58 110 -45 183c11 59 35 109 72 149l263 308h192zM294 330c-56 0 -104 -37 -115 -97s25 -97 81 -97c55 0 104 38 115 97
s-26 97 -81 97z" />
    <glyph glyph-name="seven" unicode="7" horiz-adv-x="490" 
d="M62 546l27 154h460l-23 -134l-320 -566h-178l309 546h-275z" />
    <glyph glyph-name="eight" unicode="8" horiz-adv-x="574" 
d="M565 500c-11 -61 -42 -107 -95 -140c55 -43 76 -101 63 -173c-23 -128 -124 -201 -284 -201c-80 0 -141 21 -182 62s-56 94 -45 159c12 71 53 126 122 163c-41 35 -56 83 -45 142c11 65 41 115 90 150s107 52 174 52c66 0 119 -19 159 -58s54 -91 43 -156zM285 545
c-31 -25 -38 -73 -17 -98c23 -25 75 -25 106 0c32 25 40 73 17 98c-11 13 -27 19 -49 19s-41 -6 -57 -19zM340 158c21 15 33 36 38 62s-1 46 -16 61s-36 23 -65 23s-53 -8 -74 -23s-33 -35 -38 -61s1 -47 16 -62s37 -22 66 -22s53 7 73 22z" />
    <glyph glyph-name="nine" unicode="9" horiz-adv-x="560" 
d="M351 714c77 0 137 -25 180 -74s58 -110 45 -183c-11 -59 -35 -109 -72 -149l-263 -308h-192l192 224c-62 10 -111 39 -146 86s-46 103 -35 167c13 73 45 130 97 173c53 43 117 64 194 64zM301 370c56 0 104 37 115 97s-25 97 -81 97c-55 0 -104 -38 -115 -97
s26 -97 81 -97z" />
    <glyph glyph-name="colon" unicode=":" horiz-adv-x="280" 
d="M153 326c-52 0 -86 45 -77 97c9 53 56 93 111 93c52 0 87 -45 78 -97c-9 -53 -55 -93 -112 -93zM93 -14c-52 0 -86 45 -77 97c9 53 56 93 111 93c52 0 87 -45 78 -97c-9 -53 -55 -93 -112 -93z" />
    <glyph glyph-name="semicolon" unicode=";" horiz-adv-x="290" 
d="M163 326c-52 0 -86 45 -77 97c9 53 56 93 111 93c52 0 87 -45 78 -97c-9 -53 -55 -93 -112 -93zM68 155h160l-132 -295h-120z" />
    <glyph glyph-name="less" unicode="&#x3c;" horiz-adv-x="530" 
d="M69 415l485 195l-29 -162l-298 -106l261 -106l-26 -146l-416 195l12 65z" />
    <glyph glyph-name="equal" unicode="=" horiz-adv-x="520" 
d="M503 385h-439l25 140h439zM466 175h-439l25 140h439z" />
    <glyph glyph-name="greater" unicode="&#x3e;" horiz-adv-x="530" 
d="M78 464l26 146l415 -195l-11 -65l-12 -65l-484 -195l29 162l299 106z" />
    <glyph glyph-name="question" unicode="?" horiz-adv-x="560" 
d="M350 250h-160c9 61 59 115 103 143c45 29 92 68 99 107c7 35 -15 58 -54 58c-60 0 -96 -32 -125 -88l-130 83c51 101 157 161 274 161c65 0 117 -19 156 -58s53 -89 42 -152c-9 -55 -44 -103 -81 -135c-53 -45 -118 -81 -124 -119zM223 -14c-52 0 -86 45 -77 97
c9 53 56 93 111 93c52 0 87 -45 78 -97c-9 -53 -55 -93 -112 -93z" />
    <glyph glyph-name="at" unicode="@" horiz-adv-x="774" 
d="M454 612c71 0 130 -18 179 -54c99 -71 133 -183 113 -296c-25 -139 -102 -211 -201 -211c-61 0 -106 29 -121 76c-29 -28 -64 -42 -104 -42c-41 0 -73 17 -95 50c-22 34 -29 75 -20 123c9 47 28 84 58 113s64 44 101 44c38 0 68 -14 90 -43l6 31h122l-42 -236
c-7 -44 8 -66 45 -66c56 0 103 58 123 169c15 86 -2 158 -51 217s-118 89 -205 89c-91 0 -174 -31 -247 -94s-118 -140 -135 -232c-17 -94 2 -172 56 -234c54 -61 130 -92 229 -92c59 0 114 8 163 24l-7 -38c-48 -15 -102 -22 -161 -22c-109 0 -195 36 -256 107
s-82 158 -63 263c17 101 66 185 147 252c81 68 173 102 276 102zM371 193c31 0 54 24 61 57c7 35 -10 57 -41 57c-32 0 -55 -22 -62 -57c-7 -33 10 -57 42 -57z" />
    <glyph glyph-name="A" unicode="A" horiz-adv-x="680" 
d="M636 0h-175l-14 110h-260l-56 -110h-175l361 700h204zM396 525l-134 -265h167z" />
    <glyph glyph-name="B" unicode="B" horiz-adv-x="600" 
d="M598 495c-9 -58 -37 -103 -84 -136c47 -37 66 -90 57 -159c-16 -120 -110 -200 -271 -200h-284l123 700h264c63 0 114 -19 152 -58c38 -38 52 -87 43 -147zM382 550h-109l-22 -124h109c40 0 70 25 77 62c7 35 -12 62 -55 62zM355 284h-129l-24 -134h129c44 0 76 27 83 67
s-15 67 -59 67z" />
    <glyph glyph-name="C" unicode="C" horiz-adv-x="723" 
d="M359 -14c-107 0 -189 36 -248 109s-79 161 -62 265c17 103 65 187 142 254c78 67 169 100 273 100c133 0 231 -60 278 -163l-147 -77c-27 56 -77 84 -148 84c-61 0 -113 -19 -157 -57c-43 -38 -70 -88 -81 -151c-11 -62 -1 -112 28 -151c29 -38 73 -57 131 -57
c77 0 137 30 182 89l130 -85c-76 -100 -193 -160 -321 -160z" />
    <glyph glyph-name="D" unicode="D" horiz-adv-x="712" 
d="M139 700h280c92 0 166 -35 221 -106c56 -71 75 -155 58 -254s-63 -181 -138 -245c-75 -63 -163 -95 -264 -95h-280zM544 355c21 119 -40 191 -152 191h-120l-69 -392h110c59 0 110 18 152 55s68 85 79 146z" />
    <glyph glyph-name="E" unicode="E" horiz-adv-x="530" 
d="M574 700l-27 -154h-275l-21 -117h251l-27 -150h-250l-22 -125h280l-27 -154h-440l123 700h435z" />
    <glyph glyph-name="F" unicode="F" horiz-adv-x="520" 
d="M564 700l-27 -154h-265l-24 -135h260l-27 -154h-260l-45 -257h-160l123 700h425z" />
    <glyph glyph-name="G" unicode="G" horiz-adv-x="784" 
d="M427 390h351l-10 -60c-18 -107 -64 -192 -139 -253c-74 -61 -163 -91 -267 -91c-108 0 -192 36 -251 109s-79 161 -62 265c17 103 65 187 142 254c78 67 169 100 273 100c139 0 241 -61 293 -168l-147 -77c-32 59 -86 89 -163 89c-61 0 -113 -19 -157 -57
c-43 -38 -70 -88 -81 -151s-2 -113 29 -151s78 -57 140 -57c100 0 168 36 205 108h-180z" />
    <glyph glyph-name="H" unicode="H" horiz-adv-x="660" 
d="M472 432l47 268h160l-123 -700h-160l49 278h-220l-49 -278h-160l123 700h160l-47 -268h220z" />
    <glyph glyph-name="I" unicode="I" horiz-adv-x="280" 
d="M16 0l123 700h160l-123 -700h-160z" />
    <glyph glyph-name="J" unicode="J" horiz-adv-x="570" 
d="M232 -14c-114 0 -189 47 -224 141l147 80c13 -47 39 -65 91 -65c63 0 99 28 109 83l84 475h160l-84 -475c-28 -160 -131 -239 -283 -239z" />
    <glyph glyph-name="K" unicode="K" horiz-adv-x="626" 
d="M516 700h189l-318 -344l195 -356h-165l-183 333l-58 -333h-160l123 700h160l-52 -293z" />
    <glyph glyph-name="L" unicode="L" horiz-adv-x="480" 
d="M299 700l-96 -546h250l-27 -154h-410l27 154l96 546h160z" />
    <glyph glyph-name="M" unicode="M" horiz-adv-x="820" 
d="M665 700h174l-123 -700h-160l72 410l-239 -300h-18l-123 302l-72 -412h-160l123 700h160l121 -316z" />
    <glyph glyph-name="N" unicode="N" horiz-adv-x="670" 
d="M176 0h-160l123 700h120l201 -393l69 393h160l-123 -700h-120l-200 393z" />
    <glyph glyph-name="O" unicode="O" horiz-adv-x="788" 
d="M352 -14c-101 0 -182 37 -242 110c-59 73 -80 161 -61 264c18 104 66 189 143 255c78 66 171 99 280 99c100 0 180 -37 239 -110c60 -73 81 -161 63 -264c-19 -104 -67 -189 -144 -255s-170 -99 -278 -99zM369 142c59 0 111 19 158 58s76 89 87 150s0 111 -32 150
c-31 39 -76 58 -134 58s-110 -19 -155 -58s-73 -89 -84 -150c-11 -62 -1 -112 29 -151c30 -38 74 -57 131 -57z" />
    <glyph glyph-name="P" unicode="P" horiz-adv-x="590" 
d="M139 700h253c72 0 128 -24 168 -72c40 -47 55 -107 45 -178c-10 -69 -41 -124 -92 -167c-51 -42 -116 -63 -195 -63h-103l-39 -220h-160zM445 460c11 55 -15 90 -79 90h-93l-32 -180h93c60 0 100 34 111 90z" />
    <glyph glyph-name="Q" unicode="Q" horiz-adv-x="793" 
d="M472 714c100 0 180 -37 239 -110c60 -73 81 -161 63 -264c-16 -89 -56 -166 -119 -229l53 -69l-123 -92l-56 74c-55 -25 -114 -38 -177 -38c-98 0 -178 37 -239 110c-61 74 -82 162 -64 264c18 103 67 187 146 254c80 67 172 100 277 100zM348 259l123 92l90 -117
c27 34 45 73 53 116c11 61 0 111 -32 150c-31 39 -76 58 -134 58s-110 -19 -155 -58s-73 -89 -84 -150c-11 -62 -1 -112 29 -151c30 -38 74 -57 131 -57c20 0 41 3 62 8z" />
    <glyph glyph-name="R" unicode="R" horiz-adv-x="615" 
d="M617 450c-17 -93 -78 -165 -163 -198l102 -252h-162l-91 230h-87l-40 -230h-160l123 700h270c67 0 121 -25 163 -76c42 -50 57 -108 45 -174zM383 550h-110l-32 -180h120c48 0 87 38 96 90s-21 90 -74 90z" />
    <glyph glyph-name="S" unicode="S" horiz-adv-x="586" 
d="M270 -14c-147 0 -241 66 -266 173l146 75c17 -63 62 -94 134 -94c61 0 96 20 103 59c8 40 -25 57 -114 88c-66 22 -115 50 -148 84c-32 35 -43 83 -32 145c11 65 41 115 90 148s106 50 171 50c115 0 204 -57 240 -158l-140 -74c-25 52 -63 78 -114 78
c-48 0 -77 -22 -84 -53c-8 -39 24 -58 108 -89c25 -9 38 -13 62 -24c31 -13 58 -27 81 -49c37 -37 59 -81 45 -160c-23 -128 -130 -199 -282 -199z" />
    <glyph glyph-name="T" unicode="T" horiz-adv-x="540" 
d="M89 700h520l-27 -154h-180l-96 -546h-160l96 546h-180z" />
    <glyph glyph-name="U" unicode="U" horiz-adv-x="641" 
d="M290 -14c-84 0 -149 22 -195 67c-45 45 -62 103 -49 173l84 474h160l-81 -460c-11 -65 20 -98 93 -98s116 33 127 98l81 460h160l-84 -474c-28 -159 -143 -240 -296 -240z" />
    <glyph glyph-name="V" unicode="V" horiz-adv-x="640" 
d="M378 0h-204l-95 700h167l55 -515l235 515h183z" />
    <glyph glyph-name="W" unicode="W" horiz-adv-x="998" 
d="M341 0h-182l-70 700h160l37 -490l221 490h130l49 -490l207 490h174l-316 -700h-182l-42 413z" />
    <glyph glyph-name="X" unicode="X" horiz-adv-x="620" 
d="M489 700h190l-260 -348l147 -352h-174l-85 202l-151 -202h-190l273 365l-140 335h174l78 -185z" />
    <glyph glyph-name="Y" unicode="Y" horiz-adv-x="610" 
d="M498 700h191l-294 -394l-54 -306h-160l54 307l-156 393h173l82 -236z" />
    <glyph glyph-name="Z" unicode="Z" horiz-adv-x="540" 
d="M119 700h470l-21 -124l-340 -422h270l-27 -154h-480l22 124l341 422h-262z" />
    <glyph glyph-name="bracketleft" unicode="[" horiz-adv-x="320" 
d="M397 800l-25 -144h-100l-109 -612h101l-26 -144h-250l159 900h250z" />
    <glyph glyph-name="backslash" unicode="\" horiz-adv-x="520" 
d="M428 -100h-58l-243 900h58z" />
    <glyph glyph-name="bracketright" unicode="]" horiz-adv-x="320" 
d="M117 800h250l-159 -900h-250l26 144h99l109 612h-100z" />
    <glyph glyph-name="asciicircum" unicode="^" 
d="M315 700h108l136 -340h-156l-58 167l-122 -167h-164z" />
    <glyph glyph-name="underscore" unicode="_" horiz-adv-x="520" 
d="M414 -181h-460l25 144h460z" />
    <glyph glyph-name="grave" unicode="`" horiz-adv-x="300" 
d="M335 560h-141l-95 140h173z" />
    <glyph glyph-name="a" unicode="a" horiz-adv-x="623" 
d="M453 447l9 53h150l-88 -500h-150l6 34c-38 -32 -88 -48 -150 -48c-77 0 -132 28 -167 83c-35 56 -45 120 -31 193c13 69 44 128 94 177c51 50 113 75 187 75c63 0 109 -22 140 -67zM418 249v1c13 75 -28 122 -97 122s-126 -47 -139 -122s27 -122 96 -122s127 48 140 121z
" />
    <glyph glyph-name="b" unicode="b" horiz-adv-x="623" 
d="M389 514c148 1 227 -136 202 -274c-11 -69 -40 -129 -89 -179s-110 -75 -183 -75c-69 0 -118 24 -148 71l-10 -57h-150l123 700h150l-43 -242c41 37 91 56 148 56zM345 372c-69 0 -128 -47 -140 -122s30 -122 99 -122c68 0 124 46 137 122s-28 122 -96 122z" />
    <glyph glyph-name="c" unicode="c" horiz-adv-x="535" 
d="M265 -14c-79 0 -141 26 -185 79s-60 118 -48 195c11 73 45 134 101 182s122 72 197 72c104 0 180 -51 213 -130l-137 -72c-15 36 -45 54 -89 54c-67 0 -123 -46 -135 -114s29 -118 94 -118c43 0 77 19 104 56l121 -77c-51 -84 -140 -127 -236 -127z" />
    <glyph glyph-name="d" unicode="d" horiz-adv-x="625" 
d="M454 445l45 255h150l-123 -700h-150l6 36c-39 -33 -89 -50 -152 -50c-77 0 -132 28 -167 83c-35 56 -45 120 -31 193c13 69 44 128 94 177c51 50 113 75 187 75c64 0 111 -23 141 -69zM280 128c68 0 124 46 139 117l2 10c9 72 -30 117 -98 117c-71 0 -128 -49 -141 -122
s27 -122 98 -122z" />
    <glyph glyph-name="e" unicode="e" horiz-adv-x="582" 
d="M331 514c74 0 133 -25 176 -76c44 -51 59 -113 45 -188c-3 -21 -9 -41 -16 -60h-358c7 -47 42 -70 103 -70c42 0 77 13 105 39l105 -86c-57 -58 -131 -87 -220 -87c-85 0 -149 26 -193 79c-43 53 -59 118 -46 195c11 73 45 133 102 181c57 49 122 73 197 73zM199 304h212
c-5 51 -35 77 -90 77s-96 -26 -122 -77z" />
    <glyph glyph-name="f" unicode="f" horiz-adv-x="331" 
d="M412 714l-25 -144c-62 5 -97 -18 -106 -70h93l-25 -144h-93l-63 -356h-150l63 356h-67l25 144h67c25 147 120 223 281 214z" />
    <glyph glyph-name="g" unicode="g" horiz-adv-x="624" 
d="M457 441l10 59h146l-84 -475c-29 -168 -140 -239 -289 -239c-119 0 -196 40 -233 121l134 70c19 -39 56 -59 110 -59c72 0 120 38 132 107l6 35c-39 -36 -89 -54 -150 -54c-77 0 -133 26 -169 79s-48 116 -36 187c11 65 41 122 90 170s110 72 183 72
c71 0 121 -24 150 -73zM283 146c67 0 124 43 140 104l4 21c5 61 -36 103 -103 103c-71 0 -129 -47 -141 -114s29 -114 100 -114z" />
    <glyph glyph-name="h" unicode="h" 
d="M388 514c54 0 96 -19 127 -56s41 -87 30 -151l-54 -307h-150l50 285c11 61 -20 91 -72 91c-55 0 -98 -34 -110 -103l-48 -273h-150l123 700h150l-43 -247c37 41 86 61 147 61z" />
    <glyph glyph-name="i" unicode="i" horiz-adv-x="260" 
d="M108 634c8 48 55 90 104 90s84 -41 76 -90s-54 -90 -105 -90s-83 41 -75 90zM161 0h-150l88 500h150z" />
    <glyph glyph-name="j" unicode="j" horiz-adv-x="275" 
d="M123 634c8 48 55 90 104 90s84 -41 76 -90s-54 -90 -105 -90s-83 41 -75 90zM26 0l88 500h150l-88 -500c-28 -164 -108 -223 -268 -214l26 144c55 -3 83 18 92 70z" />
    <glyph glyph-name="k" unicode="k" horiz-adv-x="525" 
d="M391 500h173l-221 -250l138 -250h-160l-120 228l-40 -228h-150l123 700h150l-72 -407z" />
    <glyph glyph-name="l" unicode="l" horiz-adv-x="261" 
d="M162 0h-150l56 319l72 411h150l-73 -418z" />
    <glyph glyph-name="m" unicode="m" horiz-adv-x="850" 
d="M656 514c58 0 102 -19 131 -58c29 -38 39 -88 28 -149l-54 -307h-150l51 294c9 51 -10 82 -57 82c-49 0 -80 -29 -93 -87l-51 -289h-150l51 294c9 51 -10 82 -57 82c-49 0 -80 -28 -93 -85l-51 -291h-150l88 500h150l-8 -45c35 39 81 59 139 59c59 0 100 -23 122 -68
c41 45 93 68 154 68z" />
    <glyph glyph-name="n" unicode="n" 
d="M388 514c54 0 96 -19 127 -56s41 -87 30 -151l-54 -307h-150l50 285c11 61 -20 91 -72 91c-53 0 -96 -32 -109 -97l-49 -279h-150l88 500h150l-8 -47c37 41 86 61 147 61z" />
    <glyph glyph-name="o" unicode="o" horiz-adv-x="590" 
d="M264 -14c-59 0 -108 14 -147 43c-77 59 -102 148 -83 241c14 69 48 126 101 173s120 71 199 71c80 0 140 -29 181 -87c41 -57 55 -122 42 -193c-12 -67 -46 -126 -101 -175s-119 -73 -192 -73zM408 250c13 71 -27 118 -92 118s-119 -47 -132 -118
c-12 -71 25 -118 90 -118s122 47 134 118z" />
    <glyph glyph-name="p" unicode="p" horiz-adv-x="623" 
d="M391 514c71 0 125 -28 162 -83s49 -118 38 -191c-10 -68 -40 -127 -89 -178s-110 -76 -184 -76c-67 0 -116 24 -147 71l-45 -257h-150l123 700h150l-7 -42c41 37 90 56 149 56zM346 372c-68 0 -125 -46 -140 -117l-2 -9c-5 -36 2 -65 20 -86s44 -32 79 -32s65 11 90 33
s41 52 48 89c13 75 -26 122 -95 122z" />
    <glyph glyph-name="q" unicode="q" horiz-adv-x="623" 
d="M453 447l9 53h150l-123 -700h-150l41 234c-38 -32 -88 -48 -150 -48c-51 0 -94 14 -128 41c-67 56 -86 142 -70 235c13 69 44 128 94 177c51 50 113 75 187 75c63 0 109 -22 140 -67zM199 161c18 -22 44 -33 79 -33s65 11 91 33s42 52 49 89s1 67 -18 89
c-18 22 -44 33 -79 33s-65 -11 -91 -33c-25 -22 -41 -52 -48 -89s-1 -67 17 -89z" />
    <glyph glyph-name="r" unicode="r" horiz-adv-x="371" 
d="M249 500l-16 -90c29 65 93 100 168 100l-29 -170c-22 3 -44 3 -67 -2c-44 -9 -93 -48 -104 -112l1 6l-41 -232h-150l88 500h150z" />
    <glyph glyph-name="s" unicode="s" horiz-adv-x="468" 
d="M206 -14c-103 0 -174 41 -211 123l135 68c15 -38 44 -57 89 -57c34 0 52 9 55 26c4 21 -35 35 -83 48c-69 17 -157 56 -135 169c19 106 121 151 210 151c88 0 159 -40 191 -107l-135 -67c-12 29 -34 44 -65 44c-30 0 -47 -10 -51 -31c-5 -27 33 -39 81 -51
c69 -13 158 -48 136 -167c-19 -101 -104 -149 -217 -149z" />
    <glyph glyph-name="t" unicode="t" horiz-adv-x="389" 
d="M367 356h-103l-31 -177c-8 -41 21 -48 96 -43l-24 -136c-179 -20 -247 38 -222 179l31 177h-80l26 144h79l17 95l158 45l-25 -140h104z" />
    <glyph glyph-name="u" unicode="u" 
d="M370 221l49 279h150l-88 -500h-150l8 47c-37 -41 -86 -61 -147 -61c-54 0 -97 18 -128 55s-40 88 -29 152l54 307h150l-50 -285c-11 -61 20 -91 72 -91c53 0 96 32 109 97z" />
    <glyph glyph-name="v" unicode="v" horiz-adv-x="510" 
d="M240 194l148 306h166l-268 -500h-150l-92 500h154z" />
    <glyph glyph-name="w" unicode="w" horiz-adv-x="780" 
d="M532 232l117 268h165l-248 -500h-140l-33 263l-117 -263h-150l-72 500h150l31 -268l119 268h145z" />
    <glyph glyph-name="x" unicode="x" horiz-adv-x="530" 
d="M392 500h176l-219 -251l137 -249h-162l-74 135l-118 -135h-176l226 259l-132 241h162l69 -127z" />
    <glyph glyph-name="y" unicode="y" horiz-adv-x="530" 
d="M260 194l148 306h166l-256 -485c-44 -83 -92 -141 -144 -173c-51 -32 -111 -46 -179 -42l24 140c36 0 63 6 82 17s37 33 54 65l-111 478h154z" />
    <glyph glyph-name="z" unicode="z" horiz-adv-x="455" 
d="M84 500h380l-17 -100l-229 -260h193l-25 -140h-400l18 100l228 260h-173z" />
    <glyph glyph-name="braceleft" unicode="{" horiz-adv-x="361" 
d="M303 37l-26 -144c-136 -11 -209 65 -186 194l25 142c8 45 -13 55 -61 50l26 145c47 -5 71 5 79 50l25 142c25 148 102 205 254 194l-26 -144c-47 5 -70 -5 -78 -50l-25 -142c-9 -56 -34 -97 -75 -122c31 -26 41 -67 31 -123l-25 -142c-8 -45 14 -55 62 -50z" />
    <glyph glyph-name="bar" unicode="|" horiz-adv-x="270" 
d="M131 -200h-150l162 920h150z" />
    <glyph glyph-name="braceright" unicode="}" horiz-adv-x="360" 
d="M93 665l26 144c136 11 209 -65 186 -194l-25 -142c-8 -45 13 -55 61 -50l-26 -145c-47 5 -71 -5 -79 -50l-25 -142c-25 -148 -102 -205 -254 -194l26 144c47 -5 70 5 78 50l25 142c9 56 34 97 75 122c-31 26 -41 67 -31 123l25 142c8 45 -14 55 -62 50z" />
    <glyph glyph-name="asciitilde" unicode="~" horiz-adv-x="600" 
d="M159 244l-110 58c52 143 160 176 262 130c46 -23 80 -33 102 -32c23 1 44 19 63 52l109 -58c-52 -143 -161 -176 -261 -130c-46 23 -80 33 -103 32s-43 -19 -62 -52z" />
    <glyph glyph-name="exclamdown" unicode="&#xa1;" horiz-adv-x="280" 
d="M187 514c52 0 87 -45 78 -97s-56 -93 -112 -93c-52 0 -87 45 -78 97c9 53 55 93 112 93zM80 250h120l-14 -250l-35 -200h-180l35 200z" />
    <glyph glyph-name="cent" unicode="&#xa2;" horiz-adv-x="535" 
d="M285 234h8c43 0 77 19 104 56l121 -77c-51 -84 -140 -127 -236 -127c-22 0 -44 3 -67 8l-46 -94h-62l56 113c-87 43 -131 136 -114 247c11 73 45 134 101 182s122 72 197 72c22 0 42 -2 61 -6l46 92h62l-55 -111c46 -23 79 -58 99 -105l-137 -72c-7 17 -18 29 -31 38z
M199 352c-8 -44 3 -77 33 -99l106 213h-4c-67 0 -123 -46 -135 -114z" />
    <glyph glyph-name="sterling" unicode="&#xa3;" 
d="M454 269h-195l-20 -115h314l-27 -154h-540l27 154h66l20 115h-55l25 140h55l14 81c27 149 122 224 255 224c101 0 179 -56 210 -149l-144 -76c-16 46 -44 69 -84 69c-39 0 -69 -25 -77 -68l-14 -81h195z" />
    <glyph glyph-name="currency" unicode="&#xa4;" horiz-adv-x="540" 
d="M523 590l40 -40l-82 -69c23 -39 31 -82 22 -131c-9 -50 -31 -94 -68 -131l57 -69l-45 -37l-56 70c-43 -29 -90 -43 -140 -43c-48 0 -88 13 -120 39l-81 -69l-38 40l82 70c-23 38 -30 81 -21 130c9 50 31 93 67 130l-57 70l42 38l59 -72c43 29 90 44 141 44
c47 0 87 -13 118 -38zM355 350c7 41 -14 68 -55 68s-72 -27 -79 -68c-8 -41 14 -68 55 -68s71 27 79 68z" />
    <glyph glyph-name="yen" unicode="&#xa5;" horiz-adv-x="610" 
d="M498 700h191l-248 -333h120l-16 -88h-155l-7 -40h155l-15 -88h-155l-27 -151h-160l27 151h-155l15 88h155l7 40h-155l16 88h120l-132 333h173l82 -236z" />
    <glyph glyph-name="brokenbar" unicode="&#xa6;" horiz-adv-x="270" 
d="M228 350h-150l65 370h150zM131 -200h-150l65 370h150z" />
    <glyph glyph-name="section" unicode="&#xa7;" horiz-adv-x="556" 
d="M397 460c41 -16 75 -39 101 -70c27 -31 36 -68 28 -112c-9 -52 -37 -93 -82 -123c16 -28 21 -62 14 -103c-21 -113 -109 -164 -229 -164c-107 0 -178 41 -214 124l134 73c19 -45 50 -67 93 -67c39 0 60 12 65 36c4 17 -7 33 -25 44c-11 8 -31 18 -46 23
c-13 7 -41 18 -56 25c-81 36 -136 99 -120 188c9 51 37 90 82 117c-14 29 -18 63 -11 103c20 111 105 160 214 160c88 0 162 -43 198 -128l-126 -63c-19 41 -46 61 -81 61c-32 0 -50 -13 -55 -38c-2 -21 11 -35 29 -48c5 -3 14 -8 26 -13c24 -11 30 -13 61 -25zM269 264
l34 -13c19 -7 34 -14 45 -19c14 10 22 23 25 40c5 33 -17 49 -68 69l-70 29c-13 -10 -21 -23 -24 -40c-5 -27 15 -49 58 -66z" />
    <glyph glyph-name="dieresis" unicode="&#xa8;" horiz-adv-x="350" 
d="M203 562c-35 -29 -82 -29 -106 0s-17 77 18 106s82 29 106 0s17 -77 -18 -106zM393 562c-35 -29 -82 -29 -106 0s-17 77 18 106s82 29 106 0s17 -77 -18 -106z" />
    <glyph glyph-name="copyright" unicode="&#xa9;" horiz-adv-x="784" 
d="M355 -12c-191 -5 -347 173 -306 368c17 101 65 185 144 253c79 69 170 103 272 103c98 0 178 -37 239 -110c62 -73 84 -159 67 -258c-18 -101 -67 -185 -146 -254c-79 -68 -169 -102 -270 -102zM357 24c91 0 172 32 243 95c72 63 116 140 132 231c15 89 -4 166 -58 230
s-125 96 -212 96c-91 0 -172 -32 -244 -95c-71 -63 -115 -140 -130 -231c-16 -89 3 -166 57 -230s125 -96 212 -96zM378 153c-56 0 -100 21 -132 62c-31 42 -42 90 -32 145c9 54 35 99 76 134s89 53 143 53c69 0 131 -39 163 -99l-117 -61c-11 22 -30 33 -57 33
c-41 0 -75 -33 -82 -70s16 -70 53 -70c29 0 51 11 68 34l105 -65c-45 -61 -116 -96 -188 -96z" />
    <glyph glyph-name="guillemotleft" unicode="&#xab;" horiz-adv-x="562" 
d="M207 499h135l-140 -194l72 -186h-130l-74 190zM411 499h135l-143 -199l71 -181h-130l-72 185z" />
    <glyph glyph-name="logicalnot" unicode="&#xac;" horiz-adv-x="560" 
d="M70 420h480l-46 -260h-150l21 120h-330z" />
    <glyph glyph-name="registered" unicode="&#xae;" horiz-adv-x="784" 
d="M465 712c98 0 178 -37 239 -110c62 -73 84 -159 67 -258c-18 -101 -67 -185 -146 -254c-79 -68 -169 -102 -270 -102c-191 -5 -347 173 -306 368c17 101 65 185 144 253c79 69 170 103 272 103zM732 350c15 89 -4 166 -58 230s-125 96 -212 96c-91 0 -172 -32 -244 -95
c-71 -63 -115 -140 -130 -231c-16 -89 3 -166 57 -230s125 -96 212 -96c91 0 172 32 243 95c72 63 116 140 132 231zM298 535h160c38 0 69 -14 94 -41s35 -60 28 -98c-9 -48 -31 -82 -68 -103l50 -128h-127l-30 102h-32l-18 -102h-122zM426 425h-25l-11 -58h25
c21 0 37 12 40 29c3 19 -6 29 -29 29z" />
    <glyph glyph-name="overscore" unicode="&#xaf;" horiz-adv-x="341" 
d="M375 559h-300l21 120h300z" />
    <glyph glyph-name="degree" unicode="&#xb0;" horiz-adv-x="406" 
d="M244 470c-49 0 -87 17 -116 52c-28 35 -38 76 -29 123c8 47 31 87 68 118s82 47 133 47c49 0 87 -17 115 -52s38 -76 30 -123c-9 -47 -31 -87 -68 -118s-81 -47 -133 -47zM321 640c5 29 -11 50 -40 50s-53 -21 -58 -50s11 -50 40 -50s53 19 58 50z" />
    <glyph glyph-name="plusminus" unicode="&#xb1;" horiz-adv-x="560" 
d="M422 660l-25 -140h161l-25 -140h-160l-25 -140h-140l25 140h-160l25 140h159l25 140h140zM473 40h-460l25 140h460z" />
    <glyph glyph-name="acute" unicode="&#xb4;" horiz-adv-x="300" 
d="M75 560l100 140h184l-136 -140h-148z" />
    <glyph glyph-name="uni00B5" unicode="&#xb5;" horiz-adv-x="620" 
d="M546 140h35l-25 -140h-65c-45 0 -80 15 -104 45c-36 -39 -84 -59 -145 -59c-31 0 -57 6 -80 18l-36 -204h-150l123 700h150l-51 -289c-8 -59 22 -87 73 -87c52 0 92 30 107 90l51 286h150l-58 -330c-3 -20 5 -30 25 -30z" />
    <glyph glyph-name="paragraph" unicode="&#xb6;" horiz-adv-x="698" 
d="M319 700h409l-22 -130h-62l-135 -770h-140l135 770h-68l-135 -770h-140l81 460c-61 1 -109 24 -144 70s-47 99 -36 160c11 60 41 110 90 150s105 60 167 60z" />
    <glyph glyph-name="middot" unicode="&#xb7;" horiz-adv-x="279" 
d="M139 251c-52 0 -86 45 -77 97c9 53 56 93 111 93c52 0 87 -45 78 -97c-9 -53 -55 -93 -112 -93z" />
    <glyph glyph-name="cedilla" unicode="&#xb8;" horiz-adv-x="265" 
d="M138 0l-8 -46c40 -15 56 -43 49 -86c-13 -67 -93 -95 -241 -84l18 104c62 -5 95 0 98 14c2 10 -15 17 -50 20l14 78h120z" />
    <glyph glyph-name="guillemotright" unicode="&#xbb;" horiz-adv-x="563" 
d="M109 499h130l72 -185l-139 -195h-135l143 199zM309 499h130l74 -190l-137 -190h-135l140 194z" />
    <glyph glyph-name="onequarter" unicode="&#xbc;" horiz-adv-x="811" 
d="M70 0l518 700h105l-518 -700h-105zM115 300l48 271l-81 -22l-11 107l130 44h107l-71 -400h-122zM746 171h36l-19 -110h-36l-11 -61h-116l11 61h-180l19 110l156 229h134l-152 -229h42l11 61h116z" />
    <glyph glyph-name="onehalf" unicode="&#xbd;" horiz-adv-x="815" 
d="M70 0l518 700h105l-518 -700h-105zM115 300l48 271l-81 -22l-11 107l130 44h107l-71 -400h-122zM784 271c-7 -40 -33 -69 -88 -114l-55 -47h119l-19 -110h-306l13 77l173 151l5 4c21 18 32 32 35 42l1 4c3 16 -7 26 -24 26c-23 0 -44 -16 -63 -49l-95 60
c40 66 98 99 174 99c89 0 146 -54 130 -143z" />
    <glyph glyph-name="threequarters" unicode="&#xbe;" horiz-adv-x="883" 
d="M352 415c-15 -86 -74 -129 -175 -129c-78 0 -128 30 -150 90l107 57c11 -28 30 -42 56 -42c23 0 37 10 40 31c3 20 -11 30 -35 30h-25l-31 61l73 77h-129l19 110h281l-15 -85l-79 -83c48 -21 72 -64 63 -117zM142 0l518 700h105l-518 -700h-105zM818 171h36l-19 -110h-36
l-11 -61h-116l11 61h-180l19 110l156 229h134l-152 -229h42l11 61h116z" />
    <glyph glyph-name="questiondown" unicode="&#xbf;" horiz-adv-x="560" 
d="M337 514c52 0 86 -45 77 -97c-9 -53 -56 -93 -111 -93c-52 0 -87 45 -78 97c9 53 55 93 112 93zM210 250h160c-9 -61 -59 -115 -104 -144c-44 -28 -91 -67 -98 -106c-7 -35 15 -58 54 -58c60 0 96 32 125 88l130 -83c-51 -101 -157 -161 -274 -161c-65 0 -117 19 -156 58
s-53 89 -42 152c9 55 44 103 80 134c54 47 119 81 125 120z" />
    <glyph glyph-name="Agrave" unicode="&#xc0;" horiz-adv-x="680" 
d="M457 900l63 -140h-141l-95 140h173zM636 0h-175l-14 110h-260l-56 -110h-175l361 700h204zM396 525l-134 -265h167z" />
    <glyph glyph-name="Aacute" unicode="&#xc1;" horiz-adv-x="680" 
d="M440 900h184l-136 -140h-148zM636 0h-175l-14 110h-260l-56 -110h-175l361 700h204zM396 525l-134 -265h167z" />
    <glyph glyph-name="Acircumflex" unicode="&#xc2;" horiz-adv-x="680" 
d="M458 750l-23 55l-47 -55h-145l132 150h148l80 -150h-145zM636 0h-175l-14 110h-260l-56 -110h-175l361 700h204zM396 525l-134 -265h167z" />
    <glyph glyph-name="Atilde" unicode="&#xc3;" horiz-adv-x="680" 
d="M421 777c-31 21 -45 16 -52 -24h-120c7 79 41 133 82 150c43 17 91 11 132 -17c29 -21 45 -16 52 24h120c-7 -79 -40 -133 -83 -150c-41 -17 -90 -11 -131 17zM636 0h-175l-14 110h-260l-56 -110h-175l361 700h204zM396 525l-134 -265h167z" />
    <glyph glyph-name="Adieresis" unicode="&#xc4;" horiz-adv-x="680" 
d="M388 762c-35 -29 -82 -29 -106 0s-17 77 18 106s82 29 106 0s17 -77 -18 -106zM578 762c-35 -29 -82 -29 -106 0s-17 77 18 106s82 29 106 0s17 -77 -18 -106zM636 0h-175l-14 110h-260l-56 -110h-175l361 700h204zM396 525l-134 -265h167z" />
    <glyph glyph-name="Aring" unicode="&#xc5;" horiz-adv-x="680" 
d="M636 0h-175l-14 110h-260l-56 -110h-175l357 693c-16 23 -21 50 -16 81c13 72 75 121 152 121c39 0 69 -13 91 -38s30 -55 23 -91c-5 -30 -18 -56 -40 -78zM395 771c-3 -20 6 -35 29 -35c25 0 39 11 42 33c4 20 -7 35 -30 35s-36 -11 -41 -33zM396 525l-134 -265h167z
" />
    <glyph glyph-name="AE" unicode="&#xc6;" horiz-adv-x="880" 
d="M924 700l-27 -154h-240l-21 -117h216l-27 -150h-215l-22 -125h245l-27 -154h-400l19 110h-204l-85 -110h-180l532 700h436zM486 453l-149 -193h115z" />
    <glyph glyph-name="Ccedilla" unicode="&#xc7;" horiz-adv-x="723" 
d="M368 142c77 0 137 30 182 89l130 -85c-67 -89 -155 -141 -264 -156l-6 -36c40 -15 56 -43 49 -86c-13 -67 -93 -95 -241 -84l18 104c62 -5 95 0 98 14c2 10 -15 17 -50 20l12 69c-88 15 -155 57 -201 126s-61 150 -46 243c17 103 65 187 142 254c78 67 169 100 273 100
c133 0 231 -60 278 -163l-147 -77c-27 56 -77 84 -148 84c-61 0 -113 -19 -157 -57c-43 -38 -70 -88 -81 -151c-11 -62 -1 -112 28 -151c29 -38 73 -57 131 -57z" />
    <glyph glyph-name="Egrave" unicode="&#xc8;" horiz-adv-x="530" 
d="M395 900l63 -140h-141l-95 140h173zM574 700l-27 -154h-275l-21 -117h251l-27 -150h-250l-22 -125h280l-27 -154h-440l123 700h435z" />
    <glyph glyph-name="Eacute" unicode="&#xc9;" horiz-adv-x="530" 
d="M378 900h184l-136 -140h-148zM574 700l-27 -154h-275l-21 -117h251l-27 -150h-250l-22 -125h280l-27 -154h-440l123 700h435z" />
    <glyph glyph-name="Ecircumflex" unicode="&#xca;" horiz-adv-x="530" 
d="M396 750l-23 55l-47 -55h-145l132 150h148l80 -150h-145zM574 700l-27 -154h-275l-21 -117h251l-27 -150h-250l-22 -125h280l-27 -154h-440l123 700h435z" />
    <glyph glyph-name="Edieresis" unicode="&#xcb;" horiz-adv-x="530" 
d="M326 762c-35 -29 -82 -29 -106 0s-17 77 18 106s82 29 106 0s17 -77 -18 -106zM516 762c-35 -29 -82 -29 -106 0s-17 77 18 106s82 29 106 0s17 -77 -18 -106zM574 700l-27 -154h-275l-21 -117h251l-27 -150h-250l-22 -125h280l-27 -154h-440l123 700h435z" />
    <glyph glyph-name="Igrave" unicode="&#xcc;" horiz-adv-x="280" 
d="M320 760h-141l-95 140h173zM139 700l-123 -700h160l123 700h-160z" />
    <glyph glyph-name="Iacute" unicode="&#xcd;" horiz-adv-x="280" 
d="M140 760l100 140h184l-136 -140h-148zM139 700l-123 -700h160l123 700h-160z" />
    <glyph glyph-name="Icircumflex" unicode="&#xce;" horiz-adv-x="280" 
d="M258 750l-23 55l-47 -55h-145l132 150h148l80 -150h-145zM176 0h-160l123 700h160z" />
    <glyph glyph-name="Idieresis" unicode="&#xcf;" horiz-adv-x="280" 
d="M188 762c-35 -29 -82 -29 -106 0s-17 77 18 106s82 29 106 0s17 -77 -18 -106zM378 762c-35 -29 -82 -29 -106 0s-17 77 18 106s82 29 106 0s17 -77 -18 -106zM16 0l123 700h160l-123 -700h-160z" />
    <glyph glyph-name="Eth" unicode="&#xd0;" horiz-adv-x="753" 
d="M180 700h280c92 0 166 -35 221 -106c56 -71 75 -155 58 -254s-63 -181 -138 -245c-75 -63 -163 -95 -264 -95h-280l47 268h-80l25 144h80zM585 355c21 119 -40 191 -152 191h-120l-24 -134h140l-25 -144h-140l-20 -114h110c59 0 110 18 152 55s68 85 79 146z" />
    <glyph glyph-name="Ntilde" unicode="&#xd1;" horiz-adv-x="670" 
d="M364 753h-120c7 79 41 133 82 150c43 17 91 11 132 -17c29 -21 45 -16 52 24h120c-7 -79 -40 -133 -83 -150c-41 -17 -90 -11 -131 17c-31 21 -45 16 -52 -24zM176 0h-160l123 700h120l201 -393l69 393h160l-123 -700h-120l-200 393z" />
    <glyph glyph-name="Ograve" unicode="&#xd2;" horiz-adv-x="788" 
d="M576 770h-141l-95 140h173zM352 -14c108 0 201 33 278 99s125 151 144 255c18 103 -3 191 -63 264c-59 73 -139 110 -239 110c-109 0 -202 -33 -280 -99c-77 -66 -125 -151 -143 -255c-19 -103 2 -191 61 -264c60 -73 141 -110 242 -110zM369 142c-57 0 -101 19 -131 57
c-30 39 -40 89 -29 151c11 61 39 111 84 150s97 58 155 58s103 -19 134 -58c32 -39 43 -89 32 -150s-40 -111 -87 -150s-99 -58 -158 -58z" />
    <glyph glyph-name="Oacute" unicode="&#xd3;" horiz-adv-x="788" 
d="M396 770l100 140h184l-136 -140h-148zM352 -14c108 0 201 33 278 99s125 151 144 255c18 103 -3 191 -63 264c-59 73 -139 110 -239 110c-109 0 -202 -33 -280 -99c-77 -66 -125 -151 -143 -255c-19 -103 2 -191 61 -264c60 -73 141 -110 242 -110zM369 142
c-57 0 -101 19 -131 57c-30 39 -40 89 -29 151c11 61 39 111 84 150s97 58 155 58s103 -19 134 -58c32 -39 43 -89 32 -150s-40 -111 -87 -150s-99 -58 -158 -58z" />
    <glyph glyph-name="Ocircumflex" unicode="&#xd4;" horiz-adv-x="788" 
d="M514 760l-23 55l-47 -55h-145l132 150h148l80 -150h-145zM472 714c100 0 180 -37 239 -110c60 -73 81 -161 63 -264c-19 -104 -67 -189 -144 -255s-170 -99 -278 -99c-101 0 -182 37 -242 110c-59 73 -80 161 -61 264c18 104 66 189 143 255c78 66 171 99 280 99z
M209 350c-11 -62 -1 -112 29 -151c30 -38 74 -57 131 -57c59 0 111 19 158 58s76 89 87 150s0 111 -32 150c-31 39 -76 58 -134 58s-110 -19 -155 -58s-73 -89 -84 -150z" />
    <glyph glyph-name="Otilde" unicode="&#xd5;" horiz-adv-x="788" 
d="M425 763h-120c7 79 41 133 82 150c43 17 91 11 132 -17c29 -21 45 -16 52 24h120c-7 -79 -40 -133 -83 -150c-41 -17 -90 -11 -131 17c-31 21 -45 16 -52 -24zM352 -14c-101 0 -182 37 -242 110c-59 73 -80 161 -61 264c18 104 66 189 143 255c78 66 171 99 280 99
c100 0 180 -37 239 -110c60 -73 81 -161 63 -264c-19 -104 -67 -189 -144 -255s-170 -99 -278 -99zM369 142c59 0 111 19 158 58s76 89 87 150s0 111 -32 150c-31 39 -76 58 -134 58s-110 -19 -155 -58s-73 -89 -84 -150c-11 -62 -1 -112 29 -151c30 -38 74 -57 131 -57z
" />
    <glyph glyph-name="Odieresis" unicode="&#xd6;" horiz-adv-x="788" 
d="M444 772c-35 -29 -82 -29 -106 0s-17 77 18 106s82 29 106 0s17 -77 -18 -106zM634 772c-35 -29 -82 -29 -106 0s-17 77 18 106s82 29 106 0s17 -77 -18 -106zM352 -14c-101 0 -182 37 -242 110c-59 73 -80 161 -61 264c18 104 66 189 143 255c78 66 171 99 280 99
c100 0 180 -37 239 -110c60 -73 81 -161 63 -264c-19 -104 -67 -189 -144 -255s-170 -99 -278 -99zM369 142c59 0 111 19 158 58s76 89 87 150s0 111 -32 150c-31 39 -76 58 -134 58s-110 -19 -155 -58s-73 -89 -84 -150c-11 -62 -1 -112 29 -151c30 -38 74 -57 131 -57z
" />
    <glyph glyph-name="multiply" unicode="&#xd7;" horiz-adv-x="525" 
d="M423 562l90 -98l-135 -117l95 -111l-109 -98l-96 114l-131 -114l-89 98l134 117l-94 111l108 98l96 -113z" />
    <glyph glyph-name="Oslash" unicode="&#xd8;" horiz-adv-x="793" 
d="M779 668l-63 -64c57 -68 82 -163 63 -264c-19 -104 -67 -189 -144 -255s-170 -99 -278 -99c-73 0 -136 20 -190 60l-59 -60l-73 46l73 74c-53 72 -71 157 -54 254c18 104 66 189 143 255c78 66 171 99 280 99c67 0 126 -18 177 -53l52 53zM214 350c-8 -49 -4 -90 12 -124
l309 315c-24 11 -51 17 -82 17c-58 0 -110 -19 -155 -58s-73 -89 -84 -150zM619 350c9 53 2 98 -20 135l-316 -321c26 -15 56 -22 91 -22c59 0 111 19 158 58s76 89 87 150z" />
    <glyph glyph-name="Ugrave" unicode="&#xd9;" horiz-adv-x="641" 
d="M501 760h-141l-95 140h173zM290 -14c153 0 268 81 296 240l84 474h-160l-81 -460c-11 -65 -54 -98 -127 -98s-104 33 -93 98l81 460h-160l-84 -474c-13 -70 4 -128 49 -173c46 -45 111 -67 195 -67z" />
    <glyph glyph-name="Uacute" unicode="&#xda;" horiz-adv-x="641" 
d="M321 760l100 140h184l-136 -140h-148zM290 -14c153 0 268 81 296 240l84 474h-160l-81 -460c-11 -65 -54 -98 -127 -98s-104 33 -93 98l81 460h-160l-84 -474c-13 -70 4 -128 49 -173c46 -45 111 -67 195 -67z" />
    <glyph glyph-name="Ucircumflex" unicode="&#xdb;" horiz-adv-x="641" 
d="M439 750l-23 55l-47 -55h-145l132 150h148l80 -150h-145zM429 240l81 460h160l-84 -474c-28 -159 -143 -240 -296 -240c-84 0 -149 22 -195 67c-45 45 -62 103 -49 173l84 474h160l-81 -460c-11 -65 20 -98 93 -98s116 33 127 98z" />
    <glyph glyph-name="Udieresis" unicode="&#xdc;" horiz-adv-x="641" 
d="M369 762c-35 -29 -82 -29 -106 0s-17 77 18 106s82 29 106 0s17 -77 -18 -106zM559 762c-35 -29 -82 -29 -106 0s-17 77 18 106s82 29 106 0s17 -77 -18 -106zM290 -14c-84 0 -149 22 -195 67c-45 45 -62 103 -49 173l84 474h160l-81 -460c-11 -65 20 -98 93 -98
s116 33 127 98l81 460h160l-84 -474c-28 -159 -143 -240 -296 -240z" />
    <glyph glyph-name="Yacute" unicode="&#xdd;" horiz-adv-x="610" 
d="M405 900h184l-136 -140h-148zM498 700h191l-294 -394l-54 -306h-160l54 307l-156 393h173l82 -236z" />
    <glyph glyph-name="Thorn" unicode="&#xde;" horiz-adv-x="590" 
d="M280 590h93c72 0 128 -24 168 -72c40 -47 55 -107 45 -178c-10 -69 -41 -124 -92 -167c-51 -42 -116 -63 -195 -63h-104l-19 -110h-160l123 700h160zM426 350c11 55 -15 90 -79 90h-94l-31 -180h93c60 0 100 34 111 90z" />
    <glyph glyph-name="germandbls" unicode="&#xdf;" horiz-adv-x="544" 
d="M231 -7l23 132c67 -10 105 6 112 49c3 19 -9 54 -37 105c-27 52 -39 89 -35 110c3 19 16 43 39 73c23 31 36 51 39 62c8 33 -13 54 -49 54c-40 0 -64 -21 -71 -63l-91 -515h-150l91 515c23 133 105 199 246 199c57 0 103 -17 138 -51c35 -33 48 -74 39 -122
c-5 -25 -18 -54 -41 -86c-22 -32 -34 -54 -36 -66c-12 -41 79 -162 61 -253c-11 -94 -94 -166 -278 -143z" />
    <glyph glyph-name="agrave" unicode="&#xe0;" horiz-adv-x="623" 
d="M382 700l63 -140h-141l-95 140h173zM453 447l9 53h150l-88 -500h-150l6 34c-38 -32 -88 -48 -150 -48c-77 0 -132 28 -167 83c-35 56 -45 120 -31 193c13 69 44 128 94 177c51 50 113 75 187 75c63 0 109 -22 140 -67zM418 249v1c13 75 -28 122 -97 122
s-126 -47 -139 -122s27 -122 96 -122s127 48 140 121z" />
    <glyph glyph-name="aacute" unicode="&#xe1;" horiz-adv-x="623" 
d="M365 700h184l-136 -140h-148zM453 447l9 53h150l-88 -500h-150l6 34c-38 -32 -88 -48 -150 -48c-77 0 -132 28 -167 83c-35 56 -45 120 -31 193c13 69 44 128 94 177c51 50 113 75 187 75c63 0 109 -22 140 -67zM418 249v1c13 75 -28 122 -97 122s-126 -47 -139 -122
s27 -122 96 -122s127 48 140 121z" />
    <glyph glyph-name="acircumflex" unicode="&#xe2;" horiz-adv-x="623" 
d="M383 550l-23 55l-47 -55h-145l132 150h148l80 -150h-145zM453 447l9 53h150l-88 -500h-150l6 34c-38 -32 -88 -48 -150 -48c-77 0 -132 28 -167 83c-35 56 -45 120 -31 193c13 69 44 128 94 177c51 50 113 75 187 75c63 0 109 -22 140 -67zM418 249v1
c13 75 -28 122 -97 122s-126 -47 -139 -122s27 -122 96 -122s127 48 140 121z" />
    <glyph glyph-name="atilde" unicode="&#xe3;" horiz-adv-x="623" 
d="M346 577c-31 21 -45 16 -52 -24h-120c7 79 41 133 82 150c43 17 91 11 132 -17c29 -21 45 -16 52 24h120c-7 -79 -40 -133 -83 -150c-41 -17 -90 -11 -131 17zM453 447l9 53h150l-88 -500h-150l6 34c-38 -32 -88 -48 -150 -48c-77 0 -132 28 -167 83
c-35 56 -45 120 -31 193c13 69 44 128 94 177c51 50 113 75 187 75c63 0 109 -22 140 -67zM418 249v1c13 75 -28 122 -97 122s-126 -47 -139 -122s27 -122 96 -122s127 48 140 121z" />
    <glyph glyph-name="adieresis" unicode="&#xe4;" horiz-adv-x="623" 
d="M313 562c-35 -29 -82 -29 -106 0s-17 77 18 106s82 29 106 0s17 -77 -18 -106zM503 562c-35 -29 -82 -29 -106 0s-17 77 18 106s82 29 106 0s17 -77 -18 -106zM453 447l9 53h150l-88 -500h-150l6 34c-38 -32 -88 -48 -150 -48c-77 0 -132 28 -167 83
c-35 56 -45 120 -31 193c13 69 44 128 94 177c51 50 113 75 187 75c63 0 109 -22 140 -67zM418 249v1c13 75 -28 122 -97 122s-126 -47 -139 -122s27 -122 96 -122s127 48 140 121z" />
    <glyph glyph-name="aring" unicode="&#xe5;" horiz-adv-x="623" 
d="M353 535c-38 0 -68 13 -90 38s-30 56 -24 91c13 72 75 121 152 121c39 0 69 -13 91 -38s30 -55 23 -91c-12 -72 -72 -121 -152 -121zM337 661c-3 -20 6 -35 29 -35c25 0 39 11 42 33c4 20 -7 35 -30 35s-36 -11 -41 -33zM453 447l9 53h150l-88 -500h-150l6 34
c-38 -32 -88 -48 -150 -48c-77 0 -132 28 -167 83c-35 56 -45 120 -31 193c13 69 44 128 94 177c51 50 113 75 187 75c63 0 109 -22 140 -67zM418 249v1c13 75 -28 122 -97 122s-126 -47 -139 -122s27 -122 96 -122s127 48 140 121z" />
    <glyph glyph-name="ae" unicode="&#xe6;" horiz-adv-x="970" 
d="M749 514c69 0 122 -25 157 -75c35 -49 47 -112 34 -189c-3 -21 -9 -41 -16 -60h-358c7 -47 42 -70 103 -70c42 0 77 13 105 39l105 -86c-57 -58 -124 -87 -200 -87c-69 0 -121 21 -156 63l-9 -49h-140l8 45c-43 -39 -93 -59 -152 -59c-77 0 -132 28 -167 83
c-35 56 -45 120 -31 193c13 69 44 128 94 177c51 50 113 75 187 75c64 0 111 -20 141 -61l8 47h140l-6 -32c43 31 94 46 153 46zM587 304h212c-5 51 -35 77 -90 77s-96 -26 -122 -77zM278 128c69 0 127 48 140 121v1c13 75 -28 122 -97 122c-71 0 -128 -49 -141 -122
s27 -122 98 -122z" />
    <glyph glyph-name="ccedilla" unicode="&#xe7;" horiz-adv-x="535" 
d="M276 134c43 0 77 19 104 56l121 -77c-42 -68 -103 -109 -183 -122l-6 -37c40 -15 56 -43 49 -86c-13 -67 -93 -95 -241 -84l18 104c62 -5 95 0 98 14c2 10 -15 17 -50 20l13 71c-60 15 -105 46 -136 95s-41 107 -31 172c11 73 45 134 101 182s122 72 197 72
c104 0 180 -51 213 -130l-137 -72c-15 36 -45 54 -89 54c-67 0 -123 -46 -135 -114s29 -118 94 -118z" />
    <glyph glyph-name="egrave" unicode="&#xe8;" horiz-adv-x="582" 
d="M385 705l63 -140h-141l-95 140h173zM331 514c74 0 133 -25 176 -76c44 -51 59 -113 45 -188c-3 -21 -9 -41 -16 -60h-358c7 -47 42 -70 103 -70c42 0 77 13 105 39l105 -86c-57 -58 -131 -87 -220 -87c-85 0 -149 26 -193 79c-43 53 -59 118 -46 195
c11 73 45 133 102 181c57 49 122 73 197 73zM199 304h212c-5 51 -35 77 -90 77s-96 -26 -122 -77z" />
    <glyph glyph-name="eacute" unicode="&#xe9;" horiz-adv-x="582" 
d="M368 705h184l-136 -140h-148zM331 514c74 0 133 -25 176 -76c44 -51 59 -113 45 -188c-3 -21 -9 -41 -16 -60h-358c7 -47 42 -70 103 -70c42 0 77 13 105 39l105 -86c-57 -58 -131 -87 -220 -87c-85 0 -149 26 -193 79c-43 53 -59 118 -46 195c11 73 45 133 102 181
c57 49 122 73 197 73zM199 304h212c-5 51 -35 77 -90 77s-96 -26 -122 -77z" />
    <glyph glyph-name="ecircumflex" unicode="&#xea;" horiz-adv-x="582" 
d="M386 555l-23 55l-47 -55h-145l132 150h148l80 -150h-145zM331 514c74 0 133 -25 176 -76c44 -51 59 -113 45 -188c-3 -21 -9 -41 -16 -60h-358c7 -47 42 -70 103 -70c42 0 77 13 105 39l105 -86c-57 -58 -131 -87 -220 -87c-85 0 -149 26 -193 79c-43 53 -59 118 -46 195
c11 73 45 133 102 181c57 49 122 73 197 73zM199 304h212c-5 51 -35 77 -90 77s-96 -26 -122 -77z" />
    <glyph glyph-name="edieresis" unicode="&#xeb;" horiz-adv-x="582" 
d="M316 567c-35 -29 -82 -29 -106 0s-17 77 18 106s82 29 106 0s17 -77 -18 -106zM506 567c-35 -29 -82 -29 -106 0s-17 77 18 106s82 29 106 0s17 -77 -18 -106zM331 514c74 0 133 -25 176 -76c44 -51 59 -113 45 -188c-3 -21 -9 -41 -16 -60h-358c7 -47 42 -70 103 -70
c42 0 77 13 105 39l105 -86c-57 -58 -131 -87 -220 -87c-85 0 -149 26 -193 79c-43 53 -59 118 -46 195c11 73 45 133 102 181c57 49 122 73 197 73zM199 304h212c-5 51 -35 77 -90 77s-96 -26 -122 -77z" />
    <glyph glyph-name="igrave" unicode="&#xec;" horiz-adv-x="260" 
d="M253 550h-139l-45 150h160zM161 0l88 500h-150l-88 -500h150z" />
    <glyph glyph-name="iacute" unicode="&#xed;" horiz-adv-x="260" 
d="M108 550l66 150h170l-92 -150h-144zM11 0h150l88 500h-150z" />
    <glyph glyph-name="icircumflex" unicode="&#xee;" horiz-adv-x="260" 
d="M213 550l-19 44l-31 -44h-150l122 150h148l70 -150h-140zM161 0h-150l88 500h150z" />
    <glyph glyph-name="idieresis" unicode="&#xef;" horiz-adv-x="260" 
d="M149 567c-35 -29 -82 -29 -106 0s-17 77 18 106s82 29 106 0s17 -77 -18 -106zM329 567c-35 -29 -82 -29 -106 0s-17 77 18 106s82 29 106 0s17 -77 -18 -106zM161 0h-150l88 500h150z" />
    <glyph glyph-name="eth" unicode="&#xf0;" horiz-adv-x="569" 
d="M381 577l121 -207c29 -51 40 -101 32 -150c-13 -73 -46 -130 -100 -171c-53 -41 -115 -61 -186 -61c-133 -4 -248 103 -220 252c11 61 41 111 90 152s105 62 168 62l-37 68l-144 -60l18 105l83 34l-54 99h157l26 -45l142 59l-18 -105zM384 230c4 23 1 42 -8 59
c-15 26 -41 39 -78 39c-61 0 -111 -38 -120 -98c-12 -64 22 -102 85 -102s109 38 121 102z" />
    <glyph glyph-name="ntilde" unicode="&#xf1;" 
d="M337 587c-31 21 -45 16 -52 -24h-120c7 79 41 133 82 150c43 17 91 11 132 -17c29 -21 45 -16 52 24h120c-7 -79 -40 -133 -83 -150c-41 -17 -90 -11 -131 17zM388 514c54 0 96 -19 127 -56s41 -87 30 -151l-54 -307h-150l50 285c11 61 -20 91 -72 91
c-53 0 -96 -32 -109 -97l-49 -279h-150l88 500h150l-8 -47c37 41 86 61 147 61z" />
    <glyph glyph-name="ograve" unicode="&#xf2;" horiz-adv-x="590" 
d="M442 570h-141l-95 140h173zM264 -14c73 0 137 24 192 73s89 108 101 175c13 71 -1 136 -42 193c-41 58 -101 87 -181 87c-79 0 -146 -24 -199 -71s-87 -104 -101 -173c-19 -93 6 -182 83 -241c39 -29 88 -43 147 -43zM408 250c-12 -71 -69 -118 -134 -118
s-102 47 -90 118c13 71 67 118 132 118s105 -47 92 -118z" />
    <glyph glyph-name="oacute" unicode="&#xf3;" horiz-adv-x="590" 
d="M262 570l100 140h184l-136 -140h-148zM264 -14c73 0 137 24 192 73s89 108 101 175c13 71 -1 136 -42 193c-41 58 -101 87 -181 87c-79 0 -146 -24 -199 -71s-87 -104 -101 -173c-19 -93 6 -182 83 -241c39 -29 88 -43 147 -43zM408 250c-12 -71 -69 -118 -134 -118
s-102 47 -90 118c13 71 67 118 132 118s105 -47 92 -118z" />
    <glyph glyph-name="ocircumflex" unicode="&#xf4;" horiz-adv-x="590" 
d="M380 560l-23 55l-47 -55h-145l132 150h148l80 -150h-145zM334 514c80 0 140 -29 181 -87c41 -57 55 -122 42 -193c-12 -67 -46 -126 -101 -175s-119 -73 -192 -73c-59 0 -108 14 -147 43c-77 59 -102 148 -83 241c14 69 48 126 101 173s120 71 199 71zM408 250
c13 71 -27 118 -92 118s-119 -47 -132 -118c-12 -71 25 -118 90 -118s122 47 134 118z" />
    <glyph glyph-name="otilde" unicode="&#xf5;" horiz-adv-x="590" 
d="M291 563h-120c7 79 41 133 82 150c43 17 91 11 132 -17c29 -21 45 -16 52 24h120c-7 -79 -40 -133 -83 -150c-41 -17 -90 -11 -131 17c-31 21 -45 16 -52 -24zM264 -14c-59 0 -108 14 -147 43c-77 59 -102 148 -83 241c14 69 48 126 101 173s120 71 199 71
c80 0 140 -29 181 -87c41 -57 55 -122 42 -193c-12 -67 -46 -126 -101 -175s-119 -73 -192 -73zM408 250c13 71 -27 118 -92 118s-119 -47 -132 -118c-12 -71 25 -118 90 -118s122 47 134 118z" />
    <glyph glyph-name="odieresis" unicode="&#xf6;" horiz-adv-x="590" 
d="M310 572c-35 -29 -82 -29 -106 0s-17 77 18 106s82 29 106 0s17 -77 -18 -106zM500 572c-35 -29 -82 -29 -106 0s-17 77 18 106s82 29 106 0s17 -77 -18 -106zM264 -14c-59 0 -108 14 -147 43c-77 59 -102 148 -83 241c14 69 48 126 101 173s120 71 199 71
c80 0 140 -29 181 -87c41 -57 55 -122 42 -193c-12 -67 -46 -126 -101 -175s-119 -73 -192 -73zM408 250c13 71 -27 118 -92 118s-119 -47 -132 -118c-12 -71 25 -118 90 -118s122 47 134 118z" />
    <glyph glyph-name="divide" unicode="&#xf7;" horiz-adv-x="560" 
d="M385 482c-39 -33 -97 -34 -128 2c-29 36 -18 95 22 128s99 34 128 -2s18 -95 -22 -128zM525 280h-480l25 140h480zM316 88c-40 -33 -99 -34 -128 2s-18 95 22 128s99 34 128 -2s18 -95 -22 -128z" />
    <glyph glyph-name="oslash" unicode="&#xf8;" horiz-adv-x="590" 
d="M505 510l63 -35l-50 -51c39 -55 52 -119 39 -190c-12 -69 -45 -127 -98 -176c-53 -48 -118 -72 -195 -72c-54 0 -101 13 -141 39l-34 -35l-63 34l48 48c-42 56 -55 122 -40 198c14 69 48 126 101 173s120 71 199 71c53 0 98 -14 135 -41zM184 250c-4 -25 -3 -45 4 -62
l170 172c-14 5 -28 8 -42 8c-65 0 -119 -47 -132 -118zM408 250c4 23 3 43 -3 60l-169 -172c11 -4 23 -6 38 -6c65 0 122 47 134 118z" />
    <glyph glyph-name="ugrave" unicode="&#xf9;" 
d="M361 700l63 -140h-141l-95 140h173zM370 221l49 279h150l-88 -500h-150l8 47c-37 -41 -86 -61 -147 -61c-54 0 -97 18 -128 55s-40 88 -29 152l54 307h150l-50 -285c-11 -61 20 -91 72 -91c53 0 96 32 109 97z" />
    <glyph glyph-name="uacute" unicode="&#xfa;" 
d="M344 700h184l-136 -140h-148zM370 221l49 279h150l-88 -500h-150l8 47c-37 -41 -86 -61 -147 -61c-54 0 -97 18 -128 55s-40 88 -29 152l54 307h150l-50 -285c-11 -61 20 -91 72 -91c53 0 96 32 109 97z" />
    <glyph glyph-name="ucircumflex" unicode="&#xfb;" 
d="M362 550l-23 55l-47 -55h-145l132 150h148l80 -150h-145zM370 221l49 279h150l-88 -500h-150l8 47c-37 -41 -86 -61 -147 -61c-54 0 -97 18 -128 55s-40 88 -29 152l54 307h150l-50 -285c-11 -61 20 -91 72 -91c53 0 96 32 109 97z" />
    <glyph glyph-name="udieresis" unicode="&#xfc;" 
d="M292 562c-35 -29 -82 -29 -106 0s-17 77 18 106s82 29 106 0s17 -77 -18 -106zM482 562c-35 -29 -82 -29 -106 0s-17 77 18 106s82 29 106 0s17 -77 -18 -106zM370 221l49 279h150l-88 -500h-150l8 47c-37 -41 -86 -61 -147 -61c-54 0 -97 18 -128 55s-40 88 -29 152
l54 307h150l-50 -285c-11 -61 20 -91 72 -91c53 0 96 32 109 97z" />
    <glyph glyph-name="yacute" unicode="&#xfd;" horiz-adv-x="530" 
d="M316 700h184l-136 -140h-148zM260 194l148 306h166l-256 -485c-44 -83 -92 -141 -144 -173c-51 -32 -111 -46 -179 -42l24 140c36 0 63 6 82 17s37 33 54 65l-111 478h154z" />
    <glyph glyph-name="thorn" unicode="&#xfe;" horiz-adv-x="623" 
d="M391 514c71 0 125 -28 162 -83s49 -118 38 -191c-10 -68 -40 -127 -89 -178s-110 -76 -184 -76c-67 0 -116 24 -147 71l-45 -257h-150l158 900h150l-42 -242c41 37 90 56 149 56zM346 372c-71 0 -128 -49 -141 -122s27 -122 98 -122c69 0 125 47 138 122s-26 122 -95 122
z" />
    <glyph glyph-name="ydieresis" unicode="&#xff;" horiz-adv-x="530" 
d="M264 562c-35 -29 -82 -29 -106 0s-17 77 18 106s82 29 106 0s17 -77 -18 -106zM454 562c-35 -29 -82 -29 -106 0s-17 77 18 106s82 29 106 0s17 -77 -18 -106zM260 194l148 306h166l-256 -485c-44 -83 -92 -141 -144 -173c-51 -32 -111 -46 -179 -42l24 140
c36 0 63 6 82 17s37 33 54 65l-111 478h154z" />
    <glyph glyph-name="Amacron" unicode="&#x100;" horiz-adv-x="680" 
d="M301 879h300l-21 -120h-300zM636 0h-175l-14 110h-260l-56 -110h-175l361 700h204zM396 525l-134 -265h167z" />
    <glyph glyph-name="amacron" unicode="&#x101;" horiz-adv-x="623" 
d="M226 679h300l-21 -120h-300zM453 447l9 53h150l-88 -500h-150l6 34c-38 -32 -88 -48 -150 -48c-77 0 -132 28 -167 83c-35 56 -45 120 -31 193c13 69 44 128 94 177c51 50 113 75 187 75c63 0 109 -22 140 -67zM418 249v1c13 75 -28 122 -97 122s-126 -47 -139 -122
s27 -122 96 -122s127 48 140 121z" />
    <glyph glyph-name="Abreve" unicode="&#x102;" horiz-adv-x="680" 
d="M434 742c-113 0 -173 58 -156 150h132c-5 -29 8 -46 35 -46c29 0 46 15 51 46h132c-15 -96 -82 -150 -194 -150zM636 0h-175l-14 110h-260l-56 -110h-175l361 700h204zM396 525l-134 -265h167z" />
    <glyph glyph-name="abreve" unicode="&#x103;" horiz-adv-x="623" 
d="M359 542c-113 0 -173 58 -156 150h132c-5 -29 8 -46 35 -46c29 0 46 15 51 46h132c-15 -96 -82 -150 -194 -150zM453 447l9 53h150l-88 -500h-150l6 34c-38 -32 -88 -48 -150 -48c-77 0 -132 28 -167 83c-35 56 -45 120 -31 193c13 69 44 128 94 177c51 50 113 75 187 75
c63 0 109 -22 140 -67zM418 249v1c13 75 -28 122 -97 122s-126 -47 -139 -122s27 -122 96 -122s127 48 140 121z" />
    <glyph glyph-name="Aogonek" unicode="&#x104;" horiz-adv-x="680" 
d="M576 -78c-4 -16 3 -29 18 -29c8 0 16 1 24 4l-17 -94c-30 -11 -60 -17 -91 -17c-57 0 -96 40 -84 101c7 38 34 76 80 113h-45l-14 110h-260l-56 -110h-175l361 700h204l115 -700c-35 -31 -55 -57 -60 -78zM396 525l-134 -265h167z" />
    <glyph glyph-name="aogonek" unicode="&#x105;" horiz-adv-x="623" 
d="M453 447l9 53h150l-88 -500c-32 -29 -60 -69 -61 -92c-1 -13 5 -19 18 -19c8 0 16 1 24 4l-16 -90c-23 -11 -50 -17 -79 -17c-64 0 -108 33 -96 93c6 35 35 75 86 121h-26l6 34c-38 -32 -88 -48 -150 -48c-77 0 -132 28 -167 83c-35 56 -45 120 -31 193
c13 69 44 128 94 177c51 50 113 75 187 75c63 0 109 -22 140 -67zM418 249v1c13 75 -28 122 -97 122s-126 -47 -139 -122s27 -122 96 -122s127 48 140 121z" />
    <glyph glyph-name="Cacute" unicode="&#x106;" horiz-adv-x="723" 
d="M397 770l100 140h184l-136 -140h-148zM359 -14c128 0 245 60 321 160l-130 85c-45 -59 -105 -89 -182 -89c-58 0 -102 19 -131 57c-29 39 -39 89 -28 151c11 63 38 113 81 151c44 38 96 57 157 57c71 0 121 -28 148 -84l147 77c-47 103 -145 163 -278 163
c-104 0 -195 -33 -273 -100c-77 -67 -125 -151 -142 -254c-17 -104 3 -192 62 -265s141 -109 248 -109z" />
    <glyph glyph-name="cacute" unicode="&#x107;" horiz-adv-x="535" 
d="M249 560l100 140h184l-136 -140h-148zM265 -14c96 0 185 43 236 127l-121 77c-27 -37 -61 -56 -104 -56c-65 0 -106 50 -94 118s68 114 135 114c44 0 74 -18 89 -54l137 72c-33 79 -109 130 -213 130c-75 0 -141 -24 -197 -72s-90 -109 -101 -182c-12 -77 4 -142 48 -195
s106 -79 185 -79z" />
    <glyph glyph-name="Cdotaccent" unicode="&#x10a;" horiz-adv-x="723" 
d="M485 755c-47 0 -79 40 -70 85c8 47 54 85 99 85c47 0 79 -40 71 -85c-9 -47 -55 -85 -100 -85zM359 -14c-107 0 -189 36 -248 109s-79 161 -62 265c17 103 65 187 142 254c78 67 169 100 273 100c133 0 231 -60 278 -163l-147 -77c-27 56 -77 84 -148 84
c-61 0 -113 -19 -157 -57c-43 -38 -70 -88 -81 -151c-11 -62 -1 -112 28 -151c29 -38 73 -57 131 -57c77 0 137 30 182 89l130 -85c-76 -100 -193 -160 -321 -160z" />
    <glyph glyph-name="cdotaccent" unicode="&#x10b;" horiz-adv-x="535" 
d="M337 545c-47 0 -79 40 -70 85c8 47 54 85 99 85c47 0 79 -40 71 -85c-9 -47 -55 -85 -100 -85zM265 -14c-79 0 -141 26 -185 79s-60 118 -48 195c11 73 45 134 101 182s122 72 197 72c104 0 180 -51 213 -130l-137 -72c-15 36 -45 54 -89 54c-67 0 -123 -46 -135 -114
s29 -118 94 -118c43 0 77 19 104 56l121 -77c-51 -84 -140 -127 -236 -127z" />
    <glyph glyph-name="Ccaron" unicode="&#x10c;" horiz-adv-x="723" 
d="M554 760h-148l-80 150h140l25 -55l45 55h150zM368 142c77 0 137 30 182 89l130 -85c-76 -100 -193 -160 -321 -160c-107 0 -189 36 -248 109s-79 161 -62 265c17 103 65 187 142 254c78 67 169 100 273 100c133 0 231 -60 278 -163l-147 -77c-27 56 -77 84 -148 84
c-61 0 -113 -19 -157 -57c-43 -38 -70 -88 -81 -151c-11 -62 -1 -112 28 -151c29 -38 73 -57 131 -57z" />
    <glyph glyph-name="ccaron" unicode="&#x10d;" horiz-adv-x="535" 
d="M406 550h-148l-80 150h140l25 -55l45 55h150zM276 134c43 0 77 19 104 56l121 -77c-51 -84 -140 -127 -236 -127c-79 0 -141 26 -185 79s-60 118 -48 195c11 73 45 134 101 182s122 72 197 72c104 0 180 -51 213 -130l-137 -72c-15 36 -45 54 -89 54
c-67 0 -123 -46 -135 -114s29 -118 94 -118z" />
    <glyph glyph-name="Dcaron" unicode="&#x10e;" horiz-adv-x="712" 
d="M477 750h-148l-80 150h140l25 -55l45 55h150zM139 700h280c92 0 166 -35 221 -106c56 -71 75 -155 58 -254s-63 -181 -138 -245c-75 -63 -163 -95 -264 -95h-280zM544 355c21 119 -40 191 -152 191h-120l-69 -392h110c59 0 110 18 152 55s68 85 79 146z" />
    <glyph glyph-name="dcaron" unicode="&#x10f;" horiz-adv-x="751" 
d="M454 445l45 255h150l-123 -700h-150l6 36c-39 -33 -89 -50 -152 -50c-77 0 -132 28 -167 83c-35 56 -45 120 -31 193c13 69 44 128 94 177c51 50 113 75 187 75c64 0 111 -23 141 -69zM653 490l47 210h140l-67 -210h-120zM280 128c68 0 124 46 139 117l2 10
c9 72 -30 117 -98 117c-71 0 -128 -49 -141 -122s27 -122 98 -122z" />
    <glyph glyph-name="Dcroat" unicode="&#x110;" horiz-adv-x="753" 
d="M180 700h280c92 0 166 -35 221 -106c56 -71 75 -155 58 -254s-63 -181 -138 -245c-75 -63 -163 -95 -264 -95h-280l47 268h-80l25 144h80zM585 355c21 119 -40 191 -152 191h-120l-24 -134h140l-25 -144h-140l-20 -114h110c59 0 110 18 152 55s68 85 79 146z" />
    <glyph glyph-name="dslash" unicode="&#x111;" horiz-adv-x="628" 
d="M638 640h59l-17 -94h-58l-96 -546h-150l6 36c-39 -33 -89 -50 -152 -50c-77 0 -132 28 -167 83c-35 56 -45 120 -31 193c13 69 44 128 94 177c51 50 113 75 187 75c64 0 111 -23 141 -69l18 101h-142l17 94h141l11 60h150zM280 128c68 0 124 46 139 117l2 10
c9 72 -30 117 -98 117c-71 0 -128 -49 -141 -122s27 -122 98 -122z" />
    <glyph glyph-name="Emacron" unicode="&#x112;" horiz-adv-x="530" 
d="M239 879h300l-21 -120h-300zM574 700l-27 -154h-275l-21 -117h251l-27 -150h-250l-22 -125h280l-27 -154h-440l123 700h435z" />
    <glyph glyph-name="emacron" unicode="&#x113;" horiz-adv-x="582" 
d="M229 684h300l-21 -120h-300zM331 514c74 0 133 -25 176 -76c44 -51 59 -113 45 -188c-3 -21 -9 -41 -16 -60h-358c7 -47 42 -70 103 -70c42 0 77 13 105 39l105 -86c-57 -58 -131 -87 -220 -87c-85 0 -149 26 -193 79c-43 53 -59 118 -46 195c11 73 45 133 102 181
c57 49 122 73 197 73zM199 304h212c-5 51 -35 77 -90 77s-96 -26 -122 -77z" />
    <glyph glyph-name="Edotaccent" unicode="&#x116;" horiz-adv-x="530" 
d="M366 745c-47 0 -79 40 -70 85c8 47 54 85 99 85c47 0 79 -40 71 -85c-9 -47 -55 -85 -100 -85zM574 700l-27 -154h-275l-21 -117h251l-27 -150h-250l-22 -125h280l-27 -154h-440l123 700h435z" />
    <glyph glyph-name="edotaccent" unicode="&#x117;" horiz-adv-x="582" 
d="M356 550c-47 0 -79 40 -70 85c8 47 54 85 99 85c47 0 79 -40 71 -85c-9 -47 -55 -85 -100 -85zM331 514c74 0 133 -25 176 -76c44 -51 59 -113 45 -188c-3 -21 -9 -41 -16 -60h-358c7 -47 42 -70 103 -70c42 0 77 13 105 39l105 -86c-57 -58 -131 -87 -220 -87
c-85 0 -149 26 -193 79c-43 53 -59 118 -46 195c11 73 45 133 102 181c57 49 122 73 197 73zM199 304h212c-5 51 -35 77 -90 77s-96 -26 -122 -77z" />
    <glyph glyph-name="Eogonek" unicode="&#x118;" horiz-adv-x="530" 
d="M574 700l-27 -154h-275l-21 -117h251l-27 -150h-250l-22 -125h280l-27 -154c-35 -33 -55 -61 -60 -85c-4 -17 2 -26 17 -26c5 -1 13 1 24 4l-16 -90c-30 -11 -60 -17 -91 -17c-59 0 -95 31 -84 91c7 37 35 78 86 123h-316l123 700h435z" />
    <glyph glyph-name="eogonek" unicode="&#x119;" horiz-adv-x="582" 
d="M331 514c74 0 133 -25 176 -76c44 -51 59 -113 45 -188c-3 -21 -9 -41 -16 -60h-358c7 -47 42 -70 103 -70c42 0 77 13 105 39l105 -86c-13 -13 -27 -25 -41 -35c-53 -45 -84 -84 -92 -119c-4 -20 3 -30 20 -30c7 0 15 1 22 4l-16 -90c-25 -11 -52 -17 -82 -17
c-71 0 -104 39 -95 91c6 33 32 70 79 109h-15c-85 0 -149 26 -193 79c-43 53 -59 118 -46 195c11 73 45 133 102 181c57 49 122 73 197 73zM199 304h212c-5 51 -35 77 -90 77s-96 -26 -122 -77z" />
    <glyph glyph-name="Ecaron" unicode="&#x11a;" horiz-adv-x="530" 
d="M435 750h-148l-80 150h140l25 -55l45 55h150zM574 700l-27 -154h-275l-21 -117h251l-27 -150h-250l-22 -125h280l-27 -154h-440l123 700h435z" />
    <glyph glyph-name="ecaron" unicode="&#x11b;" horiz-adv-x="582" 
d="M425 555h-148l-80 150h140l25 -55l45 55h150zM331 514c74 0 133 -25 176 -76c44 -51 59 -113 45 -188c-3 -21 -9 -41 -16 -60h-358c7 -47 42 -70 103 -70c42 0 77 13 105 39l105 -86c-57 -58 -131 -87 -220 -87c-85 0 -149 26 -193 79c-43 53 -59 118 -46 195
c11 73 45 133 102 181c57 49 122 73 197 73zM199 304h212c-5 51 -35 77 -90 77s-96 -26 -122 -77z" />
    <glyph glyph-name="Gbreve" unicode="&#x11e;" horiz-adv-x="784" 
d="M491 752c-113 0 -173 58 -156 150h132c-5 -29 8 -46 35 -46c29 0 46 15 51 46h132c-15 -96 -82 -150 -194 -150zM427 390h351l-10 -60c-18 -107 -64 -192 -139 -253c-74 -61 -163 -91 -267 -91c-108 0 -192 36 -251 109s-79 161 -62 265c17 103 65 187 142 254
c78 67 169 100 273 100c139 0 241 -61 293 -168l-147 -77c-32 59 -86 89 -163 89c-61 0 -113 -19 -157 -57c-43 -38 -70 -88 -81 -151s-2 -113 29 -151s78 -57 140 -57c100 0 168 36 205 108h-180z" />
    <glyph glyph-name="gbreve" unicode="&#x11f;" horiz-adv-x="624" 
d="M355 552c-113 0 -173 58 -156 150h132c-5 -29 8 -46 35 -46c29 0 46 15 51 46h132c-15 -96 -82 -150 -194 -150zM457 441l10 59h146l-84 -475c-29 -168 -140 -239 -289 -239c-119 0 -196 40 -233 121l134 70c19 -39 56 -59 110 -59c72 0 120 38 132 107l6 35
c-39 -36 -89 -54 -150 -54c-77 0 -133 26 -169 79s-48 116 -36 187c11 65 41 122 90 170s110 72 183 72c71 0 121 -24 150 -73zM283 146c67 0 124 43 140 104l4 21c5 61 -36 103 -103 103c-71 0 -129 -47 -141 -114s29 -114 100 -114z" />
    <glyph glyph-name="Gdotaccent" unicode="&#x120;" horiz-adv-x="784" 
d="M485 755c-47 0 -79 40 -70 85c8 47 54 85 99 85c47 0 79 -40 71 -85c-9 -47 -55 -85 -100 -85zM427 390h351l-10 -60c-18 -107 -64 -192 -139 -253c-74 -61 -163 -91 -267 -91c-108 0 -192 36 -251 109s-79 161 -62 265c17 103 65 187 142 254c78 67 169 100 273 100
c139 0 241 -61 293 -168l-147 -77c-32 59 -86 89 -163 89c-61 0 -113 -19 -157 -57c-43 -38 -70 -88 -81 -151s-2 -113 29 -151s78 -57 140 -57c100 0 168 36 205 108h-180z" />
    <glyph glyph-name="gdotaccent" unicode="&#x121;" horiz-adv-x="624" 
d="M349 555c-47 0 -79 40 -70 85c8 47 54 85 99 85c47 0 79 -40 71 -85c-9 -47 -55 -85 -100 -85zM457 441l10 59h146l-84 -475c-29 -168 -140 -239 -289 -239c-119 0 -196 40 -233 121l134 70c19 -39 56 -59 110 -59c72 0 120 38 132 107l6 35c-39 -36 -89 -54 -150 -54
c-77 0 -133 26 -169 79s-48 116 -36 187c11 65 41 122 90 170s110 72 183 72c71 0 121 -24 150 -73zM283 146c67 0 124 43 140 104l4 21c5 61 -36 103 -103 103c-71 0 -129 -47 -141 -114s29 -114 100 -114z" />
    <glyph glyph-name="Gcommaaccent" unicode="&#x122;" horiz-adv-x="784" 
d="M427 390h351l-10 -60c-18 -107 -64 -192 -139 -253c-74 -61 -163 -91 -267 -91c-108 0 -192 36 -251 109s-79 161 -62 265c17 103 65 187 142 254c78 67 169 100 273 100c139 0 241 -61 293 -168l-147 -77c-32 59 -86 89 -163 89c-61 0 -113 -19 -157 -57
c-43 -38 -70 -88 -81 -151s-2 -113 29 -151s78 -57 140 -57c100 0 168 36 205 108h-180zM351 -270h-120l47 210h140z" />
    <glyph glyph-name="gcommaaccent" unicode="&#x123;" horiz-adv-x="624" 
d="M343 790h120l-47 -210h-140zM457 441l10 59h146l-84 -475c-29 -168 -140 -239 -289 -239c-119 0 -196 40 -233 121l134 70c19 -39 56 -59 110 -59c72 0 120 38 132 107l6 35c-39 -36 -89 -54 -150 -54c-77 0 -133 26 -169 79s-48 116 -36 187c11 65 41 122 90 170
s110 72 183 72c71 0 121 -24 150 -73zM283 146c67 0 124 43 140 104l4 21c5 61 -36 103 -103 103c-71 0 -129 -47 -141 -114s29 -114 100 -114z" />
    <glyph glyph-name="Hbar" unicode="&#x126;" horiz-adv-x="700" 
d="M684 613h60l-20 -116h-61l-87 -497h-160l44 253h-220l-44 -253h-160l87 497h-59l20 116h60l15 87h160l-15 -87h220l15 87h160zM268 407h220l15 90h-220z" />
    <glyph glyph-name="hbar" unicode="&#x127;" horiz-adv-x="585" 
d="M393 514c54 0 96 -19 127 -56s41 -87 30 -151l-54 -307h-150l50 285c11 61 -20 91 -72 91c-55 0 -98 -34 -110 -103l-48 -273h-150l96 546h-60l17 94h59l11 60h150l-11 -60h141l-17 -94h-140l-16 -93c37 41 86 61 147 61z" />
    <glyph glyph-name="Imacron" unicode="&#x12a;" horiz-adv-x="280" 
d="M380 759h-300l21 120h300zM16 0l123 700h160l-123 -700h-160z" />
    <glyph glyph-name="imacron" unicode="&#x12b;" horiz-adv-x="260" 
d="M305 559h-240l22 130h240zM161 0h-150l88 500h150z" />
    <glyph glyph-name="Iogonek" unicode="&#x12e;" horiz-adv-x="280" 
d="M299 700l-123 -700c-30 -35 -46 -63 -48 -86c-1 -17 5 -25 20 -25c5 -1 13 1 24 4l-16 -90c-30 -11 -60 -17 -91 -17c-60 0 -90 37 -85 89c5 41 29 83 71 125h-35l123 700h160z" />
    <glyph glyph-name="iogonek" unicode="&#x12f;" horiz-adv-x="260" 
d="M108 634c8 48 55 90 104 90s84 -41 76 -90s-54 -90 -105 -90s-83 41 -75 90zM32 0h-21l88 500h150l-88 -500c-28 -35 -44 -64 -48 -87c-2 -16 4 -24 18 -24c5 -1 13 1 24 4l-16 -90c-28 -11 -58 -17 -91 -17c-56 0 -89 36 -85 84c3 37 26 81 69 130z" />
    <glyph glyph-name="Idot" unicode="&#x130;" horiz-adv-x="280" 
d="M228 745c-47 0 -79 40 -70 85c8 47 54 85 99 85c47 0 79 -40 71 -85c-9 -47 -55 -85 -100 -85zM16 0l123 700h160l-123 -700h-160z" />
    <glyph glyph-name="dotlessi" unicode="&#x131;" horiz-adv-x="260" 
d="M161 0h-150l88 500h150z" />
    <glyph glyph-name="Kcommaaccent" unicode="&#x136;" horiz-adv-x="626" 
d="M516 700h189l-318 -344l195 -356h-165l-183 333l-58 -333h-160l123 700h160l-52 -293zM263 -270h-120l47 210h140z" />
    <glyph glyph-name="kcommaaccent" unicode="&#x137;" horiz-adv-x="525" 
d="M391 500h173l-221 -250l138 -250h-160l-120 228l-40 -228h-150l123 700h150l-72 -407zM241 -270h-120l47 210h140z" />
    <glyph glyph-name="Lacute" unicode="&#x139;" horiz-adv-x="480" 
d="M252 900h184l-136 -140h-148zM299 700l-96 -546h250l-27 -154h-410l27 154l96 546h160z" />
    <glyph glyph-name="lacute" unicode="&#x13a;" horiz-adv-x="261" 
d="M142 760l100 140h184l-136 -140h-148zM12 0h150l55 312l73 418h-150l-72 -411z" />
    <glyph glyph-name="Lcommaaccent" unicode="&#x13b;" horiz-adv-x="480" 
d="M299 700l-96 -546h250l-27 -154h-410l27 154l96 546h160zM216 -270h-120l47 210h140z" />
    <glyph glyph-name="lcommaaccent" unicode="&#x13c;" horiz-adv-x="261" 
d="M162 0h-150l56 319l72 411h150l-73 -418zM81 -270h-120l47 210h140z" />
    <glyph glyph-name="Lcaron" unicode="&#x13d;" horiz-adv-x="480" 
d="M139 700h160l-96 -546h250l-27 -154h-410l27 154zM364 700h150l-63 -190h-130z" />
    <glyph glyph-name="lcaron" unicode="&#x13e;" horiz-adv-x="376" 
d="M162 0h-150l56 319l72 411h150l-73 -418zM404 520h-120l47 210h140z" />
    <glyph glyph-name="Lslash" unicode="&#x141;" horiz-adv-x="510" 
d="M260 307l-27 -153h250l-27 -154h-410l27 154l9 48l-67 -39l28 163l67 39l59 335h160l-40 -230l134 79l-29 -163z" />
    <glyph glyph-name="lslash" unicode="&#x142;" horiz-adv-x="270" 
d="M248 466l56 34l-25 -143l-56 -34l-2 -11l-55 -312h-150l39 220l-56 -34l25 143l56 34l64 367h150z" />
    <glyph glyph-name="Nacute" unicode="&#x143;" horiz-adv-x="670" 
d="M335 760l100 140h184l-136 -140h-148zM16 0h160l70 393l200 -393h120l123 700h-160l-69 -393l-201 393h-120z" />
    <glyph glyph-name="nacute" unicode="&#x144;" 
d="M356 710h184l-136 -140h-148zM388 514c54 0 96 -19 127 -56s41 -87 30 -151l-54 -307h-150l50 285c11 61 -20 91 -72 91c-53 0 -96 -32 -109 -97l-49 -279h-150l88 500h150l-8 -47c37 41 86 61 147 61z" />
    <glyph glyph-name="Ncommaaccent" unicode="&#x145;" horiz-adv-x="670" 
d="M176 0h-160l123 700h120l201 -393l69 393h160l-123 -700h-120l-200 393zM291 -270h-120l47 210h140z" />
    <glyph glyph-name="ncommaaccent" unicode="&#x146;" 
d="M388 514c54 0 96 -19 127 -56s41 -87 30 -151l-54 -307h-150l50 285c11 61 -20 91 -72 91c-53 0 -96 -32 -109 -97l-49 -279h-150l88 500h150l-8 -47c37 41 86 61 147 61zM254 -270h-120l47 210h140z" />
    <glyph glyph-name="Ncaron" unicode="&#x147;" horiz-adv-x="670" 
d="M492 750h-148l-80 150h140l25 -55l45 55h150zM460 307l69 393h160l-123 -700h-120l-200 393l-70 -393h-160l123 700h120z" />
    <glyph glyph-name="ncaron" unicode="&#x148;" 
d="M413 560h-148l-80 150h140l25 -55l45 55h150zM388 514c54 0 96 -19 127 -56s41 -87 30 -151l-54 -307h-150l50 285c11 61 -20 91 -72 91c-53 0 -96 -32 -109 -97l-49 -279h-150l88 500h150l-8 -47c37 41 86 61 147 61z" />
    <glyph glyph-name="Eng" unicode="&#x14a;" horiz-adv-x="670" 
d="M460 307l69 393h160l-123 -700c-25 -145 -111 -215 -275 -200l26 145c53 -1 83 17 92 69l8 44l-171 335l-70 -393h-160l123 700h120z" />
    <glyph glyph-name="eng" unicode="&#x14b;" 
d="M388 514c54 0 96 -19 127 -56s41 -87 30 -151l-54 -307c-27 -152 -109 -223 -258 -214l26 144c46 -5 73 18 82 70l50 285c11 61 -20 91 -72 91c-53 0 -96 -32 -109 -97l-49 -279h-150l88 500h150l-8 -47c37 41 86 61 147 61z" />
    <glyph glyph-name="Omacron" unicode="&#x14c;" horiz-adv-x="788" 
d="M636 769h-300l21 120h300zM352 -14c-101 0 -182 37 -242 110c-59 73 -80 161 -61 264c18 104 66 189 143 255c78 66 171 99 280 99c100 0 180 -37 239 -110c60 -73 81 -161 63 -264c-19 -104 -67 -189 -144 -255s-170 -99 -278 -99zM369 142c59 0 111 19 158 58
s76 89 87 150s0 111 -32 150c-31 39 -76 58 -134 58s-110 -19 -155 -58s-73 -89 -84 -150c-11 -62 -1 -112 29 -151c30 -38 74 -57 131 -57z" />
    <glyph glyph-name="omacron" unicode="&#x14d;" horiz-adv-x="590" 
d="M502 569h-300l21 120h300zM264 -14c-59 0 -108 14 -147 43c-77 59 -102 148 -83 241c14 69 48 126 101 173s120 71 199 71c80 0 140 -29 181 -87c41 -57 55 -122 42 -193c-12 -67 -46 -126 -101 -175s-119 -73 -192 -73zM408 250c13 71 -27 118 -92 118
s-119 -47 -132 -118c-12 -71 25 -118 90 -118s122 47 134 118z" />
    <glyph glyph-name="Ohungarumlaut" unicode="&#x150;" horiz-adv-x="788" 
d="M294 760l105 140h154l-111 -140h-148zM477 760l115 140h154l-121 -140h-148zM352 -14c108 0 201 33 278 99s125 151 144 255c18 103 -3 191 -63 264c-59 73 -139 110 -239 110c-109 0 -202 -33 -280 -99c-77 -66 -125 -151 -143 -255c-19 -103 2 -191 61 -264
c60 -73 141 -110 242 -110zM369 142c-57 0 -101 19 -131 57c-30 39 -40 89 -29 151c11 61 39 111 84 150s97 58 155 58s103 -19 134 -58c32 -39 43 -89 32 -150s-40 -111 -87 -150s-99 -58 -158 -58z" />
    <glyph glyph-name="ohungarumlaut" unicode="&#x151;" horiz-adv-x="590" 
d="M160 560l105 140h154l-111 -140h-148zM343 560l115 140h154l-121 -140h-148zM264 -14c73 0 137 24 192 73s89 108 101 175c13 71 -1 136 -42 193c-41 58 -101 87 -181 87c-79 0 -146 -24 -199 -71s-87 -104 -101 -173c-19 -93 6 -182 83 -241c39 -29 88 -43 147 -43z
M408 250c-12 -71 -69 -118 -134 -118s-102 47 -90 118c13 71 67 118 132 118s105 -47 92 -118z" />
    <glyph glyph-name="OE" unicode="&#x152;" horiz-adv-x="916" 
d="M960 700l-27 -154h-235l-21 -117h211l-27 -150h-210l-22 -125h240l-27 -154h-400c-35 -9 -70 -14 -104 -14c-100 0 -178 36 -234 109c-55 73 -74 162 -55 265c18 102 66 186 144 253c79 67 166 101 263 101c41 0 78 -5 109 -14h395zM470 157l67 386c-25 10 -58 15 -99 15
c-57 0 -107 -19 -150 -58c-42 -38 -68 -88 -79 -150c-23 -125 38 -208 151 -208c44 0 81 5 110 15z" />
    <glyph glyph-name="oe" unicode="&#x153;" horiz-adv-x="960" 
d="M719 514c69 0 124 -25 166 -76s57 -113 45 -188c-3 -21 -9 -41 -16 -60h-358c7 -47 42 -70 103 -70c42 0 77 13 105 39l105 -86c-57 -58 -129 -87 -214 -87c-94 0 -160 32 -198 95c-55 -63 -122 -95 -203 -95c-57 0 -104 14 -141 41c-75 55 -97 140 -81 233
c12 70 44 130 96 179c53 50 119 75 199 75c79 0 138 -32 176 -95c56 63 128 95 216 95zM577 304h212c-5 51 -35 77 -90 77s-96 -26 -122 -77zM410 250c13 69 -27 118 -94 118c-65 0 -121 -47 -134 -118c-12 -71 27 -118 92 -118c67 0 124 49 136 118z" />
    <glyph glyph-name="Racute" unicode="&#x154;" horiz-adv-x="615" 
d="M380 900h184l-136 -140h-148zM617 450c-17 -93 -78 -165 -163 -198l102 -252h-162l-91 230h-87l-40 -230h-160l123 700h270c67 0 121 -25 163 -76c42 -50 57 -108 45 -174zM383 550h-110l-32 -180h120c48 0 87 38 96 90s-21 90 -74 90z" />
    <glyph glyph-name="racute" unicode="&#x155;" horiz-adv-x="371" 
d="M262 700h184l-136 -140h-148zM249 500l-16 -90c29 65 93 100 168 100l-29 -170c-22 3 -44 3 -67 -2c-44 -9 -93 -48 -104 -112l1 6l-41 -232h-150l88 500h150z" />
    <glyph glyph-name="Rcommaaccent" unicode="&#x156;" horiz-adv-x="615" 
d="M617 450c-17 -93 -78 -165 -163 -198l102 -252h-162l-91 230h-87l-40 -230h-160l123 700h270c67 0 121 -25 163 -76c42 -50 57 -108 45 -174zM383 550h-110l-32 -180h120c48 0 87 38 96 90s-21 90 -74 90zM291 -270h-120l47 210h140z" />
    <glyph glyph-name="rcommaaccent" unicode="&#x157;" horiz-adv-x="371" 
d="M249 500l-16 -90c29 65 93 100 168 100l-29 -170c-22 3 -44 3 -67 -2c-44 -9 -93 -48 -104 -112l1 6l-41 -232h-150l88 500h150zM82 -270h-120l47 210h140z" />
    <glyph glyph-name="Rcaron" unicode="&#x158;" horiz-adv-x="615" 
d="M437 750h-148l-80 150h140l25 -55l45 55h150zM617 450c-17 -93 -78 -165 -163 -198l102 -252h-162l-91 230h-87l-40 -230h-160l123 700h270c67 0 121 -25 163 -76c42 -50 57 -108 45 -174zM383 550h-110l-32 -180h120c48 0 87 38 96 90s-21 90 -74 90z" />
    <glyph glyph-name="rcaron" unicode="&#x159;" horiz-adv-x="371" 
d="M319 550h-148l-80 150h140l25 -55l45 55h150zM249 500l-16 -90c29 65 93 100 168 100l-29 -170c-22 3 -44 3 -67 -2c-44 -9 -93 -48 -104 -112l1 6l-41 -232h-150l88 500h150z" />
    <glyph glyph-name="Sacute" unicode="&#x15a;" horiz-adv-x="586" 
d="M297 770l100 140h184l-136 -140h-148zM270 -14c152 0 259 71 282 199c14 79 -8 123 -45 160c-23 22 -50 36 -81 49c-24 11 -37 15 -62 24c-84 31 -116 50 -108 89c7 31 36 53 84 53c51 0 89 -26 114 -78l140 74c-36 101 -125 158 -240 158c-65 0 -122 -17 -171 -50
s-79 -83 -90 -148c-11 -62 0 -110 32 -145c33 -34 82 -62 148 -84c89 -31 122 -48 114 -88c-7 -39 -42 -59 -103 -59c-72 0 -117 31 -134 94l-146 -75c25 -107 119 -173 266 -173z" />
    <glyph glyph-name="sacute" unicode="&#x15b;" horiz-adv-x="468" 
d="M202 570l100 140h184l-136 -140h-148zM206 -14c113 0 198 48 217 149c22 119 -67 154 -136 167c-48 12 -86 24 -81 51c4 21 21 31 51 31c31 0 53 -15 65 -44l135 67c-32 67 -103 107 -191 107c-89 0 -191 -45 -210 -151c-22 -113 66 -152 135 -169c48 -13 87 -27 83 -48
c-3 -17 -21 -26 -55 -26c-45 0 -74 19 -89 57l-135 -68c37 -82 108 -123 211 -123z" />
    <glyph glyph-name="Scedilla" unicode="&#x15e;" horiz-adv-x="586" 
d="M364 418c25 -9 38 -13 62 -24c31 -13 58 -27 81 -49c37 -37 59 -81 45 -160c-20 -112 -104 -180 -228 -196l-6 -35c40 -15 56 -43 49 -86c-13 -67 -93 -95 -241 -84l18 104c62 -5 95 0 98 14c2 10 -15 17 -50 20l12 69c-109 17 -179 79 -200 168l146 75
c17 -63 62 -94 134 -94c61 0 96 20 103 59c8 40 -25 57 -114 88c-66 22 -115 50 -148 84c-32 35 -43 83 -32 145c11 65 41 115 90 148s106 50 171 50c115 0 204 -57 240 -158l-140 -74c-25 52 -63 78 -114 78c-48 0 -77 -22 -84 -53c-8 -39 24 -58 108 -89z" />
    <glyph glyph-name="scedilla" unicode="&#x15f;" horiz-adv-x="468" 
d="M206 353c-5 -27 33 -39 81 -51c69 -13 158 -48 136 -167c-15 -81 -73 -129 -157 -144l-6 -37c40 -15 56 -43 49 -86c-13 -67 -93 -95 -241 -84l18 104c62 -5 95 0 98 14c2 10 -15 17 -50 20l12 69c-71 14 -121 53 -151 118l135 68c15 -38 44 -57 89 -57c34 0 52 9 55 26
c4 21 -35 35 -83 48c-69 17 -157 56 -135 169c19 106 121 151 210 151c88 0 159 -40 191 -107l-135 -67c-12 29 -34 44 -65 44c-30 0 -47 -10 -51 -31z" />
    <glyph glyph-name="Scaron" unicode="&#x160;" horiz-adv-x="586" 
d="M454 760h-148l-80 150h140l25 -55l45 55h150zM364 418c25 -9 38 -13 62 -24c31 -13 58 -27 81 -49c37 -37 59 -81 45 -160c-23 -128 -130 -199 -282 -199c-147 0 -241 66 -266 173l146 75c17 -63 62 -94 134 -94c61 0 96 20 103 59c8 40 -25 57 -114 88
c-66 22 -115 50 -148 84c-32 35 -43 83 -32 145c11 65 41 115 90 148s106 50 171 50c115 0 204 -57 240 -158l-140 -74c-25 52 -63 78 -114 78c-48 0 -77 -22 -84 -53c-8 -39 24 -58 108 -89z" />
    <glyph glyph-name="scaron" unicode="&#x161;" horiz-adv-x="468" 
d="M359 560h-148l-80 150h140l25 -55l45 55h150zM257 384c-30 0 -47 -10 -51 -31c-5 -27 33 -39 81 -51c69 -13 158 -48 136 -167c-19 -101 -104 -149 -217 -149c-103 0 -174 41 -211 123l135 68c15 -38 44 -57 89 -57c34 0 52 9 55 26c4 21 -35 35 -83 48
c-69 17 -157 56 -135 169c19 106 121 151 210 151c88 0 159 -40 191 -107l-135 -67c-12 29 -34 44 -65 44z" />
    <glyph glyph-name="uni0162" unicode="&#x162;" horiz-adv-x="540" 
d="M89 700h520l-27 -154h-180l-96 -546h-160l96 546h-180zM221 -270h-120l47 210h140z" />
    <glyph glyph-name="uni0163" unicode="&#x163;" horiz-adv-x="389" 
d="M367 356h-103l-31 -177c-8 -41 21 -48 96 -43l-24 -136c-179 -20 -247 38 -222 179l31 177h-80l26 144h79l17 95l158 45l-25 -140h104zM181 -270h-120l47 210h140z" />
    <glyph glyph-name="Tcaron" unicode="&#x164;" horiz-adv-x="540" 
d="M427 750h-148l-80 150h140l25 -55l45 55h150zM89 700h520l-27 -154h-180l-96 -546h-160l96 546h-180z" />
    <glyph glyph-name="tcaron" unicode="&#x165;" horiz-adv-x="416" 
d="M338 540l43 190h140l-63 -190h-120zM156 595l158 45l-25 -140h104l-26 -144h-103l-31 -177c-8 -41 21 -48 96 -43l-24 -136c-179 -20 -247 38 -222 179l31 177h-80l26 144h79z" />
    <glyph glyph-name="Tbar" unicode="&#x166;" horiz-adv-x="540" 
d="M609 700l-27 -154h-180l-24 -134h110l-25 -144h-110l-47 -268h-160l47 268h-110l25 144h110l24 134h-180l27 154h520z" />
    <glyph glyph-name="tbar" unicode="&#x167;" horiz-adv-x="389" 
d="M393 500l-26 -144h-103l-8 -48h75l-21 -120h-75l-2 -9c-8 -41 21 -48 96 -43l-24 -136c-179 -20 -247 38 -222 179l2 9h-55l21 120h55l8 48h-80l26 144h79l17 95l158 45l-25 -140h104z" />
    <glyph glyph-name="Umacron" unicode="&#x16a;" horiz-adv-x="641" 
d="M561 759h-300l21 120h300zM290 -14c-84 0 -149 22 -195 67c-45 45 -62 103 -49 173l84 474h160l-81 -460c-11 -65 20 -98 93 -98s116 33 127 98l81 460h160l-84 -474c-28 -159 -143 -240 -296 -240z" />
    <glyph glyph-name="umacron" unicode="&#x16b;" 
d="M205 679h300l-21 -120h-300zM370 221l49 279h150l-88 -500h-150l8 47c-37 -41 -86 -61 -147 -61c-54 0 -97 18 -128 55s-40 88 -29 152l54 307h150l-50 -285c-11 -61 20 -91 72 -91c53 0 96 32 109 97z" />
    <glyph glyph-name="Uring" unicode="&#x16e;" horiz-adv-x="641" 
d="M404 705c-38 0 -68 13 -90 38s-30 56 -24 91c13 72 75 121 152 121c39 0 69 -13 91 -38s30 -55 23 -91c-12 -72 -72 -121 -152 -121zM417 796c25 0 39 11 42 33c4 20 -7 35 -30 35s-36 -11 -41 -33c-3 -20 6 -35 29 -35zM290 -14c-84 0 -149 22 -195 67
c-45 45 -62 103 -49 173l84 474h160l-81 -460c-11 -65 20 -98 93 -98s116 33 127 98l81 460h160l-84 -474c-28 -159 -143 -240 -296 -240z" />
    <glyph glyph-name="uring" unicode="&#x16f;" 
d="M332 535c-38 0 -68 13 -90 38s-30 56 -24 91c13 72 75 121 152 121c39 0 69 -13 91 -38s30 -55 23 -91c-12 -72 -72 -121 -152 -121zM316 661c-3 -20 6 -35 29 -35c25 0 39 11 42 33c4 20 -7 35 -30 35s-36 -11 -41 -33zM370 221l49 279h150l-88 -500h-150l8 47
c-37 -41 -86 -61 -147 -61c-54 0 -97 18 -128 55s-40 88 -29 152l54 307h150l-50 -285c-11 -61 20 -91 72 -91c53 0 96 32 109 97z" />
    <glyph glyph-name="Uhungarumlaut" unicode="&#x170;" horiz-adv-x="641" 
d="M219 750l105 140h154l-111 -140h-148zM402 750l115 140h154l-121 -140h-148zM290 -14c153 0 268 81 296 240l84 474h-160l-81 -460c-11 -65 -54 -98 -127 -98s-104 33 -93 98l81 460h-160l-84 -474c-13 -70 4 -128 49 -173c46 -45 111 -67 195 -67z" />
    <glyph glyph-name="uhungarumlaut" unicode="&#x171;" 
d="M247 690h154l-111 -140h-148zM594 690l-121 -140h-148l115 140h154zM370 221l49 279h150l-88 -500h-150l8 47c-37 -41 -86 -61 -147 -61c-54 0 -97 18 -128 55s-40 88 -29 152l54 307h150l-50 -285c-11 -61 20 -91 72 -91c53 0 96 32 109 97z" />
    <glyph glyph-name="Uogonek" unicode="&#x172;" horiz-adv-x="641" 
d="M429 240l81 460h160l-84 -474c-15 -82 -51 -144 -109 -185c-77 -60 -109 -91 -117 -126c-3 -16 2 -25 17 -26c6 -1 14 1 24 4l-16 -90c-30 -11 -58 -17 -84 -17c-71 0 -103 45 -91 101c7 37 30 70 67 99c-81 3 -142 26 -185 71s-58 101 -46 169l84 474h160l-81 -460
c-11 -65 20 -98 93 -98s116 33 127 98z" />
    <glyph glyph-name="uogonek" unicode="&#x173;" 
d="M370 221l49 279h150l-88 -500h-3c-32 -29 -60 -69 -61 -92c-1 -13 5 -19 18 -19c8 0 16 1 24 4l-16 -90c-23 -11 -49 -17 -77 -17c-64 0 -109 30 -98 93c7 35 35 76 86 121h-23l8 47c-37 -41 -86 -61 -147 -61c-54 0 -97 18 -128 55s-40 88 -29 152l54 307h150l-50 -285
c-11 -61 20 -91 72 -91c53 0 96 32 109 97z" />
    <glyph glyph-name="Wcircumflex" unicode="&#x174;" horiz-adv-x="998" 
d="M617 750l-23 55l-47 -55h-145l132 150h148l80 -150h-145zM686 210l207 490h174l-316 -700h-182l-42 413l-186 -413h-182l-70 700h160l37 -490l221 490h130z" />
    <glyph glyph-name="wcircumflex" unicode="&#x175;" horiz-adv-x="780" 
d="M473 550l-23 55l-47 -55h-145l132 150h148l80 -150h-145zM532 232l117 268h165l-248 -500h-140l-33 263l-117 -263h-150l-72 500h150l31 -268l119 268h145z" />
    <glyph glyph-name="Ycircumflex" unicode="&#x176;" horiz-adv-x="610" 
d="M423 750l-23 55l-47 -55h-145l132 150h148l80 -150h-145zM498 700h191l-294 -394l-54 -306h-160l54 307l-156 393h173l82 -236z" />
    <glyph glyph-name="ycircumflex" unicode="&#x177;" horiz-adv-x="530" 
d="M334 550l-23 55l-47 -55h-145l132 150h148l80 -150h-145zM260 194l148 306h166l-256 -485c-44 -83 -92 -141 -144 -173c-51 -32 -111 -46 -179 -42l24 140c36 0 63 6 82 17s37 33 54 65l-111 478h154z" />
    <glyph glyph-name="Ydieresis" unicode="&#x178;" horiz-adv-x="610" 
d="M353 762c-35 -29 -82 -29 -106 0s-17 77 18 106s82 29 106 0s17 -77 -18 -106zM543 762c-35 -29 -82 -29 -106 0s-17 77 18 106s82 29 106 0s17 -77 -18 -106zM498 700h191l-294 -394l-54 -306h-160l54 307l-156 393h173l82 -236z" />
    <glyph glyph-name="Zacute" unicode="&#x179;" horiz-adv-x="540" 
d="M375 900h184l-136 -140h-148zM119 700h470l-21 -124l-340 -422h270l-27 -154h-480l22 124l341 422h-262z" />
    <glyph glyph-name="zacute" unicode="&#x17a;" horiz-adv-x="455" 
d="M295 700h184l-136 -140h-148zM232 360h-173l25 140h380l-17 -100l-229 -260h193l-25 -140h-400l18 100z" />
    <glyph glyph-name="Zdotaccent" unicode="&#x17b;" horiz-adv-x="540" 
d="M363 745c-47 0 -79 40 -70 85c8 47 54 85 99 85c47 0 79 -40 71 -85c-9 -47 -55 -85 -100 -85zM119 700h470l-21 -124l-340 -422h270l-27 -154h-480l22 124l341 422h-262z" />
    <glyph glyph-name="zdotaccent" unicode="&#x17c;" horiz-adv-x="455" 
d="M283 545c-47 0 -79 40 -70 85c8 47 54 85 99 85c47 0 79 -40 71 -85c-9 -47 -55 -85 -100 -85zM84 500h380l-17 -100l-229 -260h193l-25 -140h-400l18 100l228 260h-173z" />
    <glyph glyph-name="Zcaron" unicode="&#x17d;" horiz-adv-x="540" 
d="M432 750h-148l-80 150h140l25 -55l45 55h150zM119 700h470l-21 -124l-340 -422h270l-27 -154h-480l22 124l341 422h-262z" />
    <glyph glyph-name="zcaron" unicode="&#x17e;" horiz-adv-x="455" 
d="M352 550h-148l-80 150h140l25 -55l45 55h150zM232 360h-173l25 140h380l-17 -100l-229 -260h193l-25 -140h-400l18 100z" />
    <glyph glyph-name="florin" unicode="&#x192;" horiz-adv-x="442" 
d="M203 424l39 112c52 148 145 204 280 169l-26 -150c-30 19 -90 10 -109 -52l-27 -79h82l-26 -144h-107l-108 -312c-52 -148 -145 -204 -280 -169l26 150c30 -19 88 -10 109 52l97 279h-77l26 144h101z" />
    <glyph glyph-name="Scommaaccent" unicode="&#x218;" horiz-adv-x="586" 
d="M270 -14c-147 0 -241 66 -266 173l146 75c17 -63 62 -94 134 -94c61 0 96 20 103 59c8 40 -25 57 -114 88c-66 22 -115 50 -148 84c-32 35 -43 83 -32 145c11 65 41 115 90 148s106 50 171 50c115 0 204 -57 240 -158l-140 -74c-25 52 -63 78 -114 78
c-48 0 -77 -22 -84 -53c-8 -39 24 -58 108 -89c25 -9 38 -13 62 -24c31 -13 58 -27 81 -49c37 -37 59 -81 45 -160c-23 -128 -130 -199 -282 -199zM259 -270h-120l47 210h140z" />
    <glyph glyph-name="scommaaccent" unicode="&#x219;" horiz-adv-x="468" 
d="M206 -14c-103 0 -174 41 -211 123l135 68c15 -38 44 -57 89 -57c34 0 52 9 55 26c4 21 -35 35 -83 48c-69 17 -157 56 -135 169c19 106 121 151 210 151c88 0 159 -40 191 -107l-135 -67c-12 29 -34 44 -65 44c-30 0 -47 -10 -51 -31c-5 -27 33 -39 81 -51
c69 -13 158 -48 136 -167c-19 -101 -104 -149 -217 -149zM201 -270h-120l47 210h140z" />
    <glyph glyph-name="uni021A" unicode="&#x21a;" horiz-adv-x="540" 
d="M89 700h520l-27 -154h-180l-96 -546h-160l96 546h-180zM221 -270h-120l47 210h140z" />
    <glyph glyph-name="uni021B" unicode="&#x21b;" horiz-adv-x="389" 
d="M367 356h-103l-31 -177c-8 -41 21 -48 96 -43l-24 -136c-179 -20 -247 38 -222 179l31 177h-80l26 144h79l17 95l158 45l-25 -140h104zM181 -270h-120l47 210h140z" />
    <glyph glyph-name="circumflex" unicode="&#x2c6;" horiz-adv-x="400" 
d="M353 700l80 -150h-145l-23 55l-47 -55h-145l132 150h148z" />
    <glyph glyph-name="caron" unicode="&#x2c7;" horiz-adv-x="400" 
d="M264 645l45 55h150l-132 -150h-148l-80 150h140z" />
    <glyph glyph-name="breve" unicode="&#x2d8;" horiz-adv-x="390" 
d="M254 542c-113 0 -173 58 -156 150h132c-5 -29 8 -46 35 -46c29 0 46 15 51 46h132c-15 -96 -82 -150 -194 -150z" />
    <glyph glyph-name="dotaccent" unicode="&#x2d9;" horiz-adv-x="190" 
d="M157 545c-47 0 -79 40 -70 85c8 47 54 85 99 85c47 0 79 -40 71 -85c-9 -47 -55 -85 -100 -85z" />
    <glyph glyph-name="ring" unicode="&#x2da;" horiz-adv-x="306" 
d="M202 535c-38 0 -68 13 -90 38s-30 56 -24 91c13 72 75 121 152 121c39 0 69 -13 91 -38s30 -55 23 -91c-12 -72 -72 -121 -152 -121zM215 626c25 0 39 11 42 33c4 20 -7 35 -30 35s-36 -11 -41 -33c-3 -20 6 -35 29 -35z" />
    <glyph glyph-name="ogonek" unicode="&#x2db;" horiz-adv-x="228" 
d="M38 -214c-59 0 -95 31 -84 91c7 37 35 78 86 123h124c-35 -33 -55 -61 -60 -85c-4 -17 2 -26 17 -26c5 -1 13 1 24 4l-16 -90c-30 -11 -60 -17 -91 -17z" />
    <glyph glyph-name="tilde" unicode="&#x2dc;" horiz-adv-x="398" 
d="M204 553h-120c7 79 41 133 82 150c43 17 91 11 132 -17c29 -21 45 -16 52 24h120c-7 -79 -40 -133 -83 -150c-41 -17 -90 -11 -131 17c-31 21 -45 16 -52 -24z" />
    <glyph glyph-name="hungarumlaut" unicode="&#x2dd;" horiz-adv-x="467" 
d="M73 550l105 140h154l-111 -140h-148zM256 550l115 140h154l-121 -140h-148z" />
    <glyph glyph-name="gravecomb" unicode="&#x300;" horiz-adv-x="0" 
d="M35 560h-141l-95 140h173z" />
    <glyph glyph-name="acutecomb" unicode="&#x301;" horiz-adv-x="0" 
d="M-225 560l100 140h184l-136 -140h-148z" />
    <glyph glyph-name="uni0302" unicode="&#x302;" horiz-adv-x="0" 
d="M-47 700l80 -150h-145l-23 55l-47 -55h-145l132 150h148z" />
    <glyph glyph-name="tildecomb" unicode="&#x303;" horiz-adv-x="0" 
d="M-206 553h-120c7 79 40 133 83 150c41 17 90 11 131 -17c29 -21 45 -16 52 24h120c-7 -79 -41 -133 -82 -150c-43 -17 -91 -11 -132 17c-31 21 -45 16 -52 -24z" />
    <glyph glyph-name="uni0304" unicode="&#x304;" horiz-adv-x="0" 
d="M35 559h-300l21 120h300z" />
    <glyph glyph-name="uni0306" unicode="&#x306;" horiz-adv-x="0" 
d="M-136 542c-113 0 -173 58 -156 150h132c-5 -29 8 -46 35 -46c29 0 46 15 51 46h132c-15 -96 -82 -150 -194 -150z" />
    <glyph glyph-name="uni0307" unicode="&#x307;" horiz-adv-x="0" 
d="M-53 545c-47 0 -79 40 -70 85c8 47 54 85 99 85c47 0 79 -40 71 -85c-9 -47 -55 -85 -100 -85z" />
    <glyph glyph-name="uni0308" unicode="&#x308;" horiz-adv-x="0" 
d="M-177 562c-35 -29 -82 -29 -106 0s-17 77 18 106s82 29 106 0s17 -77 -18 -106zM13 562c-35 -29 -82 -29 -106 0s-17 77 18 106s82 29 106 0s17 -77 -18 -106z" />
    <glyph glyph-name="uni030A" unicode="&#x30a;" horiz-adv-x="0" 
d="M-100 535c-38 0 -68 13 -90 38s-30 56 -24 91c13 72 75 121 152 121c39 0 69 -13 91 -38s30 -55 23 -91c-12 -72 -72 -121 -152 -121zM-87 626c25 0 39 11 42 33c4 20 -7 35 -30 35s-36 -11 -41 -33c-3 -20 6 -35 29 -35z" />
    <glyph glyph-name="uni030B" unicode="&#x30b;" horiz-adv-x="0" 
d="M-394 550l105 140h154l-111 -140h-148zM-211 550l115 140h154l-121 -140h-148z" />
    <glyph glyph-name="uni030C" unicode="&#x30c;" horiz-adv-x="0" 
d="M-136 645l45 55h150l-132 -150h-148l-80 150h140z" />
    <glyph glyph-name="uni0312" unicode="&#x312;" horiz-adv-x="0" 
d="M-11 980h120l-47 -210h-140z" />
    <glyph glyph-name="uni0326" unicode="&#x326;" horiz-adv-x="0" 
d="M-142 -270h-120l47 210h140z" />
    <glyph glyph-name="uni0327" unicode="&#x327;" horiz-adv-x="0" 
d="M-128 0l-8 -46c40 -15 56 -43 49 -86c-13 -67 -93 -95 -241 -84l18 104c62 -5 95 0 98 14c2 10 -15 17 -50 20l14 78h120z" />
    <glyph glyph-name="uni0328" unicode="&#x328;" horiz-adv-x="0" 
d="M-200 -214c-59 0 -95 31 -84 91c7 37 35 78 86 123h124c-35 -33 -55 -61 -60 -85c-4 -17 2 -26 17 -26c5 -1 13 1 24 4l-16 -90c-30 -11 -60 -17 -91 -17z" />
    <glyph glyph-name="uni0394" unicode="&#x394;" horiz-adv-x="660" 
d="M307 700h204l105 -700h-660zM385 525l-177 -375h221z" />
    <glyph glyph-name="uni03A9" unicode="&#x3a9;" horiz-adv-x="768" 
d="M767 360c-14 -82 -54 -151 -121 -206h71l-27 -154h-278l11 63l16 91c84 28 148 100 165 196c11 61 0 111 -32 150c-31 39 -76 58 -134 58s-110 -19 -155 -58s-72 -89 -83 -150c-17 -96 20 -168 95 -196l-27 -154h-278l27 154h89c-57 63 -78 139 -63 226
c17 98 65 178 142 240c77 63 168 94 271 94c99 0 179 -35 242 -105c63 -69 86 -152 69 -249z" />
    <glyph glyph-name="pi" unicode="&#x3c0;" horiz-adv-x="670" 
d="M64 500h630l-25 -140h-78l-63 -360h-150l63 360h-170l-63 -360h-150l63 360h-82z" />
    <glyph glyph-name="uni0401" unicode="&#x401;" horiz-adv-x="530" 
d="M326 762c-35 -29 -82 -29 -106 0s-17 77 18 106s82 29 106 0s17 -77 -18 -106zM516 762c-35 -29 -82 -29 -106 0s-17 77 18 106s82 29 106 0s17 -77 -18 -106zM574 700l-27 -154h-275l-21 -117h251l-27 -150h-250l-22 -125h280l-27 -154h-440l123 700h435z" />
    <glyph glyph-name="uni0402" unicode="&#x402;" horiz-adv-x="695" 
d="M500 464c121 0 184 -80 163 -197l-11 -63c-29 -164 -108 -223 -268 -214l27 149c52 -3 73 16 81 65l7 45c8 52 -12 71 -60 71c-29 0 -59 -6 -90 -19l-53 -301h-160l96 546h-170l27 154h520l-27 -154h-190l-18 -100c43 12 85 18 126 18z" />
    <glyph glyph-name="uni0403" unicode="&#x403;" horiz-adv-x="470" 
d="M366 899h184l-136 -140h-148zM16 0l123 700h400l-27 -154h-240l-96 -546h-160z" />
    <glyph glyph-name="uni0404" unicode="&#x404;" horiz-adv-x="723" 
d="M368 142c77 0 137 30 182 89l130 -85c-76 -100 -193 -160 -321 -160c-107 0 -189 36 -248 109s-79 161 -62 265c17 103 65 187 142 254c78 67 169 100 273 100c133 0 231 -60 278 -163l-147 -77c-27 56 -77 84 -148 84c-95 0 -174 -50 -214 -133h285l-27 -150h-284
c11 -83 72 -133 161 -133z" />
    <glyph glyph-name="uni0405" unicode="&#x405;" horiz-adv-x="586" 
d="M270 -14c-147 0 -241 66 -266 173l146 75c17 -63 62 -94 134 -94c61 0 96 20 103 59c8 40 -25 57 -114 88c-66 22 -115 50 -148 84c-32 35 -43 83 -32 145c11 65 41 115 90 148s106 50 171 50c115 0 204 -57 240 -158l-140 -74c-25 52 -63 78 -114 78
c-48 0 -77 -22 -84 -53c-8 -39 24 -58 108 -89c25 -9 38 -13 62 -24c31 -13 58 -27 81 -49c37 -37 59 -81 45 -160c-23 -128 -130 -199 -282 -199z" />
    <glyph glyph-name="uni0406" unicode="&#x406;" horiz-adv-x="280" 
d="M16 0l123 700h160l-123 -700h-160z" />
    <glyph glyph-name="uni0407" unicode="&#x407;" horiz-adv-x="280" 
d="M188 762c-35 -29 -82 -29 -106 0s-17 77 18 106s82 29 106 0s17 -77 -18 -106zM378 762c-35 -29 -82 -29 -106 0s-17 77 18 106s82 29 106 0s17 -77 -18 -106zM16 0l123 700h160l-123 -700h-160z" />
    <glyph glyph-name="uni0408" unicode="&#x408;" horiz-adv-x="570" 
d="M232 -14c-114 0 -189 47 -224 141l147 80c13 -47 39 -65 91 -65c63 0 99 28 109 83l84 475h160l-84 -475c-28 -160 -131 -239 -283 -239z" />
    <glyph glyph-name="uni0409" unicode="&#x409;" horiz-adv-x="950" 
d="M635 450h85c65 0 119 -23 160 -69c41 -45 56 -101 44 -166c-12 -66 -44 -118 -95 -157s-113 -58 -188 -58h-245l96 546h-154l-46 -262c-47 -269 -199 -298 -326 -286l26 150c77 -9 119 19 139 130l74 422h474zM694 300h-85l-27 -150h85c51 0 88 26 97 75s-19 75 -70 75z
" />
    <glyph glyph-name="uni040A" unicode="&#x40a;" horiz-adv-x="950" 
d="M635 450h85c65 0 119 -23 160 -69c41 -45 56 -101 44 -166c-12 -66 -44 -118 -95 -157s-113 -58 -188 -58h-245l53 300h-220l-53 -300h-160l123 700h160l-44 -250h220l44 250h160zM694 300h-85l-27 -150h85c51 0 88 26 97 75s-19 75 -70 75z" />
    <glyph glyph-name="uni040B" unicode="&#x40b;" horiz-adv-x="700" 
d="M491 464c127 0 192 -74 171 -197l-46 -267h-160l43 249c9 53 -16 71 -68 71c-30 0 -57 -6 -82 -18l-53 -302h-160l96 546h-170l27 154h520l-27 -154h-190l-17 -99c35 11 73 17 116 17z" />
    <glyph glyph-name="uni040C" unicode="&#x40c;" horiz-adv-x="626" 
d="M416 899h184l-136 -140h-148zM516 700h189l-318 -344l195 -356h-165l-183 333l-58 -333h-160l123 700h160l-52 -293z" />
    <glyph glyph-name="uni040E" unicode="&#x40e;" horiz-adv-x="610" 
d="M268 888h300l-22 -130h-300zM343 394l170 306h166l-279 -494c-94 -166 -199 -214 -330 -206l26 150c64 -6 114 18 150 72l-147 478h154z" />
    <glyph glyph-name="uni040F" unicode="&#x40f;" horiz-adv-x="650" 
d="M413 154l96 546h160l-123 -700h-185l-24 -134h-160l24 134h-185l123 700h160l-96 -546h210z" />
    <glyph glyph-name="uni0410" unicode="&#x410;" horiz-adv-x="680" 
d="M636 0h-175l-14 110h-260l-56 -110h-175l361 700h204zM396 525l-134 -265h167z" />
    <glyph glyph-name="uni0411" unicode="&#x411;" horiz-adv-x="585" 
d="M253 440h111c67 0 120 -22 158 -66c39 -43 52 -98 41 -164c-24 -133 -125 -210 -277 -210h-270l123 700h450l-27 -154h-290zM405 220c8 48 -20 70 -68 70h-110l-25 -140h110c54 0 85 23 93 70z" />
    <glyph glyph-name="uni0412" unicode="&#x412;" horiz-adv-x="600" 
d="M598 495c-9 -58 -37 -103 -84 -136c47 -37 66 -90 57 -159c-16 -120 -110 -200 -271 -200h-284l123 700h264c63 0 114 -19 152 -58c38 -38 52 -87 43 -147zM382 550h-109l-22 -124h109c40 0 70 25 77 62c7 35 -12 62 -55 62zM355 284h-129l-24 -134h129c44 0 76 27 83 67
s-15 67 -59 67z" />
    <glyph glyph-name="uni0413" unicode="&#x413;" horiz-adv-x="470" 
d="M139 700h400l-27 -154h-240l-96 -546h-160z" />
    <glyph glyph-name="uni0414" unicode="&#x414;" horiz-adv-x="710" 
d="M220 700h469l-96 -546h75l-51 -288h-160l23 134h-350l-23 -134h-160l51 288h71c46 53 78 130 96 232zM244 154h189l70 396h-149l-29 -166c-18 -100 -45 -177 -81 -230z" />
    <glyph glyph-name="uni0415" unicode="&#x415;" horiz-adv-x="530" 
d="M574 700l-27 -154h-275l-21 -117h251l-27 -150h-250l-22 -125h280l-27 -154h-440l123 700h435z" />
    <glyph glyph-name="uni0416" unicode="&#x416;" horiz-adv-x="922" 
d="M801 700h185l-281 -356l163 -344h-168l-146 312l-55 -312h-160l54 309l-246 -309h-181l293 363l-166 337h168l146 -311l55 311h160l-54 -308z" />
    <glyph glyph-name="uni0417" unicode="&#x417;" horiz-adv-x="557" 
d="M556 497c-11 -63 -42 -110 -95 -142c56 -39 78 -95 65 -167c-23 -129 -129 -202 -288 -202c-129 0 -212 62 -245 166l146 76c17 -59 50 -92 122 -92c57 0 99 29 108 74c8 47 -22 74 -87 74h-89l25 142h69c63 0 98 23 107 69c7 44 -17 69 -73 69c-47 0 -86 -27 -117 -82
l-131 83c61 99 152 149 274 149c67 0 122 -21 163 -62c42 -41 57 -92 46 -155z" />
    <glyph glyph-name="uni0418" unicode="&#x418;" horiz-adv-x="670" 
d="M136 0h-120l123 700h160l-65 -369l335 369h120l-123 -700h-160l65 369z" />
    <glyph glyph-name="uni0419" unicode="&#x419;" horiz-adv-x="670" 
d="M565 759h-300l22 130h300zM136 0h-120l123 700h160l-65 -369l335 369h120l-123 -700h-160l65 369z" />
    <glyph glyph-name="uni041A" unicode="&#x41a;" horiz-adv-x="626" 
d="M516 700h189l-318 -344l195 -356h-165l-183 333l-58 -333h-160l123 700h160l-52 -293z" />
    <glyph glyph-name="uni041B" unicode="&#x41b;" horiz-adv-x="670" 
d="M-34 -2l26 150c77 -9 119 19 139 130l74 422h484l-123 -700h-160l96 546h-164l-46 -262c-47 -269 -199 -298 -326 -286z" />
    <glyph glyph-name="uni041C" unicode="&#x41c;" horiz-adv-x="820" 
d="M665 700h174l-123 -700h-160l72 410l-239 -300h-18l-123 302l-72 -412h-160l123 700h160l121 -316z" />
    <glyph glyph-name="uni041D" unicode="&#x41d;" horiz-adv-x="660" 
d="M472 432l47 268h160l-123 -700h-160l49 278h-220l-49 -278h-160l123 700h160l-47 -268h220z" />
    <glyph glyph-name="uni041E" unicode="&#x41e;" horiz-adv-x="788" 
d="M352 -14c-101 0 -182 37 -242 110c-59 73 -80 161 -61 264c18 104 66 189 143 255c78 66 171 99 280 99c100 0 180 -37 239 -110c60 -73 81 -161 63 -264c-19 -104 -67 -189 -144 -255s-170 -99 -278 -99zM369 142c59 0 111 19 158 58s76 89 87 150s0 111 -32 150
c-31 39 -76 58 -134 58s-110 -19 -155 -58s-73 -89 -84 -150c-11 -62 -1 -112 29 -151c30 -38 74 -57 131 -57z" />
    <glyph glyph-name="uni041F" unicode="&#x41f;" horiz-adv-x="650" 
d="M139 700h530l-123 -700h-160l96 546h-210l-96 -546h-160z" />
    <glyph glyph-name="uni0420" unicode="&#x420;" horiz-adv-x="590" 
d="M139 700h253c72 0 128 -24 168 -72c40 -47 55 -107 45 -178c-10 -69 -41 -124 -92 -167c-51 -42 -116 -63 -195 -63h-103l-39 -220h-160zM445 460c11 55 -15 90 -79 90h-93l-32 -180h93c60 0 100 34 111 90z" />
    <glyph glyph-name="uni0421" unicode="&#x421;" horiz-adv-x="723" 
d="M359 -14c-107 0 -189 36 -248 109s-79 161 -62 265c17 103 65 187 142 254c78 67 169 100 273 100c133 0 231 -60 278 -163l-147 -77c-27 56 -77 84 -148 84c-61 0 -113 -19 -157 -57c-43 -38 -70 -88 -81 -151c-11 -62 -1 -112 28 -151c29 -38 73 -57 131 -57
c77 0 137 30 182 89l130 -85c-76 -100 -193 -160 -321 -160z" />
    <glyph glyph-name="uni0422" unicode="&#x422;" horiz-adv-x="540" 
d="M89 700h520l-27 -154h-180l-96 -546h-160l96 546h-180z" />
    <glyph glyph-name="uni0423" unicode="&#x423;" horiz-adv-x="610" 
d="M343 394l170 306h166l-279 -494c-94 -166 -199 -214 -330 -206l26 150c64 -6 114 18 150 72l-147 478h154z" />
    <glyph glyph-name="uni0424" unicode="&#x424;" horiz-adv-x="824" 
d="M573 720l-15 -84c92 -13 162 -47 210 -100s65 -119 52 -196c-29 -160 -164 -260 -364 -279l-14 -81h-156l15 84c-92 13 -162 47 -211 100c-48 53 -65 119 -51 196c28 160 164 260 364 279l14 81h156zM199 350c-15 -80 27 -127 128 -141l50 282
c-105 -14 -164 -61 -178 -141zM660 350c14 81 -29 128 -128 141l-50 -282c103 13 163 60 178 141z" />
    <glyph glyph-name="uni0425" unicode="&#x425;" horiz-adv-x="620" 
d="M489 700h190l-260 -348l147 -352h-174l-85 202l-151 -202h-190l273 365l-140 335h174l78 -185z" />
    <glyph glyph-name="uni0426" unicode="&#x426;" horiz-adv-x="690" 
d="M669 700l-96 -546h75l-51 -288h-160l24 134h-445l123 700h160l-96 -546h210l96 546h160z" />
    <glyph glyph-name="uni0427" unicode="&#x427;" horiz-adv-x="635" 
d="M440 394l54 306h160l-123 -700h-160l41 233c-30 -7 -63 -11 -98 -11c-83 0 -146 20 -189 60s-58 96 -45 168l44 250h160l-40 -226c-12 -73 15 -98 90 -98c37 0 72 6 106 18z" />
    <glyph glyph-name="uni0428" unicode="&#x428;" horiz-adv-x="940" 
d="M703 154l96 546h160l-123 -700h-820l123 700h160l-96 -546h170l96 546h160l-96 -546h170z" />
    <glyph glyph-name="uni0429" unicode="&#x429;" horiz-adv-x="980" 
d="M959 700l-96 -546h75l-51 -288h-160l24 134h-735l123 700h160l-96 -546h170l96 546h160l-96 -546h170l96 546h160z" />
    <glyph glyph-name="uni042A" unicode="&#x42a;" horiz-adv-x="690" 
d="M379 0h-263l96 546h-160l27 154h320l-38 -220h102c65 0 117 -25 158 -76c41 -50 56 -108 45 -174c-25 -143 -134 -230 -287 -230zM334 330l-32 -180h103c52 0 92 38 101 90c9 51 -20 90 -69 90h-103z" />
    <glyph glyph-name="uni042B" unicode="&#x42b;" horiz-adv-x="850" 
d="M279 0h-263l123 700h160l-39 -220h103c65 0 117 -25 158 -76c41 -50 56 -108 45 -174c-25 -143 -134 -230 -287 -230zM746 0h-160l123 700h160zM234 330l-32 -180h103c52 0 92 38 101 90c9 51 -20 90 -69 90h-103z" />
    <glyph glyph-name="uni042C" unicode="&#x42c;" horiz-adv-x="590" 
d="M260 480h103c65 0 117 -25 158 -76c41 -50 56 -108 45 -174c-25 -143 -134 -230 -287 -230h-263l123 700h160zM406 240c9 51 -20 90 -69 90h-103l-32 -180h103c52 0 92 38 101 90z" />
    <glyph glyph-name="uni042D" unicode="&#x42d;" horiz-adv-x="720" 
d="M401 714c106 0 188 -36 245 -109s77 -161 60 -265c-17 -103 -64 -188 -140 -255c-75 -66 -165 -99 -270 -99c-129 0 -237 60 -284 163l147 77c26 -56 77 -84 152 -84c93 0 171 50 211 133h-285l27 150h285c-11 83 -71 133 -163 133c-75 0 -135 -30 -179 -90l-129 84
c73 101 194 162 323 162z" />
    <glyph glyph-name="uni042E" unicode="&#x42e;" horiz-adv-x="1060" 
d="M744 714c100 0 180 -37 239 -110c60 -73 81 -161 63 -264c-19 -103 -68 -188 -147 -255c-79 -66 -170 -99 -275 -99c-87 0 -159 28 -216 84c-57 57 -86 128 -88 213h-94l-50 -283h-160l123 700h160l-46 -263h94c30 83 81 150 153 201s153 76 244 76zM481 350
c-11 -62 -1 -112 29 -151c30 -38 74 -57 131 -57c59 0 111 19 158 58s76 89 87 150s0 111 -32 150c-31 39 -76 58 -134 58s-110 -19 -155 -58s-73 -89 -84 -150z" />
    <glyph glyph-name="uni042F" unicode="&#x42f;" horiz-adv-x="625" 
d="M369 700h275l-123 -700h-160l40 230h-39l-186 -230h-195l210 251c-85 39 -122 128 -106 221c11 63 41 116 91 161c51 45 115 67 193 67zM316 370h110l32 180h-110c-52 0 -97 -38 -106 -90c-9 -51 25 -90 74 -90z" />
    <glyph glyph-name="uni0430" unicode="&#x430;" horiz-adv-x="623" 
d="M453 447l9 53h150l-88 -500h-150l6 34c-38 -32 -88 -48 -150 -48c-77 0 -132 28 -167 83c-35 56 -45 120 -31 193c13 69 44 128 94 177c51 50 113 75 187 75c63 0 109 -22 140 -67zM418 249v1c13 75 -28 122 -97 122s-126 -47 -139 -122s27 -122 96 -122s127 48 140 121z
" />
    <glyph glyph-name="uni0431" unicode="&#x431;" horiz-adv-x="566" 
d="M260 -14c-81 0 -142 26 -185 77s-57 116 -44 195c15 87 30 139 66 192c36 55 89 94 176 133l51 23l47 21c6 3 17 8 32 17c16 9 27 16 32 21c12 12 31 31 46 55l114 -71c-17 -39 -42 -71 -75 -94s-80 -45 -141 -67c-88 -31 -123 -58 -146 -97c40 31 86 47 139 47
c91 0 197 -87 172 -228c-11 -68 -43 -122 -94 -163s-114 -61 -190 -61zM305 321c-28 0 -54 -9 -79 -27c-24 -17 -39 -41 -44 -70c-5 -30 1 -55 18 -74c18 -19 42 -29 73 -29s57 9 80 28s38 42 43 71c11 57 -28 101 -91 101z" />
    <glyph glyph-name="uni0432" unicode="&#x432;" horiz-adv-x="515" 
d="M493 349c-8 -45 -30 -77 -65 -98c39 -28 55 -67 47 -116c-16 -85 -81 -135 -194 -135h-270l88 500h250c49 0 87 -15 114 -44s37 -65 30 -107zM312 380h-94l-12 -70h93c29 0 46 11 50 34c5 24 -8 36 -37 36zM333 161c4 23 -11 35 -38 35h-110l-12 -72h109
c30 0 47 12 51 37z" />
    <glyph glyph-name="uni0433" unicode="&#x433;" horiz-adv-x="405" 
d="M99 500h350l-25 -144h-200l-63 -356h-150z" />
    <glyph glyph-name="uni0434" unicode="&#x434;" horiz-adv-x="600" 
d="M559 500l-63 -360h65l-49 -274h-146l24 134h-278l-24 -134h-146l49 274h62c34 41 57 99 70 173l33 187h403zM212 140h138l39 226h-111l-9 -53c-13 -72 -32 -130 -57 -173z" />
    <glyph glyph-name="uni0435" unicode="&#x435;" horiz-adv-x="582" 
d="M331 514c74 0 133 -25 176 -76c44 -51 59 -113 45 -188c-3 -21 -9 -41 -16 -60h-358c7 -47 42 -70 103 -70c42 0 77 13 105 39l105 -86c-57 -58 -131 -87 -220 -87c-85 0 -149 26 -193 79c-43 53 -59 118 -46 195c11 73 45 133 102 181c57 49 122 73 197 73zM199 304h212
c-5 51 -35 77 -90 77s-96 -26 -122 -77z" />
    <glyph glyph-name="uni0436" unicode="&#x436;" horiz-adv-x="770" 
d="M635 500h164l-209 -254l126 -246h-151l-113 224l-39 -224h-146l39 221l-181 -221h-159l216 265l-116 235h147l105 -212l37 212h146l-38 -216z" />
    <glyph glyph-name="uni0437" unicode="&#x437;" horiz-adv-x="453" 
d="M431 356c-9 -49 -33 -85 -72 -107c43 -29 61 -69 52 -121c-16 -87 -92 -142 -224 -142c-105 0 -171 40 -198 119l129 66c11 -37 40 -55 86 -55c39 0 61 13 66 39c4 23 -9 35 -41 35h-71l22 126h54c31 0 49 11 53 34c4 24 -12 36 -41 36c-37 0 -67 -19 -90 -57l-113 70
c55 77 127 115 217 115c59 0 104 -16 135 -48s43 -69 36 -110z" />
    <glyph glyph-name="uni0438" unicode="&#x438;" 
d="M202 256l257 244h110l-88 -500h-146l43 244l-257 -244h-110l88 500h146z" />
    <glyph glyph-name="uni0439" unicode="&#x439;" 
d="M495 559h-300l22 130h300zM202 256l257 244h110l-88 -500h-146l43 244l-257 -244h-110l88 500h146z" />
    <glyph glyph-name="uni043A" unicode="&#x43a;" horiz-adv-x="525" 
d="M391 500h173l-221 -250l138 -250h-160l-120 228l-40 -228h-150l88 500h150l-36 -207z" />
    <glyph glyph-name="uni043B" unicode="&#x43b;" horiz-adv-x="545" 
d="M126 500h408l-88 -500h-150l63 356h-109l-26 -149c-28 -163 -112 -224 -257 -207l24 140c46 -11 74 15 85 77z" />
    <glyph glyph-name="uni043C" unicode="&#x43c;" horiz-adv-x="640" 
d="M474 500h155l-88 -500h-144l46 259l-144 -175h-18l-81 174l-45 -258h-144l88 500h144l77 -194z" />
    <glyph glyph-name="uni043D" unicode="&#x43d;" 
d="M387 320l32 180h150l-88 -500h-150l32 180h-170l-32 -180h-150l88 500h150l-32 -180h170z" />
    <glyph glyph-name="uni043E" unicode="&#x43e;" horiz-adv-x="590" 
d="M264 -14c-59 0 -108 14 -147 43c-77 59 -102 148 -83 241c14 69 48 126 101 173s120 71 199 71c80 0 140 -29 181 -87c41 -57 55 -122 42 -193c-12 -67 -46 -126 -101 -175s-119 -73 -192 -73zM408 250c13 71 -27 118 -92 118s-119 -47 -132 -118
c-12 -71 25 -118 90 -118s122 47 134 118z" />
    <glyph glyph-name="uni043F" unicode="&#x43f;" 
d="M99 500h470l-88 -500h-150l63 360h-170l-63 -360h-150z" />
    <glyph glyph-name="uni0440" unicode="&#x440;" horiz-adv-x="623" 
d="M391 514c71 0 125 -28 162 -83s49 -118 38 -191c-10 -68 -40 -127 -89 -178s-110 -76 -184 -76c-67 0 -116 24 -147 71l-45 -257h-150l123 700h150l-7 -42c41 37 90 56 149 56zM346 372c-68 0 -125 -46 -140 -117l-2 -9c-5 -36 2 -65 20 -86s44 -32 79 -32s65 11 90 33
s41 52 48 89c13 75 -26 122 -95 122z" />
    <glyph glyph-name="uni0441" unicode="&#x441;" horiz-adv-x="535" 
d="M265 -14c-79 0 -141 26 -185 79s-60 118 -48 195c11 73 45 134 101 182s122 72 197 72c104 0 180 -51 213 -130l-137 -72c-15 36 -45 54 -89 54c-67 0 -123 -46 -135 -114s29 -118 94 -118c43 0 77 19 104 56l121 -77c-51 -84 -140 -127 -236 -127z" />
    <glyph glyph-name="uni0442" unicode="&#x442;" horiz-adv-x="470" 
d="M54 500h450l-25 -144h-149l-63 -356h-150l63 356h-151z" />
    <glyph glyph-name="uni0443" unicode="&#x443;" horiz-adv-x="530" 
d="M260 194l148 306h166l-256 -485c-44 -83 -92 -141 -144 -173c-51 -32 -111 -46 -179 -42l24 140c36 0 63 6 82 17s37 33 54 65l-111 478h154z" />
    <glyph glyph-name="uni0444" unicode="&#x444;" horiz-adv-x="690" 
d="M497 700l-34 -196c69 -15 122 -47 158 -96s48 -105 37 -168c-24 -132 -129 -227 -285 -248l-34 -192h-146l34 196c-69 15 -122 46 -158 95s-48 106 -37 169c24 132 129 227 285 248l34 192h146zM438 363l-40 -226c65 17 103 55 114 113s-14 96 -74 113zM252 137l40 226
c-65 -17 -103 -55 -114 -113s14 -96 74 -113z" />
    <glyph glyph-name="uni0445" unicode="&#x445;" horiz-adv-x="530" 
d="M392 500h176l-219 -251l137 -249h-162l-74 135l-118 -135h-176l226 259l-132 241h162l69 -127z" />
    <glyph glyph-name="uni0446" unicode="&#x446;" horiz-adv-x="610" 
d="M549 500l-63 -360h85l-49 -274h-146l24 134h-389l88 500h150l-63 -360h150l63 360h150z" />
    <glyph glyph-name="uni0447" unicode="&#x447;" horiz-adv-x="545" 
d="M347 291l37 209h150l-88 -500h-150l26 147c-40 -9 -75 -13 -106 -13c-59 0 -106 16 -139 49s-45 77 -35 132l32 185h150l-29 -165c-14 -58 54 -79 152 -44z" />
    <glyph glyph-name="uni0448" unicode="&#x448;" horiz-adv-x="840" 
d="M616 140l63 360h150l-88 -500h-730l88 500h150l-63 -360h140l63 360h150l-63 -360h140z" />
    <glyph glyph-name="uni0449" unicode="&#x449;" horiz-adv-x="850" 
d="M809 500l-63 -360h65l-49 -274h-146l24 134h-629l88 500h150l-63 -360h130l63 360h150l-63 -360h130l63 360h150z" />
    <glyph glyph-name="uni044A" unicode="&#x44a;" horiz-adv-x="585" 
d="M303 350h84c55 0 99 -18 130 -53s42 -79 33 -132c-20 -110 -95 -165 -225 -165h-234l63 356h-135l25 144h285zM406 175c4 27 -12 45 -41 45h-85l-16 -90h85c29 0 52 18 57 45z" />
    <glyph glyph-name="uni044B" unicode="&#x44b;" horiz-adv-x="740" 
d="M223 350h84c55 0 99 -18 130 -53s42 -79 33 -132c-20 -110 -95 -165 -225 -165h-234l88 500h150zM491 0l88 500h150l-88 -500h-150zM326 175c4 27 -12 45 -41 45h-85l-16 -90h85c29 0 52 18 57 45z" />
    <glyph glyph-name="uni044C" unicode="&#x44c;" horiz-adv-x="505" 
d="M223 350h84c55 0 99 -18 130 -53s42 -79 33 -132c-20 -110 -95 -165 -225 -165h-234l88 500h150zM326 175c4 27 -12 45 -41 45h-85l-16 -90h85c29 0 52 18 57 45z" />
    <glyph glyph-name="uni044D" unicode="&#x44d;" horiz-adv-x="535" 
d="M276 514c76 0 136 -27 180 -81c45 -54 60 -118 47 -193c-13 -76 -47 -137 -101 -184s-120 -70 -199 -70c-97 0 -180 50 -212 129l132 70c17 -37 50 -56 97 -56c45 0 81 18 110 54h-139l24 134h139c-15 36 -45 54 -92 54s-83 -19 -110 -58l-118 74c53 77 145 127 242 127z
" />
    <glyph glyph-name="uni044E" unicode="&#x44e;" horiz-adv-x="815" 
d="M561 514c163 1 249 -147 221 -280c-12 -67 -45 -126 -100 -175s-118 -73 -191 -73c-136 0 -219 82 -232 194h-66l-32 -180h-150l88 500h150l-32 -180h61c22 57 58 103 107 139c49 37 108 55 176 55zM635 250c13 69 -27 118 -94 118c-65 0 -121 -47 -134 -118
c-12 -71 27 -118 92 -118c67 0 124 49 136 118z" />
    <glyph glyph-name="uni044F" unicode="&#x44f;" horiz-adv-x="525" 
d="M270 500h244l-88 -500h-146l25 144h-29l-125 -144h-175l150 168c-56 36 -84 101 -73 164c16 96 93 168 217 168zM242 268h85l18 100h-85c-71 0 -87 -100 -18 -100z" />
    <glyph glyph-name="uni0451" unicode="&#x451;" horiz-adv-x="582" 
d="M316 567c-35 -29 -82 -29 -106 0s-17 77 18 106s82 29 106 0s17 -77 -18 -106zM506 567c-35 -29 -82 -29 -106 0s-17 77 18 106s82 29 106 0s17 -77 -18 -106zM331 514c74 0 133 -25 176 -76c44 -51 59 -113 45 -188c-3 -21 -9 -41 -16 -60h-358c7 -47 42 -70 103 -70
c42 0 77 13 105 39l105 -86c-57 -58 -131 -87 -220 -87c-85 0 -149 26 -193 79c-43 53 -59 118 -46 195c11 73 45 133 102 181c57 49 122 73 197 73zM199 304h212c-5 51 -35 77 -90 77s-96 -26 -122 -77z" />
    <glyph glyph-name="uni0452" unicode="&#x452;" horiz-adv-x="585" 
d="M393 514c54 0 96 -19 127 -56s41 -87 30 -151l-54 -307c-29 -164 -108 -223 -268 -214l26 144c55 -3 83 18 92 70l50 285c11 61 -20 91 -72 91c-55 0 -98 -34 -110 -103l-48 -273h-150l96 546h-60l17 94h59l11 60h150l-11 -60h141l-17 -94h-140l-16 -93
c37 41 86 61 147 61z" />
    <glyph glyph-name="uni0453" unicode="&#x453;" horiz-adv-x="405" 
d="M281 700h184l-136 -140h-148zM11 0l88 500h350l-25 -144h-200l-63 -356h-150z" />
    <glyph glyph-name="uni0454" unicode="&#x454;" horiz-adv-x="535" 
d="M267 129c51 0 89 19 116 58l118 -74c-53 -77 -145 -127 -242 -127c-76 0 -136 27 -181 81c-44 54 -59 118 -46 193s48 136 103 183s121 71 197 71c97 0 180 -50 212 -129l-132 -70c-17 37 -49 56 -95 56c-44 0 -80 -18 -109 -54h135l-24 -134h-137c15 -36 44 -54 85 -54z
" />
    <glyph glyph-name="uni0455" unicode="&#x455;" horiz-adv-x="468" 
d="M206 -14c-103 0 -174 41 -211 123l135 68c15 -38 44 -57 89 -57c34 0 52 9 55 26c4 21 -35 35 -83 48c-69 17 -157 56 -135 169c19 106 121 151 210 151c88 0 159 -40 191 -107l-135 -67c-12 29 -34 44 -65 44c-30 0 -47 -10 -51 -31c-5 -27 33 -39 81 -51
c69 -13 158 -48 136 -167c-19 -101 -104 -149 -217 -149z" />
    <glyph glyph-name="uni0456" unicode="&#x456;" horiz-adv-x="260" 
d="M108 634c8 48 55 90 104 90s84 -41 76 -90s-54 -90 -105 -90s-83 41 -75 90zM161 0h-150l88 500h150z" />
    <glyph glyph-name="uni0457" unicode="&#x457;" horiz-adv-x="260" 
d="M143 562c-35 -29 -82 -29 -106 0s-17 77 18 106s82 29 106 0s17 -77 -18 -106zM333 562c-35 -29 -82 -29 -106 0s-17 77 18 106s82 29 106 0s17 -77 -18 -106zM161 0h-150l88 500h150z" />
    <glyph glyph-name="uni0458" unicode="&#x458;" horiz-adv-x="275" 
d="M123 634c8 48 55 90 104 90s84 -41 76 -90s-54 -90 -105 -90s-83 41 -75 90zM26 0l88 500h150l-88 -500c-28 -164 -108 -223 -268 -214l26 144c55 -3 83 18 92 70z" />
    <glyph glyph-name="uni0459" unicode="&#x459;" horiz-adv-x="765" 
d="M496 340h79c51 0 92 -17 122 -52c31 -34 41 -77 32 -128c-19 -104 -95 -160 -214 -160h-229l63 356h-99l-26 -149c-28 -163 -112 -224 -257 -207l24 140c46 -11 74 15 85 77l50 283h398zM553 210h-80l-14 -80h80c21 0 41 15 46 40s-11 40 -32 40z" />
    <glyph glyph-name="uni045A" unicode="&#x45a;" horiz-adv-x="800" 
d="M531 340h79c51 0 92 -17 122 -52c31 -34 41 -77 32 -128c-19 -104 -95 -160 -214 -160h-229l35 200h-160l-35 -200h-150l88 500h150l-28 -160h160l28 160h150zM588 210h-80l-14 -80h80c21 0 41 15 46 40s-11 40 -32 40z" />
    <glyph glyph-name="uni045B" unicode="&#x45b;" horiz-adv-x="585" 
d="M393 514c54 0 96 -19 127 -56s41 -87 30 -151l-54 -307h-150l50 285c11 61 -20 91 -72 91c-55 0 -98 -34 -110 -103l-48 -273h-150l96 546h-60l17 94h59l11 60h150l-11 -60h141l-17 -94h-140l-16 -93c37 41 86 61 147 61z" />
    <glyph glyph-name="uni045C" unicode="&#x45c;" horiz-adv-x="525" 
d="M341 700h184l-136 -140h-148zM391 500h173l-221 -250l138 -250h-160l-120 228l-40 -228h-150l88 500h150l-36 -207z" />
    <glyph glyph-name="uni045E" unicode="&#x45e;" horiz-adv-x="530" 
d="M178 689h300l-22 -130h-300zM260 194l148 306h166l-256 -485c-44 -83 -92 -141 -144 -173c-51 -32 -111 -46 -179 -42l24 140c36 0 63 6 82 17s37 33 54 65l-111 478h154z" />
    <glyph glyph-name="uni045F" unicode="&#x45f;" 
d="M356 140l63 360h150l-88 -500h-162l-24 -134h-146l24 134h-162l88 500h150l-63 -360h170z" />
    <glyph glyph-name="uni0490" unicode="&#x490;" horiz-adv-x="470" 
d="M380 700l21 120h160l-49 -274h-240l-96 -546h-160l123 700h241z" />
    <glyph glyph-name="uni0491" unicode="&#x491;" horiz-adv-x="405" 
d="M303 500l18 100h146l-43 -244h-200l-63 -356h-150l88 500h204z" />
    <glyph glyph-name="Wgrave" unicode="&#x1e80;" horiz-adv-x="998" 
d="M679 760h-141l-95 140h173zM159 0h182l186 413l42 -413h182l316 700h-174l-207 -490l-49 490h-130l-221 -490l-37 490h-160z" />
    <glyph glyph-name="wgrave" unicode="&#x1e81;" horiz-adv-x="780" 
d="M472 700l63 -140h-141l-95 140h173zM532 232l117 268h165l-248 -500h-140l-33 263l-117 -263h-150l-72 500h150l31 -268l119 268h145z" />
    <glyph glyph-name="Wacute" unicode="&#x1e82;" horiz-adv-x="998" 
d="M499 760l100 140h184l-136 -140h-148zM159 0h182l186 413l42 -413h182l316 700h-174l-207 -490l-49 490h-130l-221 -490l-37 490h-160z" />
    <glyph glyph-name="wacute" unicode="&#x1e83;" horiz-adv-x="780" 
d="M455 700h184l-136 -140h-148zM532 232l117 268h165l-248 -500h-140l-33 263l-117 -263h-150l-72 500h150l31 -268l119 268h145z" />
    <glyph glyph-name="Wdieresis" unicode="&#x1e84;" horiz-adv-x="998" 
d="M547 762c-35 -29 -82 -29 -106 0s-17 77 18 106s82 29 106 0s17 -77 -18 -106zM737 762c-35 -29 -82 -29 -106 0s-17 77 18 106s82 29 106 0s17 -77 -18 -106zM341 0h-182l-70 700h160l37 -490l221 490h130l49 -490l207 490h174l-316 -700h-182l-42 413z" />
    <glyph glyph-name="wdieresis" unicode="&#x1e85;" horiz-adv-x="780" 
d="M403 562c-35 -29 -82 -29 -106 0s-17 77 18 106s82 29 106 0s17 -77 -18 -106zM593 562c-35 -29 -82 -29 -106 0s-17 77 18 106s82 29 106 0s17 -77 -18 -106zM532 232l117 268h165l-248 -500h-140l-33 263l-117 -263h-150l-72 500h150l31 -268l119 268h145z" />
    <glyph glyph-name="Ygrave" unicode="&#x1ef2;" horiz-adv-x="610" 
d="M422 900l63 -140h-141l-95 140h173zM498 700h191l-294 -394l-54 -306h-160l54 307l-156 393h173l82 -236z" />
    <glyph glyph-name="ygrave" unicode="&#x1ef3;" horiz-adv-x="530" 
d="M333 700l63 -140h-141l-95 140h173zM260 194l148 306h166l-256 -485c-44 -83 -92 -141 -144 -173c-51 -32 -111 -46 -179 -42l24 140c36 0 63 6 82 17s37 33 54 65l-111 478h154z" />
    <glyph glyph-name="endash" unicode="&#x2013;" horiz-adv-x="615" 
d="M551 227h-495l25 144h495z" />
    <glyph glyph-name="emdash" unicode="&#x2014;" horiz-adv-x="715" 
d="M651 227h-595l25 144h595z" />
    <glyph glyph-name="quoteleft" unicode="&#x2018;" horiz-adv-x="290" 
d="M232 405h-160l132 295h120z" />
    <glyph glyph-name="quoteright" unicode="&#x2019;" horiz-adv-x="290" 
d="M164 700h160l-132 -295h-120z" />
    <glyph glyph-name="quotesinglbase" unicode="&#x201a;" horiz-adv-x="290" 
d="M68 155h160l-132 -295h-120z" />
    <glyph glyph-name="quotedblleft" unicode="&#x201c;" horiz-adv-x="490" 
d="M232 405h-160l132 295h120zM432 405h-160l132 295h120z" />
    <glyph glyph-name="quotedblright" unicode="&#x201d;" horiz-adv-x="490" 
d="M164 700h160l-132 -295h-120zM364 700h160l-132 -295h-120z" />
    <glyph glyph-name="quotedblbase" unicode="&#x201e;" horiz-adv-x="490" 
d="M68 155h160l-132 -295h-120zM268 155h160l-132 -295h-120z" />
    <glyph glyph-name="dagger" unicode="&#x2020;" horiz-adv-x="480" 
d="M372 575h125l-25 -144h-125l-76 -431h-150l76 431h-125l25 144h125l22 125h150z" />
    <glyph glyph-name="daggerdbl" unicode="&#x2021;" horiz-adv-x="480" 
d="M497 575l-25 -144h-125l-29 -162h125l-25 -144h-125l-22 -125h-150l22 125h-125l25 144h125l29 162h-125l25 144h125l22 125h150l-22 -125h125z" />
    <glyph glyph-name="bullet" unicode="&#x2022;" horiz-adv-x="380" 
d="M181 200c-41 0 -73 15 -97 46s-32 68 -25 110c7 41 28 76 61 103s72 41 116 41c41 0 73 -15 96 -45c24 -30 32 -66 25 -107c-7 -43 -27 -78 -60 -106s-71 -42 -116 -42z" />
    <glyph glyph-name="ellipsis" unicode="&#x2026;" horiz-adv-x="760" 
d="M93 -14c-52 0 -86 45 -77 97c9 53 56 93 111 93c52 0 87 -45 78 -97c-9 -53 -55 -93 -112 -93zM333 -14c-52 0 -86 45 -77 97c9 53 56 93 111 93c52 0 87 -45 78 -97c-9 -53 -55 -93 -112 -93zM573 -14c-52 0 -86 45 -77 97c9 53 56 93 111 93c52 0 87 -45 78 -97
c-9 -53 -55 -93 -112 -93z" />
    <glyph glyph-name="perthousand" unicode="&#x2030;" horiz-adv-x="1164" 
d="M241 374c-51 0 -90 17 -117 50c-27 34 -38 73 -32 118c6 47 27 87 62 121s81 51 137 51c53 0 93 -19 120 -57s36 -80 26 -127c-20 -88 -92 -156 -196 -156zM161 69l-64 42l539 501l64 -41zM318 544c5 32 -11 55 -43 55c-31 0 -57 -24 -62 -55c-7 -31 11 -55 42 -55
s58 26 63 55zM530 -12c-51 0 -91 17 -118 52s-37 76 -30 121c7 46 28 85 63 118s80 49 135 49c51 0 91 -19 118 -56c28 -37 37 -79 28 -124s-31 -83 -66 -114c-34 -31 -77 -46 -130 -46zM910 -12c-51 0 -91 17 -118 52s-37 76 -30 121c7 46 28 85 63 118s80 49 135 49
c51 0 91 -19 118 -56c28 -37 37 -79 28 -124s-31 -83 -66 -114c-34 -31 -77 -46 -130 -46zM607 158c5 32 -11 55 -43 55c-31 0 -55 -23 -62 -55c-7 -31 11 -55 42 -55s58 26 63 55zM987 158c5 32 -11 55 -43 55c-31 0 -55 -23 -62 -55c-7 -31 11 -55 42 -55s58 26 63 55z
" />
    <glyph glyph-name="guilsinglleft" unicode="&#x2039;" horiz-adv-x="362" 
d="M211 499h135l-144 -194l75 -186h-130l-77 190z" />
    <glyph glyph-name="guilsinglright" unicode="&#x203a;" horiz-adv-x="363" 
d="M106 499h130l77 -190l-141 -190h-135l144 194z" />
    <glyph glyph-name="fraction" unicode="&#x2044;" horiz-adv-x="180" 
d="M419 700l-518 -700h-105l518 700h105z" />
    <glyph glyph-name="Euro" unicode="&#x20ac;" horiz-adv-x="623" 
d="M341 142c44 0 83 25 118 75l125 -77c-59 -103 -147 -154 -264 -154c-147 0 -233 104 -236 268h-68l15 84h59l3 22l2 10h-59l15 84h66c55 164 168 260 319 260c100 0 179 -57 211 -148l-139 -73c-18 43 -49 65 -94 65c-59 0 -103 -35 -132 -104h189l-15 -84h-199
c-1 -5 -4 -16 -4 -20l-2 -12h200l-15 -84h-191c3 -75 35 -112 96 -112z" />
    <glyph glyph-name="uni20BD" unicode="&#x20bd;" horiz-adv-x="605" 
d="M159 700h265c64 0 116 -25 157 -76c41 -50 56 -108 44 -174c-24 -135 -127 -220 -283 -220h-106l-7 -41h210l-17 -98h-210l-16 -91h-160l16 91h-70l17 98h70l7 41h-69l24 140h70zM398 550h-105l-32 -180h105c49 0 92 39 101 90s-20 90 -69 90z" />
    <glyph glyph-name="uni2116" unicode="&#x2116;" horiz-adv-x="1047" 
d="M867 374c-49 0 -87 17 -116 52c-28 35 -38 76 -29 123c8 47 31 87 68 118s82 47 133 47c49 0 87 -17 115 -52s38 -76 30 -123c-9 -47 -31 -87 -68 -118s-81 -47 -133 -47zM176 0h-160l123 700h120l201 -393l69 393h160l-123 -700h-120l-200 393zM944 544
c5 29 -11 50 -40 50s-53 -21 -58 -50s11 -50 40 -50s53 19 58 50zM995 184h-322l25 140h322z" />
    <glyph glyph-name="trademark" unicode="&#x2122;" horiz-adv-x="476" 
d="M286 700l-11 -62h-55l-24 -138h-67l24 138h-55l11 62h177zM452 700h73l-35 -200h-64l17 99l-54 -63h-6l-31 65l-18 -101h-64l35 200h64l29 -69z" />
    <glyph glyph-name="estimated" unicode="&#x212e;" horiz-adv-x="780" 
d="M471 710c107 0 190 -35 247 -105c58 -69 78 -154 60 -255c-2 -10 -8 -15 -18 -15h-560c-10 0 -16 -5 -18 -15l-33 -192c-2 -7 -1 -14 3 -19c46 -59 119 -89 218 -89c95 0 179 32 250 97c6 6 12 9 19 9h35c13 0 17 -10 6 -19c-87 -78 -192 -117 -316 -117
c-115 0 -203 36 -263 108c-59 72 -80 159 -62 262c18 101 67 185 146 251c80 66 175 99 286 99zM633 380l35 194c1 7 -1 14 -4 19c-45 58 -111 87 -198 87c-86 0 -162 -30 -229 -89c-6 -6 -9 -12 -10 -19l-34 -192c-2 -10 2 -15 12 -15h410c10 0 16 5 18 15z" />
    <glyph glyph-name="oneeighth" unicode="&#x215b;" horiz-adv-x="807" 
d="M70 0l518 700h105l-518 -700h-105zM115 300l48 271l-81 -22l-11 107l130 44h107l-71 -400h-122zM781 288c-6 -35 -25 -63 -57 -82c31 -25 44 -58 38 -100c-11 -76 -74 -120 -175 -120c-96 0 -150 52 -137 128c7 44 32 77 75 98c-26 22 -36 51 -29 86
c13 73 76 116 161 116c41 0 73 -12 97 -35c25 -23 34 -54 27 -91zM595 280c-4 -21 9 -32 36 -32s42 11 46 32s-11 33 -35 33c-27 0 -43 -11 -47 -33zM652 127c5 25 -7 38 -36 38s-45 -13 -50 -38c-4 -26 8 -39 36 -39c29 0 46 13 50 39z" />
    <glyph glyph-name="threeeighths" unicode="&#x215c;" horiz-adv-x="879" 
d="M352 415c-15 -86 -74 -129 -175 -129c-78 0 -128 30 -150 90l107 57c11 -28 30 -42 56 -42c23 0 37 10 40 31c3 20 -11 30 -35 30h-25l-31 61l73 77h-129l19 110h281l-15 -85l-79 -83c48 -21 72 -64 63 -117zM142 0l518 700h105l-518 -700h-105zM853 288
c-6 -35 -25 -63 -57 -82c31 -25 44 -58 38 -100c-11 -76 -74 -120 -175 -120c-96 0 -150 52 -137 128c7 44 32 77 75 98c-26 22 -36 51 -29 86c13 73 76 116 161 116c41 0 73 -12 97 -35c25 -23 34 -54 27 -91zM667 280c-4 -21 9 -32 36 -32s42 11 46 32s-11 33 -35 33
c-27 0 -43 -11 -47 -33zM724 127c5 25 -7 38 -36 38s-45 -13 -50 -38c-4 -26 8 -39 36 -39c29 0 46 13 50 39z" />
    <glyph glyph-name="fiveeighths" unicode="&#x215d;" horiz-adv-x="865" 
d="M343 411c-14 -83 -69 -125 -166 -125c-75 0 -123 30 -145 90l104 54c9 -28 28 -42 55 -42c25 0 40 11 43 32c3 20 -8 32 -31 32h-135l60 248h245l-19 -110h-141l-11 -41h23c80 0 134 -49 118 -138zM128 0l518 700h105l-518 -700h-105zM839 288c-6 -35 -25 -63 -57 -82
c31 -25 44 -58 38 -100c-11 -76 -74 -120 -175 -120c-96 0 -150 52 -137 128c7 44 32 77 75 98c-26 22 -36 51 -29 86c13 73 76 116 161 116c41 0 73 -12 97 -35c25 -23 34 -54 27 -91zM653 280c-4 -21 9 -32 36 -32s42 11 46 32s-11 33 -35 33c-27 0 -43 -11 -47 -33z
M710 127c5 25 -7 38 -36 38s-45 -13 -50 -38c-4 -26 8 -39 36 -39c29 0 46 13 50 39z" />
    <glyph glyph-name="seveneighths" unicode="&#x215e;" horiz-adv-x="828" 
d="M343 607l-170 -307h-129l161 290h-145l19 110h280zM91 0l518 700h105l-518 -700h-105zM802 288c-6 -35 -25 -63 -57 -82c31 -25 44 -58 38 -100c-11 -76 -74 -120 -175 -120c-96 0 -150 52 -137 128c7 44 32 77 75 98c-26 22 -36 51 -29 86c13 73 76 116 161 116
c41 0 73 -12 97 -35c25 -23 34 -54 27 -91zM616 280c-4 -21 9 -32 36 -32s42 11 46 32s-11 33 -35 33c-27 0 -43 -11 -47 -33zM673 127c5 25 -7 38 -36 38s-45 -13 -50 -38c-5 -26 7 -39 36 -39s45 13 50 39z" />
    <glyph glyph-name="arrowleft" unicode="&#x2190;" horiz-adv-x="790" 
d="M353 422h427l-25 -144h-448l188 -228h-190l-247 300l353 300h210z" />
    <glyph glyph-name="arrowup" unicode="&#x2191;" horiz-adv-x="680" 
d="M419 700l247 -300l-33 -188l-185 225l-77 -437h-150l74 417l-265 -224l36 207z" />
    <glyph glyph-name="arrowright" unicode="&#x2192;" horiz-adv-x="790" 
d="M331 650h190l247 -300l-353 -300h-210l268 228h-428l25 144h449z" />
    <glyph glyph-name="arrowdown" unicode="&#x2193;" horiz-adv-x="680" 
d="M494 700l-73 -417l264 225l-36 -208l-353 -300l-247 300l33 188l185 -225l77 437h150z" />
    <glyph glyph-name="arrowboth" unicode="&#x2194;" horiz-adv-x="1100" 
d="M919 357v-1l159 -6l-330 -280h-203l242 208h-484l171 -208h-186l-230 280l329 280h206l-245 -208h483l-171 208h187l231 -280z" />
    <glyph glyph-name="arrowupdn" unicode="&#x2195;" horiz-adv-x="640" 
d="M658 580l-33 -186l-169 205l-84 -482l241 205l-36 -202l-329 -280l-230 280l33 186l168 -205l84 482l-240 -205l36 202l329 280z" />
    <glyph glyph-name="uni2196" unicode="&#x2196;" horiz-adv-x="645" 
d="M531 622l115 -140h-330l269 -328l-111 -93l-270 327l-58 -330l-115 140l75 424h425z" />
    <glyph glyph-name="uni2197" unicode="&#x2197;" horiz-adv-x="645" 
d="M82 482l165 140h424l-75 -424l-165 -140l55 311l-374 -317l-93 111l375 319h-312z" />
    <glyph glyph-name="uni2198" unicode="&#x2198;" horiz-adv-x="645" 
d="M474 302l58 329l116 -140l-75 -424h-424l-116 140h330l-269 328l110 93z" />
    <glyph glyph-name="uni2199" unicode="&#x2199;" horiz-adv-x="645" 
d="M567 636l92 -109l-376 -320h313l-164 -140h-424l75 424l164 140l-56 -314z" />
    <glyph glyph-name="partialdiff" unicode="&#x2202;" horiz-adv-x="586" 
d="M324 714c79 0 143 -36 192 -107s65 -160 46 -267c-41 -236 -168 -354 -337 -354c-67 0 -119 22 -155 66c-35 45 -48 97 -37 158c12 68 41 122 88 163s103 62 168 62c53 0 96 -12 130 -35c5 111 -42 173 -141 174c-35 1 -74 -10 -116 -31l24 135c42 24 88 36 138 36z
M246 126c69 0 119 49 150 148c-25 21 -58 31 -97 31c-56 0 -106 -39 -117 -100c-8 -49 20 -79 64 -79z" />
    <glyph glyph-name="emptyset" unicode="&#x2205;" horiz-adv-x="804" 
d="M714 720h123l-117 -122c57 -73 77 -159 60 -258c-18 -100 -67 -184 -148 -251c-80 -67 -170 -101 -270 -101c-66 0 -125 18 -178 54l-59 -62h-123l117 122c-58 75 -78 161 -60 258c17 99 66 183 147 250c81 68 171 102 272 102c65 0 124 -18 177 -53zM158 350
c-12 -66 -1 -124 33 -174l392 408c-35 20 -74 30 -117 30c-73 0 -139 -26 -199 -77c-59 -51 -96 -114 -109 -187zM681 350c12 66 1 124 -33 174l-392 -408c35 -20 74 -30 117 -30c73 0 139 26 198 77c60 51 97 114 110 187z" />
    <glyph glyph-name="product" unicode="&#x220f;" horiz-adv-x="640" 
d="M131 -200h-150l158 900h520l-158 -900h-150l133 756h-220z" />
    <glyph glyph-name="summation" unicode="&#x2211;" horiz-adv-x="570" 
d="M451 -200h-500l25 140l264 336l-135 316l19 108h470l-25 -144h-292l126 -296l-248 -316h321z" />
    <glyph glyph-name="minus" unicode="&#x2212;" horiz-adv-x="560" 
d="M515 280h-460l25 140h460z" />
    <glyph glyph-name="radical" unicode="&#x221a;" horiz-adv-x="686" 
d="M363 0h-144l-84 186h-106l25 144h182l64 -157l321 627h162z" />
    <glyph glyph-name="infinity" unicode="&#x221e;" horiz-adv-x="810" 
d="M776 342c-20 -108 -103 -172 -212 -172c-55 0 -107 27 -156 81c-64 -54 -123 -81 -178 -81s-98 18 -129 53c-31 36 -42 81 -32 135c9 54 34 96 73 126c39 31 86 46 141 46s107 -27 155 -81c191 165 368 52 338 -107zM256 305c23 0 49 15 78 45c-19 30 -39 45 -62 45
c-27 0 -49 -20 -53 -45c-5 -25 10 -45 37 -45zM626 350c4 25 -9 45 -36 45c-23 0 -49 -15 -78 -45c19 -30 39 -45 62 -45c27 0 47 20 52 45z" />
    <glyph glyph-name="integral" unicode="&#x222b;" horiz-adv-x="442" 
d="M-80 -204l26 150c31 -19 89 -10 110 52l185 535c51 148 144 204 281 169l-27 -150c-30 19 -88 10 -109 -52l-185 -535c-51 -148 -144 -204 -281 -169z" />
    <glyph glyph-name="approxequal" unicode="&#x2248;" horiz-adv-x="560" 
d="M312 371c-29 13 -54 22 -75 25c-20 3 -35 4 -45 1c-9 -3 -22 -8 -39 -16l-85 28c49 134 129 177 242 130c73 -36 120 -37 145 20l109 -58c-25 -65 -60 -109 -107 -132s-95 -22 -145 2zM141 141l-110 58c25 65 61 109 107 132c47 23 95 22 145 -2c30 -13 55 -22 75 -25
s35 -4 44 -1c10 3 23 8 40 16l85 -28c-49 -134 -129 -177 -242 -130c-73 36 -119 37 -144 -20z" />
    <glyph glyph-name="notequal" unicode="&#x2260;" horiz-adv-x="520" 
d="M528 525l-25 -140h-157l-44 -70h189l-25 -140h-251l-78 -125h-92l78 125h-96l25 140h158l44 70h-190l25 140h252l78 125h92l-78 -125h95z" />
    <glyph glyph-name="lessequal" unicode="&#x2264;" horiz-adv-x="530" 
d="M84 500l480 170l-28 -161l-294 -81l265 -81l-26 -147l-420 170l12 65zM453 40h-450l25 140h450z" />
    <glyph glyph-name="greaterequal" unicode="&#x2265;" horiz-adv-x="530" 
d="M88 522l26 148l420 -170l-11 -65l-12 -65l-480 -170l28 160l295 81zM453 40h-450l25 140h450z" />
    <glyph glyph-name="lozenge" unicode="&#x25ca;" horiz-adv-x="560" 
d="M290 0h-108l-124 350l247 350h108l125 -350zM218 338l48 -135l112 159l-48 135z" />
    <glyph glyph-name="i.loclTRK" horiz-adv-x="260" 
d="M183 545c-47 0 -79 40 -70 85c8 47 54 85 99 85c47 0 79 -40 71 -85c-9 -47 -55 -85 -100 -85zM161 0h-150l88 500h150z" />
    <glyph glyph-name="f_f_j" horiz-adv-x="850" 
d="M561 500h278l-88 -500c-28 -164 -108 -223 -268 -214l26 144c55 -3 83 18 92 70l63 356h-128l-63 -356h-150l63 356h-130l-63 -356h-150l63 356h-67l25 144h67c27 153 120 224 281 214l-25 -144c-62 5 -97 -18 -106 -70h130l2 10c25 149 114 214 281 214
c39 0 79 -5 122 -14l-24 -138c-29 5 -63 8 -100 8c-78 0 -121 -23 -129 -70z" />
    <glyph glyph-name="f_j" horiz-adv-x="570" 
d="M281 500h278l-88 -500c-28 -164 -108 -223 -268 -214l26 144c55 -3 83 18 92 70l63 356h-128l-63 -356h-150l63 356h-67l25 144h67c25 149 114 214 281 214c39 0 79 -5 122 -14l-24 -138c-29 5 -63 8 -100 8c-78 0 -121 -23 -129 -70z" />
    <glyph glyph-name="uni0414.loclBGR" horiz-adv-x="740" 
d="M551 700l74 -546h83l-51 -288h-160l24 134h-390l-24 -134h-160l51 288h83l266 546h204zM422 521l-170 -367h210z" />
    <glyph glyph-name="uni041B.loclBGR" horiz-adv-x="640" 
d="M135 0h-179l341 700h204l95 -700h-171l-51 515z" />
    <glyph glyph-name="uni0424.loclBGR" horiz-adv-x="864" 
d="M604 800l-17 -95c95 -16 167 -57 215 -123c49 -66 65 -147 48 -242c-17 -99 -60 -180 -129 -241s-155 -97 -260 -108l-16 -91h-150l17 95c-95 16 -167 57 -216 123c-48 66 -64 147 -47 242c17 99 60 179 129 240s155 98 260 109l16 91h150zM690 350
c21 120 -22 190 -128 210l-75 -420c113 20 181 90 203 210zM209 350c-22 -120 21 -190 128 -210l75 420c-115 -20 -182 -90 -203 -210z" />
    <glyph glyph-name="uni0414.ss01" horiz-adv-x="710" 
d="M220 700h469l-96 -546h75l-28 -154h-668l26 154h71c46 53 78 130 96 232zM244 154h189l70 396h-149l-29 -166c-18 -100 -45 -177 -81 -230z" />
    <glyph glyph-name="uni0426.ss01" horiz-adv-x="690" 
d="M669 700l-96 -546h75l-27 -154h-605l123 700h160l-96 -546h210l96 546h160z" />
    <glyph glyph-name="uni0429.ss01" horiz-adv-x="980" 
d="M959 700l-96 -546h75l-27 -154h-895l123 700h160l-96 -546h170l96 546h160l-96 -546h170l96 546h160z" />
    <glyph glyph-name="uni0414.loclBGR.ss01" horiz-adv-x="740" 
d="M551 700l74 -546h83l-27 -154h-710l27 154h83l266 546h204zM422 521l-170 -367h210z" />
    <glyph glyph-name="uni0432.loclBGR" horiz-adv-x="565" 
d="M535 526c-8 -46 -36 -88 -84 -126c63 -36 93 -104 77 -192c-25 -145 -119 -222 -271 -222c-70 0 -125 23 -165 69c-39 47 -53 106 -40 177l42 239c27 156 121 243 261 243c58 0 105 -18 140 -53c36 -35 49 -80 40 -135zM342 574c-48 0 -87 -43 -99 -107l-9 -50l31 6
c23 4 40 6 51 6c43 29 66 59 70 89c7 35 -9 56 -44 56zM378 218c12 67 -41 91 -137 71l-30 -6l-10 -55c-11 -59 20 -98 73 -98c57 0 95 33 104 88z" />
    <glyph glyph-name="uni0433.loclBGR" horiz-adv-x="472" 
d="M209 -14c-62 0 -112 17 -151 50c-38 34 -52 79 -42 134c12 67 58 108 109 123c74 23 162 25 168 61c3 17 -10 28 -37 28c-29 0 -54 -15 -75 -44l-119 71c45 70 113 105 205 105c56 0 102 -18 138 -53c37 -35 50 -78 41 -131c-11 -64 -56 -105 -107 -120
c-75 -22 -163 -23 -169 -55c-4 -23 12 -35 49 -35c43 0 74 20 95 59l117 -78c-43 -75 -123 -115 -222 -115z" />
    <glyph glyph-name="uni0434.loclBGR" horiz-adv-x="624" 
d="M457 441l10 59h146l-84 -475c-29 -168 -140 -239 -289 -239c-119 0 -196 40 -233 121l134 70c19 -39 56 -59 110 -59c72 0 120 38 132 107l6 35c-39 -36 -89 -54 -150 -54c-77 0 -133 26 -169 79s-48 116 -36 187c11 65 41 122 90 170s110 72 183 72
c71 0 121 -24 150 -73zM283 146c67 0 124 43 140 104l4 21c5 61 -36 103 -103 103c-71 0 -129 -47 -141 -114s29 -114 100 -114z" />
    <glyph glyph-name="uni0436.loclBGR" horiz-adv-x="770" 
d="M125 0h-159l216 265l-116 235h147l105 -212l73 412h146l-74 -415l172 215h164l-209 -254l126 -246h-151l-112 224l-40 -224h-146l39 221z" />
    <glyph glyph-name="uni0438.loclBGR" 
d="M370 221l49 279h150l-88 -500h-150l8 47c-37 -41 -86 -61 -147 -61c-54 0 -97 18 -128 55s-40 88 -29 152l54 307h150l-50 -285c-11 -61 20 -91 72 -91c53 0 96 32 109 97z" />
    <glyph glyph-name="uni0439.loclBGR" 
d="M206 689h300l-22 -130h-300zM370 221l49 279h150l-88 -500h-150l8 47c-37 -41 -86 -61 -147 -61c-54 0 -97 18 -128 55s-40 88 -29 152l54 307h150l-50 -285c-11 -61 20 -91 72 -91c53 0 96 32 109 97z" />
    <glyph glyph-name="uni043A.loclBGR" horiz-adv-x="525" 
d="M391 500h173l-221 -250l138 -250h-160l-120 228l-40 -228h-150l123 700h150l-72 -407z" />
    <glyph glyph-name="uni043B.loclBGR" horiz-adv-x="510" 
d="M374 500l92 -500h-154l-42 306l-148 -306h-166l268 500h150z" />
    <glyph glyph-name="uni043F.loclBGR" 
d="M388 514c54 0 96 -19 127 -56s41 -87 30 -151l-54 -307h-150l50 285c11 61 -20 91 -72 91c-53 0 -96 -32 -109 -97l-49 -279h-150l88 500h150l-8 -47c37 41 86 61 147 61z" />
    <glyph glyph-name="uni0442.loclBGR" horiz-adv-x="850" 
d="M656 514c58 0 102 -19 131 -58c29 -38 39 -88 28 -149l-54 -307h-150l51 294c9 51 -10 82 -57 82c-49 0 -80 -29 -93 -87l-51 -289h-150l51 294c9 51 -10 82 -57 82c-49 0 -80 -28 -93 -85l-51 -291h-150l88 500h150l-8 -45c35 39 81 59 139 59c59 0 100 -23 122 -68
c41 45 93 68 154 68z" />
    <glyph glyph-name="uni0446.loclBGR" horiz-adv-x="620" 
d="M536 140h45l-49 -274h-146l26 147c-20 11 -35 24 -44 41c-47 -45 -103 -68 -168 -68c-120 0 -186 80 -165 207l54 307h150l-50 -285c-11 -61 20 -91 72 -91s92 30 107 90l51 286h150l-58 -330c-3 -20 5 -30 25 -30z" />
    <glyph glyph-name="uni0448.loclBGR" horiz-adv-x="850" 
d="M638 209l51 291h150l-88 -500h-150l8 45c-35 -39 -81 -59 -139 -59c-59 0 -100 23 -122 68c-41 -45 -93 -68 -154 -68c-58 0 -102 19 -131 57c-29 39 -39 89 -28 150l54 307h150l-51 -294c-9 -51 10 -82 57 -82c49 0 80 29 93 87l51 289h150l-51 -294
c-9 -51 10 -82 57 -82c49 0 80 28 93 85z" />
    <glyph glyph-name="uni0449.loclBGR" horiz-adv-x="890" 
d="M806 140h45l-49 -274h-146l26 147c-18 9 -32 21 -43 38c-41 -43 -94 -65 -159 -65c-63 0 -106 22 -130 65c-40 -43 -92 -65 -156 -65c-58 0 -102 19 -131 57c-29 39 -39 89 -28 150l54 307h150l-51 -294c-9 -51 10 -82 57 -82c49 0 80 29 93 87l51 289h150l-51 -294
c-9 -51 10 -82 57 -82s78 26 91 79l53 297h150l-58 -330c-3 -20 5 -30 25 -30z" />
    <glyph glyph-name="uni044C.loclBGR" horiz-adv-x="495" 
d="M212 368h79c61 0 108 -18 139 -55c31 -36 42 -83 31 -141c-20 -113 -109 -186 -237 -186c-65 0 -116 20 -152 59c-35 39 -48 88 -37 147l54 308h146zM317 182c7 32 -10 56 -49 56h-79l-8 -46c-7 -40 14 -66 57 -66c40 0 75 27 79 56z" />
    <glyph glyph-name="uni044A.loclBGR" horiz-adv-x="585" 
d="M302 368h79c61 0 108 -18 139 -55c31 -36 42 -83 31 -141c-20 -113 -109 -186 -237 -186c-65 0 -116 20 -152 59c-35 39 -48 88 -37 147l29 168h-135l25 140h281zM407 182c7 32 -10 56 -49 56h-79l-8 -46c-7 -40 14 -66 57 -66c40 0 75 27 79 56z" />
    <glyph glyph-name="uni044E.loclBGR" horiz-adv-x="815" 
d="M561 514c163 1 249 -147 221 -280c-12 -67 -45 -126 -100 -175s-118 -73 -191 -73c-136 0 -219 82 -232 194h-66l-32 -180h-150l123 700h150l-67 -380h61c22 57 58 103 107 139c49 37 108 55 176 55zM635 250c13 69 -27 118 -94 118c-65 0 -121 -47 -134 -118
c-12 -71 27 -118 92 -118c67 0 124 49 136 118z" />
    <glyph glyph-name="zero.sinf" horiz-adv-x="408" 
d="M134 -174c-54 0 -95 20 -124 61s-37 94 -26 159c24 132 104 208 216 208c53 0 95 -20 124 -61s38 -94 26 -159c-23 -132 -103 -208 -216 -208zM109 40c-11 -61 3 -92 42 -92s63 31 74 92s-3 92 -42 92s-63 -31 -74 -92z" />
    <glyph glyph-name="one.sinf" horiz-adv-x="274" 
d="M-10 196l130 44h107l-71 -400h-122l48 271l-81 -22z" />
    <glyph glyph-name="two.sinf" horiz-adv-x="356" 
d="M259 -160h-306l13 77l173 151c23 20 36 34 39 42l2 8c3 16 -7 26 -24 26c-23 0 -44 -16 -63 -49l-95 60c40 66 98 99 174 99c89 0 146 -54 130 -143c-7 -40 -33 -69 -88 -114l-55 -47h119z" />
    <glyph glyph-name="three.sinf" horiz-adv-x="343" 
d="M21 240h281l-15 -85l-79 -83c48 -21 72 -64 63 -117c-15 -86 -74 -129 -175 -129c-78 0 -128 30 -150 90l107 57c11 -28 30 -42 56 -42c23 0 37 10 40 31c3 20 -11 30 -35 30h-25l-31 61l73 77h-129z" />
    <glyph glyph-name="four.sinf" horiz-adv-x="358" 
d="M264 11h36l-19 -110h-36l-11 -61h-116l11 61h-180l19 110l156 229h134l-152 -229h42l11 61h116z" />
    <glyph glyph-name="five.sinf" horiz-adv-x="335" 
d="M292 240l-19 -110h-141l-11 -41h23c80 0 134 -49 118 -138c-14 -83 -69 -125 -166 -125c-75 0 -123 30 -145 90l104 54c9 -28 28 -42 55 -42c25 0 40 11 43 32c3 20 -8 32 -31 32h-135l60 248h245z" />
    <glyph glyph-name="six.sinf" horiz-adv-x="342" 
d="M277 240l-103 -130c73 -13 114 -72 102 -147c-15 -85 -80 -137 -177 -137c-46 0 -81 14 -106 43s-33 64 -26 106c5 30 16 56 35 79l146 186h129zM166 -31c5 28 -8 42 -37 42c-27 0 -44 -14 -51 -42s9 -43 36 -43c29 0 46 14 52 43z" />
    <glyph glyph-name="seven.sinf" horiz-adv-x="295" 
d="M-21 130l19 110h280l-16 -93l-170 -307h-129l161 290h-145z" />
    <glyph glyph-name="eight.sinf" horiz-adv-x="354" 
d="M299 128c-6 -35 -25 -63 -57 -82c31 -25 44 -58 38 -100c-11 -76 -74 -120 -175 -120c-96 0 -150 52 -137 128c7 44 32 77 75 98c-26 22 -36 51 -29 86c13 73 76 116 161 116c41 0 73 -12 97 -35c25 -23 34 -54 27 -91zM113 120c-4 -21 9 -32 36 -32s42 11 46 32
s-11 33 -35 33c-27 0 -43 -11 -47 -33zM170 -33c5 25 -7 38 -36 38s-45 -13 -50 -38c-4 -26 8 -39 36 -39c29 0 46 13 50 39z" />
    <glyph glyph-name="nine.sinf" horiz-adv-x="342" 
d="M169 254c46 0 81 -14 106 -43s33 -64 26 -106c-5 -30 -16 -56 -35 -79l-146 -186h-129l103 130c-73 13 -114 72 -102 147c15 85 80 137 177 137zM102 111c-5 -28 8 -42 37 -42c27 0 44 14 51 42s-9 43 -36 43c-29 0 -46 -14 -52 -43z" />
    <glyph glyph-name="zero.tf" 
d="M252 -14c-87 0 -152 35 -194 105s-53 160 -34 269c19 110 58 196 117 259s134 95 223 95c87 0 152 -35 193 -105c42 -70 53 -160 34 -269c-19 -110 -58 -197 -117 -260s-133 -94 -222 -94zM271 142c83 0 136 69 161 208s-5 208 -88 208s-136 -69 -161 -208
s5 -208 88 -208z" />
    <glyph glyph-name="one.tf" 
d="M459 700l-96 -546h185l-27 -154h-540l27 154h195l65 371l-129 -34l-15 143l195 66h140z" />
    <glyph glyph-name="two.tf" 
d="M496 0h-510l20 116l297 235c65 51 101 93 107 128c7 41 -12 79 -71 79c-48 0 -91 -28 -128 -85l-127 83c64 104 167 158 280 158c69 0 123 -23 164 -70c41 -46 55 -101 44 -165c-7 -43 -24 -81 -50 -114c-25 -33 -64 -70 -117 -111l-126 -100h244z" />
    <glyph glyph-name="three.tf" 
d="M121 700h480l-22 -130l-152 -149c87 -37 137 -119 120 -216c-25 -147 -141 -219 -294 -219c-135 0 -219 55 -250 165l147 77c18 -57 56 -86 115 -86c71 0 111 28 122 83c8 51 -21 83 -94 83h-30l-47 94l150 148h-271z" />
    <glyph glyph-name="four.tf" 
d="M497 260h70l-26 -148h-70l-20 -112h-162l20 112h-328l26 148l292 440h180l-293 -440h149l26 150h162z" />
    <glyph glyph-name="five.tf" 
d="M599 700l-26 -150h-285l-24 -96h72c71 0 127 -22 169 -67c42 -44 56 -103 43 -177c-25 -148 -141 -224 -290 -224c-137 0 -222 55 -255 165l147 77c18 -57 58 -86 121 -86c69 0 109 26 119 78c8 47 -19 78 -91 78h-231l99 402h432z" />
    <glyph glyph-name="six.tf" 
d="M548 700l-188 -212c75 -7 130 -36 164 -86c35 -50 47 -107 37 -172c-11 -67 -43 -125 -96 -173c-53 -47 -123 -71 -211 -71c-191 0 -262 135 -239 265c9 53 34 101 73 144l272 305h188zM403 238c12 64 -30 102 -97 102c-71 0 -121 -37 -133 -102s29 -102 97 -102
c69 0 121 37 133 102z" />
    <glyph glyph-name="seven.tf" 
d="M72 546l27 154h530l-23 -134l-350 -566h-178l336 546h-342z" />
    <glyph glyph-name="eight.tf" 
d="M588 502c-11 -61 -45 -108 -102 -141c57 -40 83 -102 71 -170c-23 -129 -134 -205 -307 -205c-87 0 -152 20 -196 60s-60 92 -49 157c13 72 56 127 129 165c-45 35 -63 83 -52 142c11 65 44 116 97 151s116 53 189 53s130 -19 173 -57s58 -90 47 -155zM273 545
c-37 -25 -45 -73 -17 -98c14 -13 36 -19 65 -19s53 6 72 19c37 25 45 73 17 98c-14 13 -36 19 -65 19s-53 -6 -72 -19zM402 220c9 53 -26 84 -102 84s-123 -31 -132 -84c-11 -53 26 -84 102 -84c77 0 121 28 132 84z" />
    <glyph glyph-name="nine.tf" 
d="M361 714c191 0 262 -135 239 -265c-9 -53 -34 -101 -73 -144l-272 -305h-188l188 212c-75 7 -130 36 -165 86c-34 50 -46 107 -36 172c11 67 42 125 95 172c53 48 124 72 212 72zM212 462c-12 -64 30 -102 97 -102c71 0 121 37 133 102s-29 102 -97 102
c-69 0 -121 -37 -133 -102z" />
    <glyph glyph-name="zero.dnom" horiz-adv-x="408" 
d="M162 -14c-54 0 -95 20 -124 61s-37 94 -26 159c24 132 104 208 216 208c53 0 95 -20 124 -61s38 -94 26 -159c-23 -132 -103 -208 -216 -208zM137 200c-11 -61 3 -92 42 -92s63 31 74 92s-3 92 -42 92s-63 -31 -74 -92z" />
    <glyph glyph-name="one.dnom" horiz-adv-x="274" 
d="M18 356l130 44h107l-71 -400h-122l48 271l-81 -22z" />
    <glyph glyph-name="two.dnom" horiz-adv-x="361" 
d="M287 0h-306l13 77l173 151l5 4c21 18 32 32 35 42l1 4c3 16 -7 26 -24 26c-23 0 -44 -16 -63 -49l-95 60c40 66 98 99 174 99c89 0 146 -54 130 -143c-7 -40 -33 -69 -88 -114l-55 -47h119z" />
    <glyph glyph-name="three.dnom" horiz-adv-x="346" 
d="M49 400h281l-15 -85l-79 -83c48 -21 72 -64 63 -117c-15 -86 -74 -129 -175 -129c-78 0 -128 30 -150 90l107 57c11 -28 30 -42 56 -42c23 0 37 10 40 31c3 20 -11 30 -35 30h-25l-31 61l73 77h-129z" />
    <glyph glyph-name="four.dnom" horiz-adv-x="357" 
d="M292 171h36l-19 -110h-36l-11 -61h-116l11 61h-180l19 110l156 229h134l-152 -229h42l11 61h116z" />
    <glyph glyph-name="five.dnom" horiz-adv-x="332" 
d="M320 400l-19 -110h-141l-11 -41h23c80 0 134 -49 118 -138c-14 -83 -69 -125 -166 -125c-75 0 -123 30 -145 90l104 54c9 -28 28 -42 55 -42c25 0 40 11 43 32c3 20 -8 32 -31 32h-135l60 248h245z" />
    <glyph glyph-name="six.dnom" horiz-adv-x="341" 
d="M305 400l-103 -130c73 -13 114 -72 102 -147c-15 -85 -80 -137 -177 -137c-46 0 -81 14 -106 43s-33 64 -26 106c5 30 16 56 35 79l146 186h129zM194 129c5 28 -8 42 -37 42c-27 0 -44 -14 -51 -42s9 -43 36 -43c29 0 46 14 52 43z" />
    <glyph glyph-name="seven.dnom" horiz-adv-x="295" 
d="M7 290l19 110h280l-16 -93l-170 -307h-129l161 290h-145z" />
    <glyph glyph-name="eight.dnom" horiz-adv-x="353" 
d="M327 288c-6 -35 -25 -63 -57 -82c31 -25 44 -58 38 -100c-11 -76 -74 -120 -175 -120c-96 0 -150 52 -137 128c7 44 32 77 75 98c-26 22 -36 51 -29 86c13 73 76 116 161 116c41 0 73 -12 97 -35c25 -23 34 -54 27 -91zM141 280c-4 -21 9 -32 36 -32s42 11 46 32
s-11 33 -35 33c-27 0 -43 -11 -47 -33zM198 127c5 25 -7 38 -36 38s-45 -13 -50 -38c-4 -26 8 -39 36 -39c29 0 46 13 50 39z" />
    <glyph glyph-name="nine.dnom" horiz-adv-x="341" 
d="M197 414c46 0 81 -14 106 -43s33 -64 26 -106c-5 -30 -16 -56 -35 -79l-146 -186h-129l103 130c-73 13 -114 72 -102 147c15 85 80 137 177 137zM130 271c-5 -28 8 -42 37 -42c27 0 44 14 51 42s-9 43 -36 43c-29 0 -46 -14 -52 -43z" />
    <glyph glyph-name="zero.numr" horiz-adv-x="408" 
d="M215 286c-54 0 -95 20 -124 61s-37 94 -26 159c24 132 104 208 216 208c53 0 95 -20 124 -61s38 -94 26 -159c-23 -132 -103 -208 -216 -208zM190 500c-11 -61 3 -92 42 -92s63 31 74 92s-3 92 -42 92s-63 -31 -74 -92z" />
    <glyph glyph-name="one.numr" horiz-adv-x="274" 
d="M71 656l130 44h107l-71 -400h-122l48 271l-81 -22z" />
    <glyph glyph-name="two.numr" horiz-adv-x="361" 
d="M340 300h-306l13 77l173 151l5 4c21 18 32 32 35 42l1 4c3 16 -7 26 -24 26c-23 0 -44 -16 -63 -49l-95 60c40 66 98 99 174 99c89 0 146 -54 130 -143c-7 -40 -33 -69 -88 -114l-55 -47h119z" />
    <glyph glyph-name="three.numr" horiz-adv-x="346" 
d="M102 700h281l-15 -85l-79 -83c48 -21 72 -64 63 -117c-15 -86 -74 -129 -175 -129c-78 0 -128 30 -150 90l107 57c11 -28 30 -42 56 -42c23 0 37 10 40 31c3 20 -11 30 -35 30h-25l-31 61l73 77h-129z" />
    <glyph glyph-name="four.numr" horiz-adv-x="357" 
d="M345 471h36l-19 -110h-36l-11 -61h-116l11 61h-180l19 110l156 229h134l-152 -229h42l11 61h116z" />
    <glyph glyph-name="five.numr" horiz-adv-x="332" 
d="M373 700l-19 -110h-141l-11 -41h23c80 0 134 -49 118 -138c-14 -83 -69 -125 -166 -125c-75 0 -123 30 -145 90l104 54c9 -28 28 -42 55 -42c25 0 40 11 43 32c3 20 -8 32 -31 32h-135l60 248h245z" />
    <glyph glyph-name="six.numr" horiz-adv-x="341" 
d="M358 700l-103 -130c73 -13 114 -72 102 -147c-15 -85 -80 -137 -177 -137c-46 0 -81 14 -106 43s-33 64 -26 106c5 30 16 56 35 79l146 186h129zM247 429c5 28 -8 42 -37 42c-27 0 -44 -14 -51 -42s9 -43 36 -43c29 0 46 14 52 43z" />
    <glyph glyph-name="seven.numr" horiz-adv-x="295" 
d="M60 590l19 110h280l-16 -93l-170 -307h-129l161 290h-145z" />
    <glyph glyph-name="eight.numr" horiz-adv-x="354" 
d="M380 588c-6 -35 -25 -63 -57 -82c31 -25 44 -58 38 -100c-11 -76 -74 -120 -175 -120c-96 0 -150 52 -137 128c7 44 32 77 75 98c-26 22 -36 51 -29 86c13 73 76 116 161 116c41 0 73 -12 97 -35c25 -23 34 -54 27 -91zM194 580c-4 -21 9 -32 36 -32s42 11 46 32
s-11 33 -35 33c-27 0 -43 -11 -47 -33zM251 427c5 25 -7 38 -36 38s-45 -13 -50 -38c-5 -26 7 -39 36 -39s45 13 50 39z" />
    <glyph glyph-name="nine.numr" horiz-adv-x="341" 
d="M250 714c46 0 81 -14 106 -43s33 -64 26 -106c-5 -30 -16 -56 -35 -79l-146 -186h-129l103 130c-73 13 -114 72 -102 147c15 85 80 137 177 137zM183 571c-5 -28 8 -42 37 -42c27 0 44 14 51 42s-9 43 -36 43c-29 0 -46 -14 -52 -43z" />
    <glyph glyph-name="zero.sups" horiz-adv-x="408" 
d="M243 446c-54 0 -95 20 -124 61s-37 94 -26 159c24 132 104 208 216 208c53 0 95 -20 124 -61s38 -94 26 -159c-23 -132 -103 -208 -216 -208zM218 660c-11 -61 3 -92 42 -92s63 31 74 92s-3 92 -42 92s-63 -31 -74 -92z" />
    <glyph glyph-name="one.sups" horiz-adv-x="274" 
d="M99 816l130 44h107l-71 -400h-122l48 271l-81 -22z" />
    <glyph glyph-name="two.sups" horiz-adv-x="361" 
d="M368 460h-306l13 77l173 151l5 4c21 18 32 32 35 42l1 4c3 16 -7 26 -24 26c-23 0 -44 -16 -63 -49l-95 60c40 66 98 99 174 99c89 0 146 -54 130 -143c-7 -40 -33 -69 -88 -114l-55 -47h119z" />
    <glyph glyph-name="three.sups" horiz-adv-x="347" 
d="M131 860h281l-15 -85l-79 -83c48 -21 72 -64 63 -117c-15 -86 -74 -129 -175 -129c-78 0 -128 30 -150 90l107 57c11 -28 30 -42 56 -42c23 0 37 10 40 31c3 20 -11 30 -35 30h-25l-31 61l73 77h-129z" />
    <glyph glyph-name="four.sups" horiz-adv-x="357" 
d="M373 631h36l-19 -110h-36l-11 -61h-116l11 61h-180l19 110l156 229h134l-152 -229h42l11 61h116z" />
    <glyph glyph-name="five.sups" horiz-adv-x="331" 
d="M401 860l-19 -110h-141l-11 -41h23c80 0 134 -49 118 -138c-14 -83 -69 -125 -166 -125c-75 0 -123 30 -145 90l104 54c9 -28 28 -42 55 -42c25 0 40 11 43 32c3 20 -8 32 -31 32h-135l60 248h245z" />
    <glyph glyph-name="six.sups" horiz-adv-x="341" 
d="M386 860l-103 -130c73 -13 114 -72 102 -147c-15 -85 -80 -137 -177 -137c-46 0 -81 14 -106 43s-33 64 -26 106c5 30 16 56 35 79l146 186h129zM275 589c5 28 -8 42 -37 42c-27 0 -44 -14 -51 -42s9 -43 36 -43c29 0 46 14 52 43z" />
    <glyph glyph-name="seven.sups" horiz-adv-x="296" 
d="M89 750l19 110h280l-16 -93l-170 -307h-129l161 290h-145z" />
    <glyph glyph-name="eight.sups" horiz-adv-x="353" 
d="M408 748c-6 -35 -25 -63 -57 -82c31 -25 44 -58 38 -100c-11 -76 -74 -120 -175 -120c-96 0 -150 52 -137 128c7 44 32 77 75 98c-26 22 -36 51 -29 86c13 73 76 116 161 116c41 0 73 -12 97 -35c25 -23 34 -54 27 -91zM222 740c-4 -21 9 -32 36 -32s42 11 46 32
s-11 33 -35 33c-27 0 -43 -11 -47 -33zM279 587c5 25 -7 38 -36 38s-45 -13 -50 -38c-5 -26 7 -39 36 -39s45 13 50 39z" />
    <glyph glyph-name="nine.sups" horiz-adv-x="341" 
d="M278 874c46 0 81 -14 106 -43s33 -64 26 -106c-5 -30 -16 -56 -35 -79l-146 -186h-129l103 130c-73 13 -114 72 -102 147c15 85 80 137 177 137zM211 731c-5 -28 8 -42 37 -42c27 0 44 14 51 42s-9 43 -36 43c-29 0 -46 -14 -52 -43z" />
    <glyph glyph-name="cent.tf" 
d="M305 234h8c43 0 77 19 104 56l121 -77c-51 -84 -140 -127 -236 -127c-22 0 -44 3 -67 8l-46 -94h-62l56 113c-87 43 -131 136 -114 247c11 73 45 134 101 182s122 72 197 72c21 0 42 -2 61 -6l46 92h62l-55 -111c46 -23 79 -58 99 -105l-137 -72c-7 17 -18 29 -31 38z
M219 352c-8 -44 3 -77 33 -99l106 213h-4c-67 0 -123 -46 -135 -114z" />
    <glyph glyph-name="dollar.tf" 
d="M393 554l-25 -138c97 -34 205 -85 178 -235c-21 -119 -118 -186 -254 -194l-15 -87h-70l16 88c-119 12 -196 70 -221 161l146 75c16 -49 50 -78 101 -85l26 147c-1 0 -1 1 -2 1c-63 24 -103 45 -140 81c-36 36 -51 87 -40 152s40 113 89 145s105 48 169 49l15 86h70
l-16 -92c85 -18 143 -65 174 -142l-141 -74c-15 31 -35 51 -60 62zM256 507c-3 -25 12 -46 47 -63l21 118c-41 -4 -64 -22 -68 -55zM383 199c4 24 -10 44 -43 60l-20 -118c37 9 58 29 63 58z" />
    <glyph glyph-name="Euro.tf" 
d="M311 142c42 0 79 25 110 75l124 -79c-53 -96 -140 -152 -251 -152c-65 0 -115 24 -151 73s-54 114 -53 195h-69l15 84h60c1 4 3 11 4 22c0 3 2 7 2 10h-61l15 84h66c52 165 150 260 291 260c96 0 169 -56 201 -149l-139 -73c-14 44 -41 66 -80 66
c-49 0 -85 -35 -110 -104h151l-15 -84h-158c-1 -5 -3 -12 -4 -20l-2 -12h159l-15 -84h-153c-2 -75 19 -112 63 -112z" />
    <glyph glyph-name="florin.tf" 
d="M290 424l51 112c67 147 167 204 299 169l-26 -150c-49 20 -103 4 -128 -52l-36 -79h111l-26 -144h-152l-143 -312c-67 -147 -167 -204 -299 -169l26 150c49 -20 103 -4 128 52l128 279h-108l26 144h149z" />
    <glyph glyph-name="uni20BD.tf" 
d="M159 700h235c64 0 116 -25 157 -76c41 -50 56 -108 44 -174c-11 -67 -42 -121 -93 -161c-51 -39 -114 -59 -190 -59h-76l-7 -41h180l-17 -98h-180l-16 -91h-160l16 91h-70l17 98h70l7 41h-69l24 140h70zM368 550h-75l-32 -180h75c49 0 92 39 101 90s-20 90 -69 90z" />
    <glyph glyph-name="sterling.tf" 
d="M464 269h-205l-20 -115h314l-27 -154h-540l27 154h66l20 115h-55l25 140h55l14 81c27 149 122 224 255 224c101 0 179 -56 210 -149l-144 -76c-16 46 -44 69 -84 69c-39 0 -69 -25 -77 -68l-14 -81h205z" />
    <glyph glyph-name="yen.tf" 
d="M469 700h190l-237 -333h124l-16 -88h-155l-7 -40h155l-15 -88h-155l-27 -151h-160l27 151h-155l15 88h155l7 40h-155l16 88h124l-121 333h174l69 -227z" />
    <glyph glyph-name="brevecy" horiz-adv-x="380" 
d="M395 559h-300l22 130h300z" />
    </font>
</defs>
</svg>
