<?xml version="1.0" standalone="no"?>
<!DOCTYPE svg PUBLIC "-//W3C//DTD SVG 1.1//EN" "http://www.w3.org/Graphics/SVG/1.1/DTD/svg11.dtd" >
<svg xmlns="http://www.w3.org/2000/svg" xmlns:xlink="http://www.w3.org/1999/xlink" version="1.1">
<metadata>
Created by FontForge 20170924 at Thu Jul 21 23:21:55 2016
 By www-data
Copyright \251 2015 by Radomir Tinkov. All rights reserved.
</metadata>
<defs>
<font id="Gilroy-ThinItalic" horiz-adv-x="580" >
  <font-face 
    font-family="Gilroy"
    font-weight="250"
    font-style="italic"
    font-stretch="normal"
    units-per-em="1000"
    panose-1="0 0 3 0 0 0 0 0 0 0"
    ascent="777"
    descent="-223"
    x-height="500"
    cap-height="700"
    bbox="-275 -240 1053.5 960"
    underline-thickness="50"
    underline-position="-100"
    slope="-10"
    unicode-range="U+0020-FB02"
  />
<missing-glyph horiz-adv-x="500" 
d="M93 800h317v-1000h-317v1000zM333 700v33h-165v-33h65v-37h-66v-33h166v33h-66v37h66zM267 534v70h-100v-104h166v34h-66zM200 570h33v-36h-33v36zM333 440v33h-166v-33h66v-37h-66v-33h100v70h66zM333 313v100h-33v-66h-133v-34h166zM333 178v113h-100v-56h34v23h33v-47
h-100v80h-33v-113h166zM333 5v113h-166v-113h166zM200 85h100v-47h-100v47zM333 -51v33h-166v-33h70l-70 -47v-33h166v33h-102l70 47h32z" />
    <glyph glyph-name="fi" unicode="fi" horiz-adv-x="499" 
d="M377 692c-111 0 -167 -49 -186 -152l-7 -40h269l-88 -500h-20l85 482h-249l-85 -482h-20l85 482h-90l3 18h90l7 40c20 115 86 170 209 170c34 0 67 -3 98 -10l-3 -18c-31 7 -64 10 -98 10z" />
    <glyph glyph-name="fl" unicode="fl" horiz-adv-x="499" 
d="M380 710c34 0 70 -3 108 -10l-123 -700h-20l120 685c-23 5 -53 7 -88 7c-111 0 -167 -49 -186 -152l-7 -40h129l-3 -18h-129l-85 -482h-20l85 482h-90l3 18h90l7 40c20 115 86 170 209 170z" />
    <glyph glyph-name="f_f" unicode="ff" horiz-adv-x="568" 
d="M433 500l9 50c20 116 90 179 209 170l-3 -18c-104 9 -166 -42 -186 -152l-9 -50h159l-3 -18h-159l-85 -482h-20l85 482h-249l-85 -482h-20l85 482h-90l3 18h90l7 40c22 123 92 179 209 170l-3 -18c-104 9 -166 -42 -186 -152l-7 -40h249z" />
    <glyph glyph-name="f_f_i" unicode="ffi" horiz-adv-x="768" 
d="M648 702c-111 0 -167 -49 -186 -152l-9 -50h269l-88 -500h-20l85 482h-249l-85 -482h-20l85 482h-249l-85 -482h-20l85 482h-90l3 18h90l7 40c20 117 90 179 209 170l-3 -18c-104 9 -166 -42 -186 -152l-7 -40h249l9 50c19 113 88 170 209 170c34 0 67 -3 98 -10l-3 -18
c-31 7 -64 10 -98 10z" />
    <glyph glyph-name="f_f_l" unicode="ffl" horiz-adv-x="768" 
d="M651 720c34 0 70 -3 108 -10l-125 -710h-20l122 695c-23 5 -53 7 -88 7c-111 0 -167 -49 -186 -152l-9 -50h129l-3 -18h-129l-85 -482h-20l85 482h-249l-85 -482h-20l85 482h-90l3 18h90l7 40c20 117 90 179 209 170l-3 -18c-104 9 -166 -42 -186 -152l-7 -40h249l9 50
c19 113 88 170 209 170z" />
    <glyph glyph-name=".notdef" horiz-adv-x="500" 
d="M93 800h317v-1000h-317v1000zM333 700v33h-165v-33h65v-37h-66v-33h166v33h-66v37h66zM267 534v70h-100v-104h166v34h-66zM200 570h33v-36h-33v36zM333 440v33h-166v-33h66v-37h-66v-33h100v70h66zM333 313v100h-33v-66h-133v-34h166zM333 178v113h-100v-56h34v23h33v-47
h-100v80h-33v-113h166zM333 5v113h-166v-113h166zM200 85h100v-47h-100v47zM333 -51v33h-166v-33h70l-70 -47v-33h166v33h-102l70 47h32z" />
    <glyph glyph-name="NULL" horiz-adv-x="0" 
 />
    <glyph glyph-name="CR" horiz-adv-x="333" 
 />
    <glyph glyph-name="space" unicode=" " horiz-adv-x="300" 
 />
    <glyph glyph-name="exclam" unicode="!" horiz-adv-x="200" 
d="M94 160h-20l60 340l35 200h20l-35 -200zM55 -10c-13 0 -23 11 -20 26c3 16 13 24 29 24c13 0 23 -11 20 -26c-3 -16 -13 -24 -29 -24z" />
    <glyph glyph-name="quotedbl" unicode="&#x22;" horiz-adv-x="260" 
d="M131 540h-20l28 160h20zM251 540h-20l28 160h20z" />
    <glyph glyph-name="numbersign" unicode="#" horiz-adv-x="612" 
d="M597 450l-6 -20h-119l-54 -160h119l-8 -20h-118l-68 -200h-22l68 200h-198l-68 -200h-22l68 200h-119l7 20h119l54 160h-119l6 20h120l68 200h22l-68 -200h198l68 200h22l-68 -200h118zM198 270h198l54 160h-198z" />
    <glyph glyph-name="dollar" unicode="$" horiz-adv-x="551" 
d="M540 589l-16 -9c-19 69 -68 106 -146 111l-59 -332c120 -43 185 -98 166 -199c-17 -104 -103 -165 -231 -170l-16 -90h-20l16 90c-112 1 -193 53 -206 134l18 10c12 -80 85 -126 190 -126h1l60 338c-59 21 -104 47 -135 76c-30 29 -40 71 -31 124c9 49 34 88 76 118
c42 31 92 46 150 46h4l16 90h20l-16 -91c83 -7 142 -51 159 -120zM151 544c-9 -51 4 -90 37 -118c33 -27 63 -41 112 -60l58 326c-55 0 -102 -14 -140 -43c-37 -29 -60 -64 -67 -105zM465 162c16 89 -41 138 -149 178l-59 -331c120 5 192 65 208 153z" />
    <glyph glyph-name="percent" unicode="%" horiz-adv-x="729" 
d="M253 414c-43 0 -77 15 -102 44s-33 65 -26 106c7 42 28 77 61 104c33 28 72 42 117 42c43 0 77 -15 102 -44s33 -65 26 -106c-7 -42 -28 -77 -61 -105c-33 -27 -72 -41 -117 -41zM255 432c39 0 73 12 102 37s47 56 54 93c13 75 -34 130 -110 130c-38 0 -72 -12 -102 -37
c-29 -25 -47 -56 -54 -93c-13 -75 34 -130 110 -130zM100 70l-18 9l582 551l18 -9zM461 -10c-43 0 -77 15 -102 44s-33 65 -26 106c7 42 28 77 61 104c33 28 72 42 117 42c43 0 77 -15 102 -44s33 -65 26 -106c-7 -42 -28 -77 -61 -105c-33 -27 -72 -41 -117 -41zM463 8
c39 0 73 12 102 37s47 56 54 93c13 75 -34 130 -110 130c-38 0 -72 -12 -102 -37c-29 -25 -47 -56 -54 -93c-13 -75 34 -130 110 -130z" />
    <glyph glyph-name="ampersand" unicode="&#x26;" horiz-adv-x="655" 
d="M562 279l15 -10c-21 -65 -47 -118 -80 -160l85 -104l-16 -9l-81 99c-61 -70 -139 -105 -235 -105c-65 0 -115 18 -152 55s-50 85 -39 142c16 89 90 162 185 207c-35 48 -49 97 -40 146c9 50 33 91 72 122c39 32 84 48 137 48c85 0 148 -44 176 -120l-17 -9
c-29 74 -82 111 -160 111c-49 0 -90 -15 -125 -44c-34 -29 -55 -65 -63 -108c-6 -34 -4 -63 7 -88s31 -54 59 -89l195 -239c32 41 58 93 77 155zM251 8c90 0 164 34 223 101l-197 242l-22 28c-93 -43 -163 -115 -176 -194c-10 -54 2 -97 35 -129c34 -32 80 -48 137 -48z" />
    <glyph glyph-name="quotesingle" unicode="'" horiz-adv-x="130" 
d="M131 540h-20l28 160h20z" />
    <glyph glyph-name="parenleft" unicode="(" horiz-adv-x="220" 
d="M128 -100h-20c-47 149 -57 300 -30 452c29 165 92 315 189 448h20c-199 -292 -252 -608 -159 -900z" />
    <glyph glyph-name="parenright" unicode=")" horiz-adv-x="220" 
d="M127 800h20c47 -149 57 -300 30 -452c-29 -165 -92 -315 -189 -448h-20c199 292 252 608 159 900z" />
    <glyph glyph-name="asterisk" unicode="*" horiz-adv-x="376" 
d="M267 613l103 1l-3 -18l-103 1l40 -88l-17 -9l-39 89l-67 -89l-17 10l70 87l-103 -1l3 18l103 -1l-40 88l17 9l39 -89l67 89l17 -10z" />
    <glyph glyph-name="plus" unicode="+" horiz-adv-x="520" 
d="M289 359h180l-3 -18h-180l-32 -181h-20l32 181h-180l3 18h180l32 181h20z" />
    <glyph glyph-name="comma" unicode="," horiz-adv-x="190" 
d="M60 35h27l-72 -175h-19z" />
    <glyph glyph-name="hyphen" unicode="-" horiz-adv-x="560" 
d="M469 300h-360l3 18h360z" />
    <glyph glyph-name="period" unicode="." horiz-adv-x="180" 
d="M44 -10c-13 0 -23 11 -20 26c3 16 13 24 29 24c13 0 23 -11 20 -26c-3 -16 -13 -24 -29 -24z" />
    <glyph glyph-name="slash" unicode="/" horiz-adv-x="520" 
d="M567 800l-558 -900h-21l558 900h21z" />
    <glyph glyph-name="zero" unicode="0" horiz-adv-x="630" 
d="M474 87c-56 -65 -124 -97 -203 -97s-136 33 -171 99c-34 66 -41 154 -22 263s57 196 113 261s124 97 203 97s136 -33 170 -99c35 -66 42 -154 23 -263s-57 -196 -113 -261zM117 99c31 -61 83 -91 155 -91s134 30 187 91s89 145 108 251s12 189 -19 250s-83 92 -155 92
s-135 -31 -188 -92s-88 -144 -107 -250s-12 -190 19 -251z" />
    <glyph glyph-name="one" unicode="1" horiz-adv-x="316" 
d="M88 638l192 62h15l-123 -700h-20l119 678l-180 -57z" />
    <glyph glyph-name="two" unicode="2" horiz-adv-x="530" 
d="M436 0h-430l3 18l316 284c99 90 153 164 163 223c9 49 -1 89 -29 120s-68 47 -121 47c-91 0 -161 -40 -210 -120l-15 10c49 80 133 128 228 128c55 0 99 -17 132 -52s44 -80 34 -136c-11 -63 -67 -141 -169 -233l-301 -271h402z" />
    <glyph glyph-name="three" unicode="3" horiz-adv-x="558" 
d="M147 700h390l-3 -18l-224 -272c61 -3 109 -25 143 -64c35 -39 47 -89 36 -148c-11 -63 -41 -113 -91 -151c-49 -38 -108 -57 -176 -57c-97 0 -170 47 -191 123l17 9c19 -71 82 -114 177 -114c63 0 117 18 162 54c45 37 72 83 82 138s-1 101 -33 137
c-32 37 -80 55 -143 55h-6l-6 12l230 278h-367z" />
    <glyph glyph-name="four" unicode="4" horiz-adv-x="560" 
d="M432 178h90l-3 -18h-90l-28 -160h-20l28 160h-390l3 18l368 522h22l-367 -522h367l41 232h20z" />
    <glyph glyph-name="five" unicode="5" horiz-adv-x="543" 
d="M547 700l-3 -18h-342l-66 -272h160c66 0 117 -20 154 -60c37 -39 50 -90 39 -153c-11 -62 -41 -112 -91 -150c-49 -38 -108 -57 -176 -57c-99 0 -171 48 -191 125l17 9c17 -72 81 -116 177 -116c64 0 118 18 163 54s72 82 82 137s-1 101 -33 138c-31 37 -79 55 -144 55
h-181l75 308h360z" />
    <glyph glyph-name="six" unicode="6" horiz-adv-x="550" 
d="M310 449c67 0 119 -22 156 -66c37 -43 50 -99 38 -166s-44 -122 -95 -164s-111 -63 -180 -63c-67 0 -119 22 -156 66s-50 100 -38 167c10 55 33 102 69 140l302 337h23l-254 -283c41 21 86 32 135 32zM400 68c46 41 74 91 85 152s0 111 -32 151c-31 40 -80 60 -146 60
s-122 -20 -168 -60s-74 -90 -85 -151s0 -111 31 -152c32 -40 81 -60 147 -60s122 20 168 60z" />
    <glyph glyph-name="seven" unicode="7" horiz-adv-x="490" 
d="M106 682l3 18h410l-3 -18l-406 -682h-21l407 682h-390z" />
    <glyph glyph-name="eight" unicode="8" horiz-adv-x="554" 
d="M532 529c-15 -83 -77 -145 -162 -168c92 -23 137 -92 121 -184c-21 -116 -119 -187 -260 -187c-69 0 -121 18 -156 53s-48 82 -37 140c16 93 85 159 185 180c-76 24 -116 89 -101 170c9 53 35 95 78 128s95 49 156 49c60 0 106 -17 139 -51s46 -77 37 -130zM512 531
c16 92 -41 161 -157 161s-197 -69 -213 -161c-17 -92 40 -161 156 -161c58 0 106 15 144 46s61 69 70 115zM471 180c17 103 -44 172 -176 172s-220 -71 -237 -172c-19 -101 44 -172 176 -172s218 69 237 172z" />
    <glyph glyph-name="nine" unicode="9" horiz-adv-x="550" 
d="M356 710c67 0 119 -22 156 -66s50 -100 38 -167c-10 -55 -33 -102 -69 -140l-302 -337h-23l254 283c-41 -21 -86 -32 -135 -32c-67 0 -120 22 -157 65c-37 44 -49 100 -37 167s44 122 95 164s111 63 180 63zM446 329c46 40 74 90 85 151s0 111 -32 151
c-31 41 -80 61 -146 61s-122 -20 -168 -61c-46 -40 -74 -90 -85 -151s0 -111 31 -151c32 -40 81 -60 147 -60s122 20 168 60z" />
    <glyph glyph-name="colon" unicode=":" horiz-adv-x="180" 
d="M122 430c-13 0 -23 11 -20 26c3 16 13 24 29 24c13 0 23 -11 20 -26c-3 -16 -13 -24 -29 -24zM44 -10c-13 0 -23 11 -20 26c3 16 13 24 29 24c13 0 23 -11 20 -26c-3 -16 -13 -24 -29 -24z" />
    <glyph glyph-name="semicolon" unicode=";" horiz-adv-x="199" 
d="M141 430c-13 0 -23 11 -20 26c3 16 13 24 29 24c13 0 23 -11 20 -26c-3 -16 -13 -24 -29 -24zM60 35h27l-72 -175h-19z" />
    <glyph glyph-name="less" unicode="&#x3c;" horiz-adv-x="540" 
d="M89 359l432 183l-4 -21l-407 -172l346 -172l-3 -19l-367 183l2 9z" />
    <glyph glyph-name="equal" unicode="=" horiz-adv-x="530" 
d="M494 441h-390l3 18h390zM458 241h-390l4 18h390z" />
    <glyph glyph-name="greater" unicode="&#x3e;" horiz-adv-x="540" 
d="M118 523l4 19l367 -183l-1 -9l-2 -9l-432 -183l3 21l409 172z" />
    <glyph glyph-name="question" unicode="?" horiz-adv-x="526" 
d="M244 160h-20c12 65 54 127 99 171c68 66 149 129 164 209c16 92 -33 152 -148 152c-44 0 -85 -11 -122 -33c-37 -21 -65 -49 -82 -82l-16 9c20 37 51 66 92 89s85 35 131 35c116 0 184 -68 165 -172c-9 -53 -49 -105 -96 -148c-65 -60 -151 -134 -167 -230zM204 -10
c-13 0 -23 11 -20 26c3 16 13 24 29 24c13 0 23 -11 20 -26c-3 -16 -13 -24 -29 -24z" />
    <glyph glyph-name="at" unicode="@" horiz-adv-x="835" 
d="M488 612c71 0 130 -17 178 -52c97 -69 132 -179 112 -292c-25 -141 -93 -200 -166 -200c-61 0 -81 44 -72 99l2 9c-37 -57 -89 -86 -157 -86c-45 0 -81 16 -107 47s-35 70 -27 115s30 83 65 113s77 45 124 45c64 0 111 -37 127 -93l15 86h20l-42 -236
c-9 -54 9 -81 55 -81c69 0 122 68 143 184c16 91 -2 168 -54 230c-52 63 -125 94 -219 94c-97 0 -184 -33 -262 -100c-78 -66 -126 -147 -143 -244c-17 -99 2 -181 59 -246s138 -98 242 -98c65 0 123 9 172 26l4 -17c-53 -18 -112 -27 -179 -27c-109 0 -194 35 -255 104
s-82 155 -63 260c17 101 67 186 149 255c82 70 175 105 279 105zM388 108c39 0 73 12 104 37s52 57 61 96l3 17c11 77 -41 134 -118 134c-41 0 -77 -14 -109 -41s-51 -60 -58 -101c-15 -81 36 -142 117 -142z" />
    <glyph glyph-name="A" unicode="A" horiz-adv-x="628" 
d="M559 0h-20l-42 191h-385l-109 -191h-22l400 700h25zM391 679l-269 -470h371z" />
    <glyph glyph-name="B" unicode="B" horiz-adv-x="630" 
d="M598 523c-13 -75 -71 -139 -144 -163c40 -9 71 -30 92 -63c22 -33 29 -72 22 -115c-8 -50 -32 -93 -73 -129c-40 -35 -89 -53 -147 -53h-292l123 700h261c51 0 92 -17 123 -52c31 -34 43 -76 35 -125zM140 366h254c43 0 83 15 119 46s58 69 65 112s-2 80 -29 111
s-63 47 -109 47h-244zM548 183c8 45 -1 84 -28 116c-26 33 -61 49 -106 49h-277l-58 -330h272c49 0 92 16 129 47c37 32 60 71 68 118z" />
    <glyph glyph-name="C" unicode="C" horiz-adv-x="763" 
d="M374 -10c-101 0 -180 35 -237 104c-57 70 -76 156 -59 258c18 101 66 186 144 255s168 103 270 103c127 0 227 -64 275 -161l-17 -9c-45 93 -140 152 -259 152c-97 0 -183 -33 -257 -99s-119 -147 -136 -243c-17 -95 1 -175 52 -242c52 -67 126 -100 223 -100
c124 0 240 62 313 161l16 -10c-37 -51 -84 -92 -142 -123s-120 -46 -186 -46z" />
    <glyph glyph-name="D" unicode="D" horiz-adv-x="740" 
d="M179 700h250c93 0 166 -35 217 -104s68 -153 51 -250c-17 -99 -62 -181 -135 -247s-158 -99 -256 -99h-250zM677 349c16 93 1 172 -46 236c-47 65 -115 97 -205 97h-230l-117 -664h230c90 0 170 32 239 96c70 64 113 142 129 235z" />
    <glyph glyph-name="E" unicode="E" horiz-adv-x="540" 
d="M564 700l-3 -18h-365l-56 -320h340l-3 -18h-341l-57 -326h370l-3 -18h-390l123 700h385z" />
    <glyph glyph-name="F" unicode="F" horiz-adv-x="525" 
d="M554 700l-3 -18h-355l-57 -324h350l-3 -18h-350l-60 -340h-20l123 700h375z" />
    <glyph glyph-name="G" unicode="G" horiz-adv-x="821" 
d="M421 313h351l-2 -10c-18 -91 -62 -166 -132 -225s-153 -88 -249 -88c-107 0 -189 36 -248 107c-58 72 -79 159 -62 260c16 99 63 182 141 250c79 69 169 103 271 103c133 0 231 -66 276 -161l-17 -9c-44 91 -138 152 -261 152c-97 0 -182 -33 -256 -99
c-74 -65 -119 -145 -134 -238c-16 -97 3 -179 58 -246s133 -101 233 -101c89 0 167 27 233 82s108 124 126 205h-331z" />
    <glyph glyph-name="H" unicode="H" horiz-adv-x="700" 
d="M601 369l58 331h20l-123 -700h-20l62 351h-460l-62 -351h-20l123 700h20l-58 -331h460z" />
    <glyph glyph-name="I" unicode="I" horiz-adv-x="220" 
d="M56 0l123 700h20l-123 -700h-20z" />
    <glyph glyph-name="J" unicode="J" horiz-adv-x="554" 
d="M211 -10c-100 0 -168 42 -187 113l17 9c16 -64 73 -104 170 -104c58 0 107 16 147 48c40 33 65 74 74 124l91 520h20l-91 -520c-11 -57 -38 -103 -83 -138c-44 -35 -97 -52 -158 -52z" />
    <glyph glyph-name="K" unicode="K" horiz-adv-x="556" 
d="M585 700h30l-454 -343l341 -357h-25l-339 354l-62 -354h-20l123 700h20l-59 -335z" />
    <glyph glyph-name="L" unicode="L" horiz-adv-x="500" 
d="M199 700l-120 -682h350l-3 -18h-370l3 18l120 682h20z" />
    <glyph glyph-name="M" unicode="M" horiz-adv-x="820" 
d="M772 700h27l-123 -700h-20l118 670l-367 -461h-8l-204 466l-119 -675h-20l123 700h25l203 -462z" />
    <glyph glyph-name="N" unicode="N" horiz-adv-x="700" 
d="M76 0h-20l123 700h20l342 -667l118 667h20l-123 -700h-20l-342 667z" />
    <glyph glyph-name="O" unicode="O" horiz-adv-x="840" 
d="M500 710c99 0 177 -36 235 -107c59 -71 79 -157 62 -256s-67 -184 -150 -253c-82 -69 -173 -104 -272 -104s-178 36 -236 107s-78 157 -61 256s67 184 149 253c83 69 174 104 273 104zM777 350c17 95 -2 175 -57 242c-54 67 -128 100 -222 100s-180 -33 -258 -100
s-125 -147 -142 -242s2 -175 56 -242c55 -67 129 -100 223 -100s180 33 257 100c78 67 126 147 143 242z" />
    <glyph glyph-name="P" unicode="P" 
d="M179 700h211c63 0 112 -20 146 -61c34 -40 46 -90 36 -149s-39 -109 -86 -150c-47 -40 -102 -60 -166 -60h-195l-49 -280h-20zM391 682h-195l-68 -384h193c58 0 109 18 152 54c43 37 70 83 79 138s-1 101 -31 137c-30 37 -73 55 -130 55z" />
    <glyph glyph-name="Q" unicode="Q" horiz-adv-x="845" 
d="M797 347c-19 -105 -81 -201 -168 -268l71 -85l-14 -13l-72 87c-74 -52 -154 -78 -239 -78c-99 0 -178 36 -236 107s-78 157 -61 256s67 184 149 253c83 69 174 104 273 104s177 -36 235 -107c59 -71 79 -157 62 -256zM483 253l134 -160c83 64 143 157 160 257
c17 95 -2 175 -57 242c-54 67 -128 100 -222 100s-180 -33 -258 -100s-125 -147 -142 -242s2 -175 56 -242c55 -67 129 -100 223 -100c79 0 154 25 225 74l-132 159z" />
    <glyph glyph-name="R" unicode="R" horiz-adv-x="620" 
d="M179 700h270c54 0 97 -20 129 -60c33 -40 44 -88 35 -143c-9 -47 -31 -89 -67 -125s-78 -59 -125 -68l125 -304h-20l-124 301c-5 -1 -13 -1 -23 -1h-250l-53 -300h-20zM594 500c9 50 -2 93 -31 128c-29 36 -68 54 -117 54h-250l-64 -364h250c49 0 95 18 136 53
c41 36 67 79 76 129z" />
    <glyph glyph-name="S" unicode="S" horiz-adv-x="551" 
d="M246 -10c-123 0 -206 59 -225 154l18 9c16 -89 91 -145 208 -145c128 0 206 62 223 151c11 52 -3 93 -42 122c-19 15 -37 26 -55 35s-42 19 -71 30c-63 23 -105 44 -128 62c-45 35 -63 82 -52 139c9 49 35 89 76 118c41 30 90 45 145 45c107 0 176 -57 199 -141l-17 -8
c-25 87 -86 131 -182 131c-51 0 -96 -14 -133 -41s-60 -63 -68 -106c-11 -61 16 -110 81 -145c17 -9 47 -22 90 -39c64 -25 97 -41 136 -73s52 -75 41 -131c-20 -108 -115 -167 -244 -167z" />
    <glyph glyph-name="T" unicode="T" horiz-adv-x="540" 
d="M109 700h480l-3 -18h-230l-120 -682h-20l120 682h-230z" />
    <glyph glyph-name="U" unicode="U" horiz-adv-x="680" 
d="M299 -10c-77 0 -135 22 -174 66c-38 44 -51 100 -39 169l84 475h20l-84 -475c-11 -63 -1 -115 32 -156s86 -61 160 -61s134 20 180 61c47 41 76 93 87 156l84 475h20l-84 -475c-12 -70 -44 -127 -95 -170s-115 -65 -191 -65z" />
    <glyph glyph-name="V" unicode="V" horiz-adv-x="598" 
d="M267 0h-24l-144 700h20l139 -678l377 678h22z" />
    <glyph glyph-name="W" unicode="W" horiz-adv-x="980" 
d="M223 0h-24l-80 700h19l77 -676l341 676h24l104 -676l314 676h21l-326 -700h-24l-104 676z" />
    <glyph glyph-name="X" unicode="X" horiz-adv-x="560" 
d="M575 700h25l-290 -345l176 -355h-21l-168 340l-286 -340h-25l301 358l-169 342h21l162 -326z" />
    <glyph glyph-name="Y" unicode="Y" horiz-adv-x="560" 
d="M596 700h23l-315 -371l-58 -329h-20l58 330l-185 370h21l176 -354z" />
    <glyph glyph-name="Z" unicode="Z" horiz-adv-x="530" 
d="M139 700h420l-3 -18l-523 -664h416l-3 -18h-440l3 18l524 664h-397z" />
    <glyph glyph-name="bracketleft" unicode="[" horiz-adv-x="270" 
d="M347 800l-3 -19h-160l-153 -862h161l-4 -19h-180l159 900h180z" />
    <glyph glyph-name="backslash" unicode="\" horiz-adv-x="520" 
d="M408 -100h-18l-243 900h18z" />
    <glyph glyph-name="bracketright" unicode="]" horiz-adv-x="270" 
d="M117 800h180l-159 -900h-180l4 19h159l153 862h-160z" />
    <glyph glyph-name="asciicircum" unicode="^" horiz-adv-x="506" 
d="M323 700h16l123 -300h-20l-113 276l-209 -276h-24z" />
    <glyph glyph-name="underscore" unicode="_" horiz-adv-x="480" 
d="M375 -118h-400l3 18h400z" />
    <glyph glyph-name="grave" unicode="`" horiz-adv-x="142" 
d="M178 570h-16l-64 120h20z" />
    <glyph glyph-name="a" unicode="a" horiz-adv-x="662" 
d="M566 328l30 172h20l-88 -500h-20l25 141c-52 -93 -147 -151 -258 -151c-72 0 -130 27 -175 81c-45 55 -61 119 -48 192s46 133 101 178c55 46 120 69 194 69c55 0 103 -17 143 -51c41 -34 66 -78 76 -131zM115 83c41 -50 96 -75 163 -75s126 22 177 65s83 99 95 167
s-3 127 -44 177s-95 75 -162 75s-127 -22 -178 -65s-82 -99 -94 -167s2 -127 43 -177z" />
    <glyph glyph-name="b" unicode="b" horiz-adv-x="662" 
d="M387 510c71 0 129 -27 174 -82c45 -54 62 -118 49 -191s-47 -133 -102 -179c-55 -45 -119 -68 -193 -68c-55 0 -103 17 -144 51c-40 35 -65 78 -75 131l-30 -172h-20l123 700h20l-60 -341c52 93 147 151 258 151zM495 73c51 43 83 99 95 167s-3 127 -44 177
s-95 75 -162 75s-127 -22 -178 -65s-82 -99 -94 -167s2 -127 43 -177s96 -75 163 -75s126 22 177 65z" />
    <glyph glyph-name="c" unicode="c" 
d="M265 -10c-74 0 -132 25 -173 76s-54 113 -41 187c13 73 49 134 107 183s124 74 199 74c95 0 171 -49 196 -122l-17 -10c-23 71 -89 114 -182 114c-69 0 -131 -23 -185 -70c-53 -46 -86 -103 -98 -172s0 -126 37 -173c37 -46 91 -69 160 -69c91 0 175 45 223 114l15 -10
c-52 -76 -140 -122 -241 -122z" />
    <glyph glyph-name="d" unicode="d" horiz-adv-x="662" 
d="M566 329l65 371h20l-123 -700h-20l25 141c-52 -93 -147 -151 -258 -151c-72 0 -130 27 -175 81c-45 55 -61 119 -48 192s46 133 101 178c55 46 120 69 194 69c55 0 103 -17 143 -51c41 -34 66 -77 76 -130zM115 83c41 -50 96 -75 163 -75s126 22 177 65s83 99 95 167
s-3 127 -44 177s-95 75 -162 75s-127 -22 -178 -65s-82 -99 -94 -167s2 -127 43 -177z" />
    <glyph glyph-name="e" unicode="e" horiz-adv-x="597" 
d="M347 510c73 0 128 -26 164 -77s48 -113 36 -184l-2 -11h-477c-9 -69 5 -124 40 -167c36 -42 88 -63 155 -63c91 0 170 39 214 103l15 -10c-48 -69 -133 -111 -232 -111c-75 0 -132 25 -171 74s-52 112 -39 188c13 75 47 136 101 185c55 49 120 73 196 73zM71 256h459
c9 71 -3 128 -37 171s-83 65 -148 65c-67 0 -127 -22 -178 -66s-83 -101 -96 -170z" />
    <glyph glyph-name="f" unicode="f" horiz-adv-x="299" 
d="M164 500l7 40c20 117 90 179 209 170l-3 -18c-104 9 -166 -42 -186 -152l-7 -40h159l-3 -18h-159l-85 -482h-20l85 482h-90l3 18h90z" />
    <glyph glyph-name="g" unicode="g" horiz-adv-x="672" 
d="M576 328l30 172h20l-83 -469c-27 -149 -131 -241 -287 -241c-115 0 -193 50 -214 118l17 9c19 -61 91 -109 198 -109c141 0 241 83 266 223l19 109c-51 -92 -147 -150 -252 -150c-75 0 -135 27 -180 80c-44 54 -60 118 -48 193c11 71 45 129 100 176c56 47 119 71 190 71
c59 0 108 -17 148 -51c41 -34 66 -78 76 -131zM291 8c65 0 122 21 173 64s82 96 95 161l1 8c11 69 -3 128 -44 177s-96 74 -165 74c-65 0 -124 -22 -176 -66c-51 -44 -82 -99 -93 -166c-11 -69 3 -129 44 -178s96 -74 165 -74z" />
    <glyph glyph-name="h" unicode="h" horiz-adv-x="575" 
d="M353 510c57 0 100 -18 129 -53c30 -35 40 -82 30 -139l-56 -318h-20l56 318c17 101 -36 174 -141 174c-57 0 -108 -20 -152 -59c-43 -39 -72 -92 -85 -157l-48 -276h-20l123 700h20l-58 -329c47 91 131 139 222 139z" />
    <glyph glyph-name="i" unicode="i" horiz-adv-x="200" 
d="M152 674c4 15 13 23 27 23c22 0 25 -25 9 -39c-16 -16 -40 -3 -36 16zM66 0h-20l88 500h20z" />
    <glyph glyph-name="j" unicode="j" horiz-adv-x="209" 
d="M188 697c22 0 25 -25 9 -39c-16 -16 -40 -3 -36 16c4 15 13 23 27 23zM39 -90l104 590h20l-104 -590c-15 -84 -68 -131 -160 -120l3 18c78 -9 124 25 137 102z" />
    <glyph glyph-name="k" unicode="k" horiz-adv-x="461" 
d="M439 500h31l-337 -242l254 -258h-26l-250 254l-45 -254h-20l123 700h20l-76 -435z" />
    <glyph glyph-name="l" unicode="l" horiz-adv-x="201" 
d="M67 0h-20l56 321l72 409h20l-72 -409z" />
    <glyph glyph-name="m" unicode="m" horiz-adv-x="875" 
d="M674 510c49 0 87 -16 114 -47s36 -77 25 -136l-57 -327h-20l57 327c19 105 -31 165 -122 165c-101 0 -184 -73 -209 -200l-51 -292h-20l57 327c19 105 -29 165 -120 165c-101 0 -185 -74 -210 -198l-52 -294h-20l88 500h20l-20 -114c43 83 119 124 196 124
c81 0 139 -45 142 -132c43 88 121 132 202 132z" />
    <glyph glyph-name="n" unicode="n" horiz-adv-x="575" 
d="M353 510c57 0 100 -18 129 -53c30 -35 40 -82 30 -139l-56 -318h-20l56 318c17 101 -36 174 -141 174c-57 0 -107 -20 -151 -59c-43 -39 -72 -90 -85 -155l-49 -278h-20l88 500h20l-23 -128c47 89 131 138 222 138z" />
    <glyph glyph-name="o" unicode="o" horiz-adv-x="622" 
d="M266 -10c-72 0 -129 26 -171 77s-57 114 -44 187s48 134 107 183s125 73 198 73c72 0 129 -26 171 -77s57 -114 44 -187s-48 -134 -107 -183s-125 -73 -198 -73zM268 8c67 0 128 23 183 70s88 104 100 172s-1 125 -40 172c-38 47 -90 70 -157 70s-128 -23 -183 -70
s-88 -104 -100 -172s1 -125 39 -172c39 -47 91 -70 158 -70z" />
    <glyph glyph-name="p" unicode="p" horiz-adv-x="662" 
d="M387 510c71 0 129 -27 174 -82c45 -54 62 -118 49 -191s-47 -133 -102 -179c-55 -45 -119 -68 -193 -68c-55 0 -103 17 -144 51c-40 34 -65 77 -75 130l-65 -371h-20l123 700h20l-25 -140c52 93 147 150 258 150zM495 73c51 43 83 99 95 167s-3 127 -44 177
s-95 75 -162 75s-127 -22 -178 -65s-82 -99 -94 -167s2 -127 43 -177s96 -75 163 -75s126 22 177 65z" />
    <glyph glyph-name="q" unicode="q" horiz-adv-x="662" 
d="M566 328l30 172h20l-123 -700h-20l60 341c-51 -93 -147 -151 -258 -151c-72 0 -130 27 -175 81c-45 55 -61 119 -48 192s46 133 101 178c55 46 120 69 194 69c55 0 103 -17 143 -51c41 -34 66 -78 76 -131zM115 83c41 -50 96 -75 163 -75s126 22 177 65s83 99 95 167
s-3 127 -44 177s-95 75 -162 75s-127 -22 -178 -65s-82 -99 -94 -167s2 -127 43 -177z" />
    <glyph glyph-name="r" unicode="r" horiz-adv-x="325" 
d="M154 500l-22 -123c44 87 127 132 208 129l-3 -18c-52 0 -99 -19 -142 -56c-42 -37 -69 -89 -80 -154l-49 -278h-20l88 500h20z" />
    <glyph glyph-name="s" unicode="s" horiz-adv-x="466" 
d="M203 -10c-91 0 -150 35 -175 105l18 8c21 -63 74 -95 159 -95s154 39 166 107c30 168 -314 90 -280 270c13 79 85 125 180 125c72 0 134 -39 155 -96l-17 -8c-20 52 -76 86 -140 86c-81 0 -146 -39 -158 -111c-9 -59 36 -91 97 -110c90 -25 202 -48 183 -160
c-13 -76 -89 -121 -188 -121z" />
    <glyph glyph-name="t" unicode="t" horiz-adv-x="379" 
d="M370 482h-160l-65 -371c-16 -88 26 -110 143 -93l-3 -18c-127 -20 -177 14 -160 111l65 371h-119l3 18h119l24 134l21 6l-25 -140h160z" />
    <glyph glyph-name="u" unicode="u" horiz-adv-x="575" 
d="M460 222l49 278h20l-88 -500h-20l23 128c-47 -89 -131 -138 -222 -138c-57 0 -100 18 -130 53c-29 35 -39 82 -29 139l56 318h20l-56 -318c-17 -101 36 -174 141 -174c57 0 107 19 150 58c44 39 73 91 86 156z" />
    <glyph glyph-name="v" unicode="v" horiz-adv-x="492" 
d="M204 22l289 478h23l-303 -500h-22l-127 500h20z" />
    <glyph glyph-name="w" unicode="w" horiz-adv-x="770" 
d="M514 26l238 474h22l-252 -500h-22l-76 473l-242 -473h-22l-76 500h19l72 -473l242 473h22z" />
    <glyph glyph-name="x" unicode="x" horiz-adv-x="500" 
d="M478 500h26l-241 -245l163 -255h-22l-154 241l-238 -241h-26l253 257l-155 243h22l147 -229z" />
    <glyph glyph-name="y" unicode="y" horiz-adv-x="510" 
d="M224 -1l288 501h22l-314 -546c-59 -100 -138 -161 -219 -154l3 18c69 -5 146 50 198 142l9 15l-147 525h19z" />
    <glyph glyph-name="z" unicode="z" horiz-adv-x="490" 
d="M114 500h360l-2 -11l-424 -471h351l-3 -18h-380l2 11l424 471h-331z" />
    <glyph glyph-name="braceleft" unicode="{" horiz-adv-x="338" 
d="M258 -91l-3 -18c-93 -9 -133 37 -118 120l40 229c13 71 -18 102 -101 102l3 18c80 0 126 34 137 102l41 228c15 85 69 129 160 120l-3 -18c-78 9 -124 -25 -137 -102l-41 -228c-11 -66 -45 -103 -102 -112c51 -9 74 -53 63 -110l-40 -229c-13 -76 18 -111 101 -102z" />
    <glyph glyph-name="bar" unicode="|" horiz-adv-x="220" 
d="M41 -200h-20l162 920h20z" />
    <glyph glyph-name="braceright" unicode="}" horiz-adv-x="339" 
d="M116 793l3 18c93 9 133 -37 118 -120l-40 -229c-13 -71 18 -102 101 -102l-3 -18c-80 0 -126 -34 -137 -102l-41 -228c-15 -85 -69 -129 -160 -120l3 18c78 -9 124 25 137 102l41 228c11 66 45 103 102 112c-51 9 -74 53 -63 110l40 229c13 76 -18 111 -101 102z" />
    <glyph glyph-name="asciitilde" unicode="~" horiz-adv-x="573" 
d="M98 296l-18 8c18 40 91 166 229 54c47 -37 91 -47 119 -38c47 16 71 59 83 84l18 -8c-9 -21 -20 -41 -48 -68c-39 -35 -96 -52 -181 14c-47 37 -92 46 -120 37c-46 -16 -72 -58 -82 -83z" />
    <glyph glyph-name="exclamdown" unicode="&#xa1;" horiz-adv-x="200" 
d="M145 510c13 0 23 -11 20 -26c-3 -16 -13 -24 -29 -24c-13 0 -23 11 -20 26c3 16 13 24 29 24zM106 340h20l-60 -340l-35 -200h-20l35 200z" />
    <glyph glyph-name="cent" unicode="&#xa2;" 
d="M570 488l-17 -10c-17 51 -52 86 -107 103l-236 -461c23 -8 48 -12 75 -12c91 0 175 45 223 114l15 -10c-52 -76 -140 -122 -241 -122c-30 0 -57 4 -80 13l-53 -103h-21l56 110c-89 40 -136 134 -116 243c13 73 49 134 107 183s124 74 199 74c19 0 40 -2 62 -7l50 97h21
l-53 -103c60 -20 99 -56 116 -109zM193 126l235 460c-18 4 -37 6 -57 6c-69 0 -131 -23 -185 -70c-53 -46 -86 -103 -98 -172c-17 -101 24 -187 105 -224z" />
    <glyph glyph-name="sterling" unicode="&#xa3;" horiz-adv-x="600" 
d="M423 692c-105 0 -177 -70 -194 -167l-36 -206h259l-3 -18h-260l-50 -283h400l-3 -18h-530l3 18h110l50 283h-90l3 18h91l36 206c19 112 101 185 214 185c84 0 143 -45 171 -124l-16 -10c-29 77 -80 116 -155 116z" />
    <glyph glyph-name="currency" unicode="&#xa4;" horiz-adv-x="554" 
d="M547 576l12 -13l-83 -71c30 -41 40 -89 30 -144s-37 -103 -80 -142l58 -71l-15 -11l-58 69c-47 -35 -98 -53 -152 -53c-55 0 -99 18 -133 54l-82 -70l-12 13l83 70c-31 41 -41 90 -31 145s37 103 81 143l-59 70l15 11l58 -70c45 36 96 54 152 54c55 0 99 -18 133 -54z
M406 213c44 37 71 83 80 137s-1 99 -32 136c-30 37 -72 56 -125 56s-102 -19 -146 -56c-43 -37 -70 -82 -79 -136s1 -100 31 -137c31 -37 73 -55 126 -55s102 18 145 55z" />
    <glyph glyph-name="yen" unicode="&#xa5;" horiz-adv-x="560" 
d="M596 700h23l-308 -363h190l-3 -18h-196l-19 -110h196l-3 -18h-196l-34 -191h-20l34 191h-194l3 18h194l19 110h-194l3 18h190l-182 363h21l176 -354z" />
    <glyph glyph-name="brokenbar" unicode="&#xa6;" horiz-adv-x="220" 
d="M138 350h-20l65 370h20zM41 -200h-20l65 370h20z" />
    <glyph glyph-name="section" unicode="&#xa7;" horiz-adv-x="504" 
d="M330 692c-88 0 -153 -50 -165 -123c-8 -45 12 -84 59 -115c12 -8 41 -24 88 -47c55 -27 90 -48 105 -62c31 -27 43 -60 36 -99c-9 -49 -40 -87 -92 -113c29 -31 40 -67 33 -109c-15 -83 -88 -136 -191 -136c-89 0 -154 42 -171 125l17 9c16 -77 68 -116 157 -116
s156 45 169 120s-38 116 -141 165c-57 27 -94 49 -111 64c-30 27 -42 60 -35 97c8 48 39 86 92 113c-31 29 -42 65 -35 106c15 83 88 139 188 139c75 0 136 -40 159 -111l-16 -9c-21 65 -73 102 -146 102zM433 248c7 40 -10 74 -52 101c-12 8 -38 22 -79 42
c-56 28 -92 49 -108 62c-50 -24 -79 -58 -86 -103c-12 -34 16 -69 34 -86c5 -5 16 -13 32 -22l32 -17l39 -18c44 -21 78 -41 102 -61c49 21 77 55 86 102z" />
    <glyph glyph-name="dieresis" unicode="&#xa8;" horiz-adv-x="240" 
d="M99 580c-11 0 -18 9 -17 20c3 13 11 20 24 20c11 0 19 -9 16 -20c-3 -13 -10 -20 -23 -20zM259 580c-11 0 -18 9 -17 20c3 13 11 20 24 20c11 0 19 -9 16 -20c-3 -13 -10 -20 -23 -20z" />
    <glyph glyph-name="copyright" unicode="&#xa9;" horiz-adv-x="845" 
d="M376 -10c-99 0 -178 36 -237 107s-79 157 -61 257c17 100 67 184 149 253s174 103 276 103c99 0 178 -36 237 -107s79 -157 62 -257c-18 -100 -68 -184 -150 -253s-174 -103 -276 -103zM155 108c55 -67 129 -100 224 -100s181 33 260 100s126 147 143 242s-3 175 -58 242
s-129 100 -224 100s-181 -33 -260 -100c-78 -67 -125 -147 -142 -242s2 -175 57 -242zM410 158c-55 0 -98 19 -129 56c-31 38 -41 84 -32 138c10 55 35 100 76 136s90 54 147 54c69 0 126 -36 150 -93l-18 -9c-23 56 -68 84 -135 84c-50 0 -94 -17 -131 -50
s-60 -75 -69 -124s0 -91 27 -124s66 -50 116 -50c65 0 124 32 160 84l16 -9c-43 -62 -103 -93 -178 -93z" />
    <glyph glyph-name="guillemotleft" unicode="&#xab;" horiz-adv-x="426" 
d="M239 469h24l-131 -162l71 -158h-21l-72 160zM341 469h24l-131 -162l71 -158h-21l-72 160z" />
    <glyph glyph-name="logicalnot" unicode="&#xac;" horiz-adv-x="520" 
d="M93 382h380l-28 -160h-20l25 142h-360z" />
    <glyph glyph-name="registered" unicode="&#xae;" horiz-adv-x="845" 
d="M503 710c99 0 178 -36 237 -107s79 -157 62 -257c-18 -100 -68 -184 -150 -253s-174 -103 -276 -103c-99 0 -178 36 -237 107s-79 157 -61 257c17 100 67 184 149 253s174 103 276 103zM639 108c79 67 126 147 143 242s-3 175 -58 242s-129 100 -224 100
s-181 -33 -260 -100c-78 -67 -125 -147 -142 -242s2 -175 57 -242s129 -100 224 -100s181 33 260 100zM372 535h104c84 0 122 -52 111 -111c-10 -59 -47 -93 -110 -104l71 -155h-21l-69 153c-4 -1 -11 -1 -20 -1h-84l-27 -152h-20zM567 426c9 52 -23 91 -94 91h-84l-32 -182
h84c73 0 115 30 126 91z" />
    <glyph glyph-name="overscore" unicode="&#xaf;" horiz-adv-x="280" 
d="M322 601h-240l3 16h240z" />
    <glyph glyph-name="degree" unicode="&#xb0;" horiz-adv-x="386" 
d="M242 530c-39 0 -71 14 -94 42s-31 61 -24 100s27 71 58 98c32 27 69 40 110 40c40 0 71 -14 94 -42s31 -61 24 -100s-26 -72 -57 -99c-31 -26 -68 -39 -111 -39zM246 548c35 0 67 12 94 35s44 52 50 87c12 69 -32 122 -101 122c-35 0 -66 -12 -94 -35s-45 -52 -51 -87
c-12 -69 33 -122 102 -122z" />
    <glyph glyph-name="plusminus" unicode="&#xb1;" horiz-adv-x="520" 
d="M332 600l-32 -181h180l-3 -18h-180l-32 -181h-20l32 181h-180l3 18h180l32 181h20zM424 100h-380l3 18h380z" />
    <glyph glyph-name="acute" unicode="&#xb4;" horiz-adv-x="140" 
d="M76 570l100 120h22l-103 -120h-19z" />
    <glyph glyph-name="uni00B5" unicode="&#xb5;" horiz-adv-x="610" 
d="M544 500l-76 -430c-6 -35 8 -52 41 -52h20l-3 -18h-20c-41 0 -66 27 -58 70l10 57c-45 -88 -130 -137 -221 -137c-81 0 -137 40 -154 108l-52 -298h-20l123 700h20l-57 -325c-15 -97 39 -167 142 -167c56 0 105 19 148 56c43 38 72 89 87 152l50 284h20z" />
    <glyph glyph-name="paragraph" unicode="&#xb6;" horiz-adv-x="550" 
d="M309 700h270l-3 -18h-60l-155 -882h-20l155 882h-170l-155 -882h-20l95 540c-50 1 -90 19 -119 55c-29 37 -38 80 -29 129c9 50 33 92 74 125c41 34 86 51 137 51z" />
    <glyph glyph-name="middot" unicode="&#xb7;" horiz-adv-x="179" 
d="M100 310c-13 0 -23 11 -20 26c3 16 13 24 29 24c13 0 23 -11 20 -26c-3 -16 -13 -24 -29 -24z" />
    <glyph glyph-name="cedilla" unicode="&#xb8;" horiz-adv-x="215" 
d="M63 0l-14 -79c45 3 85 -20 77 -63c-8 -51 -73 -75 -186 -60l3 16c103 -13 158 3 165 46c7 32 -20 50 -80 45l17 95h18z" />
    <glyph glyph-name="guillemotright" unicode="&#xbb;" horiz-adv-x="427" 
d="M142 469h21l72 -160l-129 -160h-24l131 162zM244 469h21l72 -160l-129 -160h-24l131 162z" />
    <glyph glyph-name="onequarter" unicode="&#xbc;" horiz-adv-x="844" 
d="M153 300l66 374v-1l-126 -43l-3 18l144 52h10l-71 -400h-20zM101 0l540 700h23l-540 -700h-23zM727 108h62l-3 -18h-62l-16 -90h-20l16 90h-227l3 18l205 292h21l-204 -292h205l21 121h20z" />
    <glyph glyph-name="onehalf" unicode="&#xbd;" horiz-adv-x="832" 
d="M153 300l66 374v-1l-126 -43l-3 18l144 52h10l-71 -400h-20zM101 0l540 700h23l-540 -700h-23zM792 298c-5 -40 -30 -78 -73 -114l-202 -166h234l-3 -18h-266l2 15l221 181c40 33 63 67 68 103c8 52 -27 95 -88 95c-53 0 -103 -32 -123 -75l-17 9c24 49 78 84 141 84
c75 0 114 -50 106 -114z" />
    <glyph glyph-name="threequarters" unicode="&#xbe;" horiz-adv-x="942" 
d="M327 410c-13 -71 -68 -122 -153 -122c-65 0 -104 25 -118 74l18 9c11 -43 44 -65 101 -65c73 0 122 46 133 106c9 60 -23 106 -96 106h-2l-7 13l134 151h-215l3 18h238l-3 -18l-131 -147c72 -5 109 -60 98 -125zM199 0l540 700h23l-540 -700h-23zM825 108h62l-3 -18h-62
l-16 -90h-20l16 90h-227l3 18l205 292h21l-204 -292h205l21 121h20z" />
    <glyph glyph-name="questiondown" unicode="&#xbf;" horiz-adv-x="526" 
d="M322 510c13 0 23 -11 20 -26c-3 -16 -13 -24 -29 -24c-13 0 -23 11 -20 26c3 16 13 24 29 24zM282 340h20c-12 -65 -53 -127 -100 -172c-66 -64 -148 -128 -163 -208c-16 -92 33 -152 148 -152c44 0 85 11 122 33c37 21 65 49 82 82l16 -9c-20 -37 -51 -66 -92 -89
s-85 -35 -131 -35c-116 0 -184 68 -165 172c9 53 50 105 95 148c67 61 151 133 168 230z" />
    <glyph glyph-name="Agrave" unicode="&#xc0;" horiz-adv-x="628" 
d="M371 890l60 -120h-16l-64 120h20zM559 0h-20l-42 191h-385l-109 -191h-22l400 700h25zM391 679l-269 -470h371z" />
    <glyph glyph-name="Aacute" unicode="&#xc1;" horiz-adv-x="628" 
d="M481 890h22l-103 -120h-19zM559 0h-20l-42 191h-385l-109 -191h-22l400 700h25zM391 679l-269 -470h371z" />
    <glyph glyph-name="Acircumflex" unicode="&#xc2;" horiz-adv-x="628" 
d="M507 770l-82 108l-120 -108h-24l133 120h22l91 -120h-20zM559 0h-20l-42 191h-385l-109 -191h-22l400 700h25zM391 679l-269 -470h371z" />
    <glyph glyph-name="Atilde" unicode="&#xc3;" horiz-adv-x="628" 
d="M411 826c-52 63 -100 41 -113 -36h-17c8 47 26 76 54 87c29 11 57 -2 86 -39c25 -31 49 -42 71 -33s36 32 43 69h17c-8 -46 -26 -75 -55 -86s-57 2 -86 38zM559 0h-20l-42 191h-385l-109 -191h-22l400 700h25zM391 679l-269 -470h371z" />
    <glyph glyph-name="Adieresis" unicode="&#xc4;" horiz-adv-x="628" 
d="M327 780c-11 0 -18 9 -17 20c3 13 11 20 24 20c11 0 19 -9 16 -20c-3 -13 -10 -20 -23 -20zM487 780c-11 0 -18 9 -17 20c3 13 11 20 24 20c11 0 19 -9 16 -20c-3 -13 -10 -20 -23 -20zM559 0h-20l-42 191h-385l-109 -191h-22l400 700h25zM391 679l-269 -470h371z" />
    <glyph glyph-name="Aring" unicode="&#xc5;" horiz-adv-x="628" 
d="M559 0h-20l-42 191h-385l-109 -191h-22l395 691c-45 7 -71 42 -63 89c9 53 54 90 109 90s90 -35 81 -90c-8 -48 -46 -84 -95 -89zM331 780c-8 -44 17 -74 64 -74c23 0 42 7 59 20c17 14 27 32 31 54s0 40 -13 53c-12 14 -29 21 -52 21c-45 0 -81 -29 -89 -74zM391 679
l-269 -470h371z" />
    <glyph glyph-name="AE" unicode="&#xc6;" horiz-adv-x="858" 
d="M882 700l-3 -18h-335l-56 -320h310l-3 -18h-311l-57 -326h340l-3 -18h-360l36 204h-289l-160 -204h-25l551 700h365zM523 677l-358 -455h278z" />
    <glyph glyph-name="Ccedilla" unicode="&#xc7;" horiz-adv-x="763" 
d="M491 692c-97 0 -183 -33 -257 -99s-119 -147 -136 -243c-17 -95 1 -175 52 -242c52 -67 126 -100 223 -100c124 0 240 62 313 161l16 -10c-71 -97 -187 -164 -315 -169l-12 -69c45 3 85 -20 77 -63c-8 -51 -73 -75 -186 -60l3 16c103 -13 158 3 165 46
c7 32 -20 50 -80 45l15 85c-196 -2 -329 163 -291 362c18 101 66 186 144 255s168 103 270 103c127 0 227 -64 275 -161l-17 -9c-45 93 -140 152 -259 152z" />
    <glyph glyph-name="Egrave" unicode="&#xc8;" horiz-adv-x="540" 
d="M344 890l60 -120h-16l-64 120h20zM564 700l-3 -18h-365l-56 -320h340l-3 -18h-341l-57 -326h370l-3 -18h-390l123 700h385z" />
    <glyph glyph-name="Eacute" unicode="&#xc9;" horiz-adv-x="540" 
d="M454 890h22l-103 -120h-19zM564 700l-3 -18h-365l-56 -320h340l-3 -18h-341l-57 -326h370l-3 -18h-390l123 700h385z" />
    <glyph glyph-name="Ecircumflex" unicode="&#xca;" horiz-adv-x="540" 
d="M480 770l-82 108l-120 -108h-24l133 120h22l91 -120h-20zM564 700l-3 -18h-365l-56 -320h340l-3 -18h-341l-57 -326h370l-3 -18h-390l123 700h385z" />
    <glyph glyph-name="Edieresis" unicode="&#xcb;" horiz-adv-x="540" 
d="M300 780c-11 0 -18 9 -17 20c3 13 11 20 24 20c11 0 19 -9 16 -20c-3 -13 -10 -20 -23 -20zM460 780c-11 0 -18 9 -17 20c3 13 11 20 24 20c11 0 19 -9 16 -20c-3 -13 -10 -20 -23 -20zM564 700l-3 -18h-365l-56 -320h340l-3 -18h-341l-57 -326h370l-3 -18h-390l123 700
h385z" />
    <glyph glyph-name="Igrave" unicode="&#xcc;" horiz-adv-x="220" 
d="M227 770h-16l-64 120h20zM179 700l-123 -700h20l123 700h-20z" />
    <glyph glyph-name="Iacute" unicode="&#xcd;" horiz-adv-x="220" 
d="M177 770l100 120h22l-103 -120h-19zM179 700l-123 -700h20l123 700h-20z" />
    <glyph glyph-name="Icircumflex" unicode="&#xce;" horiz-adv-x="220" 
d="M232 890l91 -120h-20l-82 108l-120 -108h-24l133 120h22zM76 0h-20l123 700h20z" />
    <glyph glyph-name="Idieresis" unicode="&#xcf;" horiz-adv-x="220" 
d="M123 780c-11 0 -18 9 -17 20c3 13 11 20 24 20c11 0 19 -9 16 -20c-3 -13 -10 -20 -23 -20zM283 780c-11 0 -18 9 -17 20c3 13 11 20 24 20c11 0 19 -9 16 -20c-3 -13 -10 -20 -23 -20zM56 0l123 700h20l-123 -700h-20z" />
    <glyph glyph-name="Eth" unicode="&#xd0;" horiz-adv-x="760" 
d="M199 700h250c93 0 166 -35 217 -104s68 -153 51 -250c-17 -99 -62 -181 -135 -247s-158 -99 -256 -99h-250l60 341h-60l3 18h60zM697 349c16 93 1 172 -46 236c-47 65 -115 97 -205 97h-230l-57 -323h280l-3 -18h-280l-57 -323h230c90 0 170 32 239 96
c70 64 113 142 129 235z" />
    <glyph glyph-name="Ntilde" unicode="&#xd1;" horiz-adv-x="700" 
d="M334 790h-17c8 47 26 76 54 87c29 11 57 -2 86 -39c25 -31 49 -42 71 -33s36 32 43 69h17c-8 -46 -26 -75 -55 -86s-57 2 -86 38c-52 63 -100 41 -113 -36zM76 0h-20l123 700h20l342 -667l118 667h20l-123 -700h-20l-342 667z" />
    <glyph glyph-name="Ograve" unicode="&#xd2;" horiz-adv-x="840" 
d="M537 770h-16l-64 120h20zM500 710c-99 0 -190 -35 -273 -104c-82 -69 -132 -154 -149 -253s3 -185 61 -256s137 -107 236 -107s190 35 272 104c83 69 133 154 150 253s-3 185 -62 256c-58 71 -136 107 -235 107zM777 350c-17 -95 -65 -175 -143 -242
c-77 -67 -163 -100 -257 -100s-168 33 -223 100c-54 67 -73 147 -56 242s64 175 142 242s164 100 258 100s168 -33 222 -100c55 -67 74 -147 57 -242z" />
    <glyph glyph-name="Oacute" unicode="&#xd3;" horiz-adv-x="840" 
d="M487 770l100 120h22l-103 -120h-19zM500 710c-99 0 -190 -35 -273 -104c-82 -69 -132 -154 -149 -253s3 -185 61 -256s137 -107 236 -107s190 35 272 104c83 69 133 154 150 253s-3 185 -62 256c-58 71 -136 107 -235 107zM777 350c-17 -95 -65 -175 -143 -242
c-77 -67 -163 -100 -257 -100s-168 33 -223 100c-54 67 -73 147 -56 242s64 175 142 242s164 100 258 100s168 -33 222 -100c55 -67 74 -147 57 -242z" />
    <glyph glyph-name="Ocircumflex" unicode="&#xd4;" horiz-adv-x="840" 
d="M613 770l-82 108l-120 -108h-24l133 120h22l91 -120h-20zM500 710c99 0 177 -36 235 -107c59 -71 79 -157 62 -256s-67 -184 -150 -253c-82 -69 -173 -104 -272 -104s-178 36 -236 107s-78 157 -61 256s67 184 149 253c83 69 174 104 273 104zM777 350
c17 95 -2 175 -57 242c-54 67 -128 100 -222 100s-180 -33 -258 -100s-125 -147 -142 -242s2 -175 56 -242c55 -67 129 -100 223 -100s180 33 257 100c78 67 126 147 143 242z" />
    <glyph glyph-name="Otilde" unicode="&#xd5;" horiz-adv-x="840" 
d="M404 790h-17c8 47 26 76 54 87c29 11 57 -2 86 -39c25 -31 49 -42 71 -33s36 32 43 69h17c-8 -46 -26 -75 -55 -86s-57 2 -86 38c-52 63 -100 41 -113 -36zM500 710c99 0 177 -36 235 -107c59 -71 79 -157 62 -256s-67 -184 -150 -253c-82 -69 -173 -104 -272 -104
s-178 36 -236 107s-78 157 -61 256s67 184 149 253c83 69 174 104 273 104zM777 350c17 95 -2 175 -57 242c-54 67 -128 100 -222 100s-180 -33 -258 -100s-125 -147 -142 -242s2 -175 56 -242c55 -67 129 -100 223 -100s180 33 257 100c78 67 126 147 143 242z" />
    <glyph glyph-name="Odieresis" unicode="&#xd6;" horiz-adv-x="840" 
d="M433 780c-11 0 -18 9 -17 20c3 13 11 20 24 20c11 0 19 -9 16 -20c-3 -13 -10 -20 -23 -20zM593 780c-11 0 -18 9 -17 20c3 13 11 20 24 20c11 0 19 -9 16 -20c-3 -13 -10 -20 -23 -20zM500 710c99 0 177 -36 235 -107c59 -71 79 -157 62 -256s-67 -184 -150 -253
c-82 -69 -173 -104 -272 -104s-178 36 -236 107s-78 157 -61 256s67 184 149 253c83 69 174 104 273 104zM777 350c17 95 -2 175 -57 242c-54 67 -128 100 -222 100s-180 -33 -258 -100s-125 -147 -142 -242s2 -175 56 -242c55 -67 129 -100 223 -100s180 33 257 100
c78 67 126 147 143 242z" />
    <glyph glyph-name="multiply" unicode="&#xd7;" horiz-adv-x="464" 
d="M424 511l14 -12l-176 -150l123 -148l-14 -12l-123 148l-173 -148l-14 12l176 150l-123 148l14 12l123 -148z" />
    <glyph glyph-name="Oslash" unicode="&#xd8;" horiz-adv-x="850" 
d="M810 690l-76 -74c63 -68 92 -165 73 -269c-17 -99 -67 -184 -150 -253c-82 -69 -173 -104 -272 -104c-85 0 -156 27 -212 81l-73 -71l-15 10l75 73c-63 68 -91 166 -72 270c17 99 67 184 149 253c83 69 174 104 273 104c83 0 154 -27 212 -81l73 71zM108 350
c-18 -101 4 -186 66 -253l534 519c-54 51 -121 76 -200 76c-94 0 -180 -33 -258 -100s-125 -147 -142 -242zM787 350c18 101 -4 186 -66 253l-534 -519c52 -51 119 -76 200 -76c94 0 180 33 257 100c78 67 126 147 143 242z" />
    <glyph glyph-name="Ugrave" unicode="&#xd9;" horiz-adv-x="680" 
d="M453 770h-16l-64 120h20zM299 -10c76 0 140 22 191 65s83 100 95 170l84 475h-20l-84 -475c-11 -63 -40 -115 -87 -156c-46 -41 -106 -61 -180 -61s-127 20 -160 61s-43 93 -32 156l84 475h-20l-84 -475c-12 -69 1 -125 39 -169c39 -44 97 -66 174 -66z" />
    <glyph glyph-name="Uacute" unicode="&#xda;" horiz-adv-x="680" 
d="M403 770l100 120h22l-103 -120h-19zM299 -10c76 0 140 22 191 65s83 100 95 170l84 475h-20l-84 -475c-11 -63 -40 -115 -87 -156c-46 -41 -106 -61 -180 -61s-127 20 -160 61s-43 93 -32 156l84 475h-20l-84 -475c-12 -69 1 -125 39 -169c39 -44 97 -66 174 -66z" />
    <glyph glyph-name="Ucircumflex" unicode="&#xdb;" horiz-adv-x="680" 
d="M529 770l-82 108l-120 -108h-24l133 120h22l91 -120h-20zM565 225l84 475h20l-84 -475c-12 -70 -44 -127 -95 -170s-115 -65 -191 -65c-77 0 -135 22 -174 66c-38 44 -51 100 -39 169l84 475h20l-84 -475c-11 -63 -1 -115 32 -156s86 -61 160 -61s134 20 180 61
c47 41 76 93 87 156z" />
    <glyph glyph-name="Udieresis" unicode="&#xdc;" horiz-adv-x="680" 
d="M349 780c-11 0 -18 9 -17 20c3 13 11 20 24 20c11 0 19 -9 16 -20c-3 -13 -10 -20 -23 -20zM509 780c-11 0 -18 9 -17 20c3 13 11 20 24 20c11 0 19 -9 16 -20c-3 -13 -10 -20 -23 -20zM299 -10c-77 0 -135 22 -174 66c-38 44 -51 100 -39 169l84 475h20l-84 -475
c-11 -63 -1 -115 32 -156s86 -61 160 -61s134 20 180 61c47 41 76 93 87 156l84 475h20l-84 -475c-12 -70 -44 -127 -95 -170s-115 -65 -191 -65z" />
    <glyph glyph-name="Yacute" unicode="&#xdd;" horiz-adv-x="560" 
d="M447 890h22l-103 -120h-19zM596 700h23l-315 -371l-58 -329h-20l58 330l-185 370h21l176 -354z" />
    <glyph glyph-name="Thorn" unicode="&#xde;" 
d="M174 560h192c63 0 112 -20 145 -60c34 -40 46 -90 37 -150c-10 -59 -39 -109 -86 -150c-47 -40 -102 -60 -166 -60h-195l-25 -140h-20l123 700h20zM367 542h-196l-67 -384h193c58 0 109 18 152 54c43 37 70 83 79 138s-1 101 -31 137c-30 37 -73 55 -130 55z" />
    <glyph glyph-name="germandbls" unicode="&#xdf;" horiz-adv-x="517" 
d="M246 -5l4 18c54 -4 99 6 135 30s57 57 62 98c5 48 -22 102 -53 135c-31 35 -60 80 -56 115c3 27 33 60 61 84c29 24 61 63 68 100c12 69 -36 117 -120 117c-101 0 -169 -63 -188 -167l-93 -525h-20l93 525c21 119 99 185 211 185c47 0 84 -14 109 -41
c26 -27 35 -59 28 -98c-4 -23 -17 -46 -38 -70s-42 -46 -61 -66c-19 -19 -29 -35 -30 -48c-3 -31 27 -73 58 -108c31 -33 58 -89 51 -141c-6 -47 -29 -83 -70 -110c-40 -27 -90 -38 -151 -33z" />
    <glyph glyph-name="agrave" unicode="&#xe0;" horiz-adv-x="662" 
d="M332 690l60 -120h-16l-64 120h20zM566 328l30 172h20l-88 -500h-20l25 141c-52 -93 -147 -151 -258 -151c-72 0 -130 27 -175 81c-45 55 -61 119 -48 192s46 133 101 178c55 46 120 69 194 69c55 0 103 -17 143 -51c41 -34 66 -78 76 -131zM115 83c41 -50 96 -75 163 -75
s126 22 177 65s83 99 95 167s-3 127 -44 177s-95 75 -162 75s-127 -22 -178 -65s-82 -99 -94 -167s2 -127 43 -177z" />
    <glyph glyph-name="aacute" unicode="&#xe1;" horiz-adv-x="662" 
d="M442 690h22l-103 -120h-19zM566 328l30 172h20l-88 -500h-20l25 141c-52 -93 -147 -151 -258 -151c-72 0 -130 27 -175 81c-45 55 -61 119 -48 192s46 133 101 178c55 46 120 69 194 69c55 0 103 -17 143 -51c41 -34 66 -78 76 -131zM115 83c41 -50 96 -75 163 -75
s126 22 177 65s83 99 95 167s-3 127 -44 177s-95 75 -162 75s-127 -22 -178 -65s-82 -99 -94 -167s2 -127 43 -177z" />
    <glyph glyph-name="acircumflex" unicode="&#xe2;" horiz-adv-x="662" 
d="M468 570l-82 108l-120 -108h-24l133 120h22l91 -120h-20zM566 328l30 172h20l-88 -500h-20l25 141c-52 -93 -147 -151 -258 -151c-72 0 -130 27 -175 81c-45 55 -61 119 -48 192s46 133 101 178c55 46 120 69 194 69c55 0 103 -17 143 -51c41 -34 66 -78 76 -131zM115 83
c41 -50 96 -75 163 -75s126 22 177 65s83 99 95 167s-3 127 -44 177s-95 75 -162 75s-127 -22 -178 -65s-82 -99 -94 -167s2 -127 43 -177z" />
    <glyph glyph-name="atilde" unicode="&#xe3;" horiz-adv-x="662" 
d="M372 626c-52 63 -100 41 -113 -36h-17c8 47 26 76 54 87c29 11 57 -2 86 -39c25 -31 49 -42 71 -33s36 32 43 69h17c-8 -46 -26 -75 -55 -86s-57 2 -86 38zM566 328l30 172h20l-88 -500h-20l25 141c-52 -93 -147 -151 -258 -151c-72 0 -130 27 -175 81
c-45 55 -61 119 -48 192s46 133 101 178c55 46 120 69 194 69c55 0 103 -17 143 -51c41 -34 66 -78 76 -131zM115 83c41 -50 96 -75 163 -75s126 22 177 65s83 99 95 167s-3 127 -44 177s-95 75 -162 75s-127 -22 -178 -65s-82 -99 -94 -167s2 -127 43 -177z" />
    <glyph glyph-name="adieresis" unicode="&#xe4;" horiz-adv-x="662" 
d="M288 580c-11 0 -18 9 -17 20c3 13 11 20 24 20c11 0 19 -9 16 -20c-3 -13 -10 -20 -23 -20zM448 580c-11 0 -18 9 -17 20c3 13 11 20 24 20c11 0 19 -9 16 -20c-3 -13 -10 -20 -23 -20zM566 328l30 172h20l-88 -500h-20l25 141c-52 -93 -147 -151 -258 -151
c-72 0 -130 27 -175 81c-45 55 -61 119 -48 192s46 133 101 178c55 46 120 69 194 69c55 0 103 -17 143 -51c41 -34 66 -78 76 -131zM115 83c41 -50 96 -75 163 -75s126 22 177 65s83 99 95 167s-3 127 -44 177s-95 75 -162 75s-127 -22 -178 -65s-82 -99 -94 -167
s2 -127 43 -177z" />
    <glyph glyph-name="aring" unicode="&#xe5;" horiz-adv-x="662" 
d="M286 650c9 53 54 90 109 90s90 -35 81 -90c-9 -52 -54 -90 -110 -90s-89 38 -80 90zM304 650c-8 -44 17 -74 64 -74c23 0 42 7 59 20c17 14 27 32 31 54s0 40 -13 53c-12 14 -29 21 -52 21c-45 0 -81 -29 -89 -74zM566 328l30 172h20l-88 -500h-20l25 141
c-52 -93 -147 -151 -258 -151c-72 0 -130 27 -175 81c-45 55 -61 119 -48 192s46 133 101 178c55 46 120 69 194 69c55 0 103 -17 143 -51c41 -34 66 -78 76 -131zM115 83c41 -50 96 -75 163 -75s126 22 177 65s83 99 95 167s-3 127 -44 177s-95 75 -162 75
s-127 -22 -178 -65s-82 -99 -94 -167s2 -127 43 -177z" />
    <glyph glyph-name="ae" unicode="&#xe6;" horiz-adv-x="1099" 
d="M849 510c73 0 128 -26 164 -77s48 -113 36 -184l-2 -11h-477c-9 -69 5 -124 40 -167c36 -42 88 -63 155 -63c91 0 170 39 214 103l15 -10c-48 -69 -133 -111 -232 -111c-112 0 -190 64 -209 164l-27 -154h-18l26 148c-55 -96 -158 -158 -269 -158c-73 0 -130 25 -171 76
s-56 114 -43 187s48 134 107 183s125 74 199 74c107 0 189 -66 212 -165l27 155h18l-26 -149c51 97 148 159 261 159zM110 78c38 -47 91 -70 158 -70s128 23 183 70s89 104 101 172s-1 125 -40 172c-38 47 -91 70 -158 70s-128 -23 -183 -70s-88 -104 -100 -172
s1 -125 39 -172zM573 256h459c9 71 -3 128 -37 171s-83 65 -148 65c-67 0 -127 -22 -178 -66s-83 -101 -96 -170z" />
    <glyph glyph-name="ccedilla" unicode="&#xe7;" 
d="M354 492c-69 0 -131 -23 -185 -70c-53 -46 -86 -103 -98 -172s0 -126 37 -173c37 -46 91 -69 160 -69c91 0 175 45 223 114l15 -10c-49 -73 -134 -119 -230 -122l-12 -69c45 3 85 -20 77 -63c-8 -51 -73 -75 -186 -60l3 16c103 -13 158 3 165 46c7 32 -20 50 -80 45
l15 85c-72 2 -128 28 -168 78c-39 51 -52 112 -39 185s49 134 107 183s124 74 199 74c95 0 171 -49 196 -122l-17 -10c-23 71 -89 114 -182 114z" />
    <glyph glyph-name="egrave" unicode="&#xe8;" horiz-adv-x="597" 
d="M323 690l60 -120h-16l-64 120h20zM347 510c73 0 128 -26 164 -77s48 -113 36 -184l-2 -11h-477c-9 -69 5 -124 40 -167c36 -42 88 -63 155 -63c91 0 170 39 214 103l15 -10c-48 -69 -133 -111 -232 -111c-75 0 -132 25 -171 74s-52 112 -39 188c13 75 47 136 101 185
c55 49 120 73 196 73zM71 256h459c9 71 -3 128 -37 171s-83 65 -148 65c-67 0 -127 -22 -178 -66s-83 -101 -96 -170z" />
    <glyph glyph-name="eacute" unicode="&#xe9;" horiz-adv-x="597" 
d="M433 690h22l-103 -120h-19zM347 510c73 0 128 -26 164 -77s48 -113 36 -184l-2 -11h-477c-9 -69 5 -124 40 -167c36 -42 88 -63 155 -63c91 0 170 39 214 103l15 -10c-48 -69 -133 -111 -232 -111c-75 0 -132 25 -171 74s-52 112 -39 188c13 75 47 136 101 185
c55 49 120 73 196 73zM71 256h459c9 71 -3 128 -37 171s-83 65 -148 65c-67 0 -127 -22 -178 -66s-83 -101 -96 -170z" />
    <glyph glyph-name="ecircumflex" unicode="&#xea;" horiz-adv-x="597" 
d="M459 570l-82 108l-120 -108h-24l133 120h22l91 -120h-20zM347 510c73 0 128 -26 164 -77s48 -113 36 -184l-2 -11h-477c-9 -69 5 -124 40 -167c36 -42 88 -63 155 -63c91 0 170 39 214 103l15 -10c-48 -69 -133 -111 -232 -111c-75 0 -132 25 -171 74s-52 112 -39 188
c13 75 47 136 101 185c55 49 120 73 196 73zM71 256h459c9 71 -3 128 -37 171s-83 65 -148 65c-67 0 -127 -22 -178 -66s-83 -101 -96 -170z" />
    <glyph glyph-name="edieresis" unicode="&#xeb;" horiz-adv-x="597" 
d="M279 580c-11 0 -18 9 -17 20c3 13 11 20 24 20c11 0 19 -9 16 -20c-3 -13 -10 -20 -23 -20zM439 580c-11 0 -18 9 -17 20c3 13 11 20 24 20c11 0 19 -9 16 -20c-3 -13 -10 -20 -23 -20zM347 510c73 0 128 -26 164 -77s48 -113 36 -184l-2 -11h-477c-9 -69 5 -124 40 -167
c36 -42 88 -63 155 -63c91 0 170 39 214 103l15 -10c-48 -69 -133 -111 -232 -111c-75 0 -132 25 -171 74s-52 112 -39 188c13 75 47 136 101 185c55 49 120 73 196 73zM71 256h459c9 71 -3 128 -37 171s-83 65 -148 65c-67 0 -127 -22 -178 -66s-83 -101 -96 -170z" />
    <glyph glyph-name="igrave" unicode="&#xec;" horiz-adv-x="200" 
d="M173 570h-18l-47 120h21zM66 0l88 500h-20l-88 -500h20z" />
    <glyph glyph-name="iacute" unicode="&#xed;" horiz-adv-x="200" 
d="M137 570l86 120h21l-89 -120h-18zM46 0h20l88 500h-20z" />
    <glyph glyph-name="icircumflex" unicode="&#xee;" horiz-adv-x="200" 
d="M189 690l61 -120h-22l-53 104l-89 -104h-22l103 120h22zM66 0h-20l88 500h20z" />
    <glyph glyph-name="idieresis" unicode="&#xef;" horiz-adv-x="200" 
d="M99 580c-11 0 -18 9 -17 20c3 13 11 20 24 20c11 0 19 -9 16 -20c-3 -13 -10 -20 -23 -20zM219 580c-11 0 -18 9 -17 20c3 13 11 20 24 20c11 0 19 -9 16 -20c-3 -13 -10 -20 -23 -20zM66 0h-20l88 500h20z" />
    <glyph glyph-name="eth" unicode="&#xf0;" horiz-adv-x="590" 
d="M377 609l138 -246c22 -39 28 -87 19 -146c-13 -71 -45 -127 -96 -167s-110 -60 -177 -60c-70 0 -126 24 -169 72c-42 48 -56 108 -43 180c11 67 43 121 94 160c52 40 110 60 175 60c59 0 108 -15 147 -45l-103 183l-148 -82l3 22l136 76l-47 84h19l43 -76l123 68l-4 -22z
M514 220c9 57 5 101 -14 134c-35 60 -96 90 -185 90c-62 0 -116 -19 -162 -57c-45 -38 -73 -87 -84 -147c-12 -65 0 -120 37 -165s89 -67 158 -67c63 0 118 19 164 58s75 91 86 154z" />
    <glyph glyph-name="ntilde" unicode="&#xf1;" horiz-adv-x="575" 
d="M347 626c-52 63 -100 41 -113 -36h-17c8 47 26 76 54 87c29 11 57 -2 86 -39c25 -31 49 -42 71 -33s36 32 43 69h17c-8 -46 -26 -75 -55 -86s-57 2 -86 38zM353 510c57 0 100 -18 129 -53c30 -35 40 -82 30 -139l-56 -318h-20l56 318c17 101 -36 174 -141 174
c-57 0 -107 -20 -151 -59c-43 -39 -72 -90 -85 -155l-49 -278h-20l88 500h20l-23 -128c47 89 131 138 222 138z" />
    <glyph glyph-name="ograve" unicode="&#xf2;" horiz-adv-x="622" 
d="M385 570h-16l-64 120h20zM266 -10c73 0 139 24 198 73s94 110 107 183s-2 136 -44 187s-99 77 -171 77c-73 0 -139 -24 -198 -73s-94 -110 -107 -183s2 -136 44 -187s99 -77 171 -77zM268 8c-67 0 -119 23 -158 70c-38 47 -51 104 -39 172s45 125 100 172s116 70 183 70
s119 -23 157 -70c39 -47 52 -104 40 -172s-45 -125 -100 -172s-116 -70 -183 -70z" />
    <glyph glyph-name="oacute" unicode="&#xf3;" horiz-adv-x="622" 
d="M335 570l100 120h22l-103 -120h-19zM266 -10c73 0 139 24 198 73s94 110 107 183s-2 136 -44 187s-99 77 -171 77c-73 0 -139 -24 -198 -73s-94 -110 -107 -183s2 -136 44 -187s99 -77 171 -77zM268 8c-67 0 -119 23 -158 70c-38 47 -51 104 -39 172s45 125 100 172
s116 70 183 70s119 -23 157 -70c39 -47 52 -104 40 -172s-45 -125 -100 -172s-116 -70 -183 -70z" />
    <glyph glyph-name="ocircumflex" unicode="&#xf4;" horiz-adv-x="622" 
d="M461 570l-82 108l-120 -108h-24l133 120h22l91 -120h-20zM356 510c72 0 129 -26 171 -77s57 -114 44 -187s-48 -134 -107 -183s-125 -73 -198 -73c-72 0 -129 26 -171 77s-57 114 -44 187s48 134 107 183s125 73 198 73zM354 492c-67 0 -128 -23 -183 -70
s-88 -104 -100 -172s1 -125 39 -172c39 -47 91 -70 158 -70s128 23 183 70s88 104 100 172s-1 125 -40 172c-38 47 -90 70 -157 70z" />
    <glyph glyph-name="otilde" unicode="&#xf5;" horiz-adv-x="622" 
d="M252 590h-17c8 47 26 76 54 87c29 11 57 -2 86 -39c25 -31 49 -42 71 -33s36 32 43 69h17c-8 -46 -26 -75 -55 -86s-57 2 -86 38c-52 63 -100 41 -113 -36zM266 -10c-72 0 -129 26 -171 77s-57 114 -44 187s48 134 107 183s125 73 198 73c72 0 129 -26 171 -77
s57 -114 44 -187s-48 -134 -107 -183s-125 -73 -198 -73zM268 8c67 0 128 23 183 70s88 104 100 172s-1 125 -40 172c-38 47 -90 70 -157 70s-128 -23 -183 -70s-88 -104 -100 -172s1 -125 39 -172c39 -47 91 -70 158 -70z" />
    <glyph glyph-name="odieresis" unicode="&#xf6;" horiz-adv-x="622" 
d="M281 580c-11 0 -18 9 -17 20c3 13 11 20 24 20c11 0 19 -9 16 -20c-3 -13 -10 -20 -23 -20zM441 580c-11 0 -18 9 -17 20c3 13 11 20 24 20c11 0 19 -9 16 -20c-3 -13 -10 -20 -23 -20zM266 -10c-72 0 -129 26 -171 77s-57 114 -44 187s48 134 107 183s125 73 198 73
c72 0 129 -26 171 -77s57 -114 44 -187s-48 -134 -107 -183s-125 -73 -198 -73zM268 8c67 0 128 23 183 70s88 104 100 172s-1 125 -40 172c-38 47 -90 70 -157 70s-128 -23 -183 -70s-88 -104 -100 -172s1 -125 39 -172c39 -47 91 -70 158 -70z" />
    <glyph glyph-name="divide" unicode="&#xf7;" 
d="M336 512c-13 0 -23 11 -20 26c1 13 14 24 29 24c13 0 24 -11 21 -26c-3 -13 -15 -24 -30 -24zM526 341h-440l3 18h440zM270 138c-13 0 -23 11 -20 26c1 13 14 24 29 24c13 0 24 -11 21 -26c-3 -13 -15 -24 -30 -24z" />
    <glyph glyph-name="oslash" unicode="&#xf8;" horiz-adv-x="622" 
d="M571 500l15 -10l-60 -55c43 -52 58 -115 45 -189c-13 -73 -48 -134 -107 -183s-125 -73 -198 -73c-64 0 -117 21 -158 62l-57 -52l-15 10l60 55c-43 52 -58 115 -45 189c13 73 48 134 107 183s125 73 198 73c64 0 117 -21 158 -62zM71 250c-12 -67 1 -125 39 -172
l390 357c-38 38 -87 57 -146 57c-67 0 -128 -23 -183 -70s-88 -104 -100 -172zM551 250c12 67 -1 125 -39 172l-390 -357c38 -38 87 -57 146 -57c67 0 128 23 183 70s88 104 100 172z" />
    <glyph glyph-name="ugrave" unicode="&#xf9;" horiz-adv-x="575" 
d="M304 690l60 -120h-16l-64 120h20zM460 222l49 278h20l-88 -500h-20l23 128c-47 -89 -131 -138 -222 -138c-57 0 -100 18 -130 53c-29 35 -39 82 -29 139l56 318h20l-56 -318c-17 -101 36 -174 141 -174c57 0 107 19 150 58c44 39 73 91 86 156z" />
    <glyph glyph-name="uacute" unicode="&#xfa;" horiz-adv-x="575" 
d="M414 690h22l-103 -120h-19zM460 222l49 278h20l-88 -500h-20l23 128c-47 -89 -131 -138 -222 -138c-57 0 -100 18 -130 53c-29 35 -39 82 -29 139l56 318h20l-56 -318c-17 -101 36 -174 141 -174c57 0 107 19 150 58c44 39 73 91 86 156z" />
    <glyph glyph-name="ucircumflex" unicode="&#xfb;" horiz-adv-x="575" 
d="M440 570l-82 108l-120 -108h-24l133 120h22l91 -120h-20zM460 222l49 278h20l-88 -500h-20l23 128c-47 -89 -131 -138 -222 -138c-57 0 -100 18 -130 53c-29 35 -39 82 -29 139l56 318h20l-56 -318c-17 -101 36 -174 141 -174c57 0 107 19 150 58c44 39 73 91 86 156z
" />
    <glyph glyph-name="udieresis" unicode="&#xfc;" horiz-adv-x="575" 
d="M260 580c-11 0 -18 9 -17 20c3 13 11 20 24 20c11 0 19 -9 16 -20c-3 -13 -10 -20 -23 -20zM420 580c-11 0 -18 9 -17 20c3 13 11 20 24 20c11 0 19 -9 16 -20c-3 -13 -10 -20 -23 -20zM460 222l49 278h20l-88 -500h-20l23 128c-47 -89 -131 -138 -222 -138
c-57 0 -100 18 -130 53c-29 35 -39 82 -29 139l56 318h20l-56 -318c-17 -101 36 -174 141 -174c57 0 107 19 150 58c44 39 73 91 86 156z" />
    <glyph glyph-name="yacute" unicode="&#xfd;" horiz-adv-x="510" 
d="M374 690h22l-103 -120h-19zM224 -1l288 501h22l-314 -546c-59 -100 -138 -161 -219 -154l3 18c69 -5 146 50 198 142l9 15l-147 525h19z" />
    <glyph glyph-name="thorn" unicode="&#xfe;" horiz-adv-x="662" 
d="M387 510c71 0 129 -27 174 -82c45 -54 62 -118 49 -191s-47 -133 -102 -179c-55 -45 -119 -68 -193 -68c-55 0 -103 17 -144 51c-40 34 -65 77 -75 130l-65 -371h-20l158 900h20l-60 -341c52 93 147 151 258 151zM495 73c51 43 83 99 95 167s-3 127 -44 177
s-95 75 -162 75s-127 -22 -178 -65s-82 -99 -94 -167s2 -127 43 -177s96 -75 163 -75s126 22 177 65z" />
    <glyph glyph-name="ydieresis" unicode="&#xff;" horiz-adv-x="510" 
d="M220 580c-11 0 -18 9 -17 20c3 13 11 20 24 20c11 0 19 -9 16 -20c-3 -13 -10 -20 -23 -20zM380 580c-11 0 -18 9 -17 20c3 13 11 20 24 20c11 0 19 -9 16 -20c-3 -13 -10 -20 -23 -20zM224 -1l288 501h22l-314 -546c-59 -100 -138 -161 -219 -154l3 18
c69 -5 146 50 198 142l9 15l-147 525h19z" />
    <glyph glyph-name="Amacron" unicode="&#x100;" horiz-adv-x="628" 
d="M294 817h240l-3 -16h-240zM559 0h-20l-42 191h-385l-109 -191h-22l400 700h25zM391 679l-269 -470h371z" />
    <glyph glyph-name="amacron" unicode="&#x101;" horiz-adv-x="662" 
d="M255 617h240l-3 -16h-240zM566 328l30 172h20l-88 -500h-20l25 141c-52 -93 -147 -151 -258 -151c-72 0 -130 27 -175 81c-45 55 -61 119 -48 192s46 133 101 178c55 46 120 69 194 69c55 0 103 -17 143 -51c41 -34 66 -78 76 -131zM115 83c41 -50 96 -75 163 -75
s126 22 177 65s83 99 95 167s-3 127 -44 177s-95 75 -162 75s-127 -22 -178 -65s-82 -99 -94 -167s2 -127 43 -177z" />
    <glyph glyph-name="Abreve" unicode="&#x102;" horiz-adv-x="628" 
d="M304 877h18c-9 -53 26 -89 87 -89s108 36 117 89h18c-11 -64 -63 -105 -135 -105s-116 42 -105 105zM559 0h-20l-42 191h-385l-109 -191h-22l400 700h25zM391 679l-269 -470h371z" />
    <glyph glyph-name="abreve" unicode="&#x103;" horiz-adv-x="662" 
d="M265 677h18c-9 -53 26 -89 87 -89s108 36 117 89h18c-11 -64 -63 -105 -135 -105s-116 42 -105 105zM566 328l30 172h20l-88 -500h-20l25 141c-52 -93 -147 -151 -258 -151c-72 0 -130 27 -175 81c-45 55 -61 119 -48 192s46 133 101 178c55 46 120 69 194 69
c55 0 103 -17 143 -51c41 -34 66 -78 76 -131zM115 83c41 -50 96 -75 163 -75s126 22 177 65s83 99 95 167s-3 127 -44 177s-95 75 -162 75s-127 -22 -178 -65s-82 -99 -94 -167s2 -127 43 -177z" />
    <glyph glyph-name="Aogonek" unicode="&#x104;" horiz-adv-x="628" 
d="M437 -143c-5 -31 12 -51 43 -51c18 0 33 3 46 10l-3 -18c-11 -5 -26 -8 -46 -8c-43 0 -66 27 -58 68c7 44 47 93 119 147l-41 186h-385l-109 -191h-22l400 700h25l153 -700c-76 -56 -114 -98 -122 -143zM391 679l-269 -470h371z" />
    <glyph glyph-name="aogonek" unicode="&#x105;" horiz-adv-x="662" 
d="M616 500l-88 -500c-75 -55 -115 -103 -122 -144c-5 -31 12 -50 43 -50c18 0 33 3 46 9l-3 -17c-13 -5 -28 -8 -46 -8c-41 0 -66 28 -58 68c7 46 48 96 122 151l23 132c-52 -93 -147 -151 -258 -151c-72 0 -130 27 -175 81c-45 55 -61 119 -48 192s46 133 101 178
c55 46 120 69 194 69c55 0 103 -17 143 -51c41 -34 66 -78 76 -131l30 172h20zM115 83c41 -50 96 -75 163 -75s126 22 177 65s83 99 95 167s-3 127 -44 177s-95 75 -162 75s-127 -22 -178 -65s-82 -99 -94 -167s2 -127 43 -177z" />
    <glyph glyph-name="Cacute" unicode="&#x106;" horiz-adv-x="763" 
d="M487 770l100 120h22l-103 -120h-19zM374 -10c66 0 128 15 186 46s105 72 142 123l-16 10c-73 -99 -189 -161 -313 -161c-97 0 -171 33 -223 100c-51 67 -69 147 -52 242c17 96 62 177 136 243s160 99 257 99c119 0 214 -59 259 -152l17 9c-48 97 -148 161 -275 161
c-102 0 -192 -34 -270 -103s-126 -154 -144 -255c-17 -102 2 -188 59 -258c57 -69 136 -104 237 -104z" />
    <glyph glyph-name="cacute" unicode="&#x107;" 
d="M339 570l100 120h22l-103 -120h-19zM265 -10c101 0 189 46 241 122l-15 10c-48 -69 -132 -114 -223 -114c-69 0 -123 23 -160 69c-37 47 -49 104 -37 173s45 126 98 172c54 47 116 70 185 70c93 0 159 -43 182 -114l17 10c-25 73 -101 122 -196 122
c-75 0 -141 -25 -199 -74s-94 -110 -107 -183c-13 -74 0 -136 41 -187s99 -76 173 -76z" />
    <glyph glyph-name="Cdotaccent" unicode="&#x10a;" horiz-adv-x="763" 
d="M536 788c-13 -11 -34 -11 -43 0c-9 12 -6 32 7 43c13 12 34 12 43 0c9 -11 6 -31 -7 -43zM374 -10c-101 0 -180 35 -237 104c-57 70 -76 156 -59 258c18 101 66 186 144 255s168 103 270 103c127 0 227 -64 275 -161l-17 -9c-45 93 -140 152 -259 152
c-97 0 -183 -33 -257 -99s-119 -147 -136 -243c-17 -95 1 -175 52 -242c52 -67 126 -100 223 -100c124 0 240 62 313 161l16 -10c-37 -51 -84 -92 -142 -123s-120 -46 -186 -46z" />
    <glyph glyph-name="cdotaccent" unicode="&#x10b;" 
d="M388 588c-13 -11 -34 -11 -43 0c-9 12 -6 32 7 43c13 12 34 12 43 0c9 -11 6 -31 -7 -43zM265 -10c-74 0 -132 25 -173 76s-54 113 -41 187c13 73 49 134 107 183s124 74 199 74c95 0 171 -49 196 -122l-17 -10c-23 71 -89 114 -182 114c-69 0 -131 -23 -185 -70
c-53 -46 -86 -103 -98 -172s0 -126 37 -173c37 -46 91 -69 160 -69c91 0 175 45 223 114l15 -10c-52 -76 -140 -122 -241 -122z" />
    <glyph glyph-name="Ccaron" unicode="&#x10c;" horiz-adv-x="763" 
d="M521 770h-22l-91 120h21l82 -108l119 108h24zM491 692c-97 0 -183 -33 -257 -99s-119 -147 -136 -243c-17 -95 1 -175 52 -242c52 -67 126 -100 223 -100c124 0 240 62 313 161l16 -10c-37 -51 -84 -92 -142 -123s-120 -46 -186 -46c-101 0 -180 35 -237 104
c-57 70 -76 156 -59 258c18 101 66 186 144 255s168 103 270 103c127 0 227 -64 275 -161l-17 -9c-45 93 -140 152 -259 152z" />
    <glyph glyph-name="ccaron" unicode="&#x10d;" 
d="M373 570h-22l-91 120h21l82 -108l119 108h24zM354 492c-69 0 -131 -23 -185 -70c-53 -46 -86 -103 -98 -172s0 -126 37 -173c37 -46 91 -69 160 -69c91 0 175 45 223 114l15 -10c-52 -76 -140 -122 -241 -122c-74 0 -132 25 -173 76s-54 113 -41 187
c13 73 49 134 107 183s124 74 199 74c95 0 171 -49 196 -122l-17 -10c-23 71 -89 114 -182 114z" />
    <glyph glyph-name="Dcaron" unicode="&#x10e;" horiz-adv-x="740" 
d="M441 770h-22l-91 120h21l82 -108l119 108h24zM179 700h250c93 0 166 -35 217 -104s68 -153 51 -250c-17 -99 -62 -181 -135 -247s-158 -99 -256 -99h-250zM677 349c16 93 1 172 -46 236c-47 65 -115 97 -205 97h-230l-117 -664h230c90 0 170 32 239 96
c70 64 113 142 129 235z" />
    <glyph glyph-name="dcaron" unicode="&#x10f;" horiz-adv-x="686" 
d="M566 329l65 371h20l-123 -700h-20l25 141c-52 -93 -147 -151 -258 -151c-72 0 -130 27 -175 81c-45 55 -61 119 -48 192s46 133 101 178c55 46 120 69 194 69c55 0 103 -17 143 -51c41 -34 66 -77 76 -130zM705 530l40 170h20l-44 -170h-16zM115 83
c41 -50 96 -75 163 -75s126 22 177 65s83 99 95 167s-3 127 -44 177s-95 75 -162 75s-127 -22 -178 -65s-82 -99 -94 -167s2 -127 43 -177z" />
    <glyph glyph-name="Dcroat" unicode="&#x110;" horiz-adv-x="760" 
d="M199 700h250c93 0 166 -35 217 -104s68 -153 51 -250c-17 -99 -62 -181 -135 -247s-158 -99 -256 -99h-250l60 341h-60l3 18h60zM697 349c16 93 1 172 -46 236c-47 65 -115 97 -205 97h-230l-57 -323h280l-3 -18h-280l-57 -323h230c90 0 170 32 239 96
c70 64 113 142 129 235z" />
    <glyph glyph-name="dslash" unicode="&#x111;" horiz-adv-x="666" 
d="M636 612h64l-3 -17h-64l-105 -595h-20l25 141c-52 -93 -147 -151 -258 -151c-72 0 -130 27 -175 81c-45 55 -61 119 -48 192s46 133 101 178c55 46 120 69 194 69c55 0 103 -17 143 -51c41 -34 66 -77 76 -130l47 266h-236l3 17h236l15 88h20zM115 83
c41 -50 96 -75 163 -75s126 22 177 65s83 99 95 167s-3 127 -44 177s-95 75 -162 75s-127 -22 -178 -65s-82 -99 -94 -167s2 -127 43 -177z" />
    <glyph glyph-name="Emacron" unicode="&#x112;" horiz-adv-x="540" 
d="M267 817h240l-3 -16h-240zM564 700l-3 -18h-365l-56 -320h340l-3 -18h-341l-57 -326h370l-3 -18h-390l123 700h385z" />
    <glyph glyph-name="emacron" unicode="&#x113;" horiz-adv-x="597" 
d="M246 617h240l-3 -16h-240zM347 510c73 0 128 -26 164 -77s48 -113 36 -184l-2 -11h-477c-9 -69 5 -124 40 -167c36 -42 88 -63 155 -63c91 0 170 39 214 103l15 -10c-48 -69 -133 -111 -232 -111c-75 0 -132 25 -171 74s-52 112 -39 188c13 75 47 136 101 185
c55 49 120 73 196 73zM71 256h459c9 71 -3 128 -37 171s-83 65 -148 65c-67 0 -127 -22 -178 -66s-83 -101 -96 -170z" />
    <glyph glyph-name="Edotaccent" unicode="&#x116;" horiz-adv-x="540" 
d="M403 788c-13 -11 -34 -11 -43 0c-9 12 -6 32 7 43c13 12 34 12 43 0c9 -11 6 -31 -7 -43zM564 700l-3 -18h-365l-56 -320h340l-3 -18h-341l-57 -326h370l-3 -18h-390l123 700h385z" />
    <glyph glyph-name="edotaccent" unicode="&#x117;" horiz-adv-x="597" 
d="M382 588c-13 -11 -34 -11 -43 0c-9 12 -6 32 7 43c13 12 34 12 43 0c9 -11 6 -31 -7 -43zM347 510c73 0 128 -26 164 -77s48 -113 36 -184l-2 -11h-477c-9 -69 5 -124 40 -167c36 -42 88 -63 155 -63c91 0 170 39 214 103l15 -10c-48 -69 -133 -111 -232 -111
c-75 0 -132 25 -171 74s-52 112 -39 188c13 75 47 136 101 185c55 49 120 73 196 73zM71 256h459c9 71 -3 128 -37 171s-83 65 -148 65c-67 0 -127 -22 -178 -66s-83 -101 -96 -170z" />
    <glyph glyph-name="Eogonek" unicode="&#x118;" horiz-adv-x="542" 
d="M564 700l-3 -18h-365l-56 -320h340l-3 -18h-341l-57 -326h370l-3 -18c-74 -52 -115 -99 -122 -142c-5 -31 13 -52 45 -52c15 0 31 3 46 9l-3 -17c-13 -5 -28 -8 -46 -8c-44 0 -68 29 -60 70c7 45 46 92 115 140h-365l123 700h385z" />
    <glyph glyph-name="eogonek" unicode="&#x119;" horiz-adv-x="597" 
d="M347 510c73 0 128 -26 164 -77s48 -113 36 -184l-2 -11h-477c-9 -69 5 -124 40 -167c36 -42 88 -63 155 -63c91 0 170 39 214 103l15 -10c-11 -17 -26 -32 -43 -47c-67 -59 -113 -101 -138 -127c-24 -26 -38 -50 -42 -71c-6 -33 10 -50 49 -50c15 0 29 3 42 8l-3 -16
c-13 -5 -27 -8 -43 -8c-48 0 -71 27 -63 68c8 39 51 91 130 155c-37 -15 -77 -23 -121 -23c-75 0 -132 25 -171 74s-52 112 -39 188c13 75 47 136 101 185c55 49 120 73 196 73zM71 256h459c9 71 -3 128 -37 171s-83 65 -148 65c-67 0 -127 -22 -178 -66s-83 -101 -96 -170z
" />
    <glyph glyph-name="Ecaron" unicode="&#x11a;" horiz-adv-x="540" 
d="M388 770h-22l-91 120h21l82 -108l119 108h24zM564 700l-3 -18h-365l-56 -320h340l-3 -18h-341l-57 -326h370l-3 -18h-390l123 700h385z" />
    <glyph glyph-name="ecaron" unicode="&#x11b;" horiz-adv-x="597" 
d="M367 570h-22l-91 120h21l82 -108l119 108h24zM347 510c73 0 128 -26 164 -77s48 -113 36 -184l-2 -11h-477c-9 -69 5 -124 40 -167c36 -42 88 -63 155 -63c91 0 170 39 214 103l15 -10c-48 -69 -133 -111 -232 -111c-75 0 -132 25 -171 74s-52 112 -39 188
c13 75 47 136 101 185c55 49 120 73 196 73zM71 256h459c9 71 -3 128 -37 171s-83 65 -148 65c-67 0 -127 -22 -178 -66s-83 -101 -96 -170z" />
    <glyph glyph-name="Gbreve" unicode="&#x11e;" horiz-adv-x="821" 
d="M410 877h18c-9 -53 26 -89 87 -89s108 36 117 89h18c-11 -64 -63 -105 -135 -105s-116 42 -105 105zM421 313h351l-2 -10c-18 -91 -62 -166 -132 -225s-153 -88 -249 -88c-107 0 -189 36 -248 107c-58 72 -79 159 -62 260c16 99 63 182 141 250c79 69 169 103 271 103
c133 0 231 -66 276 -161l-17 -9c-44 91 -138 152 -261 152c-97 0 -182 -33 -256 -99c-74 -65 -119 -145 -134 -238c-16 -97 3 -179 58 -246s133 -101 233 -101c89 0 167 27 233 82s108 124 126 205h-331z" />
    <glyph glyph-name="gbreve" unicode="&#x11f;" horiz-adv-x="672" 
d="M283 677h18c-9 -53 26 -89 87 -89s108 36 117 89h18c-11 -64 -63 -105 -135 -105s-116 42 -105 105zM576 328l30 172h20l-83 -469c-27 -149 -131 -241 -287 -241c-115 0 -193 50 -214 118l17 9c19 -61 91 -109 198 -109c141 0 241 83 266 223l19 109
c-51 -92 -147 -150 -252 -150c-75 0 -135 27 -180 80c-44 54 -60 118 -48 193c11 71 45 129 100 176c56 47 119 71 190 71c59 0 108 -17 148 -51c41 -34 66 -78 76 -131zM291 8c65 0 122 21 173 64s82 96 95 161l1 8c11 69 -3 128 -44 177s-96 74 -165 74
c-65 0 -124 -22 -176 -66c-51 -44 -82 -99 -93 -166c-11 -69 3 -129 44 -178s96 -74 165 -74z" />
    <glyph glyph-name="Gdotaccent" unicode="&#x120;" horiz-adv-x="821" 
d="M536 788c-13 -11 -34 -11 -43 0c-9 12 -6 32 7 43c13 12 34 12 43 0c9 -11 6 -31 -7 -43zM421 313h351l-2 -10c-18 -91 -62 -166 -132 -225s-153 -88 -249 -88c-107 0 -189 36 -248 107c-58 72 -79 159 -62 260c16 99 63 182 141 250c79 69 169 103 271 103
c133 0 231 -66 276 -161l-17 -9c-44 91 -138 152 -261 152c-97 0 -182 -33 -256 -99c-74 -65 -119 -145 -134 -238c-16 -97 3 -179 58 -246s133 -101 233 -101c89 0 167 27 233 82s108 124 126 205h-331z" />
    <glyph glyph-name="gdotaccent" unicode="&#x121;" horiz-adv-x="672" 
d="M409 588c-13 -11 -34 -11 -43 0c-9 12 -6 32 7 43c13 12 34 12 43 0c9 -11 6 -31 -7 -43zM576 328l30 172h20l-83 -469c-27 -149 -131 -241 -287 -241c-115 0 -193 50 -214 118l17 9c19 -61 91 -109 198 -109c141 0 241 83 266 223l19 109c-51 -92 -147 -150 -252 -150
c-75 0 -135 27 -180 80c-44 54 -60 118 -48 193c11 71 45 129 100 176c56 47 119 71 190 71c59 0 108 -17 148 -51c41 -34 66 -78 76 -131zM291 8c65 0 122 21 173 64s82 96 95 161l1 8c11 69 -3 128 -44 177s-96 74 -165 74c-65 0 -124 -22 -176 -66
c-51 -44 -82 -99 -93 -166c-11 -69 3 -129 44 -178s96 -74 165 -74z" />
    <glyph glyph-name="Gcommaaccent" unicode="&#x122;" horiz-adv-x="821" 
d="M421 313h351l-2 -10c-18 -91 -62 -166 -132 -225s-153 -88 -249 -88c-107 0 -189 36 -248 107c-58 72 -79 159 -62 260c16 99 63 182 141 250c79 69 169 103 271 103c133 0 231 -66 276 -161l-17 -9c-44 91 -138 152 -261 152c-97 0 -182 -33 -256 -99
c-74 -65 -119 -145 -134 -238c-16 -97 3 -179 58 -246s133 -101 233 -101c89 0 167 27 233 82s108 124 126 205h-331zM342 -240h-16l40 170h20z" />
    <glyph glyph-name="gcommaaccent" unicode="&#x123;" horiz-adv-x="672" 
d="M413 760h16l-40 -170h-20zM576 328l30 172h20l-83 -469c-27 -149 -131 -241 -287 -241c-115 0 -193 50 -214 118l17 9c19 -61 91 -109 198 -109c141 0 241 83 266 223l19 109c-51 -92 -147 -150 -252 -150c-75 0 -135 27 -180 80c-44 54 -60 118 -48 193
c11 71 45 129 100 176c56 47 119 71 190 71c59 0 108 -17 148 -51c41 -34 66 -78 76 -131zM291 8c65 0 122 21 173 64s82 96 95 161l1 8c11 69 -3 128 -44 177s-96 74 -165 74c-65 0 -124 -22 -176 -66c-51 -44 -82 -99 -93 -166c-11 -69 3 -129 44 -178s96 -74 165 -74z
" />
    <glyph glyph-name="Hbar" unicode="&#x126;" horiz-adv-x="760" 
d="M682 549h71l-3 -18h-71l-93 -531h-20l62 351h-460l-62 -351h-20l93 531h-69l3 18h69l27 151h20l-27 -151h460l27 151h20zM171 369h460l28 162h-460z" />
    <glyph glyph-name="hbar" unicode="&#x127;" horiz-adv-x="595" 
d="M373 510c57 0 100 -18 129 -53c30 -35 40 -82 30 -139l-56 -318h-20l56 318c17 101 -36 174 -141 174c-57 0 -108 -20 -152 -59c-43 -39 -72 -92 -85 -157l-48 -276h-20l105 595h-80l3 17h80l15 88h20l-15 -88h180l-3 -17h-180l-40 -224c47 91 131 139 222 139z" />
    <glyph glyph-name="Imacron" unicode="&#x12a;" horiz-adv-x="220" 
d="M327 801h-240l3 16h240zM56 0l123 700h20l-123 -700h-20z" />
    <glyph glyph-name="imacron" unicode="&#x12b;" horiz-adv-x="200" 
d="M242 601h-160l3 16h160zM66 0h-20l88 500h20z" />
    <glyph glyph-name="Iogonek" unicode="&#x12e;" horiz-adv-x="220" 
d="M-1 -142c-5 -31 13 -52 45 -52c18 0 33 3 46 9l-3 -17c-13 -5 -28 -8 -46 -8c-44 0 -67 27 -60 68c6 39 31 88 76 146l122 696h20l-123 -700c-46 -63 -72 -111 -77 -142z" />
    <glyph glyph-name="iogonek" unicode="&#x12f;" horiz-adv-x="200" 
d="M179 697c22 0 25 -25 9 -39c-16 -16 -40 -3 -36 16c4 15 13 23 27 23zM154 500l-88 -500l-39 -54c-12 -19 -33 -57 -38 -86c-5 -31 13 -54 45 -54c17 0 33 3 46 8l-3 -16c-13 -5 -28 -8 -46 -8c-44 0 -67 29 -60 70c7 37 33 85 76 145l87 495h20z" />
    <glyph glyph-name="Idot" unicode="&#x130;" horiz-adv-x="220" 
d="M226 788c-13 -11 -34 -11 -43 0c-9 12 -6 32 7 43c13 12 34 12 43 0c9 -11 6 -31 -7 -43zM56 0l123 700h20l-123 -700h-20z" />
    <glyph glyph-name="dotlessi" unicode="&#x131;" horiz-adv-x="200" 
d="M66 0h-20l88 500h20z" />
    <glyph glyph-name="Kcommaaccent" unicode="&#x136;" horiz-adv-x="556" 
d="M585 700h30l-454 -343l341 -357h-25l-339 354l-62 -354h-20l123 700h20l-59 -335zM229 -240h-16l40 170h20z" />
    <glyph glyph-name="kcommaaccent" unicode="&#x137;" horiz-adv-x="461" 
d="M439 500h31l-337 -242l254 -258h-26l-250 254l-45 -254h-20l123 700h20l-76 -435zM167 -240h-16l40 170h20z" />
    <glyph glyph-name="Lacute" unicode="&#x139;" horiz-adv-x="500" 
d="M289 890h22l-103 -120h-19zM199 700l-120 -682h350l-3 -18h-370l3 18l120 682h20z" />
    <glyph glyph-name="lacute" unicode="&#x13a;" horiz-adv-x="201" 
d="M182 770l100 120h22l-103 -120h-19zM47 0h20l56 321l72 409h-20l-72 -409z" />
    <glyph glyph-name="Lcommaaccent" unicode="&#x13b;" horiz-adv-x="500" 
d="M199 700l-120 -682h350l-3 -18h-370l3 18l120 682h20zM202 -240h-16l40 170h20z" />
    <glyph glyph-name="lcommaaccent" unicode="&#x13c;" horiz-adv-x="201" 
d="M67 0h-20l56 321l72 409h20l-72 -409zM11 -240h-16l40 170h20z" />
    <glyph glyph-name="Lcaron" unicode="&#x13d;" horiz-adv-x="500" 
d="M199 700l-120 -682h350l-3 -18h-370l3 18l120 682h20zM369 700h20l-44 -170h-16z" />
    <glyph glyph-name="lcaron" unicode="&#x13e;" horiz-adv-x="216" 
d="M67 0h-20l56 321l72 409h20l-72 -409zM257 560h-16l40 170h20z" />
    <glyph glyph-name="Lslash" unicode="&#x141;" horiz-adv-x="510" 
d="M135 277l-46 -259h350l-3 -18h-370l3 18l43 246l-66 -39l4 23l66 39l73 413h20l-70 -399l234 138l-3 -23z" />
    <glyph glyph-name="lslash" unicode="&#x142;" horiz-adv-x="240" 
d="M152 378l102 62l-4 -21l-102 -62l-6 -36l-56 -321h-20l56 321l4 22l-100 -61l3 21l101 61l64 366h20z" />
    <glyph glyph-name="Nacute" unicode="&#x143;" horiz-adv-x="700" 
d="M417 770l100 120h22l-103 -120h-19zM56 0h20l118 667l342 -667h20l123 700h-20l-118 -667l-342 667h-20z" />
    <glyph glyph-name="nacute" unicode="&#x144;" horiz-adv-x="575" 
d="M417 690h22l-103 -120h-19zM353 510c57 0 100 -18 129 -53c30 -35 40 -82 30 -139l-56 -318h-20l56 318c17 101 -36 174 -141 174c-57 0 -107 -20 -151 -59c-43 -39 -72 -90 -85 -155l-49 -278h-20l88 500h20l-23 -128c47 89 131 138 222 138z" />
    <glyph glyph-name="Ncommaaccent" unicode="&#x145;" horiz-adv-x="700" 
d="M76 0h-20l123 700h20l342 -667l118 667h20l-123 -700h-20l-342 667zM262 -240h-16l40 170h20z" />
    <glyph glyph-name="ncommaaccent" unicode="&#x146;" horiz-adv-x="575" 
d="M353 510c57 0 100 -18 129 -53c30 -35 40 -82 30 -139l-56 -318h-20l56 318c17 101 -36 174 -141 174c-57 0 -107 -20 -151 -59c-43 -39 -72 -90 -85 -155l-49 -278h-20l88 500h20l-23 -128c47 89 131 138 222 138zM220 -240h-16l40 170h20z" />
    <glyph glyph-name="Ncaron" unicode="&#x147;" horiz-adv-x="700" 
d="M451 770h-22l-91 120h21l82 -108l119 108h24zM541 33l118 667h20l-123 -700h-20l-342 667l-118 -667h-20l123 700h20z" />
    <glyph glyph-name="ncaron" unicode="&#x148;" horiz-adv-x="575" 
d="M351 570h-22l-91 120h21l82 -108l119 108h24zM353 510c57 0 100 -18 129 -53c30 -35 40 -82 30 -139l-56 -318h-20l56 318c17 101 -36 174 -141 174c-57 0 -107 -20 -151 -59c-43 -39 -72 -90 -85 -155l-49 -278h-20l88 500h20l-23 -128c47 89 131 138 222 138z" />
    <glyph glyph-name="Eng" unicode="&#x14a;" horiz-adv-x="700" 
d="M541 33l118 667h20l-123 -700c-25 -145 -98 -200 -230 -200l3 18c121 0 186 55 207 182l-342 667l-118 -667h-20l123 700h20z" />
    <glyph glyph-name="eng" unicode="&#x14b;" horiz-adv-x="575" 
d="M353 510c57 0 100 -18 129 -53c30 -35 40 -82 30 -139l-72 -408c-15 -83 -71 -129 -160 -120l3 18c78 -9 124 25 137 102l72 408c17 101 -36 174 -141 174c-57 0 -107 -20 -151 -59c-43 -39 -72 -90 -85 -155l-49 -278h-20l88 500h20l-23 -128c47 89 131 138 222 138z
" />
    <glyph glyph-name="Omacron" unicode="&#x14c;" horiz-adv-x="840" 
d="M637 801h-240l3 16h240zM500 710c99 0 177 -36 235 -107c59 -71 79 -157 62 -256s-67 -184 -150 -253c-82 -69 -173 -104 -272 -104s-178 36 -236 107s-78 157 -61 256s67 184 149 253c83 69 174 104 273 104zM777 350c17 95 -2 175 -57 242c-54 67 -128 100 -222 100
s-180 -33 -258 -100s-125 -147 -142 -242s2 -175 56 -242c55 -67 129 -100 223 -100s180 33 257 100c78 67 126 147 143 242z" />
    <glyph glyph-name="omacron" unicode="&#x14d;" horiz-adv-x="622" 
d="M485 601h-240l3 16h240zM266 -10c-72 0 -129 26 -171 77s-57 114 -44 187s48 134 107 183s125 73 198 73c72 0 129 -26 171 -77s57 -114 44 -187s-48 -134 -107 -183s-125 -73 -198 -73zM268 8c67 0 128 23 183 70s88 104 100 172s-1 125 -40 172c-38 47 -90 70 -157 70
s-128 -23 -183 -70s-88 -104 -100 -172s1 -125 39 -172c39 -47 91 -70 158 -70z" />
    <glyph glyph-name="Ohungarumlaut" unicode="&#x150;" horiz-adv-x="840" 
d="M401 770l92 130h22l-96 -130h-18zM541 770l101 130h22l-104 -130h-19zM500 710c-99 0 -190 -35 -273 -104c-82 -69 -132 -154 -149 -253s3 -185 61 -256s137 -107 236 -107s190 35 272 104c83 69 133 154 150 253s-3 185 -62 256c-58 71 -136 107 -235 107zM777 350
c-17 -95 -65 -175 -143 -242c-77 -67 -163 -100 -257 -100s-168 33 -223 100c-54 67 -73 147 -56 242s64 175 142 242s164 100 258 100s168 -33 222 -100c55 -67 74 -147 57 -242z" />
    <glyph glyph-name="ohungarumlaut" unicode="&#x151;" horiz-adv-x="622" 
d="M249 570l92 130h22l-96 -130h-18zM389 570l101 130h22l-104 -130h-19zM266 -10c73 0 139 24 198 73s94 110 107 183s-2 136 -44 187s-99 77 -171 77c-73 0 -139 -24 -198 -73s-94 -110 -107 -183s2 -136 44 -187s99 -77 171 -77zM268 8c-67 0 -119 23 -158 70
c-38 47 -51 104 -39 172s45 125 100 172s116 70 183 70s119 -23 157 -70c39 -47 52 -104 40 -172s-45 -125 -100 -172s-116 -70 -183 -70z" />
    <glyph glyph-name="OE" unicode="&#x152;" horiz-adv-x="916" 
d="M940 700l-3 -18h-335l-56 -320h310l-3 -18h-311l-57 -326h340l-3 -18h-360l120 681c-27 7 -59 11 -94 11c-97 0 -183 -33 -256 -99c-73 -65 -117 -146 -134 -243s-1 -178 48 -244c50 -65 124 -98 221 -98c36 0 69 4 98 11l-3 -19c-31 -7 -64 -10 -98 -10
c-103 0 -181 35 -234 105s-70 156 -52 257s65 186 142 255s167 103 270 103c35 0 66 -3 95 -10h355z" />
    <glyph glyph-name="oe" unicode="&#x153;" horiz-adv-x="1094" 
d="M845 510c72 0 126 -26 162 -78c37 -51 49 -112 37 -183l-2 -11h-477c-9 -69 5 -124 40 -167c36 -42 88 -63 155 -63c91 0 170 39 214 103l15 -10c-48 -69 -134 -111 -230 -111c-124 0 -206 75 -214 190c-24 -57 -62 -103 -113 -138s-106 -52 -167 -52
c-72 0 -129 25 -171 76c-41 51 -56 114 -43 187s48 134 107 183s125 74 199 74c59 0 107 -18 145 -53c39 -35 61 -81 66 -137c47 115 150 190 277 190zM110 78c38 -47 91 -70 158 -70s128 23 181 70s86 104 98 172s0 125 -37 172s-89 70 -156 70s-128 -23 -183 -70
s-88 -104 -100 -172s1 -125 39 -172zM568 256h459c9 71 -3 128 -37 171s-83 65 -148 65c-67 0 -127 -22 -178 -66s-83 -101 -96 -170z" />
    <glyph glyph-name="Racute" unicode="&#x154;" horiz-adv-x="620" 
d="M462 890h22l-103 -120h-19zM179 700h270c54 0 97 -20 129 -60c33 -40 44 -88 35 -143c-9 -47 -31 -89 -67 -125s-78 -59 -125 -68l125 -304h-20l-124 301c-5 -1 -13 -1 -23 -1h-250l-53 -300h-20zM594 500c9 50 -2 93 -31 128c-29 36 -68 54 -117 54h-250l-64 -364h250
c49 0 95 18 136 53c41 36 67 79 76 129z" />
    <glyph glyph-name="racute" unicode="&#x155;" horiz-adv-x="325" 
d="M324 690h22l-103 -120h-19zM154 500l-22 -123c44 87 127 132 208 129l-3 -18c-52 0 -99 -19 -142 -56c-42 -37 -69 -89 -80 -154l-49 -278h-20l88 500h20z" />
    <glyph glyph-name="Rcommaaccent" unicode="&#x156;" horiz-adv-x="620" 
d="M179 700h270c54 0 97 -20 129 -60c33 -40 44 -88 35 -143c-9 -47 -31 -89 -67 -125s-78 -59 -125 -68l125 -304h-20l-124 301c-5 -1 -13 -1 -23 -1h-250l-53 -300h-20zM594 500c9 50 -2 93 -31 128c-29 36 -68 54 -117 54h-250l-64 -364h250c49 0 95 18 136 53
c41 36 67 79 76 129zM262 -240h-16l40 170h20z" />
    <glyph glyph-name="rcommaaccent" unicode="&#x157;" horiz-adv-x="325" 
d="M154 500l-22 -123c44 87 127 132 208 129l-3 -18c-52 0 -99 -19 -142 -56c-42 -37 -69 -89 -80 -154l-49 -278h-20l88 500h20zM10 -240h-16l40 170h20z" />
    <glyph glyph-name="Rcaron" unicode="&#x158;" horiz-adv-x="620" 
d="M396 770h-22l-91 120h21l82 -108l119 108h24zM179 700h270c54 0 97 -20 129 -60c33 -40 44 -88 35 -143c-9 -47 -31 -89 -67 -125s-78 -59 -125 -68l125 -304h-20l-124 301c-5 -1 -13 -1 -23 -1h-250l-53 -300h-20zM594 500c9 50 -2 93 -31 128c-29 36 -68 54 -117 54
h-250l-64 -364h250c49 0 95 18 136 53c41 36 67 79 76 129z" />
    <glyph glyph-name="rcaron" unicode="&#x159;" horiz-adv-x="325" 
d="M258 570h-22l-91 120h21l82 -108l119 108h24zM154 500l-22 -123c44 87 127 132 208 129l-3 -18c-52 0 -99 -19 -142 -56c-42 -37 -69 -89 -80 -154l-49 -278h-20l88 500h20z" />
    <glyph glyph-name="Sacute" unicode="&#x15a;" horiz-adv-x="551" 
d="M339 770l100 120h22l-103 -120h-19zM246 -10c129 0 224 59 244 167c11 56 -2 99 -41 131s-72 48 -136 73c-43 17 -73 30 -90 39c-65 35 -92 84 -81 145c8 43 31 79 68 106s82 41 133 41c96 0 157 -44 182 -131l17 8c-23 84 -92 141 -199 141c-55 0 -104 -15 -145 -45
c-41 -29 -67 -69 -76 -118c-11 -57 7 -104 52 -139c23 -18 65 -39 128 -62c29 -11 53 -21 71 -30s36 -20 55 -35c39 -29 53 -70 42 -122c-17 -89 -95 -151 -223 -151c-117 0 -192 56 -208 145l-18 -9c19 -95 102 -154 225 -154z" />
    <glyph glyph-name="sacute" unicode="&#x15b;" horiz-adv-x="466" 
d="M263 570l100 120h22l-103 -120h-19zM203 -10c99 0 175 45 188 121c19 112 -93 135 -183 160c-61 19 -106 51 -97 110c12 72 77 111 158 111c64 0 120 -34 140 -86l17 8c-21 57 -83 96 -155 96c-95 0 -167 -46 -180 -125c-34 -180 310 -102 280 -270
c-12 -68 -81 -107 -166 -107s-138 32 -159 95l-18 -8c25 -70 84 -105 175 -105z" />
    <glyph glyph-name="Scedilla" unicode="&#x15e;" horiz-adv-x="551" 
d="M343 692c-51 0 -96 -14 -133 -41s-60 -63 -68 -106c-11 -61 16 -110 81 -145c17 -9 47 -22 90 -39c64 -25 97 -41 136 -73s52 -75 41 -131c-20 -108 -114 -167 -243 -167l-12 -69c45 3 85 -20 77 -63c-8 -51 -73 -75 -186 -60l3 16c103 -13 158 3 165 46
c7 32 -20 50 -80 45l15 85c-113 5 -191 63 -208 154l18 9c16 -89 91 -145 208 -145c128 0 206 62 223 151c11 52 -3 93 -42 122c-19 15 -37 26 -55 35s-42 19 -71 30c-63 23 -105 44 -128 62c-45 35 -63 82 -52 139c9 49 35 89 76 118c41 30 90 45 145 45
c107 0 176 -57 199 -141l-17 -8c-25 87 -86 131 -182 131z" />
    <glyph glyph-name="scedilla" unicode="&#x15f;" horiz-adv-x="466" 
d="M269 492c-81 0 -146 -39 -158 -111c-9 -59 36 -91 97 -110c90 -25 202 -48 183 -160c-13 -75 -87 -118 -183 -121l-12 -69c45 3 85 -20 77 -63c-8 -51 -73 -75 -186 -60l3 16c103 -13 158 3 165 46c7 32 -20 50 -80 45l15 85c-84 4 -138 39 -162 105l18 8
c21 -63 74 -95 159 -95s154 39 166 107c30 168 -314 90 -280 270c13 79 85 125 180 125c72 0 134 -39 155 -96l-17 -8c-20 52 -76 86 -140 86z" />
    <glyph glyph-name="Scaron" unicode="&#x160;" horiz-adv-x="551" 
d="M373 770h-22l-91 120h21l82 -108l119 108h24zM343 692c-51 0 -96 -14 -133 -41s-60 -63 -68 -106c-11 -61 16 -110 81 -145c17 -9 47 -22 90 -39c64 -25 97 -41 136 -73s52 -75 41 -131c-20 -108 -115 -167 -244 -167c-123 0 -206 59 -225 154l18 9
c16 -89 91 -145 208 -145c128 0 206 62 223 151c11 52 -3 93 -42 122c-19 15 -37 26 -55 35s-42 19 -71 30c-63 23 -105 44 -128 62c-45 35 -63 82 -52 139c9 49 35 89 76 118c41 30 90 45 145 45c107 0 176 -57 199 -141l-17 -8c-25 87 -86 131 -182 131z" />
    <glyph glyph-name="scaron" unicode="&#x161;" horiz-adv-x="466" 
d="M297 570h-22l-91 120h21l82 -108l119 108h24zM271 510c72 0 134 -39 155 -96l-17 -8c-20 52 -76 86 -140 86c-81 0 -146 -39 -158 -111c-9 -59 36 -91 97 -110c90 -25 202 -48 183 -160c-13 -76 -89 -121 -188 -121c-91 0 -150 35 -175 105l18 8c21 -63 74 -95 159 -95
s154 39 166 107c30 168 -314 90 -280 270c13 79 85 125 180 125z" />
    <glyph glyph-name="uni0162" unicode="&#x162;" horiz-adv-x="540" 
d="M109 700h480l-3 -18h-230l-120 -682h-20l120 682h-230zM182 -240h-16l40 170h20z" />
    <glyph glyph-name="uni0163" unicode="&#x163;" horiz-adv-x="379" 
d="M370 482h-160l-65 -371c-16 -88 26 -110 143 -93l-3 -18c-127 -20 -177 14 -160 111l65 371h-119l3 18h119l24 134l21 6l-25 -140h160zM148 -240h-16l40 170h20z" />
    <glyph glyph-name="Tcaron" unicode="&#x164;" horiz-adv-x="540" 
d="M371 770h-22l-91 120h21l82 -108l119 108h24zM109 700h480l-3 -18h-230l-120 -682h-20l120 682h-230z" />
    <glyph glyph-name="tcaron" unicode="&#x165;" horiz-adv-x="379" 
d="M328 712h20l-40 -150h-16zM370 482h-160l-65 -371c-16 -88 26 -110 143 -93l-3 -18c-127 -20 -177 14 -160 111l65 371h-119l3 18h119l24 134l21 6l-25 -140h160z" />
    <glyph glyph-name="Tbar" unicode="&#x166;" horiz-adv-x="540" 
d="M589 700l-3 -18h-230l-57 -323h170l-3 -18h-170l-60 -341h-20l60 341h-170l3 18h170l57 323h-230l3 18h480z" />
    <glyph glyph-name="tbar" unicode="&#x167;" horiz-adv-x="379" 
d="M373 500l-3 -18h-160l-36 -208h105l-3 -17h-105l-26 -146c-16 -88 26 -110 143 -93l-3 -18c-127 -20 -177 14 -160 111l26 146h-75l3 17h75l36 208h-119l3 18h119l24 134l21 6l-25 -140h160z" />
    <glyph glyph-name="Umacron" unicode="&#x16a;" horiz-adv-x="680" 
d="M553 801h-240l3 16h240zM299 -10c-77 0 -135 22 -174 66c-38 44 -51 100 -39 169l84 475h20l-84 -475c-11 -63 -1 -115 32 -156s86 -61 160 -61s134 20 180 61c47 41 76 93 87 156l84 475h20l-84 -475c-12 -70 -44 -127 -95 -170s-115 -65 -191 -65z" />
    <glyph glyph-name="umacron" unicode="&#x16b;" horiz-adv-x="575" 
d="M227 617h240l-3 -16h-240zM460 222l49 278h20l-88 -500h-20l23 128c-47 -89 -131 -138 -222 -138c-57 0 -100 18 -130 53c-29 35 -39 82 -29 139l56 318h20l-56 -318c-17 -101 36 -174 141 -174c57 0 107 19 150 58c44 39 73 91 86 156z" />
    <glyph glyph-name="Uring" unicode="&#x16e;" horiz-adv-x="680" 
d="M340 810c9 53 54 90 109 90s90 -35 81 -90c-9 -52 -54 -90 -110 -90s-89 38 -80 90zM422 736c23 0 42 7 59 20c17 14 27 32 31 54s0 40 -13 53c-12 14 -29 21 -52 21c-45 0 -81 -29 -89 -74c-8 -44 17 -74 64 -74zM299 -10c-77 0 -135 22 -174 66c-38 44 -51 100 -39 169
l84 475h20l-84 -475c-11 -63 -1 -115 32 -156s86 -61 160 -61s134 20 180 61c47 41 76 93 87 156l84 475h20l-84 -475c-12 -70 -44 -127 -95 -170s-115 -65 -191 -65z" />
    <glyph glyph-name="uring" unicode="&#x16f;" horiz-adv-x="575" 
d="M258 650c9 53 54 90 109 90s90 -35 81 -90c-9 -52 -54 -90 -110 -90s-89 38 -80 90zM276 650c-8 -44 17 -74 64 -74c23 0 42 7 59 20c17 14 27 32 31 54s0 40 -13 53c-12 14 -29 21 -52 21c-45 0 -81 -29 -89 -74zM460 222l49 278h20l-88 -500h-20l23 128
c-47 -89 -131 -138 -222 -138c-57 0 -100 18 -130 53c-29 35 -39 82 -29 139l56 318h20l-56 -318c-17 -101 36 -174 141 -174c57 0 107 19 150 58c44 39 73 91 86 156z" />
    <glyph glyph-name="Uhungarumlaut" unicode="&#x170;" horiz-adv-x="680" 
d="M317 770l92 130h22l-96 -130h-18zM457 770l101 130h22l-104 -130h-19zM299 -10c76 0 140 22 191 65s83 100 95 170l84 475h-20l-84 -475c-11 -63 -40 -115 -87 -156c-46 -41 -106 -61 -180 -61s-127 20 -160 61s-43 93 -32 156l84 475h-20l-84 -475
c-12 -69 1 -125 39 -169c39 -44 97 -66 174 -66z" />
    <glyph glyph-name="uhungarumlaut" unicode="&#x171;" horiz-adv-x="575" 
d="M320 700h22l-96 -130h-18zM469 700h22l-104 -130h-19zM460 222l49 278h20l-88 -500h-20l23 128c-47 -89 -131 -138 -222 -138c-57 0 -100 18 -130 53c-29 35 -39 82 -29 139l56 318h20l-56 -318c-17 -101 36 -174 141 -174c57 0 107 19 150 58c44 39 73 91 86 156z" />
    <glyph glyph-name="Uogonek" unicode="&#x172;" horiz-adv-x="680" 
d="M565 225l84 475h20l-84 -475c-14 -81 -53 -143 -118 -187c-67 -51 -111 -88 -134 -110s-36 -44 -40 -67c-6 -37 11 -55 50 -55c15 0 28 3 41 9l-3 -17c-13 -5 -27 -8 -42 -8c-48 0 -72 31 -64 71c8 43 50 91 125 145c-30 -11 -64 -16 -101 -16c-77 0 -135 22 -174 66
c-38 44 -51 100 -39 169l84 475h20l-84 -475c-11 -63 -1 -115 32 -156s86 -61 160 -61s134 20 180 61c47 41 76 93 87 156z" />
    <glyph glyph-name="uogonek" unicode="&#x173;" horiz-adv-x="575" 
d="M529 500l-88 -500c-73 -55 -114 -103 -122 -144c-5 -31 12 -50 43 -50c17 0 33 3 46 8l-3 -16c-13 -5 -28 -8 -46 -8c-43 0 -65 25 -58 66c7 43 48 92 121 149l22 123c-47 -89 -131 -138 -222 -138c-57 0 -100 18 -130 53c-29 35 -39 82 -29 139l56 318h20l-56 -318
c-17 -101 36 -174 141 -174c57 0 107 19 150 58c44 39 73 91 86 156l49 278h20z" />
    <glyph glyph-name="Wcircumflex" unicode="&#x174;" horiz-adv-x="980" 
d="M683 770l-82 108l-120 -108h-24l133 120h22l91 -120h-20zM684 24l314 676h21l-326 -700h-24l-104 676l-342 -676h-24l-80 700h19l77 -676l341 676h24z" />
    <glyph glyph-name="wcircumflex" unicode="&#x175;" horiz-adv-x="770" 
d="M497 570l-82 108l-120 -108h-24l133 120h22l91 -120h-20zM514 26l238 474h22l-252 -500h-22l-76 473l-242 -473h-22l-76 500h19l72 -473l242 473h22z" />
    <glyph glyph-name="Ycircumflex" unicode="&#x176;" horiz-adv-x="560" 
d="M473 770l-82 108l-120 -108h-24l133 120h22l91 -120h-20zM596 700h23l-315 -371l-58 -329h-20l58 330l-185 370h21l176 -354z" />
    <glyph glyph-name="ycircumflex" unicode="&#x177;" horiz-adv-x="510" 
d="M400 570l-82 108l-120 -108h-24l133 120h22l91 -120h-20zM224 -1l288 501h22l-314 -546c-59 -100 -138 -161 -219 -154l3 18c69 -5 146 50 198 142l9 15l-147 525h19z" />
    <glyph glyph-name="Ydieresis" unicode="&#x178;" horiz-adv-x="560" 
d="M293 780c-11 0 -18 9 -17 20c3 13 11 20 24 20c11 0 19 -9 16 -20c-3 -13 -10 -20 -23 -20zM453 780c-11 0 -18 9 -17 20c3 13 11 20 24 20c11 0 19 -9 16 -20c-3 -13 -10 -20 -23 -20zM596 700h23l-315 -371l-58 -329h-20l58 330l-185 370h21l176 -354z" />
    <glyph glyph-name="Zacute" unicode="&#x179;" horiz-adv-x="530" 
d="M437 890h22l-103 -120h-19zM139 700h420l-3 -18l-523 -664h416l-3 -18h-440l3 18l524 664h-397z" />
    <glyph glyph-name="zacute" unicode="&#x17a;" horiz-adv-x="490" 
d="M382 690h22l-103 -120h-19zM114 500h360l-2 -11l-424 -471h351l-3 -18h-380l2 11l424 471h-331z" />
    <glyph glyph-name="Zdotaccent" unicode="&#x17b;" horiz-adv-x="530" 
d="M386 788c-13 -11 -34 -11 -43 0c-9 12 -6 32 7 43c13 12 34 12 43 0c9 -11 6 -31 -7 -43zM139 700h420l-3 -18l-523 -664h416l-3 -18h-440l3 18l524 664h-397z" />
    <glyph glyph-name="zdotaccent" unicode="&#x17c;" horiz-adv-x="490" 
d="M331 588c-13 -11 -34 -11 -43 0c-9 12 -6 32 7 43c13 12 34 12 43 0c9 -11 6 -31 -7 -43zM114 500h360l-2 -11l-424 -471h351l-3 -18h-380l2 11l424 471h-331z" />
    <glyph glyph-name="Zcaron" unicode="&#x17d;" horiz-adv-x="530" 
d="M371 770h-22l-91 120h21l82 -108l119 108h24zM139 700h420l-3 -18l-523 -664h416l-3 -18h-440l3 18l524 664h-397z" />
    <glyph glyph-name="zcaron" unicode="&#x17e;" horiz-adv-x="490" 
d="M316 570h-22l-91 120h21l82 -108l119 108h24zM114 500h360l-2 -11l-424 -471h351l-3 -18h-380l2 11l424 471h-331z" />
    <glyph glyph-name="florin" unicode="&#x192;" horiz-adv-x="431" 
d="M244 360l80 230c33 97 110 140 187 112l-4 -20c-31 15 -63 14 -94 -4s-55 -49 -70 -92l-79 -226h131l-3 -19h-134l-152 -435c-33 -95 -110 -140 -186 -112l3 20c64 -31 135 9 164 96l150 431h-125l3 19h129z" />
    <glyph glyph-name="Scommaaccent" unicode="&#x218;" horiz-adv-x="551" 
d="M246 -10c-123 0 -206 59 -225 154l18 9c16 -89 91 -145 208 -145c128 0 206 62 223 151c11 52 -3 93 -42 122c-19 15 -37 26 -55 35s-42 19 -71 30c-63 23 -105 44 -128 62c-45 35 -63 82 -52 139c9 49 35 89 76 118c41 30 90 45 145 45c107 0 176 -57 199 -141l-17 -8
c-25 87 -86 131 -182 131c-51 0 -96 -14 -133 -41s-60 -63 -68 -106c-11 -61 16 -110 81 -145c17 -9 47 -22 90 -39c64 -25 97 -41 136 -73s52 -75 41 -131c-20 -108 -115 -167 -244 -167zM192 -240h-16l40 170h20z" />
    <glyph glyph-name="scommaaccent" unicode="&#x219;" horiz-adv-x="466" 
d="M203 -10c-91 0 -150 35 -175 105l18 8c21 -63 74 -95 159 -95s154 39 166 107c30 168 -314 90 -280 270c13 79 85 125 180 125c72 0 134 -39 155 -96l-17 -8c-20 52 -76 86 -140 86c-81 0 -146 -39 -158 -111c-9 -59 36 -91 97 -110c90 -25 202 -48 183 -160
c-13 -76 -89 -121 -188 -121zM153 -240h-16l40 170h20z" />
    <glyph glyph-name="uni021A" unicode="&#x21a;" horiz-adv-x="540" 
d="M109 700h480l-3 -18h-230l-120 -682h-20l120 682h-230zM182 -240h-16l40 170h20z" />
    <glyph glyph-name="uni021B" unicode="&#x21b;" horiz-adv-x="379" 
d="M370 482h-160l-65 -371c-16 -88 26 -110 143 -93l-3 -18c-127 -20 -177 14 -160 111l65 371h-119l3 18h119l24 134l21 6l-25 -140h160zM148 -240h-16l40 170h20z" />
    <glyph glyph-name="circumflex" unicode="&#x2c6;" horiz-adv-x="286" 
d="M231 690l91 -120h-20l-82 108l-120 -108h-24l133 120h22z" />
    <glyph glyph-name="caron" unicode="&#x2c7;" horiz-adv-x="286" 
d="M201 582l119 108h24l-133 -120h-22l-91 120h21z" />
    <glyph glyph-name="breve" unicode="&#x2d8;" horiz-adv-x="280" 
d="M95 677h18c-9 -53 26 -89 87 -89s108 36 117 89h18c-11 -64 -63 -105 -135 -105s-116 42 -105 105z" />
    <glyph glyph-name="dotaccent" unicode="&#x2d9;" horiz-adv-x="60" 
d="M131 588c-13 -11 -34 -11 -43 0c-9 12 -6 32 7 43c13 12 34 12 43 0c9 -11 6 -31 -7 -43z" />
    <glyph glyph-name="ring" unicode="&#x2da;" horiz-adv-x="230" 
d="M91 650c9 53 54 90 109 90s90 -35 81 -90c-9 -52 -54 -90 -110 -90s-89 38 -80 90zM173 576c23 0 42 7 59 20c17 14 27 32 31 54s0 40 -13 53c-12 14 -29 21 -52 21c-45 0 -81 -29 -89 -74c-8 -44 17 -74 64 -74z" />
    <glyph glyph-name="ogonek" unicode="&#x2db;" horiz-adv-x="157" 
d="M11 -210c-44 0 -68 29 -60 70c7 45 46 92 115 140h25c-74 -52 -115 -99 -122 -142c-9 -50 44 -62 91 -43l-3 -17c-13 -5 -28 -8 -46 -8z" />
    <glyph glyph-name="tilde" unicode="&#x2dc;" horiz-adv-x="296" 
d="M97 590h-17c8 47 26 76 54 87c29 11 57 -2 86 -39c25 -31 49 -42 71 -33s36 32 43 69h17c-8 -46 -26 -75 -55 -86s-57 2 -86 38c-52 63 -100 41 -113 -36z" />
    <glyph glyph-name="hungarumlaut" unicode="&#x2dd;" horiz-adv-x="280" 
d="M76 570l92 130h22l-96 -130h-18zM216 570l101 130h22l-104 -130h-19z" />
    <glyph glyph-name="gravecomb" unicode="&#x300;" horiz-adv-x="0" 
d="M37 570h-16l-64 120h20z" />
    <glyph glyph-name="acutecomb" unicode="&#x301;" horiz-adv-x="0" 
d="M-64 570l100 120h22l-103 -120h-19z" />
    <glyph glyph-name="uni0302" unicode="&#x302;" horiz-adv-x="0" 
d="M-54 690l91 -120h-20l-82 108l-120 -108h-24l133 120h22z" />
    <glyph glyph-name="tildecomb" unicode="&#x303;" horiz-adv-x="0" 
d="M-199 590h-17c8 47 26 76 55 87c28 11 56 -2 85 -39c25 -31 49 -42 71 -33s36 32 43 69h17c-8 -46 -26 -75 -55 -86s-57 2 -86 38c-52 63 -100 41 -113 -36z" />
    <glyph glyph-name="uni0304" unicode="&#x304;" horiz-adv-x="0" 
d="M42 601h-240l3 16h240z" />
    <glyph glyph-name="uni0306" unicode="&#x306;" horiz-adv-x="0" 
d="M-205 677h18c-9 -53 26 -89 87 -89s108 36 117 89h18c-11 -64 -63 -105 -135 -105s-116 42 -105 105z" />
    <glyph glyph-name="uni0307" unicode="&#x307;" horiz-adv-x="0" 
d="M31 588c-13 -11 -34 -11 -43 0c-9 12 -6 32 7 43c13 12 34 12 43 0c9 -11 6 -31 -7 -43z" />
    <glyph glyph-name="uni0308" unicode="&#x308;" horiz-adv-x="0" 
d="M-141 580c-11 0 -18 9 -17 20c3 13 11 20 24 20c11 0 19 -9 16 -20c-3 -13 -10 -20 -23 -20zM19 580c-11 0 -18 9 -17 20c3 13 11 20 24 20c11 0 19 -9 16 -20c-3 -13 -10 -20 -23 -20z" />
    <glyph glyph-name="uni030A" unicode="&#x30a;" horiz-adv-x="0" 
d="M-139 650c9 53 54 90 109 90s90 -35 81 -90c-9 -52 -54 -90 -110 -90s-89 38 -80 90zM-57 576c23 0 42 7 59 20c17 14 27 32 31 54s0 40 -13 53c-12 14 -29 21 -52 21c-45 0 -81 -29 -89 -74c-8 -44 17 -74 64 -74z" />
    <glyph glyph-name="uni030B" unicode="&#x30b;" horiz-adv-x="0" 
d="M-194 570l92 130h22l-96 -130h-18zM-54 570l101 130h22l-104 -130h-19z" />
    <glyph glyph-name="uni030C" unicode="&#x30c;" horiz-adv-x="0" 
d="M-85 582l119 108h24l-133 -120h-22l-91 120h21z" />
    <glyph glyph-name="uni0312" unicode="&#x312;" horiz-adv-x="0" 
d="M89 960h16l-40 -170h-20z" />
    <glyph glyph-name="uni0326" unicode="&#x326;" horiz-adv-x="0" 
d="M-120 -240h-16l40 170h20z" />
    <glyph glyph-name="uni0327" unicode="&#x327;" horiz-adv-x="0" 
d="M-152 0l-14 -79c45 3 85 -20 77 -63c-8 -51 -73 -75 -186 -60l3 16c103 -13 158 3 165 46c7 32 -20 50 -80 45l17 95h18z" />
    <glyph glyph-name="uni0328" unicode="&#x328;" horiz-adv-x="0" 
d="M-146 -210c-44 0 -68 29 -60 70c7 45 46 92 115 140h25c-74 -52 -115 -99 -122 -142c-5 -31 13 -52 45 -52c15 0 31 3 46 9l-3 -17c-13 -5 -28 -8 -46 -8z" />
    <glyph glyph-name="uni0394" unicode="&#x394;" horiz-adv-x="618" 
d="M376 700h24l154 -700h-578zM386 679l-378 -661h522z" />
    <glyph glyph-name="uni03A9" unicode="&#x3a9;" horiz-adv-x="841" 
d="M798 346c-13 -75 -46 -142 -99 -202s-114 -102 -185 -126h215l-3 -18h-268l3 18c78 19 147 59 206 120s96 132 111 212c17 95 -2 175 -57 242s-129 100 -223 100s-180 -33 -258 -100s-125 -147 -142 -242c-14 -79 -2 -150 35 -212c38 -61 93 -101 164 -120l-2 -15l-1 -3
h-268l3 18h217c-62 25 -109 69 -141 131c-31 62 -40 130 -27 205c17 100 67 184 148 253c82 69 174 103 275 103c98 0 176 -36 235 -108c59 -71 79 -157 62 -256z" />
    <glyph glyph-name="pi" unicode="&#x3c0;" horiz-adv-x="650" 
d="M84 500h570l-3 -18h-83l-85 -482h-20l85 482h-360l-85 -482h-20l85 482h-87z" />
    <glyph glyph-name="uni0401" unicode="&#x401;" horiz-adv-x="540" 
d="M300 780c-11 0 -18 9 -17 20c3 13 11 20 24 20c11 0 19 -9 16 -20c-3 -13 -10 -20 -23 -20zM460 780c-11 0 -18 9 -17 20c3 13 11 20 24 20c11 0 19 -9 16 -20c-3 -13 -10 -20 -23 -20zM564 700l-3 -18h-365l-56 -320h340l-3 -18h-341l-57 -326h370l-3 -18h-390l123 700
h385z" />
    <glyph glyph-name="uni0402" unicode="&#x402;" horiz-adv-x="700" 
d="M483 470c113 0 174 -64 155 -173l-32 -182c-15 -84 -68 -131 -160 -120l3 18c78 -9 124 25 137 102l32 182c17 100 -34 155 -134 155c-55 0 -122 -19 -199 -58l-69 -394h-20l120 682h-210l3 18h480l-3 -18h-250l-47 -265c73 35 138 53 194 53z" />
    <glyph glyph-name="uni0403" unicode="&#x403;" horiz-adv-x="500" 
d="M443 889h22l-103 -120h-19zM179 700h370l-3 -18h-350l-120 -682h-20z" />
    <glyph glyph-name="uni0404" unicode="&#x404;" horiz-adv-x="763" 
d="M491 692c-96 0 -181 -32 -254 -96s-118 -143 -137 -237h417l-3 -18h-417c-14 -93 5 -171 56 -236c52 -65 125 -97 220 -97c124 0 240 62 313 161l16 -10c-37 -51 -84 -92 -142 -123s-120 -46 -186 -46c-101 0 -180 35 -237 104c-57 70 -76 156 -59 258
c18 101 66 186 144 255s168 103 270 103c127 0 227 -64 275 -161l-17 -9c-45 93 -140 152 -259 152z" />
    <glyph glyph-name="uni0405" unicode="&#x405;" horiz-adv-x="551" 
d="M246 -10c-123 0 -206 59 -225 154l18 9c16 -89 91 -145 208 -145c128 0 206 62 223 151c11 52 -3 93 -42 122c-19 15 -37 26 -55 35s-42 19 -71 30c-63 23 -105 44 -128 62c-45 35 -63 82 -52 139c9 49 35 89 76 118c41 30 90 45 145 45c107 0 176 -57 199 -141l-17 -8
c-25 87 -86 131 -182 131c-51 0 -96 -14 -133 -41s-60 -63 -68 -106c-11 -61 16 -110 81 -145c17 -9 47 -22 90 -39c64 -25 97 -41 136 -73s52 -75 41 -131c-20 -108 -115 -167 -244 -167z" />
    <glyph glyph-name="uni0406" unicode="&#x406;" horiz-adv-x="220" 
d="M56 0l123 700h20l-123 -700h-20z" />
    <glyph glyph-name="uni0407" unicode="&#x407;" horiz-adv-x="220" 
d="M123 780c-11 0 -18 9 -17 20c3 13 11 20 24 20c11 0 19 -9 16 -20c-3 -13 -10 -20 -23 -20zM283 780c-11 0 -18 9 -17 20c3 13 11 20 24 20c11 0 19 -9 16 -20c-3 -13 -10 -20 -23 -20zM56 0l123 700h20l-123 -700h-20z" />
    <glyph glyph-name="uni0408" unicode="&#x408;" horiz-adv-x="554" 
d="M211 -10c-100 0 -168 42 -187 113l17 9c16 -64 73 -104 170 -104c58 0 107 16 147 48c40 33 65 74 74 124l91 520h20l-91 -520c-11 -57 -38 -103 -83 -138c-44 -35 -97 -52 -158 -52z" />
    <glyph glyph-name="uni0409" unicode="&#x409;" horiz-adv-x="997" 
d="M588 380h180c55 0 99 -19 132 -57s45 -84 35 -139s-37 -99 -81 -133s-95 -51 -153 -51h-200l120 682h-340l-72 -412c-33 -185 -105 -281 -228 -272l3 18c97 -8 170 65 205 254l75 430h380zM765 362h-180l-61 -344h180c51 0 96 16 137 48s65 73 74 122s-2 91 -31 124
s-69 50 -119 50z" />
    <glyph glyph-name="uni040A" unicode="&#x40a;" horiz-adv-x="992" 
d="M583 380h180c55 0 99 -19 132 -57s45 -84 35 -139s-37 -99 -81 -133s-95 -51 -153 -51h-200l64 362h-420l-64 -362h-20l123 700h20l-56 -320h420l56 320h20zM760 362h-180l-61 -344h180c51 0 96 16 137 48s65 73 74 122s-2 91 -31 124s-69 50 -119 50z" />
    <glyph glyph-name="uni040B" unicode="&#x40b;" horiz-adv-x="710" 
d="M483 470c113 0 174 -64 155 -173l-52 -297h-20l52 297c17 100 -34 155 -134 155c-55 0 -122 -19 -199 -58l-69 -394h-20l120 682h-210l3 18h480l-3 -18h-250l-47 -265c73 35 138 53 194 53z" />
    <glyph glyph-name="uni040C" unicode="&#x40c;" horiz-adv-x="556" 
d="M453 889h22l-103 -120h-19zM585 700h30l-454 -343l341 -357h-25l-339 354l-62 -354h-20l123 700h20l-59 -335z" />
    <glyph glyph-name="uni040E" unicode="&#x40e;" horiz-adv-x="559" 
d="M266 816h240l-3 -16h-240zM296 202l300 498h22l-328 -545c-67 -111 -140 -162 -221 -155l3 18c71 -6 137 41 198 142l13 21l-164 519h18z" />
    <glyph glyph-name="uni040F" unicode="&#x40f;" horiz-adv-x="700" 
d="M539 18l120 682h20l-123 -700h-240l-24 -134h-20l24 134h-240l123 700h20l-120 -682h460z" />
    <glyph glyph-name="uni0410" unicode="&#x410;" horiz-adv-x="628" 
d="M559 0h-20l-42 191h-385l-109 -191h-22l400 700h25zM391 679l-269 -470h371z" />
    <glyph glyph-name="uni0411" unicode="&#x411;" horiz-adv-x="585" 
d="M569 700l-3 -18h-370l-50 -282h221c53 0 96 -20 129 -61c33 -40 45 -87 35 -142c-9 -55 -37 -102 -82 -140s-96 -57 -153 -57h-240l123 700h390zM363 382h-220l-64 -364h220c50 0 96 18 137 53c41 36 66 79 75 129s-1 93 -30 128c-29 36 -68 54 -118 54z" />
    <glyph glyph-name="uni0412" unicode="&#x412;" horiz-adv-x="630" 
d="M598 523c-13 -75 -71 -139 -144 -163c40 -9 71 -30 92 -63c22 -33 29 -72 22 -115c-8 -50 -32 -93 -73 -129c-40 -35 -89 -53 -147 -53h-292l123 700h261c51 0 92 -17 123 -52c31 -34 43 -76 35 -125zM140 366h254c43 0 83 15 119 46s58 69 65 112s-2 80 -29 111
s-63 47 -109 47h-244zM548 183c8 45 -1 84 -28 116c-26 33 -61 49 -106 49h-277l-58 -330h272c49 0 92 16 129 47c37 32 60 71 68 118z" />
    <glyph glyph-name="uni0413" unicode="&#x413;" horiz-adv-x="500" 
d="M179 700h370l-3 -18h-350l-120 -682h-20z" />
    <glyph glyph-name="uni0414" unicode="&#x414;" horiz-adv-x="690" 
d="M654 700l-120 -682h70l-27 -152h-20l24 134h-580l-24 -134h-20l27 152h53c60 53 101 138 122 254l75 428h420zM251 682l-72 -410c-20 -114 -58 -199 -115 -254h450l117 664h-380z" />
    <glyph glyph-name="uni0415" unicode="&#x415;" horiz-adv-x="540" 
d="M564 700l-3 -18h-365l-56 -320h340l-3 -18h-341l-57 -326h370l-3 -18h-390l123 700h385z" />
    <glyph glyph-name="uni0416" unicode="&#x416;" horiz-adv-x="807" 
d="M834 700h28l-406 -343l287 -357h-22l-287 355l-62 -355h-20l62 355l-410 -355h-28l418 362l-281 338h23l280 -335l59 335h20l-59 -335z" />
    <glyph glyph-name="uni0417" unicode="&#x417;" horiz-adv-x="539" 
d="M523 526c-15 -80 -72 -144 -156 -167c89 -19 135 -91 120 -179c-10 -56 -37 -102 -82 -137c-44 -35 -99 -53 -164 -53c-122 0 -196 49 -221 146l19 9c21 -91 89 -137 205 -137c59 0 108 16 149 49s65 74 74 125c17 96 -41 166 -152 166h-77l3 18h59c53 0 98 16 135 47
s60 70 68 115c17 96 -45 164 -156 164c-97 0 -170 -43 -220 -128l-16 10c53 91 133 136 239 136c59 0 105 -18 138 -53s44 -78 35 -131z" />
    <glyph glyph-name="uni0418" unicode="&#x418;" horiz-adv-x="700" 
d="M76 0h-20l123 700h20l-116 -663l576 663h20l-123 -700h-20l117 664z" />
    <glyph glyph-name="uni0419" unicode="&#x419;" horiz-adv-x="700" 
d="M557 801h-240l3 16h240zM76 0h-20l123 700h20l-116 -663l576 663h20l-123 -700h-20l117 664z" />
    <glyph glyph-name="uni041A" unicode="&#x41a;" horiz-adv-x="556" 
d="M585 700h30l-454 -343l341 -357h-25l-339 354l-62 -354h-20l123 700h20l-59 -335z" />
    <glyph glyph-name="uni041B" unicode="&#x41b;" horiz-adv-x="705" 
d="M-19 -2l3 18c97 -8 170 65 205 254l75 430h420l-123 -700h-20l120 682h-380l-72 -412c-33 -187 -104 -283 -228 -272z" />
    <glyph glyph-name="uni041C" unicode="&#x41c;" horiz-adv-x="820" 
d="M772 700h27l-123 -700h-20l118 670l-367 -461h-8l-204 466l-119 -675h-20l123 700h25l203 -462z" />
    <glyph glyph-name="uni041D" unicode="&#x41d;" horiz-adv-x="700" 
d="M601 369l58 331h20l-123 -700h-20l62 351h-460l-62 -351h-20l123 700h20l-58 -331h460z" />
    <glyph glyph-name="uni041E" unicode="&#x41e;" horiz-adv-x="840" 
d="M500 710c99 0 177 -36 235 -107c59 -71 79 -157 62 -256s-67 -184 -150 -253c-82 -69 -173 -104 -272 -104s-178 36 -236 107s-78 157 -61 256s67 184 149 253c83 69 174 104 273 104zM777 350c17 95 -2 175 -57 242c-54 67 -128 100 -222 100s-180 -33 -258 -100
s-125 -147 -142 -242s2 -175 56 -242c55 -67 129 -100 223 -100s180 33 257 100c78 67 126 147 143 242z" />
    <glyph glyph-name="uni041F" unicode="&#x41f;" horiz-adv-x="700" 
d="M179 700h500l-123 -700h-20l120 682h-460l-120 -682h-20z" />
    <glyph glyph-name="uni0420" unicode="&#x420;" 
d="M179 700h211c63 0 112 -20 146 -61c34 -40 46 -90 36 -149s-39 -109 -86 -150c-47 -40 -102 -60 -166 -60h-195l-49 -280h-20zM391 682h-195l-68 -384h193c58 0 109 18 152 54c43 37 70 83 79 138s-1 101 -31 137c-30 37 -73 55 -130 55z" />
    <glyph glyph-name="uni0421" unicode="&#x421;" horiz-adv-x="763" 
d="M374 -10c-101 0 -180 35 -237 104c-57 70 -76 156 -59 258c18 101 66 186 144 255s168 103 270 103c127 0 227 -64 275 -161l-17 -9c-45 93 -140 152 -259 152c-97 0 -183 -33 -257 -99s-119 -147 -136 -243c-17 -95 1 -175 52 -242c52 -67 126 -100 223 -100
c124 0 240 62 313 161l16 -10c-37 -51 -84 -92 -142 -123s-120 -46 -186 -46z" />
    <glyph glyph-name="uni0422" unicode="&#x422;" horiz-adv-x="540" 
d="M109 700h480l-3 -18h-230l-120 -682h-20l120 682h-230z" />
    <glyph glyph-name="uni0423" unicode="&#x423;" horiz-adv-x="559" 
d="M296 202l300 498h22l-328 -545c-67 -111 -140 -162 -221 -155l3 18c71 -6 137 41 198 142l13 21l-164 519h18z" />
    <glyph glyph-name="uni0424" unicode="&#x424;" horiz-adv-x="805" 
d="M491 700l-14 -78c199 -4 336 -99 305 -276c-31 -175 -199 -267 -400 -268l-14 -78h-20l14 78c-199 4 -335 99 -304 276c15 85 58 151 131 197s163 70 268 71l14 78h20zM762 350c14 77 -5 139 -57 184c-51 45 -128 69 -231 70l-89 -508c103 1 188 24 255 69
s108 107 122 185zM365 96l89 508c-102 -1 -187 -25 -254 -70s-108 -107 -122 -184s5 -139 56 -184c52 -45 129 -69 231 -70z" />
    <glyph glyph-name="uni0425" unicode="&#x425;" horiz-adv-x="560" 
d="M575 700h25l-290 -345l176 -355h-21l-168 340l-286 -340h-25l301 358l-169 342h21l162 -326z" />
    <glyph glyph-name="uni0426" unicode="&#x426;" horiz-adv-x="690" 
d="M659 700l-120 -682h70l-27 -152h-20l24 134h-530l123 700h20l-120 -682h440l120 682h20z" />
    <glyph glyph-name="uni0427" unicode="&#x427;" horiz-adv-x="630" 
d="M525 336l64 364h20l-123 -700h-20l55 315c-71 -30 -140 -45 -206 -45c-152 0 -217 78 -198 190l42 240h20l-42 -240c-19 -104 42 -172 178 -172c65 0 135 16 210 49v-1z" />
    <glyph glyph-name="uni0428" unicode="&#x428;" horiz-adv-x="970" 
d="M809 18l120 682h20l-123 -700h-770l123 700h20l-120 -682h355l120 682h20l-120 -682h355z" />
    <glyph glyph-name="uni0429" unicode="&#x429;" horiz-adv-x="980" 
d="M949 700l-120 -682h70l-27 -152h-20l24 134h-820l123 700h20l-120 -682h355l120 682h20l-120 -682h355l120 682h20z" />
    <glyph glyph-name="uni042A" unicode="&#x42a;" horiz-adv-x="680" 
d="M371 0h-215l120 682h-200l3 18h220l-49 -280h195c62 0 110 -20 144 -61s45 -91 34 -151c-11 -61 -40 -111 -87 -150s-102 -58 -165 -58zM247 402l-68 -384h194c57 0 107 18 150 54c44 37 71 83 80 138c9 56 -1 102 -31 138c-29 36 -73 54 -131 54h-194z" />
    <glyph glyph-name="uni042B" unicode="&#x42b;" horiz-adv-x="740" 
d="M271 0h-215l123 700h20l-49 -280h195c62 0 110 -20 144 -61s45 -91 34 -151c-11 -61 -40 -111 -87 -150s-102 -58 -165 -58zM596 0h-20l123 700h20zM147 402l-68 -384h194c57 0 107 18 150 54c44 37 71 83 80 138c9 57 -1 103 -31 140s-74 54 -131 52h-194z" />
    <glyph glyph-name="uni042C" unicode="&#x42c;" 
d="M150 420h195c62 0 110 -20 144 -61s45 -91 34 -151c-11 -61 -40 -111 -87 -150s-102 -58 -165 -58h-215l123 700h20zM503 210c9 57 -1 103 -31 140s-74 54 -131 52h-194l-68 -384h194c57 0 107 18 150 54c44 37 71 83 80 138z" />
    <glyph glyph-name="uni042D" unicode="&#x42d;" horiz-adv-x="763" 
d="M424 710c101 0 180 -35 237 -106c57 -70 76 -155 59 -256c-18 -101 -67 -186 -146 -255s-171 -103 -277 -103c-121 0 -224 63 -265 162l17 9c39 -93 134 -153 251 -153c97 0 183 32 258 96c75 65 122 144 140 237h-417l3 18h418c14 94 -5 173 -58 237s-127 96 -223 96
c-60 0 -118 -15 -173 -44s-101 -67 -136 -116l-16 10c76 103 197 168 328 168z" />
    <glyph glyph-name="uni042E" unicode="&#x42e;" horiz-adv-x="1060" 
d="M720 710c99 0 177 -36 235 -107c59 -71 79 -157 62 -256s-67 -184 -150 -253c-82 -69 -173 -104 -272 -104s-177 35 -236 106c-58 71 -78 156 -61 255h-160l-62 -351h-20l123 700h20l-58 -331h160c21 95 72 176 153 242s169 99 266 99zM997 350c17 95 -2 175 -57 242
c-54 67 -128 100 -222 100s-180 -33 -258 -100s-125 -147 -142 -242s2 -175 56 -242c55 -67 129 -100 223 -100s180 33 257 100c78 67 126 147 143 242z" />
    <glyph glyph-name="uni042F" unicode="&#x42f;" horiz-adv-x="640" 
d="M349 700h270l-123 -700h-20l53 300h-242l-256 -300h-25l257 301c-49 5 -89 27 -119 67c-29 41 -39 87 -30 138c10 55 37 101 81 138s95 56 154 56zM282 318h250l64 364h-250c-51 0 -97 -17 -138 -52s-65 -77 -74 -127s2 -93 31 -130s68 -55 117 -55z" />
    <glyph glyph-name="uni0430" unicode="&#x430;" horiz-adv-x="662" 
d="M566 328l30 172h20l-88 -500h-20l25 141c-52 -93 -147 -151 -258 -151c-72 0 -130 27 -175 81c-45 55 -61 119 -48 192s46 133 101 178c55 46 120 69 194 69c55 0 103 -17 143 -51c41 -34 66 -78 76 -131zM115 83c41 -50 96 -75 163 -75s126 22 177 65s83 99 95 167
s-3 127 -44 177s-95 75 -162 75s-127 -22 -178 -65s-82 -99 -94 -167s2 -127 43 -177z" />
    <glyph glyph-name="uni0431" unicode="&#x431;" 
d="M49 245c14 81 36 144 67 189s86 86 165 122c20 9 44 19 71 29c27 11 49 19 65 26c53 21 104 50 118 97l16 -9c-16 -41 -61 -75 -98 -91c-18 -8 -45 -19 -82 -33c-36 -14 -64 -26 -85 -35c-60 -27 -105 -58 -136 -93c-31 -34 -54 -81 -69 -142c65 97 165 149 261 149
c65 0 116 -23 153 -68c38 -45 51 -101 39 -168c-11 -67 -43 -122 -95 -165s-114 -64 -185 -64s-127 23 -167 70c-39 47 -52 109 -38 186zM257 7c65 0 121 20 169 60s77 91 88 154c11 62 -1 113 -34 154s-81 61 -142 61c-57 0 -110 -18 -160 -54s-86 -82 -109 -137
c-13 -71 -2 -129 33 -173c35 -43 86 -65 155 -65z" />
    <glyph glyph-name="uni0432" unicode="&#x432;" horiz-adv-x="520" 
d="M477 373c-11 -59 -44 -97 -99 -114c64 -16 92 -66 81 -127c-15 -79 -71 -132 -172 -132h-241l88 500h224c88 0 131 -55 119 -127zM113 266h203c76 0 129 41 141 108c11 67 -27 108 -102 108h-204zM330 248h-220l-41 -230h221c81 0 136 43 149 115s-28 115 -109 115z" />
    <glyph glyph-name="uni0433" unicode="&#x433;" horiz-adv-x="400" 
d="M134 500h300l-3 -18h-280l-85 -482h-20z" />
    <glyph glyph-name="uni0434" unicode="&#x434;" horiz-adv-x="591" 
d="M524 500l-85 -482h71l-28 -152h-20l25 134h-480l-25 -134h-20l28 152h53c49 56 82 131 99 225l45 257h337zM69 18h350l82 464h-297l-42 -239c-17 -94 -48 -169 -93 -225z" />
    <glyph glyph-name="uni0435" unicode="&#x435;" horiz-adv-x="597" 
d="M347 510c73 0 128 -26 164 -77s48 -113 36 -184l-2 -11h-477c-9 -69 5 -124 40 -167c36 -42 88 -63 155 -63c91 0 170 39 214 103l15 -10c-48 -69 -133 -111 -232 -111c-75 0 -132 25 -171 74s-52 112 -39 188c13 75 47 136 101 185c55 49 120 73 196 73zM71 256h459
c9 71 -3 128 -37 171s-83 65 -148 65c-67 0 -127 -22 -178 -66s-83 -101 -96 -170z" />
    <glyph glyph-name="uni0436" unicode="&#x436;" horiz-adv-x="640" 
d="M620 500h28l-296 -242l214 -258h-23l-210 253l-45 -253h-20l44 253l-298 -253h-28l309 262l-207 238h23l204 -233l41 233h20l-41 -234z" />
    <glyph glyph-name="uni0437" unicode="&#x437;" horiz-adv-x="445" 
d="M402 377c-10 -60 -46 -99 -107 -118c68 -16 100 -70 88 -133c-13 -77 -88 -136 -201 -136c-100 0 -156 38 -168 115l17 9c9 -71 60 -106 154 -106c96 0 165 48 178 120s-33 120 -118 120h-60l3 18h43c80 0 140 45 151 113c12 67 -39 113 -120 113
c-77 0 -137 -36 -169 -92l-15 9c35 61 100 101 187 101c47 0 84 -13 109 -40c25 -26 35 -57 28 -93z" />
    <glyph glyph-name="uni0438" unicode="&#x438;" 
d="M71 32l443 468h20l-88 -500h-20l83 468l-443 -468h-20l88 500h20z" />
    <glyph glyph-name="uni0439" unicode="&#x439;" 
d="M472 601h-240l3 16h240zM71 32l443 468h20l-88 -500h-20l83 468l-443 -468h-20l88 500h20z" />
    <glyph glyph-name="uni043A" unicode="&#x43a;" horiz-adv-x="461" 
d="M439 500h31l-337 -242l254 -258h-26l-250 254l-45 -254h-20l88 500h20l-41 -234z" />
    <glyph glyph-name="uni043B" unicode="&#x43b;" 
d="M192 500h342l-88 -500h-20l85 482h-302l-49 -279c-28 -157 -92 -211 -184 -203l3 18c85 -7 138 54 161 185z" />
    <glyph glyph-name="uni043C" unicode="&#x43c;" horiz-adv-x="650" 
d="M576 500h28l-88 -500h-20l83 473l-269 -317h-6l-155 318l-83 -474h-20l88 500h24l153 -312z" />
    <glyph glyph-name="uni043D" unicode="&#x43d;" 
d="M472 259l42 241h20l-88 -500h-20l42 241h-360l-42 -241h-20l88 500h20l-42 -241h360z" />
    <glyph glyph-name="uni043E" unicode="&#x43e;" horiz-adv-x="622" 
d="M266 -10c-72 0 -129 26 -171 77s-57 114 -44 187s48 134 107 183s125 73 198 73c72 0 129 -26 171 -77s57 -114 44 -187s-48 -134 -107 -183s-125 -73 -198 -73zM268 8c67 0 128 23 183 70s88 104 100 172s-1 125 -40 172c-38 47 -90 70 -157 70s-128 -23 -183 -70
s-88 -104 -100 -172s1 -125 39 -172c39 -47 91 -70 158 -70z" />
    <glyph glyph-name="uni043F" unicode="&#x43f;" 
d="M134 500h400l-88 -500h-20l85 482h-360l-85 -482h-20z" />
    <glyph glyph-name="uni0440" unicode="&#x440;" horiz-adv-x="662" 
d="M387 510c71 0 129 -27 174 -82c45 -54 62 -118 49 -191s-47 -133 -102 -179c-55 -45 -119 -68 -193 -68c-55 0 -103 17 -144 51c-40 34 -65 77 -75 130l-65 -371h-20l123 700h20l-25 -140c52 93 147 150 258 150zM495 73c51 43 83 99 95 167s-3 127 -44 177
s-95 75 -162 75s-127 -22 -178 -65s-82 -99 -94 -167s2 -127 43 -177s96 -75 163 -75s126 22 177 65z" />
    <glyph glyph-name="uni0441" unicode="&#x441;" 
d="M265 -10c-74 0 -132 25 -173 76s-54 113 -41 187c13 73 49 134 107 183s124 74 199 74c95 0 171 -49 196 -122l-17 -10c-23 71 -89 114 -182 114c-69 0 -131 -23 -185 -70c-53 -46 -86 -103 -98 -172s0 -126 37 -173c37 -46 91 -69 160 -69c91 0 175 45 223 114l15 -10
c-52 -76 -140 -122 -241 -122z" />
    <glyph glyph-name="uni0442" unicode="&#x442;" horiz-adv-x="440" 
d="M64 500h400l-3 -18h-190l-85 -482h-20l85 482h-190z" />
    <glyph glyph-name="uni0443" unicode="&#x443;" horiz-adv-x="510" 
d="M224 -1l288 501h22l-314 -546c-59 -100 -138 -161 -219 -154l3 18c69 -5 146 50 198 142l9 15l-147 525h19z" />
    <glyph glyph-name="uni0444" unicode="&#x444;" horiz-adv-x="672" 
d="M425 700l-33 -188c79 -3 140 -29 183 -80s59 -113 46 -186s-49 -134 -109 -183c-59 -48 -130 -73 -212 -75l-33 -188h-20l33 188c-79 3 -141 29 -184 80s-58 113 -45 186s49 134 108 182c60 49 131 74 213 76l33 188h20zM283 6l86 488c-75 -3 -141 -27 -197 -72
c-55 -45 -89 -103 -101 -172s2 -127 41 -173c40 -45 97 -69 171 -71zM601 250c12 69 -2 127 -42 172c-39 46 -96 70 -170 72l-86 -488c75 3 141 27 196 72c56 46 90 103 102 172z" />
    <glyph glyph-name="uni0445" unicode="&#x445;" horiz-adv-x="500" 
d="M478 500h26l-241 -245l163 -255h-22l-154 241l-238 -241h-26l253 257l-155 243h22l147 -229z" />
    <glyph glyph-name="uni0446" unicode="&#x446;" horiz-adv-x="600" 
d="M524 500l-85 -482h80l-27 -152h-20l24 134h-450l88 500h20l-85 -482h350l85 482h20z" />
    <glyph glyph-name="uni0447" unicode="&#x447;" horiz-adv-x="550" 
d="M436 228l48 272h20l-88 -500h-20l36 205c-65 -23 -124 -35 -177 -35c-125 0 -188 67 -169 170l28 160h20l-28 -160c-16 -91 35 -152 147 -152c52 0 113 13 183 40z" />
    <glyph glyph-name="uni0448" unicode="&#x448;" horiz-adv-x="830" 
d="M679 18l85 482h20l-88 -500h-650l88 500h20l-85 -482h295l85 482h20l-85 -482h295z" />
    <glyph glyph-name="uni0449" unicode="&#x449;" horiz-adv-x="850" 
d="M784 500l-85 -482h70l-27 -152h-20l24 134h-700l88 500h20l-85 -482h295l85 482h20l-85 -482h295l85 482h20z" />
    <glyph glyph-name="uni044A" unicode="&#x44a;" horiz-adv-x="540" 
d="M178 298h169c43 0 79 -14 106 -43c27 -28 37 -64 29 -108c-8 -45 -30 -80 -66 -107c-35 -27 -76 -40 -122 -40h-188l85 482h-150l3 18h170zM343 280h-168l-46 -262h168c41 0 77 12 108 37s50 57 57 95c13 76 -36 130 -119 130z" />
    <glyph glyph-name="uni044B" unicode="&#x44b;" horiz-adv-x="640" 
d="M118 298h169c43 0 79 -14 106 -43c27 -28 37 -64 29 -108c-8 -45 -30 -80 -66 -107c-35 -27 -76 -40 -122 -40h-188l88 500h20zM486 0l88 500h20l-88 -500h-20zM283 280h-168l-46 -262h168c41 0 77 12 108 37s50 57 57 95c13 76 -36 130 -119 130z" />
    <glyph glyph-name="uni044C" unicode="&#x44c;" horiz-adv-x="480" 
d="M118 298h169c43 0 79 -14 106 -43c27 -28 37 -64 29 -108c-8 -45 -30 -80 -66 -107c-35 -27 -76 -40 -122 -40h-188l88 500h20zM283 280h-168l-46 -262h168c41 0 77 12 108 37s50 57 57 95c13 76 -36 130 -119 130z" />
    <glyph glyph-name="uni044D" unicode="&#x44d;" 
d="M315 510c74 0 131 -25 172 -76s55 -113 42 -187c-13 -73 -49 -135 -107 -184s-124 -73 -199 -73c-95 0 -171 49 -196 122l17 10c23 -71 89 -114 182 -114c67 0 128 22 181 66c53 45 87 100 100 167h-276l4 18h275c9 67 -5 122 -42 166c-37 45 -89 67 -156 67
c-91 0 -175 -45 -223 -114l-15 10c52 76 140 122 241 122z" />
    <glyph glyph-name="uni044E" unicode="&#x44e;" horiz-adv-x="810" 
d="M454 -10c-70 0 -126 24 -168 72c-42 49 -58 108 -49 179h-129l-42 -241h-20l88 500h20l-42 -241h128c14 72 50 132 108 179c59 48 124 72 196 72s129 -26 171 -77s57 -114 44 -187s-48 -134 -107 -183s-125 -73 -198 -73zM542 492c-67 0 -128 -23 -183 -70
s-88 -104 -100 -172s1 -125 39 -172c39 -47 91 -70 158 -70s128 23 183 70s88 104 100 172s-1 125 -40 172c-38 47 -90 70 -157 70z" />
    <glyph glyph-name="uni044F" unicode="&#x44f;" horiz-adv-x="500" 
d="M266 500h188l-88 -500h-20l36 202h-152l-196 -202h-28l199 202c-41 2 -75 17 -101 45c-25 28 -34 63 -26 106c8 45 30 80 66 107s77 40 122 40zM217 220h168l46 262h-168c-41 0 -78 -13 -109 -38s-49 -56 -56 -94c-13 -76 36 -130 119 -130z" />
    <glyph glyph-name="uni0451" unicode="&#x451;" horiz-adv-x="597" 
d="M279 580c-11 0 -18 9 -17 20c3 13 11 20 24 20c11 0 19 -9 16 -20c-3 -13 -10 -20 -23 -20zM439 580c-11 0 -18 9 -17 20c3 13 11 20 24 20c11 0 19 -9 16 -20c-3 -13 -10 -20 -23 -20zM347 510c73 0 128 -26 164 -77s48 -113 36 -184l-2 -11h-477c-9 -69 5 -124 40 -167
c36 -42 88 -63 155 -63c91 0 170 39 214 103l15 -10c-48 -69 -133 -111 -232 -111c-75 0 -132 25 -171 74s-52 112 -39 188c13 75 47 136 101 185c55 49 120 73 196 73zM71 256h459c9 71 -3 128 -37 171s-83 65 -148 65c-67 0 -127 -22 -178 -66s-83 -101 -96 -170z" />
    <glyph glyph-name="uni0452" unicode="&#x452;" horiz-adv-x="595" 
d="M373 510c57 0 100 -18 129 -53c30 -35 40 -82 30 -139l-72 -408c-15 -84 -68 -131 -160 -120l3 18c78 -9 124 25 137 102l72 408c17 101 -36 174 -141 174c-57 0 -108 -20 -152 -59c-43 -39 -72 -92 -85 -157l-48 -276h-20l105 595h-80l3 17h80l15 88h20l-15 -88h180
l-3 -17h-180l-40 -224c47 91 131 139 222 139z" />
    <glyph glyph-name="uni0453" unicode="&#x453;" horiz-adv-x="400" 
d="M348 690h22l-103 -120h-19zM134 500h300l-3 -18h-280l-85 -482h-20z" />
    <glyph glyph-name="uni0454" unicode="&#x454;" 
d="M354 492c-67 0 -128 -22 -181 -67c-53 -44 -87 -99 -100 -166h276l-4 -18h-275c-9 -67 4 -122 41 -167c37 -44 90 -66 157 -66c91 0 175 45 223 114l15 -10c-52 -76 -140 -122 -241 -122c-74 0 -132 25 -173 76s-54 113 -41 187c13 73 49 134 107 183s124 74 199 74
c95 0 171 -49 196 -122l-17 -10c-23 71 -89 114 -182 114z" />
    <glyph glyph-name="uni0455" unicode="&#x455;" horiz-adv-x="466" 
d="M203 -10c-91 0 -150 35 -175 105l18 8c21 -63 74 -95 159 -95s154 39 166 107c30 168 -314 90 -280 270c13 79 85 125 180 125c72 0 134 -39 155 -96l-17 -8c-20 52 -76 86 -140 86c-81 0 -146 -39 -158 -111c-9 -59 36 -91 97 -110c90 -25 202 -48 183 -160
c-13 -76 -89 -121 -188 -121z" />
    <glyph glyph-name="uni0456" unicode="&#x456;" horiz-adv-x="200" 
d="M152 674c4 15 13 23 27 23c22 0 25 -25 9 -39c-16 -16 -40 -3 -36 16zM66 0h-20l88 500h20z" />
    <glyph glyph-name="uni0457" unicode="&#x457;" horiz-adv-x="200" 
d="M78 580c-11 0 -18 9 -17 20c3 13 11 20 24 20c11 0 19 -9 16 -20c-3 -13 -10 -20 -23 -20zM238 580c-11 0 -18 9 -17 20c3 13 11 20 24 20c11 0 19 -9 16 -20c-3 -13 -10 -20 -23 -20zM66 0h-20l88 500h20z" />
    <glyph glyph-name="uni0458" unicode="&#x458;" horiz-adv-x="209" 
d="M188 697c22 0 25 -25 9 -39c-16 -16 -40 -3 -36 16c4 15 13 23 27 23zM39 -90l104 590h20l-104 -590c-15 -84 -68 -131 -160 -120l3 18c78 -9 124 25 137 102z" />
    <glyph glyph-name="uni0459" unicode="&#x459;" horiz-adv-x="831" 
d="M485 278h158c42 0 76 -13 101 -38c26 -25 35 -60 27 -104c-16 -88 -89 -136 -177 -136h-178l85 482h-292l-49 -279c-28 -159 -92 -212 -184 -203l3 18c85 -7 137 52 161 185l52 297h332zM640 260h-158l-43 -242h158c79 0 141 47 154 122s-32 120 -111 120z" />
    <glyph glyph-name="uni045A" unicode="&#x45a;" horiz-adv-x="821" 
d="M475 278h158c42 0 76 -13 101 -38c26 -25 35 -60 27 -104c-16 -88 -89 -136 -177 -136h-178l46 260h-340l-46 -260h-20l88 500h20l-39 -222h340l39 222h20zM630 260h-158l-43 -242h158c79 0 141 47 154 122s-32 120 -111 120z" />
    <glyph glyph-name="uni045B" unicode="&#x45b;" horiz-adv-x="595" 
d="M373 510c57 0 100 -18 129 -53c30 -35 40 -82 30 -139l-56 -318h-20l56 318c17 101 -36 174 -141 174c-57 0 -108 -20 -152 -59c-43 -39 -72 -92 -85 -157l-48 -276h-20l105 595h-80l3 17h80l15 88h20l-15 -88h180l-3 -17h-180l-40 -224c47 91 131 139 222 139z" />
    <glyph glyph-name="uni045C" unicode="&#x45c;" horiz-adv-x="461" 
d="M358 690h22l-103 -120h-19zM439 500h31l-337 -242l254 -258h-26l-250 254l-45 -254h-20l88 500h20l-41 -234z" />
    <glyph glyph-name="uni045E" unicode="&#x45e;" horiz-adv-x="510" 
d="M187 617h240l-3 -16h-240zM224 -1l288 501h22l-314 -546c-59 -100 -138 -161 -219 -154l3 18c69 -5 146 50 198 142l9 15l-147 525h19z" />
    <glyph glyph-name="uni045F" unicode="&#x45f;" 
d="M429 18l85 482h20l-88 -500h-190l-24 -134h-20l24 134h-190l88 500h20l-85 -482h360z" />
    <glyph glyph-name="uni0490" unicode="&#x490;" horiz-adv-x="500" 
d="M529 700l22 120h20l-25 -138h-350l-120 -682h-20l123 700h350z" />
    <glyph glyph-name="uni0491" unicode="&#x491;" horiz-adv-x="400" 
d="M414 500l18 104h20l-21 -122h-280l-85 -482h-20l88 500h280z" />
    <glyph glyph-name="Wgrave" unicode="&#x1e80;" horiz-adv-x="980" 
d="M607 770h-16l-64 120h20zM199 0h24l342 676l104 -676h24l326 700h-21l-314 -676l-104 676h-24l-341 -676l-77 676h-19z" />
    <glyph glyph-name="wgrave" unicode="&#x1e81;" horiz-adv-x="770" 
d="M361 690l60 -120h-16l-64 120h20zM514 26l238 474h22l-252 -500h-22l-76 473l-242 -473h-22l-76 500h19l72 -473l242 473h22z" />
    <glyph glyph-name="Wacute" unicode="&#x1e82;" horiz-adv-x="980" 
d="M557 770l100 120h22l-103 -120h-19zM199 0h24l342 676l104 -676h24l326 700h-21l-314 -676l-104 676h-24l-341 -676l-77 676h-19z" />
    <glyph glyph-name="wacute" unicode="&#x1e83;" horiz-adv-x="770" 
d="M471 690h22l-103 -120h-19zM514 26l238 474h22l-252 -500h-22l-76 473l-242 -473h-22l-76 500h19l72 -473l242 473h22z" />
    <glyph glyph-name="Wdieresis" unicode="&#x1e84;" horiz-adv-x="980" 
d="M503 780c-11 0 -18 9 -17 20c3 13 11 20 24 20c11 0 19 -9 16 -20c-3 -13 -10 -20 -23 -20zM663 780c-11 0 -18 9 -17 20c3 13 11 20 24 20c11 0 19 -9 16 -20c-3 -13 -10 -20 -23 -20zM223 0h-24l-80 700h19l77 -676l341 676h24l104 -676l314 676h21l-326 -700h-24
l-104 676z" />
    <glyph glyph-name="wdieresis" unicode="&#x1e85;" horiz-adv-x="770" 
d="M317 580c-11 0 -18 9 -17 20c3 13 11 20 24 20c11 0 19 -9 16 -20c-3 -13 -10 -20 -23 -20zM477 580c-11 0 -18 9 -17 20c3 13 11 20 24 20c11 0 19 -9 16 -20c-3 -13 -10 -20 -23 -20zM514 26l238 474h22l-252 -500h-22l-76 473l-242 -473h-22l-76 500h19l72 -473
l242 473h22z" />
    <glyph glyph-name="Ygrave" unicode="&#x1ef2;" horiz-adv-x="560" 
d="M337 890l60 -120h-16l-64 120h20zM596 700h23l-315 -371l-58 -329h-20l58 330l-185 370h21l176 -354z" />
    <glyph glyph-name="ygrave" unicode="&#x1ef3;" horiz-adv-x="510" 
d="M264 690l60 -120h-16l-64 120h20zM224 -1l288 501h22l-314 -546c-59 -100 -138 -161 -219 -154l3 18c69 -5 146 50 198 142l9 15l-147 525h19z" />
    <glyph glyph-name="endash" unicode="&#x2013;" horiz-adv-x="697" 
d="M606 300h-497l3 18h497z" />
    <glyph glyph-name="emdash" unicode="&#x2014;" horiz-adv-x="797" 
d="M706 300h-597l3 18h597z" />
    <glyph glyph-name="quoteleft" unicode="&#x2018;" horiz-adv-x="190" 
d="M140 525h-27l72 175h19z" />
    <glyph glyph-name="quoteright" unicode="&#x2019;" horiz-adv-x="190" 
d="M177 700h27l-72 -175h-19z" />
    <glyph glyph-name="quotesinglbase" unicode="&#x201a;" horiz-adv-x="190" 
d="M60 35h27l-72 -175h-19z" />
    <glyph glyph-name="quotedblleft" unicode="&#x201c;" horiz-adv-x="290" 
d="M140 525h-27l72 175h19zM240 525h-27l72 175h19z" />
    <glyph glyph-name="quotedblright" unicode="&#x201d;" horiz-adv-x="290" 
d="M177 700h27l-72 -175h-19zM277 700h27l-72 -175h-19z" />
    <glyph glyph-name="quotedblbase" unicode="&#x201e;" horiz-adv-x="290" 
d="M60 35h27l-72 -175h-19zM160 35h27l-72 -175h-19z" />
    <glyph glyph-name="dagger" unicode="&#x2020;" horiz-adv-x="460" 
d="M286 512h150l-3 -18h-150l-87 -494h-20l87 494h-150l3 18h150l33 188h20z" />
    <glyph glyph-name="daggerdbl" unicode="&#x2021;" horiz-adv-x="460" 
d="M436 512l-3 -18h-150l-51 -288h150l-3 -18h-150l-33 -188h-20l33 188h-150l3 18h150l51 288h-150l3 18h150l33 188h20l-33 -188h150z" />
    <glyph glyph-name="bullet" unicode="&#x2022;" horiz-adv-x="241" 
d="M78 353c5 33 36 57 71 57c33 0 56 -28 49 -61c-5 -33 -37 -59 -70 -59s-57 28 -50 63z" />
    <glyph glyph-name="ellipsis" unicode="&#x2026;" horiz-adv-x="560" 
d="M44 -10c-13 0 -23 11 -20 26c3 16 13 24 29 24c13 0 23 -11 20 -26c-3 -16 -13 -24 -29 -24zM234 -10c-13 0 -23 11 -20 26c3 16 13 24 29 24c13 0 23 -11 20 -26c-3 -16 -13 -24 -29 -24zM424 -10c-13 0 -23 11 -20 26c3 16 13 24 29 24c13 0 23 -11 20 -26
c-3 -16 -13 -24 -29 -24z" />
    <glyph glyph-name="perthousand" unicode="&#x2030;" horiz-adv-x="1099" 
d="M253 414c-43 0 -77 15 -102 44s-33 65 -26 106c7 42 28 77 61 104c33 28 72 42 117 42c43 0 77 -15 102 -44s33 -65 26 -106c-7 -42 -28 -77 -61 -105c-33 -27 -72 -41 -117 -41zM255 432c39 0 73 12 102 37s47 56 54 93c13 75 -34 130 -110 130c-38 0 -72 -12 -102 -37
c-29 -25 -47 -56 -54 -93c-13 -75 34 -130 110 -130zM100 70l-18 9l582 551l18 -9zM461 -10c-43 0 -77 15 -102 44s-33 65 -26 106c7 42 28 77 61 104c33 28 72 42 117 42c43 0 77 -15 102 -44s33 -65 26 -106c-7 -42 -28 -77 -61 -105c-33 -27 -72 -41 -117 -41zM831 -10
c-43 0 -77 15 -102 44s-33 65 -26 106c7 42 28 77 61 104c33 28 72 42 117 42c43 0 77 -15 102 -44s33 -65 26 -106c-7 -42 -28 -77 -61 -105c-33 -27 -72 -41 -117 -41zM463 8c39 0 73 12 102 37s47 56 54 93c13 75 -34 130 -110 130c-38 0 -72 -12 -102 -37
c-29 -25 -47 -56 -54 -93c-13 -75 34 -130 110 -130zM833 8c39 0 73 12 102 37s47 56 54 93c13 75 -34 130 -110 130c-38 0 -72 -12 -102 -37c-29 -25 -47 -56 -54 -93c-13 -75 34 -130 110 -130z" />
    <glyph glyph-name="guilsinglleft" unicode="&#x2039;" horiz-adv-x="324" 
d="M239 469h24l-131 -162l71 -158h-21l-72 160z" />
    <glyph glyph-name="guilsinglright" unicode="&#x203a;" horiz-adv-x="325" 
d="M142 469h21l72 -160l-129 -160h-24l131 162z" />
    <glyph glyph-name="fraction" unicode="&#x2044;" horiz-adv-x="240" 
d="M419 700l-540 -700h-23l540 700h23z" />
    <glyph glyph-name="Euro" unicode="&#x20ac;" horiz-adv-x="620" 
d="M454 710c92 0 156 -50 181 -134l-17 -8c-23 80 -81 124 -165 124c-125 0 -227 -97 -278 -264h296l-3 -18h-298c-4 -15 -8 -35 -13 -60c-3 -13 -5 -33 -8 -60h298l-3 -18h-296c-9 -167 59 -264 184 -264c85 0 160 45 209 126l17 -9c-55 -90 -132 -135 -229 -135
c-136 0 -210 109 -201 282h-94l3 18h92c3 28 5 49 8 62c5 24 9 43 13 58h-92l3 18h94c51 176 160 282 299 282z" />
    <glyph glyph-name="uni20BD" unicode="&#x20bd;" horiz-adv-x="550" 
d="M169 700h220c53 0 96 -20 129 -61s45 -88 35 -143c-9 -55 -37 -102 -82 -140c-45 -37 -95 -56 -152 -56h-200l-22 -122h280l-3 -18h-280l-28 -160h-20l28 160h-90l3 18h90l22 122h-90l3 18h90zM386 682h-200l-64 -364h200c50 0 96 18 137 53c41 36 66 79 75 129
s-2 93 -31 128c-29 36 -68 54 -117 54z" />
    <glyph glyph-name="uni2116" unicode="&#x2116;" horiz-adv-x="1026" 
d="M864 430c-39 0 -71 14 -94 42s-31 61 -24 100s27 71 58 98c32 27 69 40 110 40c40 0 71 -14 94 -42s31 -61 24 -100s-26 -72 -57 -99c-31 -26 -68 -39 -111 -39zM76 0h-20l123 700h20l342 -667l118 667h20l-123 -700h-20l-342 667zM868 448c35 0 67 12 94 35s44 52 50 87
c12 69 -32 122 -101 122c-35 0 -66 -12 -94 -35s-45 -52 -51 -87c-12 -69 33 -122 102 -122zM977 314h-266l4 18h266z" />
    <glyph glyph-name="trademark" unicode="&#x2122;" horiz-adv-x="505" 
d="M149 700h142l-3 -19h-62l-32 -181h-20l32 181h-60zM492 700h22l-35 -200h-20l29 164l-94 -118h-4l-52 119l-29 -165h-20l35 200h20l52 -122z" />
    <glyph glyph-name="estimated" unicode="&#x212e;" horiz-adv-x="860" 
d="M511 710c107 0 190 -35 247 -105c58 -69 78 -154 60 -255c-2 -10 -8 -15 -18 -15h-560c-10 0 -16 -5 -18 -15l-33 -192c-2 -7 -1 -14 3 -19c46 -59 119 -89 218 -89c95 0 179 32 250 97c6 6 12 9 19 9h35c13 0 17 -10 6 -19c-87 -78 -192 -117 -316 -117
c-115 0 -203 36 -263 108c-59 72 -80 159 -62 262c18 101 67 185 146 251c80 66 175 99 286 99zM673 380l35 194c1 7 -1 14 -4 19c-45 58 -111 87 -198 87c-86 0 -162 -30 -229 -89c-6 -6 -9 -12 -10 -19l-34 -192c-2 -10 2 -15 12 -15h410c10 0 16 5 18 15z" />
    <glyph glyph-name="oneeighth" unicode="&#x215b;" horiz-adv-x="840" 
d="M153 300l66 374v-1l-126 -43l-3 18l144 52h10l-71 -400h-20zM101 0l540 700h23l-540 -700h-23zM796 301c-8 -44 -37 -75 -87 -92c47 -17 73 -58 64 -110c-13 -69 -72 -111 -155 -111c-80 0 -132 47 -119 115c9 53 48 91 103 107c-40 17 -63 51 -55 95
c12 68 72 107 143 107c68 0 118 -44 106 -111zM657 218c56 0 111 34 119 85c11 56 -29 91 -88 91c-60 0 -110 -34 -121 -91c-8 -51 33 -85 90 -85zM753 101c9 60 -32 99 -99 99c-68 0 -126 -39 -135 -99c-11 -59 30 -95 101 -95c69 0 122 36 133 95z" />
    <glyph glyph-name="threeeighths" unicode="&#x215c;" horiz-adv-x="938" 
d="M327 410c-13 -71 -68 -122 -153 -122c-65 0 -104 25 -118 74l18 9c11 -43 44 -65 101 -65c73 0 122 46 133 106c9 60 -23 106 -96 106h-2l-7 13l134 151h-215l3 18h238l-3 -18l-131 -147c72 -5 109 -60 98 -125zM199 0l540 700h23l-540 -700h-23zM894 301
c-8 -44 -37 -75 -87 -92c47 -17 73 -58 64 -110c-13 -69 -72 -111 -155 -111c-80 0 -132 47 -119 115c9 53 48 91 103 107c-40 17 -63 51 -55 95c12 68 72 107 143 107c68 0 118 -44 106 -111zM755 218c56 0 111 34 119 85c11 56 -29 91 -88 91c-60 0 -110 -34 -121 -91
c-8 -51 33 -85 90 -85zM851 101c9 60 -32 99 -99 99c-68 0 -126 -39 -135 -99c-11 -59 30 -95 101 -95c69 0 122 36 133 95z" />
    <glyph glyph-name="fiveeighths" unicode="&#x215d;" horiz-adv-x="932" 
d="M324 410c-13 -72 -73 -122 -153 -122c-62 0 -101 24 -116 71l17 9c11 -41 44 -62 100 -62c68 0 121 41 133 106c11 65 -28 106 -96 106h-110l47 182h212l-3 -18h-194l-39 -146h90c77 0 124 -54 112 -126zM193 0l540 700h23l-540 -700h-23zM888 301
c-8 -44 -37 -75 -87 -92c47 -17 73 -58 64 -110c-13 -69 -72 -111 -155 -111c-80 0 -132 47 -119 115c9 53 48 91 103 107c-40 17 -63 51 -55 95c12 68 72 107 143 107c68 0 118 -44 106 -111zM749 218c56 0 111 34 119 85c11 56 -29 91 -88 91c-60 0 -110 -34 -121 -91
c-8 -51 33 -85 90 -85zM845 101c9 60 -32 99 -99 99c-68 0 -126 -39 -135 -99c-11 -59 30 -95 101 -95c69 0 122 36 133 95z" />
    <glyph glyph-name="seveneighths" unicode="&#x215e;" horiz-adv-x="931" 
d="M109 700h266l-3 -16l-235 -384h-22l234 382h-243zM192 0l540 700h23l-540 -700h-23zM887 301c-8 -44 -37 -75 -87 -92c47 -17 73 -58 64 -110c-13 -69 -72 -111 -155 -111c-80 0 -132 47 -119 115c9 53 48 91 103 107c-40 17 -63 51 -55 95c12 68 72 107 143 107
c68 0 118 -44 106 -111zM748 218c56 0 111 34 119 85c11 56 -29 91 -88 91c-60 0 -110 -34 -121 -91c-8 -51 33 -85 90 -85zM844 101c9 60 -32 99 -99 99c-68 0 -126 -39 -135 -99c-11 -59 30 -95 101 -95c69 0 122 36 133 95z" />
    <glyph glyph-name="arrowleft" unicode="&#x2190;" horiz-adv-x="840" 
d="M127 359h662l-3 -18h-666l239 -291h-24l-247 300l353 300h28z" />
    <glyph glyph-name="arrowup" unicode="&#x2191;" horiz-adv-x="740" 
d="M449 700l247 -300l-4 -25l-239 290l-117 -665h-20l117 661l-342 -290l5 29z" />
    <glyph glyph-name="arrowright" unicode="&#x2192;" horiz-adv-x="840" 
d="M517 650h24l247 -300l-353 -300h-28l342 291h-663l3 18h667z" />
    <glyph glyph-name="arrowdown" unicode="&#x2193;" horiz-adv-x="740" 
d="M459 700l-116 -661l341 289l-5 -28l-353 -300l-247 300l4 23l239 -290l117 667h20z" />
    <glyph glyph-name="arrowboth" unicode="&#x2194;" horiz-adv-x="1020" 
d="M746 590h24l198 -240l-283 -240h-28l272 231h-809l189 -231h-24l-197 240l282 240h28l-271 -231h809z" />
    <glyph glyph-name="arrowupdn" unicode="&#x2195;" horiz-adv-x="640" 
d="M612 550l-4 -25l-188 228l-146 -806l272 232l-5 -29l-282 -240l-196 240l4 26l187 -229l146 806l-271 -232l5 29l280 240z" />
    <glyph glyph-name="uni2196" unicode="&#x2196;" horiz-adv-x="642" 
d="M554 587l15 -19h-412l388 -469l-16 -13l-386 470l-73 -412l-15 19l75 424h424z" />
    <glyph glyph-name="uni2197" unicode="&#x2197;" horiz-adv-x="642" 
d="M185 568l23 19h423l-75 -424l-23 -19l72 410l-550 -470l-12 15l551 469h-409z" />
    <glyph glyph-name="uni2198" unicode="&#x2198;" horiz-adv-x="642" 
d="M530 120l73 412l15 -19l-74 -424h-424l-16 19h412l-388 470l15 13z" />
    <glyph glyph-name="uni2199" unicode="&#x2199;" horiz-adv-x="642" 
d="M616 590l13 -15l-551 -467h410l-22 -19h-424l74 424l23 19l-72 -410z" />
    <glyph glyph-name="partialdiff" unicode="&#x2202;" 
d="M317 710c77 0 136 -34 177 -101s52 -155 33 -263c-21 -114 -59 -202 -116 -264c-56 -61 -121 -92 -195 -92c-60 0 -105 20 -135 61s-40 91 -29 151c12 69 42 124 89 165c47 42 105 63 173 63c78 0 143 -21 196 -62c14 94 3 171 -33 232c-35 61 -90 92 -163 92
c-47 0 -89 -11 -126 -34l4 22c37 20 79 30 125 30zM218 8c69 0 130 30 182 91s88 143 107 248c-55 43 -120 65 -195 65c-61 0 -114 -19 -158 -58c-44 -38 -72 -89 -83 -154c-10 -57 -1 -103 26 -139c27 -35 68 -53 121 -53z" />
    <glyph glyph-name="emptyset" unicode="&#x2205;" horiz-adv-x="844" 
d="M798 720h26l-100 -100c67 -67 96 -166 77 -273c-18 -100 -68 -185 -149 -254s-173 -103 -274 -103c-83 0 -153 26 -210 77l-87 -87h-26l100 99c-67 68 -97 167 -77 274c17 100 67 184 148 253c82 69 174 104 275 104c82 0 152 -26 210 -77zM98 350
c-18 -104 5 -190 70 -257l529 527c-52 48 -118 72 -197 72c-95 0 -181 -33 -260 -100c-78 -67 -125 -147 -142 -242zM781 350c17 101 -10 193 -70 257l-530 -527c53 -48 119 -72 198 -72c95 0 181 33 259 100c79 67 126 147 143 242z" />
    <glyph glyph-name="product" unicode="&#x220f;" horiz-adv-x="640" 
d="M41 -200h-20l158 900h440l-158 -900h-20l155 882h-400z" />
    <glyph glyph-name="summation" unicode="&#x2211;" horiz-adv-x="542" 
d="M423 -200h-432l3 20l357 443l-192 423l3 14h404l-3 -18h-384l193 -423l-356 -441h410z" />
    <glyph glyph-name="minus" unicode="&#x2212;" horiz-adv-x="540" 
d="M486 341h-400l3 18h400z" />
    <glyph glyph-name="radical" unicode="&#x221a;" horiz-adv-x="629" 
d="M292 0h-22l-118 282h-76l3 18h84l118 -280l393 780h22z" />
    <glyph glyph-name="infinity" unicode="&#x221e;" horiz-adv-x="819" 
d="M645 500c41 0 74 -14 97 -43c24 -28 32 -64 24 -109c-16 -89 -86 -148 -170 -148c-43 0 -79 16 -108 47c-28 32 -39 49 -62 88c-19 -21 -34 -36 -45 -47s-26 -24 -46 -41c-40 -32 -81 -47 -126 -47c-84 0 -137 63 -121 152s86 148 170 148c35 0 69 -15 90 -31
c11 -7 22 -18 33 -33c24 -28 30 -40 49 -71l34 37c7 7 19 19 36 34s32 27 44 34c25 15 65 30 101 30zM210 218c40 0 78 14 117 46l45 39l45 48c-23 40 -32 54 -59 85c-27 32 -60 46 -101 46c-75 0 -134 -53 -149 -132c-13 -77 27 -132 102 -132zM644 482
c-40 0 -77 -14 -116 -47c-19 -16 -34 -29 -45 -40c-10 -10 -25 -25 -44 -46c21 -39 31 -55 58 -86s60 -45 100 -45c75 0 134 53 149 132s-27 132 -102 132z" />
    <glyph glyph-name="integral" unicode="&#x222b;" horiz-adv-x="431" 
d="M-80 -204l4 20c63 -31 126 8 157 96l237 680c35 100 108 140 193 111l-3 -19c-75 29 -139 -7 -170 -96l-237 -680c-33 -97 -108 -140 -181 -112z" />
    <glyph glyph-name="approxequal" unicode="&#x2248;" horiz-adv-x="572" 
d="M313 422c-47 37 -91 46 -119 37c-14 -4 -27 -12 -40 -23c-24 -23 -34 -39 -43 -60l-17 8c9 21 20 43 48 68c38 35 97 54 180 -14c47 -37 91 -47 119 -38c47 16 71 59 83 84l18 -8c-9 -21 -20 -43 -48 -68c-37 -37 -98 -49 -181 14zM83 216l-18 8c18 40 91 166 229 54
c47 -37 91 -47 119 -38c47 16 71 59 83 84l18 -8c-9 -21 -20 -41 -48 -68c-39 -35 -96 -52 -181 14c-47 37 -92 46 -120 37c-46 -16 -72 -58 -82 -83z" />
    <glyph glyph-name="notequal" unicode="&#x2260;" horiz-adv-x="530" 
d="M497 459l-3 -18h-137l-116 -182h221l-4 -18h-229l-106 -166h-22l106 166h-139l4 18h147l116 182h-231l3 18h240l106 166h22l-106 -166h128z" />
    <glyph glyph-name="lessequal" unicode="&#x2264;" horiz-adv-x="540" 
d="M100 417l427 163l-3 -21l-404 -152l350 -152l-3 -19l-371 163zM446 120h-399l3 18h399z" />
    <glyph glyph-name="greaterequal" unicode="&#x2265;" horiz-adv-x="540" 
d="M125 561l3 19l371 -163l-4 -18l-427 -163l3 21l404 152zM446 120h-399l3 18h399z" />
    <glyph glyph-name="lozenge" unicode="&#x25ca;" horiz-adv-x="534" 
d="M233 0h-20l-125 350l248 350h20l126 -350zM110 347l115 -324l235 330l-116 324z" />
    <glyph glyph-name="i.loclTRK" horiz-adv-x="200" 
d="M181 588c-13 -11 -34 -11 -43 0c-9 12 -6 32 7 43c13 12 34 12 43 0c9 -11 6 -31 -7 -43zM66 0h-20l88 500h20z" />
    <glyph glyph-name="f_f_j" horiz-adv-x="768" 
d="M648 702c-111 0 -167 -49 -186 -152l-9 -50h269l-104 -590c-15 -83 -71 -129 -160 -120l3 18c78 -9 124 25 137 102l101 572h-249l-85 -482h-20l85 482h-249l-85 -482h-20l85 482h-90l3 18h90l7 40c20 117 90 179 209 170l-3 -18c-104 9 -166 -42 -186 -152l-7 -40h249
l9 50c19 113 88 170 209 170c34 0 67 -3 98 -10l-3 -18c-31 7 -64 10 -98 10z" />
    <glyph glyph-name="f_j" horiz-adv-x="499" 
d="M377 692c-111 0 -167 -49 -186 -152l-7 -40h269l-104 -590c-15 -83 -71 -129 -160 -120l3 18c78 -9 124 25 137 102l101 572h-249l-85 -482h-20l85 482h-90l3 18h90l7 40c20 115 86 170 209 170c34 0 67 -3 98 -10l-3 -18c-31 7 -64 10 -98 10z" />
    <glyph glyph-name="uni0414.loclBGR" horiz-adv-x="710" 
d="M577 18h62l-3 -18l-24 -134h-20l24 134h-610l-24 -134h-20l27 152h63l370 682h25zM432 679l-358 -661h483z" />
    <glyph glyph-name="uni041B.loclBGR" horiz-adv-x="598" 
d="M-2 0h-22l390 700h25l143 -700h-20l-138 678z" />
    <glyph glyph-name="uni0424.loclBGR" horiz-adv-x="865" 
d="M539 800l-16 -90c104 -3 184 -38 241 -105s77 -153 58 -259c-19 -107 -67 -193 -146 -257c-78 -64 -171 -97 -280 -99l-16 -90h-20l16 90c-104 3 -184 37 -241 104s-76 153 -57 260s67 192 145 256c79 65 172 98 280 100l16 90h20zM98 350c-17 -99 -1 -180 50 -244
c51 -63 128 -96 231 -98l121 684c-106 -2 -195 -35 -268 -98c-72 -63 -117 -145 -134 -244zM802 350c17 99 0 180 -51 243c-51 64 -128 97 -231 99l-121 -684c106 2 195 35 268 98s118 145 135 244z" />
    <glyph glyph-name="uni0414.ss01" horiz-adv-x="690" 
d="M234 700h420l-120 -682h70l-3 -18h-620l3 18h53c60 53 101 138 122 254zM251 682l-72 -410c-20 -114 -58 -199 -115 -254h450l117 664h-380z" />
    <glyph glyph-name="uni0426.ss01" horiz-adv-x="690" 
d="M659 700l-120 -682h70l-3 -18h-550l123 700h20l-120 -682h440l120 682h20z" />
    <glyph glyph-name="uni0429.ss01" horiz-adv-x="980" 
d="M949 700l-120 -682h70l-3 -18h-840l123 700h20l-120 -682h355l120 682h20l-120 -682h355l120 682h20z" />
    <glyph glyph-name="uni0414.loclBGR.ss01" horiz-adv-x="710" 
d="M447 700l130 -682h62l-3 -18h-650l3 18h63l370 682h25zM432 679l-358 -661h483z" />
    <glyph glyph-name="uni0432.loclBGR" horiz-adv-x="581" 
d="M388 401c103 -17 153 -98 133 -207c-23 -132 -113 -204 -253 -204c-136 0 -208 91 -181 240l45 256c25 145 105 224 234 224c50 0 89 -16 117 -47s39 -66 32 -107c-11 -59 -56 -118 -127 -155zM363 692c-113 0 -188 -73 -211 -206l-20 -113l143 26c30 5 58 7 84 6
c77 37 125 97 136 154c6 35 -3 66 -28 93c-24 27 -59 40 -104 40zM501 198c12 68 -2 119 -43 154s-103 44 -186 29l-143 -26l-22 -125c-25 -140 37 -222 164 -222c124 0 209 70 230 190z" />
    <glyph glyph-name="uni0433.loclBGR" horiz-adv-x="465" 
d="M185 -10c-51 0 -91 13 -120 40c-28 27 -38 61 -31 100c12 68 68 105 132 118c95 21 212 30 227 122c12 71 -40 122 -120 122c-76 0 -131 -31 -166 -93l-16 10c35 61 100 101 185 101c45 0 81 -14 107 -41c27 -27 37 -60 30 -99c-11 -65 -67 -102 -132 -115
c-94 -20 -210 -31 -227 -125c-13 -71 43 -122 134 -122c89 0 151 34 185 101l16 -9c-38 -73 -106 -110 -204 -110z" />
    <glyph glyph-name="uni0434.loclBGR" horiz-adv-x="672" 
d="M576 328l30 172h20l-83 -469c-27 -149 -131 -241 -287 -241c-115 0 -193 50 -214 118l17 9c19 -61 91 -109 198 -109c141 0 241 83 266 223l19 109c-51 -92 -147 -150 -252 -150c-75 0 -135 27 -180 80c-44 54 -60 118 -48 193c11 71 45 129 100 176c56 47 119 71 190 71
c59 0 108 -17 148 -51c41 -34 66 -78 76 -131zM291 8c65 0 122 21 173 64s82 96 95 161l1 8c11 69 -3 128 -44 177s-96 74 -165 74c-65 0 -124 -22 -176 -66c-51 -44 -82 -99 -93 -166c-11 -69 3 -129 44 -178s96 -74 165 -74z" />
    <glyph glyph-name="uni0436.loclBGR" horiz-adv-x="640" 
d="M14 0h-28l309 262l-207 238h23l204 -233l76 433h20l-76 -434l285 234h28l-296 -242l214 -258h-23l-210 253l-45 -253h-20l44 253z" />
    <glyph glyph-name="uni0438.loclBGR" horiz-adv-x="575" 
d="M460 222l49 278h20l-88 -500h-20l23 128c-47 -89 -131 -138 -222 -138c-57 0 -100 18 -130 53c-29 35 -39 82 -29 139l56 318h20l-56 -318c-17 -101 36 -174 141 -174c57 0 107 19 150 58c44 39 73 91 86 156z" />
    <glyph glyph-name="uni0439.loclBGR" horiz-adv-x="575" 
d="M227 617h240l-3 -16h-240zM460 222l49 278h20l-88 -500h-20l23 128c-47 -89 -131 -138 -222 -138c-57 0 -100 18 -130 53c-29 35 -39 82 -29 139l56 318h20l-56 -318c-17 -101 36 -174 141 -174c57 0 107 19 150 58c44 39 73 91 86 156z" />
    <glyph glyph-name="uni043A.loclBGR" horiz-adv-x="461" 
d="M439 500h31l-337 -242l254 -258h-26l-250 254l-45 -254h-20l123 700h20l-76 -435z" />
    <glyph glyph-name="uni043B.loclBGR" horiz-adv-x="492" 
d="M301 500l127 -500h-19l-121 478l-290 -478h-22l303 500h22z" />
    <glyph glyph-name="uni043F.loclBGR" horiz-adv-x="575" 
d="M353 510c57 0 100 -18 129 -53c30 -35 40 -82 30 -139l-56 -318h-20l56 318c17 101 -36 174 -141 174c-57 0 -107 -20 -151 -59c-43 -39 -72 -90 -85 -155l-49 -278h-20l88 500h20l-23 -128c47 89 131 138 222 138z" />
    <glyph glyph-name="uni0442.loclBGR" horiz-adv-x="875" 
d="M674 510c49 0 87 -16 114 -47s36 -77 25 -136l-57 -327h-20l57 327c19 105 -31 165 -122 165c-101 0 -184 -73 -209 -200l-51 -292h-20l57 327c19 105 -29 165 -120 165c-101 0 -185 -74 -210 -198l-52 -294h-20l88 500h20l-20 -114c43 83 119 124 196 124
c81 0 139 -45 142 -132c43 88 121 132 202 132z" />
    <glyph glyph-name="uni0446.loclBGR" horiz-adv-x="595" 
d="M529 500l-76 -430c-6 -35 8 -52 41 -52h20l-28 -162h-20l25 144c-40 0 -65 29 -58 70l10 57c-45 -88 -130 -137 -221 -137c-57 0 -100 18 -130 53c-29 35 -39 82 -29 139l56 318h20l-56 -318c-17 -101 36 -174 141 -174c56 0 105 19 148 56c43 38 72 89 87 152l50 284h20
z" />
    <glyph glyph-name="uni0448.loclBGR" horiz-adv-x="875" 
d="M757 206l52 294h20l-88 -500h-20l20 114c-43 -83 -119 -124 -196 -124c-81 0 -139 45 -142 132c-43 -88 -121 -132 -202 -132c-49 0 -87 16 -114 47s-36 77 -25 136l57 327h20l-57 -327c-19 -105 31 -165 122 -165c101 0 184 73 209 200l51 292h20l-57 -327
c-19 -105 29 -165 120 -165c101 0 185 74 210 198z" />
    <glyph glyph-name="uni0449.loclBGR" horiz-adv-x="895" 
d="M829 500l-76 -430c-6 -35 8 -52 41 -52h20l-27 -152h-20l24 134c-40 0 -65 29 -58 70l7 38c-44 -80 -119 -118 -195 -118c-81 0 -139 45 -142 132c-43 -88 -121 -132 -202 -132c-49 0 -87 16 -114 47s-36 77 -25 136l57 327h20l-57 -327c-19 -105 31 -165 122 -165
c101 0 184 73 209 200l51 292h20l-57 -327c-19 -105 29 -165 120 -165c101 0 183 71 210 196l52 296h20z" />
    <glyph glyph-name="uni044C.loclBGR" horiz-adv-x="485" 
d="M107 320h165c54 0 96 -16 125 -48s40 -72 31 -121c-17 -97 -97 -161 -206 -161c-121 0 -180 69 -163 170l60 340h20zM408 155c15 85 -40 147 -139 147h-165l-25 -142c-16 -92 34 -152 143 -152c49 0 90 14 124 41s55 63 62 106z" />
    <glyph glyph-name="uni044A.loclBGR" horiz-adv-x="570" 
d="M192 320h165c54 0 96 -16 125 -48s40 -72 31 -121c-17 -97 -97 -161 -206 -161c-121 0 -180 69 -163 170l57 322h-160l3 18h180zM493 155c15 85 -40 147 -139 147h-165l-25 -142c-16 -92 34 -152 143 -152c49 0 90 14 124 41s55 63 62 106z" />
    <glyph glyph-name="uni044E.loclBGR" horiz-adv-x="810" 
d="M454 -10c-70 0 -126 24 -168 72c-42 49 -58 108 -49 179h-129l-42 -241h-20l123 700h20l-77 -441h128c14 72 50 132 108 179c59 48 124 72 196 72s129 -26 171 -77s57 -114 44 -187s-48 -134 -107 -183s-125 -73 -198 -73zM542 492c-67 0 -128 -23 -183 -70
s-88 -104 -100 -172s1 -125 39 -172c39 -47 91 -70 158 -70s128 23 183 70s88 104 100 172s-1 125 -40 172c-38 47 -90 70 -157 70z" />
    <glyph glyph-name="zero.sinf" horiz-adv-x="410" 
d="M133 -172c-50 0 -87 20 -111 59s-30 91 -19 154c23 128 99 211 200 211c50 0 87 -20 111 -59s30 -91 19 -154c-23 -128 -99 -211 -200 -211zM37 -101c20 -35 52 -53 97 -53s83 18 115 53s53 82 64 141s6 106 -14 141s-52 53 -97 53s-83 -18 -115 -53s-53 -82 -64 -141
s-6 -106 14 -141z" />
    <glyph glyph-name="one.sinf" horiz-adv-x="235" 
d="M9 188l144 52h10l-71 -400h-20l66 374v-1l-126 -43z" />
    <glyph glyph-name="two.sinf" horiz-adv-x="346" 
d="M234 -160h-266l2 15l221 181c40 33 63 67 68 103c8 52 -27 95 -88 95c-53 0 -103 -32 -123 -75l-17 9c24 49 78 84 141 84c75 0 114 -50 106 -114c-5 -40 -30 -78 -73 -114l-202 -166h234z" />
    <glyph glyph-name="three.sinf" horiz-adv-x="338" 
d="M43 240h238l-3 -18l-131 -147c72 -5 109 -60 98 -125c-13 -71 -68 -122 -153 -122c-65 0 -104 25 -118 74l18 9c11 -43 44 -65 101 -65c73 0 122 46 133 106c9 60 -23 106 -96 106h-2l-7 13l134 151h-215z" />
    <glyph glyph-name="four.sinf" horiz-adv-x="359" 
d="M214 -52h62l-3 -18h-62l-16 -90h-20l16 90h-227l3 18l205 292h21l-204 -292h205l21 121h20z" />
    <glyph glyph-name="five.sinf" horiz-adv-x="320" 
d="M276 240l-3 -18h-194l-39 -146h90c77 0 124 -54 112 -126c-13 -72 -73 -122 -153 -122c-62 0 -101 24 -116 71l17 9c11 -41 44 -62 100 -62c68 0 121 41 133 106c11 65 -28 106 -96 106h-110l47 182h212z" />
    <glyph glyph-name="six.sinf" horiz-adv-x="335" 
d="M138 87c38 0 68 -13 91 -38s31 -56 24 -93c-13 -76 -81 -128 -158 -128c-39 0 -69 13 -92 38s-31 56 -24 94c5 26 15 49 32 70l175 210h24l-139 -167c22 9 44 14 67 14zM234 -42c11 65 -32 111 -99 111s-126 -46 -137 -111c-12 -67 31 -112 98 -112c68 0 126 45 138 112z
" />
    <glyph glyph-name="seven.sinf" horiz-adv-x="336" 
d="M25 222l3 18h266l-3 -16l-235 -384h-22l234 382h-243z" />
    <glyph glyph-name="eight.sinf" horiz-adv-x="355" 
d="M283 141c-8 -44 -37 -75 -87 -92c47 -17 73 -58 64 -110c-13 -69 -72 -111 -155 -111c-80 0 -132 47 -119 115c9 53 48 91 103 107c-40 17 -63 51 -55 95c12 68 72 107 143 107c68 0 118 -44 106 -111zM144 58c56 0 111 34 119 85c11 56 -29 91 -88 91
c-60 0 -110 -34 -121 -91c-8 -51 33 -85 90 -85zM240 -59c9 60 -32 99 -99 99c-68 0 -126 -39 -135 -99c-11 -59 30 -95 101 -95c69 0 122 36 133 95z" />
    <glyph glyph-name="nine.sinf" horiz-adv-x="335" 
d="M282 120c-5 -26 -15 -49 -32 -70l-175 -210h-24l139 167c-22 -9 -44 -14 -67 -14c-38 0 -68 12 -91 37s-31 57 -24 94c13 76 81 128 158 128c39 0 69 -13 92 -38s31 -56 24 -94zM263 122c12 67 -31 112 -98 112c-68 0 -126 -45 -138 -112c-11 -65 32 -111 99 -111
s126 46 137 111z" />
    <glyph glyph-name="zero.tf" horiz-adv-x="570" 
d="M444 87c-56 -65 -124 -97 -203 -97s-136 33 -171 99c-34 66 -41 154 -22 263s57 196 113 261s124 97 203 97s136 -33 170 -99c35 -66 42 -154 23 -263s-57 -196 -113 -261zM87 99c31 -61 83 -91 155 -91s134 30 187 91s89 145 108 251s12 189 -19 250s-83 92 -155 92
s-135 -31 -188 -92s-88 -144 -107 -250s-12 -190 19 -251z" />
    <glyph glyph-name="one.tf" horiz-adv-x="570" 
d="M399 700l-119 -680h224l-4 -20h-499l4 20h255l115 658l-180 -57l-3 17l192 62h15z" />
    <glyph glyph-name="two.tf" horiz-adv-x="570" 
d="M486 0h-470l3 18l343 264c103 80 161 153 172 218c20 115 -46 192 -171 192c-91 0 -171 -49 -216 -125l-17 10c51 81 140 133 236 133c65 0 116 -19 151 -57c36 -38 48 -89 37 -153c-13 -71 -72 -148 -179 -231l-327 -251h441z" />
    <glyph glyph-name="three.tf" horiz-adv-x="570" 
d="M142 700h420l-3 -18l-239 -272c67 -3 119 -24 155 -63c37 -39 50 -88 39 -149c-11 -63 -42 -114 -93 -152c-51 -37 -113 -56 -187 -56c-108 0 -184 46 -208 123l19 10c19 -71 86 -115 190 -115c71 0 129 18 175 54s74 82 84 138c20 112 -50 192 -191 192h-6l-6 12
l244 278h-396z" />
    <glyph glyph-name="four.tf" horiz-adv-x="570" 
d="M427 178h90l-3 -18h-90l-28 -160h-20l28 160h-390l3 18l368 522h23l-367 -522h366l41 232h20z" />
    <glyph glyph-name="five.tf" horiz-adv-x="570" 
d="M574 700l-3 -18h-367l-66 -272h175c69 0 123 -20 161 -60c39 -39 53 -90 42 -153s-41 -113 -92 -151c-50 -37 -111 -56 -183 -56c-108 0 -185 47 -205 126l18 9c17 -71 85 -117 188 -117c68 0 125 18 170 54c46 36 74 82 84 138c20 112 -50 192 -186 192h-196l75 308h385
z" />
    <glyph glyph-name="six.tf" horiz-adv-x="570" 
d="M318 450c72 0 127 -22 166 -66c39 -43 52 -99 40 -167s-44 -123 -96 -165c-52 -41 -115 -62 -188 -62c-72 0 -127 22 -166 65c-38 44 -51 100 -39 168c10 57 34 105 73 145l309 332h24l-258 -279c41 19 86 29 135 29zM417 68c47 40 76 91 87 152s0 112 -33 152
s-84 60 -154 60s-129 -20 -176 -60s-75 -91 -86 -152s0 -112 33 -152s84 -60 154 -60s128 20 175 60z" />
    <glyph glyph-name="seven.tf" horiz-adv-x="570" 
d="M116 682l3 18h470l-3 -18l-435 -682h-22l436 682h-449z" />
    <glyph glyph-name="eight.tf" horiz-adv-x="570" 
d="M553 529c-15 -83 -78 -144 -169 -167c96 -23 144 -91 128 -184c-21 -117 -122 -188 -271 -188c-147 0 -229 76 -208 192c16 93 88 159 193 180c-81 25 -124 88 -109 171c9 53 36 96 81 128c45 33 100 49 166 49c65 0 115 -17 150 -51c35 -33 48 -77 39 -130zM533 531
c16 92 -45 161 -170 161c-63 0 -114 -15 -154 -46s-64 -69 -72 -115c-17 -92 44 -161 169 -161s210 69 227 161zM492 180c17 103 -48 172 -189 172s-233 -69 -250 -172c-19 -101 49 -172 189 -172c141 0 231 69 250 172z" />
    <glyph glyph-name="nine.tf" horiz-adv-x="570" 
d="M365 710c72 0 127 -22 165 -66c39 -43 52 -99 40 -167c-10 -57 -34 -105 -73 -145l-309 -332h-24l258 279c-41 -19 -86 -29 -135 -29c-72 0 -127 22 -166 65c-39 44 -52 100 -40 168s44 123 96 164c52 42 115 63 188 63zM463 328c47 40 76 91 87 152s0 112 -33 152
s-84 60 -154 60s-129 -20 -176 -60s-75 -91 -86 -152s0 -112 33 -152s84 -60 154 -60s128 20 175 60z" />
    <glyph glyph-name="zero.dnom" horiz-adv-x="410" 
d="M161 -12c-50 0 -87 20 -111 59s-30 91 -19 154c23 128 99 211 200 211c50 0 87 -20 111 -59s30 -91 19 -154c-23 -128 -99 -211 -200 -211zM65 58c20 -35 52 -52 97 -52s83 17 115 52s53 83 64 142s6 106 -14 141s-52 53 -97 53s-83 -18 -115 -53s-53 -82 -64 -141
s-6 -107 14 -142z" />
    <glyph glyph-name="one.dnom" horiz-adv-x="245" 
d="M37 348l144 52h10l-71 -400h-20l66 374v-1l-126 -43z" />
    <glyph glyph-name="two.dnom" horiz-adv-x="347" 
d="M263 0h-266l2 15l221 181c40 33 63 67 68 103c8 52 -27 95 -88 95c-53 0 -103 -32 -123 -75l-17 9c24 49 78 84 141 84c75 0 114 -50 106 -114c-5 -40 -30 -78 -73 -114l-202 -166h234z" />
    <glyph glyph-name="three.dnom" horiz-adv-x="343" 
d="M72 400h238l-3 -18l-131 -147c72 -5 109 -60 98 -125c-13 -71 -68 -122 -153 -122c-65 0 -104 25 -118 74l18 9c11 -43 44 -65 101 -65c73 0 122 46 133 106c9 60 -23 106 -96 106h-2l-7 13l134 151h-215z" />
    <glyph glyph-name="four.dnom" horiz-adv-x="359" 
d="M242 108h62l-3 -18h-62l-16 -90h-20l16 90h-227l3 18l205 292h21l-204 -292h205l21 121h20z" />
    <glyph glyph-name="five.dnom" horiz-adv-x="337" 
d="M305 400l-3 -18h-194l-39 -146h90c77 0 124 -54 112 -126c-13 -72 -73 -122 -153 -122c-62 0 -101 24 -116 71l17 9c11 -41 44 -62 100 -62c68 0 121 41 133 106c11 65 -28 106 -96 106h-110l47 182h212z" />
    <glyph glyph-name="six.dnom" horiz-adv-x="335" 
d="M166 247c38 0 68 -13 91 -38s31 -56 24 -93c-13 -76 -81 -128 -158 -128c-39 0 -69 12 -92 37s-31 57 -24 95c5 26 15 49 32 70l175 210h24l-139 -167c22 9 44 14 67 14zM262 118c11 65 -32 111 -99 111s-126 -46 -137 -111c-12 -67 31 -112 98 -112c68 0 126 45 138 112
z" />
    <glyph glyph-name="seven.dnom" horiz-adv-x="336" 
d="M53 382l3 18h266l-3 -16l-235 -384h-22l234 382h-243z" />
    <glyph glyph-name="eight.dnom" horiz-adv-x="355" 
d="M311 301c-8 -44 -37 -75 -87 -92c47 -17 73 -58 64 -110c-13 -69 -72 -111 -155 -111c-80 0 -132 47 -119 115c9 53 48 91 103 107c-40 17 -63 51 -55 95c12 68 72 107 143 107c68 0 118 -44 106 -111zM172 218c56 0 111 34 119 85c11 56 -29 91 -88 91
c-60 0 -110 -34 -121 -91c-8 -51 33 -85 90 -85zM268 101c9 60 -32 99 -99 99c-68 0 -126 -39 -135 -99c-11 -59 30 -95 101 -95c69 0 122 36 133 95z" />
    <glyph glyph-name="nine.dnom" horiz-adv-x="335" 
d="M310 280c-5 -26 -15 -49 -32 -70l-175 -210h-24l139 167c-22 -9 -44 -14 -67 -14c-38 0 -68 12 -91 37s-31 57 -24 94c13 76 81 128 158 128c39 0 69 -13 92 -38s31 -56 24 -94zM291 282c12 67 -31 112 -98 112c-68 0 -126 -45 -138 -112c-11 -65 32 -111 99 -111
s126 46 137 111z" />
    <glyph glyph-name="zero.numr" horiz-adv-x="410" 
d="M214 288c-50 0 -87 20 -111 59s-30 91 -19 154c23 128 99 211 200 211c50 0 87 -20 111 -59s30 -91 19 -154c-23 -128 -99 -211 -200 -211zM118 358c20 -35 52 -52 97 -52s83 17 115 52s53 83 64 142s6 106 -14 141s-52 53 -97 53s-83 -18 -115 -53s-53 -82 -64 -141
s-6 -107 14 -142z" />
    <glyph glyph-name="one.numr" horiz-adv-x="245" 
d="M90 648l144 52h10l-71 -400h-20l66 374v-1l-126 -43z" />
    <glyph glyph-name="two.numr" horiz-adv-x="346" 
d="M315 300h-266l2 15l221 181c40 33 63 67 68 103c8 52 -27 95 -88 95c-53 0 -103 -32 -123 -75l-17 9c24 49 78 84 141 84c75 0 114 -50 106 -114c-5 -40 -30 -78 -73 -114l-202 -166h234z" />
    <glyph glyph-name="three.numr" horiz-adv-x="343" 
d="M125 700h238l-3 -18l-131 -147c72 -5 109 -60 98 -125c-13 -71 -68 -122 -153 -122c-65 0 -104 25 -118 74l18 9c11 -43 44 -65 101 -65c73 0 122 46 133 106c9 60 -23 106 -96 106h-2l-7 13l134 151h-215z" />
    <glyph glyph-name="four.numr" horiz-adv-x="359" 
d="M295 408h62l-3 -18h-62l-16 -90h-20l16 90h-227l3 18l205 292h21l-204 -292h205l21 121h20z" />
    <glyph glyph-name="five.numr" horiz-adv-x="337" 
d="M358 700l-3 -18h-194l-39 -146h90c77 0 124 -54 112 -126c-13 -72 -73 -122 -153 -122c-62 0 -101 24 -116 71l17 9c11 -41 44 -62 100 -62c68 0 121 41 133 106c11 65 -28 106 -96 106h-110l47 182h212z" />
    <glyph glyph-name="six.numr" horiz-adv-x="335" 
d="M219 547c38 0 68 -13 91 -38s31 -56 24 -93c-13 -76 -81 -128 -158 -128c-39 0 -69 12 -92 37s-31 57 -24 95c5 26 15 49 32 70l175 210h24l-139 -167c22 9 44 14 67 14zM315 418c11 65 -32 111 -99 111s-126 -46 -137 -111c-12 -67 31 -112 98 -112c68 0 126 45 138 112
z" />
    <glyph glyph-name="seven.numr" horiz-adv-x="336" 
d="M106 682l3 18h266l-3 -16l-235 -384h-22l234 382h-243z" />
    <glyph glyph-name="eight.numr" horiz-adv-x="355" 
d="M364 601c-8 -44 -37 -75 -87 -92c47 -17 73 -58 64 -110c-13 -69 -72 -111 -155 -111c-80 0 -132 47 -119 115c9 53 48 91 103 107c-40 17 -63 51 -55 95c12 68 72 107 143 107c68 0 118 -44 106 -111zM225 518c56 0 111 34 119 85c11 56 -29 91 -88 91
c-60 0 -110 -34 -121 -91c-8 -51 33 -85 90 -85zM321 401c9 60 -32 99 -99 99c-68 0 -126 -39 -135 -99c-11 -59 30 -95 101 -95c69 0 122 36 133 95z" />
    <glyph glyph-name="nine.numr" horiz-adv-x="335" 
d="M363 580c-5 -26 -15 -49 -32 -70l-175 -210h-24l139 167c-22 -9 -44 -14 -67 -14c-38 0 -68 12 -91 37s-31 57 -24 94c13 76 81 128 158 128c39 0 69 -13 92 -38s31 -56 24 -94zM344 582c12 67 -31 112 -98 112c-68 0 -126 -45 -138 -112c-11 -65 32 -111 99 -111
s126 46 137 111z" />
    <glyph glyph-name="zero.sups" horiz-adv-x="410" 
d="M242 448c-50 0 -87 20 -111 59s-30 91 -19 154c23 128 99 211 200 211c50 0 87 -20 111 -59s30 -91 19 -154c-23 -128 -99 -211 -200 -211zM146 518c20 -35 52 -52 97 -52s83 17 115 52s53 83 64 142s6 106 -14 141s-52 53 -97 53s-83 -18 -115 -53s-53 -82 -64 -141
s-6 -107 14 -142z" />
    <glyph glyph-name="one.sups" horiz-adv-x="245" 
d="M118 808l144 52h10l-71 -400h-20l66 374v-1l-126 -43z" />
    <glyph glyph-name="two.sups" horiz-adv-x="347" 
d="M344 460h-266l2 15l221 181c40 33 63 67 68 103c8 52 -27 95 -88 95c-53 0 -103 -32 -123 -75l-17 9c24 49 78 84 141 84c75 0 114 -50 106 -114c-5 -40 -30 -78 -73 -114l-202 -166h234z" />
    <glyph glyph-name="three.sups" horiz-adv-x="343" 
d="M153 860h238l-3 -18l-131 -147c72 -5 109 -60 98 -125c-13 -71 -68 -122 -153 -122c-65 0 -104 25 -118 74l18 9c11 -43 44 -65 101 -65c73 0 122 46 133 106c9 60 -23 106 -96 106h-2l-7 13l134 151h-215z" />
    <glyph glyph-name="four.sups" horiz-adv-x="359" 
d="M323 568h62l-3 -18h-62l-16 -90h-20l16 90h-227l3 18l205 292h21l-204 -292h205l21 121h20z" />
    <glyph glyph-name="five.sups" horiz-adv-x="337" 
d="M386 860l-3 -18h-194l-39 -146h90c77 0 124 -54 112 -126c-13 -72 -73 -122 -153 -122c-62 0 -101 24 -116 71l17 9c11 -41 44 -62 100 -62c68 0 121 41 133 106c11 65 -28 106 -96 106h-110l47 182h212z" />
    <glyph glyph-name="six.sups" horiz-adv-x="335" 
d="M247 707c38 0 68 -13 91 -38s31 -56 24 -93c-13 -76 -81 -128 -158 -128c-39 0 -69 12 -92 37s-31 57 -24 95c5 26 15 49 32 70l175 210h24l-139 -167c22 9 44 14 67 14zM343 578c11 65 -32 111 -99 111s-126 -46 -137 -111c-12 -67 31 -112 98 -112c68 0 126 45 138 112
z" />
    <glyph glyph-name="seven.sups" horiz-adv-x="336" 
d="M135 842l3 18h266l-3 -16l-235 -384h-22l234 382h-243z" />
    <glyph glyph-name="eight.sups" horiz-adv-x="355" 
d="M392 761c-8 -44 -37 -75 -87 -92c47 -17 73 -58 64 -110c-13 -69 -72 -111 -155 -111c-80 0 -132 47 -119 115c9 53 48 91 103 107c-40 17 -63 51 -55 95c12 68 72 107 143 107c68 0 118 -44 106 -111zM253 678c56 0 111 34 119 85c11 56 -29 91 -88 91
c-60 0 -110 -34 -121 -91c-8 -51 33 -85 90 -85zM349 561c9 60 -32 99 -99 99c-68 0 -126 -39 -135 -99c-11 -59 30 -95 101 -95c69 0 122 36 133 95z" />
    <glyph glyph-name="nine.sups" horiz-adv-x="335" 
d="M391 740c-5 -26 -15 -49 -32 -70l-175 -210h-24l139 167c-22 -9 -44 -14 -67 -14c-38 0 -68 12 -91 37s-31 57 -24 94c13 76 81 128 158 128c39 0 69 -13 92 -38s31 -56 24 -94zM372 742c12 67 -31 112 -98 112c-68 0 -126 -45 -138 -112c-11 -65 32 -111 99 -111
s126 46 137 111z" />
    <glyph glyph-name="cent.tf" horiz-adv-x="570" 
d="M570 488l-17 -10c-17 51 -52 86 -107 103l-236 -461c23 -8 48 -12 75 -12c91 0 175 45 223 114l15 -10c-52 -76 -140 -122 -241 -122c-30 0 -57 4 -80 13l-53 -103h-21l56 110c-89 40 -136 134 -116 243c13 73 49 134 107 183s124 74 199 74c19 0 40 -2 62 -7l50 97h21
l-53 -103c60 -20 99 -56 116 -109zM193 126l235 460c-18 4 -37 6 -57 6c-69 0 -131 -23 -185 -70c-53 -46 -86 -103 -98 -172c-17 -101 24 -187 105 -224z" />
    <glyph glyph-name="dollar.tf" horiz-adv-x="570" 
d="M550 589l-16 -9c-19 71 -71 108 -154 112l-58 -330c61 -20 102 -40 137 -72c36 -31 50 -75 41 -130c-19 -107 -107 -167 -244 -170l-16 -90h-20l16 90c-113 3 -188 54 -203 134l18 10c12 -79 81 -123 188 -126l60 341c-116 39 -182 92 -163 197c9 49 34 88 75 118
c42 30 93 45 152 46l16 90h20l-16 -90c87 -5 148 -49 167 -121zM156 544c-17 -92 43 -140 147 -176l57 324c-55 -1 -101 -16 -138 -45c-37 -28 -59 -62 -66 -103zM480 162c17 92 -45 142 -162 181l-59 -335c129 4 204 63 221 154z" />
    <glyph glyph-name="Euro.tf" horiz-adv-x="570" 
d="M413 710c88 0 155 -56 172 -145l-17 -9c-15 85 -76 136 -157 136c-117 0 -215 -99 -263 -264h276l-3 -18h-278c-4 -15 -8 -35 -13 -60c-3 -13 -5 -33 -8 -60h278l-3 -18h-276c-11 -165 52 -264 169 -264c81 0 160 50 204 137l16 -9c-48 -92 -130 -146 -221 -146
c-129 0 -200 109 -189 282h-81l3 18h79c2 20 5 41 9 63l12 57h-79l3 18h81c51 176 155 282 286 282z" />
    <glyph glyph-name="florin.tf" horiz-adv-x="570" 
d="M320 360l94 230c39 97 115 140 196 112l-4 -20c-71 29 -137 -9 -173 -96l-92 -226h159l-3 -19h-164l-177 -435c-39 -97 -115 -140 -196 -112l3 20c72 -29 138 9 174 96l176 431h-156l3 19h160z" />
    <glyph glyph-name="uni20BD.tf" horiz-adv-x="570" 
d="M179 700h240c53 0 96 -20 129 -61s45 -88 35 -143c-9 -55 -37 -102 -82 -140c-45 -37 -95 -56 -152 -56h-220l-22 -122h300l-3 -18h-300l-28 -160h-20l28 160h-90l3 18h90l22 122h-90l3 18h90zM416 682h-220l-64 -364h220c50 0 96 18 137 53c41 36 66 79 75 129
s-2 93 -31 128c-29 36 -68 54 -117 54z" />
    <glyph glyph-name="sterling.tf" horiz-adv-x="570" 
d="M413 692c-105 0 -177 -70 -194 -167l-36 -206h259l-3 -18h-260l-50 -283h400l-3 -18h-530l3 18h110l50 283h-90l3 18h91l36 206c19 112 101 185 214 185c84 0 143 -45 171 -124l-16 -10c-29 77 -80 116 -155 116z" />
    <glyph glyph-name="yen.tf" horiz-adv-x="570" 
d="M600 700h24l-308 -363h190l-3 -18h-196l-19 -110h196l-3 -18h-196l-34 -191h-20l34 191h-194l3 18h194l19 110h-194l3 18h190l-182 363h21l176 -354z" />
    <glyph glyph-name="brevecy" horiz-adv-x="280" 
d="M322 601h-240l3 16h240z" />
    </font>
</defs>
</svg>
