<?xml version="1.0" standalone="no"?>
<!DOCTYPE svg PUBLIC "-//W3C//DTD SVG 1.1//EN" "http://www.w3.org/Graphics/SVG/1.1/DTD/svg11.dtd" >
<svg xmlns="http://www.w3.org/2000/svg" xmlns:xlink="http://www.w3.org/1999/xlink" version="1.1">
<metadata>
Created by FontForge 20170924 at Thu Jul 21 23:23:10 2016
 By www-data
Copyright \251 2015 by Radomir Tinkov. All rights reserved.
</metadata>
<defs>
<font id="Gilroy-RegularItalic" horiz-adv-x="570" >
  <font-face 
    font-family="Gilroy"
    font-weight="400"
    font-style="italic"
    font-stretch="normal"
    units-per-em="1000"
    panose-1="0 0 5 0 0 0 0 0 0 0"
    ascent="775"
    descent="-225"
    x-height="500"
    cap-height="700"
    bbox="-307 -240 1049 960"
    underline-thickness="50"
    underline-position="-100"
    slope="-10"
    unicode-range="U+0020-FB02"
  />
<missing-glyph horiz-adv-x="500" 
d="M93 800h317v-1000h-317v1000zM333 700v33h-165v-33h65v-37h-66v-33h166v33h-66v37h66zM267 534v70h-100v-104h166v34h-66zM200 570h33v-36h-33v36zM333 440v33h-166v-33h66v-37h-66v-33h100v70h66zM333 313v100h-33v-66h-133v-34h166zM333 178v113h-100v-56h34v23h33v-47
h-100v80h-33v-113h166zM333 5v113h-166v-113h166zM200 85h100v-47h-100v47zM333 -51v33h-166v-33h70l-70 -47v-33h166v33h-102l70 47h32z" />
    <glyph glyph-name="fi" unicode="fi" horiz-adv-x="516" 
d="M220 500h270l-88 -500h-66l77 436h-204l-77 -436h-66l77 436h-85l11 64h85l4 20c22 128 103 192 244 192c28 0 59 -4 93 -12l-10 -60c-30 5 -62 8 -95 8c-100 0 -150 -35 -166 -128z" />
    <glyph glyph-name="fl" unicode="fl" horiz-adv-x="516" 
d="M402 712c39 0 80 -4 123 -12l-123 -700h-66l114 649c-20 2 -40 3 -59 3c-99 0 -150 -37 -167 -132l-4 -20h114l-11 -64h-114l-77 -436h-66l77 436h-85l11 64h85l4 20c22 128 103 192 244 192z" />
    <glyph glyph-name="f_f" unicode="ff" horiz-adv-x="590" 
d="M424 500l5 30c23 135 111 203 244 192l-11 -64c-95 8 -150 -35 -167 -128l-5 -30h144l-11 -64h-144l-77 -436h-66l77 436h-204l-77 -436h-66l77 436h-85l11 64h85l4 20c23 135 109 203 244 192l-12 -64c-94 8 -149 -35 -166 -128l-4 -20h204z" />
    <glyph glyph-name="f_f_i" unicode="ffi" horiz-adv-x="786" 
d="M490 500h270l-88 -500h-66l77 436h-204l-77 -436h-66l77 436h-204l-77 -436h-66l77 436h-85l11 64h85l4 20c23 135 109 203 244 192l-12 -64c-94 8 -149 -35 -166 -128l-4 -20h204l5 30c22 128 103 192 244 192c29 0 60 -4 94 -12l-10 -60c-30 5 -62 8 -95 8
c-100 0 -151 -35 -167 -128z" />
    <glyph glyph-name="f_f_l" unicode="ffl" horiz-adv-x="786" 
d="M673 722c39 0 81 -4 124 -12l-125 -710h-66l116 659c-20 2 -40 3 -59 3c-99 0 -151 -37 -168 -132l-5 -30h114l-11 -64h-114l-77 -436h-66l77 436h-204l-77 -436h-66l77 436h-85l11 64h85l4 20c23 135 109 203 244 192l-12 -64c-94 8 -149 -35 -166 -128l-4 -20h204l5 30
c22 128 103 192 244 192z" />
    <glyph glyph-name=".notdef" horiz-adv-x="500" 
d="M93 800h317v-1000h-317v1000zM333 700v33h-165v-33h65v-37h-66v-33h166v33h-66v37h66zM267 534v70h-100v-104h166v34h-66zM200 570h33v-36h-33v36zM333 440v33h-166v-33h66v-37h-66v-33h100v70h66zM333 313v100h-33v-66h-133v-34h166zM333 178v113h-100v-56h34v23h33v-47
h-100v80h-33v-113h166zM333 5v113h-166v-113h166zM200 85h100v-47h-100v47zM333 -51v33h-166v-33h70l-70 -47v-33h166v33h-102l70 47h32z" />
    <glyph glyph-name="NULL" horiz-adv-x="0" 
 />
    <glyph glyph-name="CR" horiz-adv-x="333" 
 />
    <glyph glyph-name="space" unicode=" " horiz-adv-x="250" 
 />
    <glyph glyph-name="exclam" unicode="!" horiz-adv-x="230" 
d="M130 190h-50l39 310l35 200h80l-35 -200zM69 -10c-31 0 -50 25 -45 56s31 54 64 54c31 0 51 -25 46 -56c-7 -32 -30 -54 -65 -54z" />
    <glyph glyph-name="quotedbl" unicode="&#x22;" horiz-adv-x="310" 
d="M154 500h-50l25 200h70zM294 500h-50l25 200h70z" />
    <glyph glyph-name="numbersign" unicode="#" horiz-adv-x="599" 
d="M608 470l-21 -60h-118l-42 -120h120l-20 -60h-120l-62 -180h-64l62 180h-132l-62 -180h-64l62 180h-120l20 60h120l42 120h-122l21 60h121l62 180h64l-62 -180h132l62 180h64l-62 -180h119zM231 290h132l42 120h-132z" />
    <glyph glyph-name="dollar" unicode="$" horiz-adv-x="561" 
d="M391 639l-47 -263c57 -25 97 -48 118 -68c41 -37 55 -85 44 -144c-11 -54 -37 -96 -80 -126s-93 -47 -150 -50l-16 -88h-60l16 90c-99 12 -167 66 -195 150l63 31c19 -67 67 -104 144 -113l48 272c-78 33 -183 86 -156 210c11 55 39 97 83 126c44 30 91 45 140 46l16 88
h60l-16 -93c72 -15 123 -57 152 -126l-63 -31c-24 49 -58 78 -101 89zM190 533c-13 -67 25 -99 98 -132l43 243c-65 -5 -126 -46 -141 -111zM436 172c15 68 -27 101 -104 134l-44 -249c77 8 135 51 148 115z" />
    <glyph glyph-name="percent" unicode="%" horiz-adv-x="710" 
d="M243 412c-43 0 -76 15 -101 45c-25 31 -33 67 -26 109s28 77 62 104c34 28 73 42 118 42c43 0 76 -15 100 -46c25 -30 33 -66 26 -108s-28 -77 -61 -105c-33 -27 -73 -41 -118 -41zM193 498c14 -17 34 -26 60 -26s49 9 68 26c40 35 51 93 23 128c-13 17 -33 26 -59 26
s-49 -9 -69 -26c-39 -35 -50 -93 -23 -128zM108 70l-42 26l562 527l43 -26zM451 -12c-43 0 -76 15 -101 45c-25 31 -33 67 -26 109s28 77 62 104c34 28 73 42 118 42c43 0 76 -15 100 -46c25 -30 33 -66 26 -108s-28 -77 -62 -105c-33 -27 -72 -41 -117 -41zM402 74
c13 -17 33 -26 59 -26s49 9 68 26c40 35 51 93 23 128c-13 17 -33 26 -59 26s-49 -9 -69 -26c-40 -35 -49 -93 -22 -128z" />
    <glyph glyph-name="ampersand" unicode="&#x26;" horiz-adv-x="663" 
d="M540 308l54 -36c-20 -56 -47 -105 -80 -147l83 -107l-61 -30l-67 87c-64 -58 -137 -87 -219 -87c-69 0 -123 19 -160 58s-50 90 -39 153c16 86 74 151 174 194c-27 45 -36 92 -28 141c9 53 33 96 74 129s90 49 147 49c97 0 169 -54 197 -139l-61 -33
c-17 65 -71 104 -138 104c-72 0 -137 -43 -149 -116c-7 -45 7 -90 42 -137l165 -214c27 37 49 80 66 131zM255 56c65 0 123 23 174 70l-164 213c-83 -31 -131 -80 -144 -146c-15 -84 38 -137 134 -137z" />
    <glyph glyph-name="quotesingle" unicode="'" horiz-adv-x="170" 
d="M154 500h-50l25 200h70z" />
    <glyph glyph-name="parenleft" unicode="(" horiz-adv-x="267" 
d="M175 -100h-66c-47 147 -57 299 -30 456c26 149 89 297 189 444h66c-199 -292 -252 -608 -159 -900z" />
    <glyph glyph-name="parenright" unicode=")" horiz-adv-x="266" 
d="M127 800h66c47 -147 57 -299 30 -456c-26 -149 -89 -297 -189 -444h-66c199 292 252 608 159 900z" />
    <glyph glyph-name="asterisk" unicode="*" horiz-adv-x="393" 
d="M304 607l92 3l-10 -56l-91 3l39 -75l-53 -30l-32 81l-60 -81l-49 30l65 75l-91 -3l10 56l90 -3l-39 75l54 30l31 -81l61 81l48 -30z" />
    <glyph glyph-name="plus" unicode="+" horiz-adv-x="540" 
d="M326 382h177l-11 -64h-178l-31 -178h-64l31 178h-178l11 64h179l31 178h64z" />
    <glyph glyph-name="comma" unicode="," horiz-adv-x="240" 
d="M71 85h80l-100 -225h-60z" />
    <glyph glyph-name="hyphen" unicode="-" horiz-adv-x="520" 
d="M445 277h-360l11 64h360z" />
    <glyph glyph-name="period" unicode="." horiz-adv-x="230" 
d="M69 -10c-31 0 -50 25 -45 56s31 54 64 54c31 0 51 -25 46 -56c-7 -32 -30 -54 -65 -54z" />
    <glyph glyph-name="slash" unicode="/" horiz-adv-x="530" 
d="M587 800l-556 -900h-53l556 900h53z" />
    <glyph glyph-name="zero" unicode="0" horiz-adv-x="633" 
d="M270 -12c-81 0 -139 34 -176 103c-36 69 -44 158 -25 267c39 221 154 354 329 354c81 0 139 -34 175 -103c37 -69 45 -158 26 -267c-39 -221 -154 -354 -329 -354zM152 133c25 -51 69 -77 130 -77s114 26 157 77s73 124 90 217s12 166 -13 217s-69 77 -130 77
s-114 -26 -157 -77s-73 -124 -90 -217s-12 -166 13 -217z" />
    <glyph glyph-name="one" unicode="1" horiz-adv-x="340" 
d="M83 636l196 64h60l-123 -700h-70l109 622v-1l-165 -47z" />
    <glyph glyph-name="two" unicode="2" horiz-adv-x="525" 
d="M441 0h-445l11 63l297 254c83 71 130 132 140 185c9 45 1 79 -23 104c-23 25 -54 38 -93 38c-68 0 -125 -33 -172 -100l-55 36c60 88 138 132 235 132c57 0 104 -20 141 -60s49 -93 37 -158c-15 -81 -70 -146 -167 -227l-236 -199h342z" />
    <glyph glyph-name="three" unicode="3" horiz-adv-x="530" 
d="M128 700h410l-11 -66l-200 -226c53 -9 94 -32 124 -69s40 -84 30 -142c-12 -66 -44 -117 -95 -154s-109 -55 -174 -55c-104 0 -181 50 -204 139l60 33c17 -69 67 -104 152 -104c96 0 175 54 191 147s-43 147 -139 147h-20l-23 48l210 236h-322z" />
    <glyph glyph-name="four" unicode="4" 
d="M457 206h90l-11 -66h-90l-25 -140h-70l25 140h-370l11 66l347 494h80l-347 -494h290l38 214h70z" />
    <glyph glyph-name="five" unicode="5" horiz-adv-x="545" 
d="M558 700l-11 -66h-311l-54 -216h117c60 0 111 -20 152 -61s56 -94 45 -160c-12 -67 -43 -118 -94 -155c-50 -36 -108 -54 -175 -54c-104 0 -186 53 -207 149l62 33c12 -75 70 -114 153 -114c96 0 175 54 191 147s-43 147 -139 147h-190l86 350h375z" />
    <glyph glyph-name="six" unicode="6" horiz-adv-x="531" 
d="M300 450c67 0 119 -23 156 -68s50 -101 38 -169c-13 -69 -44 -123 -94 -164c-49 -41 -110 -61 -181 -61c-67 0 -120 22 -157 67s-49 102 -36 170c10 57 34 105 73 144l279 331h85l-215 -254c15 3 33 4 52 4zM424 219c17 99 -36 163 -136 163s-175 -64 -192 -163
c-19 -99 35 -163 135 -163s174 64 193 163z" />
    <glyph glyph-name="seven" unicode="7" horiz-adv-x="490" 
d="M88 634l11 66h430l-11 -66l-372 -634h-77l372 634h-353z" />
    <glyph glyph-name="eight" unicode="8" horiz-adv-x="550" 
d="M532 512c-12 -68 -52 -119 -120 -154c64 -35 98 -98 86 -174c-11 -63 -42 -112 -92 -146c-50 -33 -109 -50 -178 -50c-63 0 -115 19 -155 57s-54 88 -43 151c12 77 68 137 147 168c-57 39 -79 92 -67 160c11 62 40 109 87 140c47 32 100 48 159 48c55 0 100 -18 137 -54
c37 -35 50 -84 39 -146zM462 518c15 85 -39 126 -118 126s-149 -42 -164 -126c-7 -40 1 -71 26 -93s56 -33 93 -33c81 0 148 45 163 126zM428 190c15 85 -48 134 -141 134c-96 0 -172 -47 -187 -134c-16 -87 44 -134 140 -134c99 0 172 47 188 134z" />
    <glyph glyph-name="nine" unicode="9" horiz-adv-x="533" 
d="M348 712c67 0 119 -23 156 -68s50 -102 38 -171c-10 -57 -34 -104 -72 -142l-279 -331h-85l214 254c-24 -3 -42 -4 -54 -4c-67 0 -120 23 -157 68s-49 102 -37 171c12 68 43 122 93 162c51 41 112 61 183 61zM278 318c101 0 177 64 194 163s-36 163 -136 163
c-101 0 -177 -64 -194 -163s36 -163 136 -163z" />
    <glyph glyph-name="colon" unicode=":" horiz-adv-x="230" 
d="M141 400c-31 0 -50 25 -45 56s31 54 64 54c31 0 51 -25 46 -56c-7 -32 -30 -54 -65 -54zM69 -10c-31 0 -50 25 -45 56s31 54 64 54c31 0 51 -25 46 -56c-7 -32 -30 -54 -65 -54z" />
    <glyph glyph-name="semicolon" unicode=";" horiz-adv-x="246" 
d="M157 400c-31 0 -50 25 -45 56s31 54 64 54c31 0 51 -25 46 -56c-7 -32 -30 -54 -65 -54zM71 85h80l-100 -225h-60z" />
    <glyph glyph-name="less" unicode="&#x3c;" horiz-adv-x="520" 
d="M84 385l431 175l-14 -78l-348 -136l300 -136l-12 -70l-369 175z" />
    <glyph glyph-name="equal" unicode="=" horiz-adv-x="540" 
d="M510 418h-420l11 64h420zM474 218h-420l12 64h420z" />
    <glyph glyph-name="greater" unicode="&#x3e;" horiz-adv-x="520" 
d="M103 490l12 70l368 -175l-12 -70l-430 -175l14 78l347 136z" />
    <glyph glyph-name="question" unicode="?" horiz-adv-x="531" 
d="M269 190h-70c12 65 51 121 95 158c63 54 143 105 155 179c13 77 -38 117 -119 117c-68 0 -131 -34 -164 -103l-59 35c47 89 138 136 235 136c55 0 101 -17 138 -52s50 -81 39 -139c-9 -57 -49 -107 -93 -143c-64 -51 -142 -105 -157 -188zM199 -10c-31 0 -50 25 -45 56
s31 54 64 54c31 0 51 -25 46 -56c-7 -32 -30 -54 -65 -54z" />
    <glyph glyph-name="at" unicode="@" horiz-adv-x="795" 
d="M469 612c68 0 126 -18 174 -53c97 -71 134 -183 114 -295c-25 -141 -99 -206 -180 -206c-52 0 -91 28 -96 84c-35 -35 -75 -52 -121 -52c-45 0 -80 16 -107 48c-26 33 -35 71 -27 116s30 83 65 112s77 44 125 44c42 0 74 -17 97 -52l8 45h62l-38 -216
c-11 -64 5 -96 48 -96c59 0 113 56 134 179c15 89 -2 164 -53 224c-50 60 -120 90 -210 90c-94 0 -179 -31 -254 -94c-75 -62 -121 -141 -138 -236c-17 -97 2 -177 57 -242c56 -64 134 -96 235 -96c67 0 127 10 179 29l-5 -30c-53 -18 -112 -27 -179 -27
c-108 0 -193 36 -254 107s-82 160 -63 265c17 100 67 184 148 251c82 67 175 101 279 101zM305 177c17 -18 40 -27 69 -27s54 9 77 27c23 19 38 43 43 73s0 54 -17 72c-32 37 -98 37 -146 0c-23 -18 -38 -42 -43 -72s0 -54 17 -73z" />
    <glyph glyph-name="A" unicode="A" horiz-adv-x="630" 
d="M576 0h-72l-34 172h-332l-96 -172h-76l392 700h72zM383 613l-209 -375h283z" />
    <glyph glyph-name="B" unicode="B" horiz-adv-x="620" 
d="M595 507c-10 -65 -46 -113 -107 -146c60 -31 93 -95 81 -171c-8 -53 -33 -98 -76 -135s-93 -55 -152 -55h-305l123 700h267c55 0 98 -19 131 -57s46 -83 38 -136zM424 634h-207l-42 -244h211c33 0 63 12 90 35c27 24 44 53 50 87c12 68 -33 122 -102 122zM398 324h-235
l-45 -258h229c37 0 71 13 100 38s47 56 53 91s-1 66 -21 91c-19 25 -46 38 -81 38z" />
    <glyph glyph-name="C" unicode="C" horiz-adv-x="745" 
d="M360 -12c-105 0 -186 37 -243 110s-76 161 -58 262s66 184 145 251s168 101 267 101c136 0 238 -66 287 -174l-62 -33c-42 93 -117 139 -226 139c-85 0 -160 -28 -225 -85s-104 -126 -118 -209c-14 -84 2 -154 47 -210s110 -84 194 -84c108 0 207 54 267 143l59 -37
c-37 -53 -86 -96 -145 -127s-122 -47 -189 -47z" />
    <glyph glyph-name="D" unicode="D" horiz-adv-x="722" 
d="M159 700h270c93 0 165 -36 217 -107s69 -155 52 -253c-17 -97 -63 -178 -136 -243s-158 -97 -256 -97h-270zM418 634h-201l-99 -568h200c77 0 144 27 203 82s95 122 109 202s1 147 -38 202s-97 82 -174 82z" />
    <glyph glyph-name="E" unicode="E" horiz-adv-x="530" 
d="M564 700l-11 -66h-336l-43 -248h310l-12 -66h-310l-44 -254h340l-12 -66h-410l123 700h405z" />
    <glyph glyph-name="F" unicode="F" horiz-adv-x="515" 
d="M554 700l-12 -66h-325l-45 -258h310l-12 -66h-310l-54 -310h-70l123 700h395z" />
    <glyph glyph-name="G" unicode="G" horiz-adv-x="790" 
d="M414 333h350l-6 -35c-15 -87 -58 -161 -129 -221c-70 -59 -155 -89 -255 -89c-111 0 -195 37 -254 110c-59 74 -79 163 -60 267c18 100 66 183 145 248c79 66 169 99 271 99c135 0 235 -65 288 -174l-62 -33c-47 93 -123 139 -228 139c-87 0 -163 -28 -228 -83
s-104 -125 -118 -208c-15 -84 1 -155 46 -212s113 -85 203 -85c76 0 141 20 195 60c55 40 91 90 109 151h-279z" />
    <glyph glyph-name="H" unicode="H" horiz-adv-x="680" 
d="M555 393l54 307h70l-123 -700h-70l57 327h-380l-57 -327h-70l123 700h70l-54 -307h380z" />
    <glyph glyph-name="I" unicode="I" horiz-adv-x="230" 
d="M36 0l123 700h70l-123 -700h-70z" />
    <glyph glyph-name="J" unicode="J" horiz-adv-x="553" 
d="M215 -12c-105 0 -171 41 -199 124l63 34c18 -60 65 -90 141 -90c96 0 166 46 183 142l88 502h70l-88 -504c-13 -71 -43 -124 -91 -158c-48 -33 -104 -50 -167 -50z" />
    <glyph glyph-name="K" unicode="K" horiz-adv-x="578" 
d="M547 700h94l-397 -345l280 -355h-83l-274 346l-61 -346h-70l123 700h70l-56 -322z" />
    <glyph glyph-name="L" unicode="L" horiz-adv-x="490" 
d="M229 700l-111 -634h320l-12 -66h-390l123 700h70z" />
    <glyph glyph-name="M" unicode="M" horiz-adv-x="800" 
d="M711 700h88l-123 -700h-70l103 589l-312 -405h-10l-176 416l-105 -600h-70l123 700h82l166 -394z" />
    <glyph glyph-name="N" unicode="N" horiz-adv-x="680" 
d="M106 0h-70l123 700h54l297 -569l99 569h70l-123 -700h-54l-296 569z" />
    <glyph glyph-name="O" unicode="O" horiz-adv-x="808" 
d="M360 -12c-101 0 -181 37 -240 110c-59 74 -79 161 -61 262c17 101 66 184 145 251c80 67 172 101 276 101c200 4 341 -182 303 -377c-18 -101 -67 -184 -146 -249s-172 -98 -277 -98zM372 56c85 0 160 27 223 82c64 55 103 124 118 207c14 83 -2 153 -49 211
c-46 59 -111 88 -196 88c-84 0 -158 -28 -222 -85s-103 -126 -117 -209c-15 -82 1 -152 47 -209c47 -57 112 -85 196 -85z" />
    <glyph glyph-name="P" unicode="P" horiz-adv-x="589" 
d="M159 700h245c66 0 116 -21 150 -63c35 -42 47 -94 36 -157s-41 -116 -90 -158c-49 -41 -112 -62 -189 -62h-159l-46 -260h-70zM522 490c15 88 -34 144 -125 144h-180l-54 -308h156c111 0 187 69 203 164z" />
    <glyph glyph-name="Q" unicode="Q" horiz-adv-x="813" 
d="M783 335c-18 -101 -67 -184 -146 -249l58 -70l-50 -43l-63 75c-69 -40 -143 -60 -222 -60c-101 0 -181 37 -240 110c-59 74 -79 161 -61 262c17 101 66 184 145 251c80 67 172 101 276 101c200 4 341 -182 303 -377zM539 99l-128 153l51 43l132 -158
c64 55 104 124 119 208c14 83 -2 153 -49 211c-46 59 -111 88 -196 88c-84 0 -158 -28 -222 -85s-103 -126 -117 -209c-15 -82 1 -152 47 -209c47 -57 112 -85 196 -85c59 0 115 14 167 43z" />
    <glyph glyph-name="R" unicode="R" horiz-adv-x="610" 
d="M159 700h280c55 0 101 -22 136 -67c35 -44 48 -95 37 -153c-8 -47 -29 -88 -63 -123s-75 -58 -122 -69l119 -288h-73l-115 280h-203l-49 -280h-70zM544 490c7 40 -1 74 -24 102s-53 42 -92 42h-211l-50 -288h210c39 0 75 14 107 42c33 29 53 63 60 102z" />
    <glyph glyph-name="S" unicode="S" horiz-adv-x="584" 
d="M267 -12c-129 0 -216 63 -243 171l61 32c16 -84 79 -135 184 -135c99 0 170 44 186 116c11 50 -13 89 -71 118c-18 9 -46 20 -84 33c-57 20 -91 36 -135 69c-43 35 -60 84 -47 148c11 56 40 99 85 128c46 29 97 44 152 44c116 0 186 -62 217 -149l-62 -32
c-25 75 -78 113 -159 113c-39 0 -74 -10 -105 -29s-51 -47 -58 -82c-9 -43 2 -75 38 -99s59 -34 114 -53c69 -25 116 -50 143 -75c39 -37 52 -85 41 -142s-41 -101 -88 -131s-104 -45 -169 -45z" />
    <glyph glyph-name="T" unicode="T" horiz-adv-x="540" 
d="M99 700h500l-11 -66h-216l-111 -634h-70l111 634h-214z" />
    <glyph glyph-name="U" unicode="U" horiz-adv-x="660" 
d="M294 -12c-79 0 -139 23 -182 69c-42 47 -57 107 -44 181l81 462h70l-81 -462c-20 -111 37 -182 156 -182c121 0 205 74 224 182l81 462h70l-81 -462c-14 -78 -48 -139 -101 -184c-53 -44 -118 -66 -193 -66z" />
    <glyph glyph-name="V" unicode="V" horiz-adv-x="608" 
d="M296 0h-72l-135 700h70l112 -611l328 611h78z" />
    <glyph glyph-name="W" unicode="W" horiz-adv-x="1000" 
d="M273 0h-84l-80 700h69l68 -608l289 608h82l76 -608l282 608h74l-326 -700h-84l-76 608z" />
    <glyph glyph-name="X" unicode="X" horiz-adv-x="580" 
d="M542 700h82l-277 -342l169 -358h-72l-142 302l-244 -302h-82l296 366l-158 334h72l131 -278z" />
    <glyph glyph-name="Y" unicode="Y" horiz-adv-x="575" 
d="M562 700h82l-309 -374l-57 -326h-70l57 327l-176 373h72l146 -309z" />
    <glyph glyph-name="Z" unicode="Z" horiz-adv-x="520" 
d="M129 700h430l-11 -66l-461 -568h371l-12 -66h-450l12 66l460 568h-350z" />
    <glyph glyph-name="bracketleft" unicode="[" horiz-adv-x="280" 
d="M357 800l-11 -64h-134l-137 -772h135l-12 -64h-200l159 900h200z" />
    <glyph glyph-name="backslash" unicode="\" horiz-adv-x="530" 
d="M428 -100h-50l-241 900h50z" />
    <glyph glyph-name="bracketright" unicode="]" horiz-adv-x="280" 
d="M117 800h200l-159 -900h-200l12 64h133l137 772h-134z" />
    <glyph glyph-name="asciicircum" unicode="^" horiz-adv-x="500" 
d="M294 700h68l124 -300h-72l-93 227l-173 -227h-82z" />
    <glyph glyph-name="underscore" unicode="_" horiz-adv-x="520" 
d="M411 -141h-440l11 64h440z" />
    <glyph glyph-name="grave" unicode="`" horiz-adv-x="201" 
d="M237 570h-64l-74 130h80z" />
    <glyph glyph-name="a" unicode="a" horiz-adv-x="638" 
d="M527 394l19 106h66l-88 -500h-66l15 85c-54 -65 -126 -97 -217 -97c-70 0 -126 27 -169 81s-58 118 -45 191c14 80 48 142 103 186s116 66 183 66c87 0 164 -42 199 -118zM272 52c55 0 104 17 147 52s70 80 81 134l2 12c9 61 -3 110 -38 145c-34 35 -78 53 -131 53
c-52 0 -100 -17 -144 -51c-43 -34 -70 -81 -81 -142c-9 -56 2 -104 33 -144c31 -39 75 -59 131 -59z" />
    <glyph glyph-name="b" unicode="b" horiz-adv-x="636" 
d="M384 512c69 0 125 -26 167 -78c43 -51 58 -113 45 -186c-13 -75 -48 -137 -105 -186c-56 -49 -122 -74 -199 -74c-84 0 -150 45 -182 117l-18 -105h-66l123 700h66l-51 -291c57 69 130 103 220 103zM530 255c10 55 -1 101 -32 138s-74 55 -130 55
c-55 0 -105 -19 -150 -58c-45 -38 -72 -85 -82 -140c-9 -55 1 -102 32 -141c31 -38 75 -57 130 -57c57 0 108 20 151 59c44 39 71 87 81 144z" />
    <glyph glyph-name="c" unicode="c" horiz-adv-x="553" 
d="M258 -12c-73 0 -130 27 -173 80c-42 54 -56 118 -43 193c13 73 48 133 105 180s123 71 198 71c97 0 176 -50 204 -130l-57 -29c-21 59 -77 95 -153 95c-57 0 -107 -19 -151 -56c-43 -37 -70 -83 -80 -138c-9 -57 1 -105 31 -144s73 -58 130 -58c76 0 144 39 183 100
l53 -35c-51 -81 -142 -129 -247 -129z" />
    <glyph glyph-name="d" unicode="d" horiz-adv-x="638" 
d="M527 394l54 306h66l-123 -700h-66l15 85c-54 -65 -126 -97 -217 -97c-70 0 -126 27 -169 81s-58 118 -45 191c14 80 48 142 103 186s116 66 183 66c87 0 164 -42 199 -118zM272 52c55 0 103 17 146 52s71 80 82 133l2 16c9 61 -4 108 -38 143s-78 52 -131 52
c-52 0 -100 -17 -144 -51c-43 -34 -70 -81 -81 -142c-9 -56 2 -104 33 -144c31 -39 75 -59 131 -59z" />
    <glyph glyph-name="e" unicode="e" horiz-adv-x="584" 
d="M339 512c75 0 133 -26 172 -78c40 -52 53 -114 38 -186c-2 -12 -5 -22 -8 -31h-437c-4 -101 62 -165 167 -165c77 0 136 29 177 86l52 -34c-48 -73 -143 -116 -238 -116c-77 0 -137 26 -178 78s-55 117 -42 194c13 73 47 134 103 181c57 47 121 71 194 71zM114 281h372
c8 109 -54 167 -151 167c-105 0 -190 -66 -221 -167z" />
    <glyph glyph-name="f" unicode="f" horiz-adv-x="321" 
d="M154 500l4 20c24 135 109 203 244 192l-12 -64c-94 9 -149 -34 -166 -128l-4 -20h144l-11 -64h-144l-77 -436h-66l77 436h-85l11 64h85z" />
    <glyph glyph-name="g" unicode="g" horiz-adv-x="639" 
d="M527 394l19 106h66l-84 -480c-13 -74 -46 -131 -98 -171c-52 -41 -115 -61 -189 -61c-105 0 -184 45 -220 122l59 30c24 -59 79 -88 164 -88c121 0 199 61 218 168l12 67c-55 -66 -125 -99 -211 -99c-75 0 -134 26 -176 79c-41 53 -56 117 -45 193c11 77 45 138 101 183
c57 46 118 69 185 69c85 0 164 -42 199 -118zM501 243v2l1 5c10 61 -3 109 -38 144c-35 36 -79 54 -131 54s-100 -18 -145 -53c-44 -35 -71 -81 -80 -140c-9 -58 2 -106 33 -145c32 -39 77 -58 134 -58c54 0 102 17 145 52s70 82 81 139z" />
    <glyph glyph-name="h" unicode="h" horiz-adv-x="558" 
d="M345 512c121 0 186 -81 165 -205l-54 -307h-66l54 307c15 91 -22 141 -111 141c-95 0 -170 -58 -194 -179l-47 -269h-66l123 700h66l-47 -270c46 55 105 82 177 82z" />
    <glyph glyph-name="i" unicode="i" horiz-adv-x="206" 
d="M165 606c-27 0 -43 21 -39 48s28 48 56 48c27 0 45 -21 40 -48s-28 -48 -57 -48zM92 0h-66l88 500h66z" />
    <glyph glyph-name="j" unicode="j" horiz-adv-x="230" 
d="M206 702c27 0 45 -21 40 -48s-28 -48 -57 -48c-27 0 -43 21 -39 48s28 48 56 48zM43 -40l95 540h66l-95 -540c-23 -133 -93 -183 -210 -172l11 64c76 -8 118 24 133 108z" />
    <glyph glyph-name="k" unicode="k" horiz-adv-x="494" 
d="M416 500h92l-302 -240l224 -260h-80l-214 249l-44 -249h-66l123 700h66l-73 -418z" />
    <glyph glyph-name="l" unicode="l" horiz-adv-x="207" 
d="M93 0h-66l52 299l76 431h66l-76 -431z" />
    <glyph glyph-name="m" unicode="m" horiz-adv-x="848" 
d="M648 512c53 0 94 -18 124 -54s40 -85 29 -146l-55 -312h-66l55 312c15 87 -24 136 -100 136c-79 0 -142 -49 -165 -158l-51 -290h-66l55 312c15 88 -21 136 -93 136c-80 0 -150 -52 -173 -161l-50 -287h-66l88 500h66l-11 -65c45 51 99 77 163 77c67 0 117 -33 137 -93
c47 62 106 93 179 93z" />
    <glyph glyph-name="n" unicode="n" horiz-adv-x="558" 
d="M345 512c121 0 186 -81 165 -205l-54 -307h-66l54 307c15 91 -22 141 -111 141c-93 0 -169 -56 -193 -176l-48 -272h-66l88 500h66l-12 -70c45 55 104 82 177 82z" />
    <glyph glyph-name="o" unicode="o" horiz-adv-x="607" 
d="M263 -12c-71 0 -129 24 -175 73c-45 49 -61 113 -47 194s51 144 112 189s127 68 198 68c69 0 125 -25 169 -74c45 -49 60 -113 46 -192c-9 -56 -30 -104 -63 -144c-65 -80 -149 -114 -240 -114zM269 52c53 0 103 18 148 53s73 85 84 148c11 61 -1 108 -34 143
s-75 52 -128 52c-53 -1 -103 -18 -148 -53s-73 -83 -84 -145c-11 -63 0 -112 33 -147s76 -52 129 -51z" />
    <glyph glyph-name="p" unicode="p" horiz-adv-x="638" 
d="M382 512c70 0 126 -27 169 -81s58 -118 45 -191c-14 -80 -49 -142 -104 -186s-115 -66 -182 -66c-87 0 -164 42 -199 118l-54 -306h-66l123 700h66l-15 -85c54 65 126 97 217 97zM530 245c9 56 -2 104 -33 143c-31 40 -75 60 -131 60c-55 0 -104 -18 -147 -53
s-70 -79 -81 -132l-2 -16c-9 -61 4 -108 38 -143s78 -52 131 -52c52 0 100 17 143 51c44 34 71 81 82 142z" />
    <glyph glyph-name="q" unicode="q" horiz-adv-x="638" 
d="M527 394l19 106h66l-123 -700h-66l50 286c-55 -65 -127 -98 -217 -98c-70 0 -126 27 -169 81s-58 118 -45 191c14 80 48 142 103 186s116 66 183 66c87 0 166 -42 199 -118zM272 52c54 0 102 17 145 51c43 35 71 78 82 131l4 19c8 60 -5 107 -40 142
c-34 35 -77 53 -130 53c-52 0 -100 -17 -144 -51c-43 -34 -70 -81 -81 -142c-9 -56 2 -104 33 -144c31 -39 75 -59 131 -59z" />
    <glyph glyph-name="r" unicode="r" horiz-adv-x="315" 
d="M180 500l-12 -70c45 57 102 83 172 78l-12 -64c-91 0 -167 -51 -187 -166l-49 -278h-66l88 500h66z" />
    <glyph glyph-name="s" unicode="s" horiz-adv-x="475" 
d="M205 -12c-97 0 -160 48 -180 119l59 31c11 -51 58 -86 126 -86s117 30 126 79c22 122 -282 63 -248 248c7 37 27 69 61 94c34 26 75 39 122 39c83 0 140 -34 169 -102l-58 -31c-15 47 -60 69 -113 69s-106 -26 -115 -78c-8 -44 34 -70 87 -87c79 -23 180 -53 161 -161
c-15 -84 -89 -134 -197 -134z" />
    <glyph glyph-name="t" unicode="t" horiz-adv-x="376" 
d="M368 436h-144l-53 -303c-15 -87 37 -79 131 -75l-10 -58c-144 -22 -206 22 -187 133l54 303h-106l12 64h105l21 120l69 20l-25 -140h145z" />
    <glyph glyph-name="u" unicode="u" horiz-adv-x="558" 
d="M418 228l48 272h66l-88 -500h-66l12 70c-45 -55 -104 -82 -177 -82c-121 0 -186 81 -165 205l54 307h66l-54 -307c-15 -91 22 -141 111 -141c93 0 169 56 193 176z" />
    <glyph glyph-name="v" unicode="v" horiz-adv-x="470" 
d="M200 72l230 428h74l-273 -500h-80l-97 500h67z" />
    <glyph glyph-name="w" unicode="w" horiz-adv-x="770" 
d="M517 85l196 415h71l-242 -500h-72l-58 403l-200 -403h-72l-66 500h65l50 -415l204 415h67l-1 -2z" />
    <glyph glyph-name="x" unicode="x" horiz-adv-x="510" 
d="M436 500h85l-225 -245l150 -255h-74l-122 206l-189 -206h-85l241 262l-140 238h74l111 -189z" />
    <glyph glyph-name="y" unicode="y" horiz-adv-x="510" 
d="M232 75l238 425h74l-310 -546c-60 -105 -141 -161 -229 -154l11 62c55 -6 106 29 151 104l21 35l-134 499h67z" />
    <glyph glyph-name="z" unicode="z" horiz-adv-x="450" 
d="M94 500h360l-8 -44l-344 -392h285l-11 -64h-380l8 44l344 392h-265z" />
    <glyph glyph-name="braceleft" unicode="{" horiz-adv-x="355" 
d="M282 -44l-11 -64c-117 -11 -171 47 -151 162l29 167c15 80 -12 98 -87 98l12 64c75 0 106 18 121 98l29 167c23 125 92 173 209 162l-11 -64c-80 8 -117 -15 -132 -98l-29 -167c-15 -81 -46 -119 -101 -135c49 -15 67 -57 55 -125l-29 -167c-16 -83 15 -106 96 -98z" />
    <glyph glyph-name="bar" unicode="|" horiz-adv-x="226" 
d="M67 -200h-66l162 920h66z" />
    <glyph glyph-name="braceright" unicode="}" horiz-adv-x="355" 
d="M108 746l11 64c117 11 171 -47 151 -162l-29 -167c-15 -80 12 -98 87 -98l-12 -64c-75 0 -106 -18 -121 -98l-29 -167c-23 -125 -92 -173 -209 -162l11 64c80 -8 117 15 132 98l29 167c15 81 46 119 101 135c-49 15 -67 57 -55 125l29 167c16 83 -15 106 -96 98z" />
    <glyph glyph-name="asciitilde" unicode="~" horiz-adv-x="594" 
d="M126 286l-55 28c48 116 147 144 264 64c90 -64 134 -37 168 36l55 -28c-48 -116 -143 -144 -263 -64c-89 63 -136 37 -169 -36z" />
    <glyph glyph-name="exclamdown" unicode="&#xa1;" horiz-adv-x="230" 
d="M161 510c31 0 50 -25 45 -56s-31 -54 -64 -54c-31 0 -51 25 -46 56c7 32 30 54 65 54zM100 310h50l-39 -310l-35 -200h-80l35 200z" />
    <glyph glyph-name="cent" unicode="&#xa2;" horiz-adv-x="554" 
d="M287 152c76 0 144 39 183 100l53 -35c-51 -81 -142 -129 -247 -129c-21 0 -42 3 -63 8l-47 -96h-54l56 114c-83 45 -127 142 -108 247c13 73 48 133 105 180s123 71 198 71c19 0 35 -1 48 -4l46 92h54l-52 -106c54 -23 90 -61 108 -112l-57 -29c-15 40 -41 67 -80 82
l-187 -378c15 -3 30 -5 44 -5zM126 354c-13 -77 15 -146 72 -179l183 372c-5 1 -13 1 -24 1c-57 0 -107 -19 -151 -56c-43 -37 -70 -83 -80 -138z" />
    <glyph glyph-name="sterling" unicode="&#xa3;" horiz-adv-x="585" 
d="M442 289h-231l-39 -221h366l-12 -68h-530l12 68h94l39 221h-74l11 62h74l27 151c24 139 111 210 228 210c85 0 153 -51 180 -134l-58 -30c-24 64 -67 96 -130 96c-75 0 -134 -46 -150 -142l-27 -151h231z" />
    <glyph glyph-name="currency" unicode="&#xa4;" horiz-adv-x="552" 
d="M536 587l30 -33l-84 -72c25 -39 34 -85 25 -136c-9 -50 -32 -94 -69 -131l56 -69l-38 -32l-57 69c-45 -30 -92 -45 -143 -45c-47 0 -88 15 -121 45l-83 -70l-30 33l84 72c-25 39 -34 85 -25 136c9 50 32 94 69 132l-56 68l37 32l58 -69c43 30 90 45 142 45
c49 0 89 -15 122 -46zM147 350c-7 -41 1 -76 24 -105s56 -43 97 -43s79 14 112 43s54 64 61 105s-1 76 -24 105s-56 43 -97 43s-79 -14 -113 -43c-33 -29 -53 -64 -60 -105z" />
    <glyph glyph-name="yen" unicode="&#xa5;" horiz-adv-x="575" 
d="M562 700h82l-292 -353h168l-10 -58h-181l-11 -60h181l-10 -58h-181l-30 -171h-70l30 171h-179l10 58h179l11 60h-179l10 58h166l-167 353h72l146 -309z" />
    <glyph glyph-name="brokenbar" unicode="&#xa6;" horiz-adv-x="226" 
d="M164 350h-66l65 370h66zM67 -200h-66l65 370h66z" />
    <glyph glyph-name="section" unicode="&#xa7;" horiz-adv-x="515" 
d="M295 463l55 -27c89 -43 141 -94 126 -181c-9 -49 -38 -88 -89 -119c27 -32 36 -68 29 -109c-15 -84 -89 -139 -198 -139c-99 0 -165 44 -198 133l60 32c18 -67 66 -101 145 -101c67 0 117 28 126 81c5 31 -8 57 -41 80c-32 23 -55 33 -103 54c-97 42 -139 101 -126 178
c9 49 40 90 95 122c-24 29 -32 65 -25 106c15 83 89 139 189 139c81 0 145 -44 172 -120l-58 -31c-22 58 -62 87 -121 87c-57 0 -108 -28 -117 -81c-5 -31 5 -54 37 -77c16 -11 30 -20 42 -27zM410 261c9 55 -27 87 -98 118c-44 19 -75 36 -94 49c-42 -22 -66 -52 -71 -89
c-7 -49 24 -87 95 -115c43 -18 77 -35 101 -50c39 23 62 52 67 87z" />
    <glyph glyph-name="dieresis" unicode="&#xa8;" horiz-adv-x="320" 
d="M86 620c4 25 28 45 53 45s41 -20 37 -45c-7 -58 -104 -58 -90 0zM276 620c4 25 28 45 53 45s41 -20 37 -45c-7 -58 -104 -58 -90 0z" />
    <glyph glyph-name="copyright" unicode="&#xa9;" horiz-adv-x="804" 
d="M356 -12c-99 0 -177 36 -236 109s-79 159 -61 259c17 100 67 184 149 253c83 69 175 103 276 103c99 0 177 -36 235 -109c59 -73 79 -159 62 -259c-18 -100 -68 -184 -150 -253s-174 -103 -275 -103zM361 16c93 0 177 32 252 97s121 144 138 237c16 93 -3 171 -56 236
s-125 98 -216 98c-93 0 -177 -33 -253 -98c-75 -65 -121 -143 -137 -236c-17 -93 2 -172 55 -237s126 -97 217 -97zM389 158c-53 0 -95 20 -127 59c-31 39 -42 86 -33 139c9 54 35 98 77 133s91 53 147 53c67 0 124 -38 152 -94l-55 -28c-23 40 -59 60 -108 60
c-38 0 -71 -13 -98 -39c-27 -25 -43 -56 -50 -91c-6 -35 0 -65 19 -91s46 -39 83 -39c48 0 96 22 124 65l51 -34c-41 -57 -109 -93 -182 -93z" />
    <glyph glyph-name="guillemotleft" unicode="&#xab;" horiz-adv-x="497" 
d="M222 489h87l-145 -185l77 -175h-82l-79 180zM382 489h87l-145 -185l77 -175h-82l-79 180z" />
    <glyph glyph-name="logicalnot" unicode="&#xac;" horiz-adv-x="520" 
d="M83 382h400l-31 -180h-66l20 116h-334z" />
    <glyph glyph-name="registered" unicode="&#xae;" horiz-adv-x="804" 
d="M484 712c99 0 177 -36 235 -109c59 -73 79 -159 62 -259c-18 -100 -68 -184 -150 -253s-174 -103 -275 -103c-99 0 -177 36 -236 109s-79 159 -61 259c17 100 67 184 149 253c83 69 175 103 276 103zM751 350c16 93 -3 171 -56 236s-125 98 -216 98
c-93 0 -177 -33 -253 -98c-75 -65 -121 -143 -137 -236c-17 -93 2 -172 55 -237s126 -97 217 -97c93 0 177 32 252 97s121 144 138 237zM342 535h118c84 0 127 -56 115 -123c-9 -54 -39 -89 -88 -105l54 -142h-65l-48 132h-10h-56l-23 -132h-62zM513 416c7 39 -12 59 -59 59
h-61l-20 -118h60c47 0 73 20 80 59z" />
    <glyph glyph-name="overscore" unicode="&#xaf;" horiz-adv-x="300" 
d="M338 580h-260l10 58h260z" />
    <glyph glyph-name="degree" unicode="&#xb0;" horiz-adv-x="386" 
d="M239 510c-43 0 -76 15 -101 45c-24 31 -32 67 -25 109s28 77 61 104c34 28 73 42 118 42c43 0 76 -15 100 -46c25 -30 33 -66 26 -108c-15 -85 -83 -146 -179 -146zM250 570c52 0 96 39 104 90c9 51 -21 90 -73 90s-95 -39 -104 -90c-8 -52 18 -90 73 -90z" />
    <glyph glyph-name="plusminus" unicode="&#xb1;" horiz-adv-x="541" 
d="M366 610l-29 -163h178l-11 -64h-178l-29 -163h-64l29 163h-178l11 64h178l29 163h64zM452 90h-420l11 64h420z" />
    <glyph glyph-name="acute" unicode="&#xb4;" horiz-adv-x="199" 
d="M76 570l100 130h82l-116 -130h-66z" />
    <glyph glyph-name="uni00B5" unicode="&#xb5;" horiz-adv-x="606" 
d="M544 500l-70 -400c-4 -21 7 -36 30 -36h39l-11 -64h-47c-44 0 -75 27 -79 70c-45 -55 -104 -82 -177 -82c-59 0 -102 21 -128 62l-44 -250h-66l123 700h66l-55 -311c-13 -88 24 -137 112 -137c96 0 174 59 195 186l46 262h66z" />
    <glyph glyph-name="paragraph" unicode="&#xb6;" horiz-adv-x="580" 
d="M319 700h300l-11 -62h-60l-147 -838h-64l147 838h-112l-147 -838h-64l88 500c-55 1 -99 21 -131 61c-31 40 -42 88 -33 143c10 55 37 102 82 139c45 38 96 57 152 57z" />
    <glyph glyph-name="middot" unicode="&#xb7;" horiz-adv-x="231" 
d="M123 295c-31 0 -50 25 -45 56s31 54 64 54c31 0 51 -25 46 -56c-7 -32 -30 -54 -65 -54z" />
    <glyph glyph-name="cedilla" unicode="&#xb8;" horiz-adv-x="245" 
d="M88 0l-8 -45c53 -11 85 -45 78 -86c-5 -30 -24 -53 -56 -69s-87 -21 -164 -16l10 54c96 -8 147 4 152 36c5 28 -29 42 -86 41l15 85h59z" />
    <glyph glyph-name="guillemotright" unicode="&#xbb;" horiz-adv-x="498" 
d="M117 489h82l79 -180l-142 -180h-87l145 185zM277 489h82l79 -180l-142 -180h-87l145 185z" />
    <glyph glyph-name="onequarter" unicode="&#xbc;" horiz-adv-x="821" 
d="M126 300l58 328l-95 -27l-7 57l124 42h53l-71 -400h-62zM83 0l518 700h65l-518 -700h-65zM729 133h51l-10 -58h-51l-13 -75h-62l13 75h-206l10 58l196 267h71l-195 -267h134l17 96h62z" />
    <glyph glyph-name="onehalf" unicode="&#xbd;" horiz-adv-x="807" 
d="M126 300l58 328l-95 -27l-7 57l124 42h53l-71 -400h-62zM83 0l518 700h65l-518 -700h-65zM777 286c-6 -39 -35 -80 -87 -122l-129 -104h182l-10 -60h-280l9 51l193 158c35 29 55 55 60 80c7 37 -16 63 -60 63c-35 0 -66 -21 -93 -64l-50 31c32 57 89 93 152 93
c76 0 124 -54 113 -126z" />
    <glyph glyph-name="threequarters" unicode="&#xbe;" horiz-adv-x="927" 
d="M341 411c-13 -76 -79 -123 -168 -123c-63 0 -105 28 -127 84l54 28c12 -35 40 -52 83 -52c53 0 89 26 96 69c8 41 -19 69 -71 69h-4l-23 47l104 107h-179l10 60h258l-10 -60l-106 -108c60 -15 94 -62 83 -121zM189 0l518 700h65l-518 -700h-65zM835 133h51l-10 -58h-51
l-13 -75h-62l13 75h-206l10 58l196 267h71l-195 -267h134l17 96h62z" />
    <glyph glyph-name="questiondown" unicode="&#xbf;" horiz-adv-x="531" 
d="M332 510c31 0 50 -25 45 -56s-31 -54 -64 -54c-31 0 -51 25 -46 56c7 32 30 54 65 54zM262 310h70c-12 -65 -51 -121 -95 -158c-63 -54 -143 -105 -155 -179c-13 -77 38 -117 119 -117c68 0 131 34 164 103l59 -35c-47 -89 -138 -136 -235 -136c-55 0 -101 17 -138 52
s-50 81 -39 139c9 57 49 107 93 142c64 53 142 105 157 189z" />
    <glyph glyph-name="Agrave" unicode="&#xc0;" horiz-adv-x="630" 
d="M389 900l58 -130h-64l-74 130h80zM576 0h-72l-34 172h-332l-96 -172h-76l392 700h72zM383 613l-209 -375h283z" />
    <glyph glyph-name="Aacute" unicode="&#xc1;" horiz-adv-x="630" 
d="M457 900h82l-116 -130h-66zM576 0h-72l-34 172h-332l-96 -172h-76l392 700h72zM383 613l-209 -375h283z" />
    <glyph glyph-name="Acircumflex" unicode="&#xc2;" horiz-adv-x="630" 
d="M480 770l-55 87l-85 -87h-78l128 130h78l84 -130h-72zM576 0h-72l-34 172h-332l-96 -172h-76l392 700h72zM383 613l-209 -375h283z" />
    <glyph glyph-name="Atilde" unicode="&#xc3;" horiz-adv-x="630" 
d="M412 803c-27 23 -39 32 -55 33c-15 1 -24 -17 -31 -56h-58c21 124 97 140 157 87c46 -40 71 -56 85 23h58c-21 -124 -95 -140 -156 -87zM576 0h-72l-34 172h-332l-96 -172h-76l392 700h72zM383 613l-209 -375h283z" />
    <glyph glyph-name="Adieresis" unicode="&#xc4;" horiz-adv-x="630" 
d="M275 820c4 25 28 45 53 45s41 -20 37 -45c-7 -58 -104 -58 -90 0zM465 820c4 25 28 45 53 45s41 -20 37 -45c-7 -58 -104 -58 -90 0zM576 0h-72l-34 172h-332l-96 -172h-76l392 700h72zM383 613l-209 -375h283z" />
    <glyph glyph-name="Aring" unicode="&#xc5;" horiz-adv-x="630" 
d="M576 0h-72l-34 172h-332l-96 -172h-76l375 670c-33 17 -50 53 -43 93c9 57 60 97 121 97c65 0 99 -47 91 -103c-7 -43 -32 -73 -73 -88zM353 760c-5 -29 11 -49 42 -49c32 0 56 21 61 49c5 29 -12 49 -43 49c-29 0 -55 -18 -60 -49zM383 613l-209 -375h283z" />
    <glyph glyph-name="AE" unicode="&#xc6;" horiz-adv-x="880" 
d="M914 700l-11 -66h-316l-43 -248h300l-12 -66h-300l-44 -254h320l-12 -66h-390l30 172h-262l-135 -172h-83l187 237v1h1l364 462h406zM512 602l-286 -364h222z" />
    <glyph glyph-name="Ccedilla" unicode="&#xc7;" horiz-adv-x="745" 
d="M470 644c-85 0 -160 -28 -225 -85s-104 -126 -118 -209c-14 -84 2 -154 47 -210s110 -84 194 -84c108 0 207 54 267 143l59 -37c-69 -100 -183 -165 -307 -173l-6 -34c53 -11 85 -45 78 -86c-5 -30 -24 -53 -56 -69s-87 -21 -164 -16l10 54c96 -8 147 4 152 36
c5 28 -29 42 -86 41l13 74c-96 9 -169 49 -219 120s-67 155 -50 251c18 101 66 184 145 251s168 101 267 101c136 0 238 -66 287 -174l-62 -33c-42 93 -117 139 -226 139z" />
    <glyph glyph-name="Egrave" unicode="&#xc8;" horiz-adv-x="530" 
d="M357 900l58 -130h-64l-74 130h80zM564 700l-11 -66h-336l-43 -248h310l-12 -66h-310l-44 -254h340l-12 -66h-410l123 700h405z" />
    <glyph glyph-name="Eacute" unicode="&#xc9;" horiz-adv-x="530" 
d="M425 900h82l-116 -130h-66zM564 700l-11 -66h-336l-43 -248h310l-12 -66h-310l-44 -254h340l-12 -66h-410l123 700h405z" />
    <glyph glyph-name="Ecircumflex" unicode="&#xca;" horiz-adv-x="530" 
d="M448 770l-55 87l-85 -87h-78l128 130h78l84 -130h-72zM564 700l-11 -66h-336l-43 -248h310l-12 -66h-310l-44 -254h340l-12 -66h-410l123 700h405z" />
    <glyph glyph-name="Edieresis" unicode="&#xcb;" horiz-adv-x="530" 
d="M243 820c4 25 28 45 53 45s41 -20 37 -45c-7 -58 -104 -58 -90 0zM433 820c4 25 28 45 53 45s41 -20 37 -45c-7 -58 -104 -58 -90 0zM564 700l-11 -66h-336l-43 -248h310l-12 -66h-310l-44 -254h340l-12 -66h-410l123 700h405z" />
    <glyph glyph-name="Igrave" unicode="&#xcc;" horiz-adv-x="230" 
d="M247 770h-64l-74 130h80zM159 700l-123 -700h70l123 700h-70z" />
    <glyph glyph-name="Iacute" unicode="&#xcd;" horiz-adv-x="230" 
d="M157 770l100 130h82l-116 -130h-66zM159 700l-123 -700h70l123 700h-70z" />
    <glyph glyph-name="Icircumflex" unicode="&#xce;" horiz-adv-x="230" 
d="M190 900h78l84 -130h-72l-55 87l-85 -87h-78zM106 0h-70l123 700h70z" />
    <glyph glyph-name="Idieresis" unicode="&#xcf;" horiz-adv-x="230" 
d="M75 820c4 25 28 45 53 45s41 -20 37 -45c-7 -58 -104 -58 -90 0zM265 820c4 25 28 45 53 45s41 -20 37 -45c-7 -58 -104 -58 -90 0zM36 0l123 700h70l-123 -700h-70z" />
    <glyph glyph-name="Eth" unicode="&#xd0;" horiz-adv-x="742" 
d="M179 700h270c93 0 165 -36 217 -107s69 -155 52 -253c-17 -97 -63 -178 -136 -243s-158 -97 -256 -97h-270l56 318h-70l11 64h70zM438 634h-201l-44 -252h220l-11 -64h-220l-44 -252h200c77 0 144 27 203 82s95 122 109 202s1 147 -38 202s-97 82 -174 82z" />
    <glyph glyph-name="Ntilde" unicode="&#xd1;" horiz-adv-x="680" 
d="M351 780h-58c21 124 97 140 157 87c46 -40 71 -56 85 23h58c-21 -124 -95 -140 -156 -87c-27 23 -39 32 -55 33c-15 1 -24 -17 -31 -56zM106 0h-70l123 700h54l297 -569l99 569h70l-123 -700h-54l-296 569z" />
    <glyph glyph-name="Ograve" unicode="&#xd2;" horiz-adv-x="808" 
d="M535 770h-64l-74 130h80zM360 -12c105 0 198 33 277 98s128 148 146 249c38 195 -103 381 -303 377c-104 0 -196 -34 -276 -101c-79 -67 -128 -150 -145 -251c-18 -101 2 -188 61 -262c59 -73 139 -110 240 -110zM372 56c-84 0 -149 28 -196 85c-46 57 -62 127 -47 209
c14 83 53 152 117 209s138 85 222 85c85 0 150 -29 196 -88c47 -58 63 -128 49 -211c-15 -83 -54 -152 -118 -207c-63 -55 -138 -82 -223 -82z" />
    <glyph glyph-name="Oacute" unicode="&#xd3;" horiz-adv-x="808" 
d="M445 770l100 130h82l-116 -130h-66zM360 -12c105 0 198 33 277 98s128 148 146 249c38 195 -103 381 -303 377c-104 0 -196 -34 -276 -101c-79 -67 -128 -150 -145 -251c-18 -101 2 -188 61 -262c59 -73 139 -110 240 -110zM372 56c-84 0 -149 28 -196 85
c-46 57 -62 127 -47 209c14 83 53 152 117 209s138 85 222 85c85 0 150 -29 196 -88c47 -58 63 -128 49 -211c-15 -83 -54 -152 -118 -207c-63 -55 -138 -82 -223 -82z" />
    <glyph glyph-name="Ocircumflex" unicode="&#xd4;" horiz-adv-x="808" 
d="M568 770l-55 87l-85 -87h-78l128 130h78l84 -130h-72zM480 712c200 4 341 -182 303 -377c-18 -101 -67 -184 -146 -249s-172 -98 -277 -98c-101 0 -181 37 -240 110c-59 74 -79 161 -61 262c17 101 66 184 145 251c80 67 172 101 276 101zM713 345c14 83 -2 153 -49 211
c-46 59 -111 88 -196 88c-84 0 -158 -28 -222 -85s-103 -126 -117 -209c-15 -82 1 -152 47 -209c47 -57 112 -85 196 -85c85 0 160 27 223 82c64 55 103 124 118 207z" />
    <glyph glyph-name="Otilde" unicode="&#xd5;" horiz-adv-x="808" 
d="M414 780h-58c21 124 97 140 157 87c46 -40 71 -56 85 23h58c-21 -124 -95 -140 -156 -87c-27 23 -39 32 -55 33c-15 1 -24 -17 -31 -56zM360 -12c-101 0 -181 37 -240 110c-59 74 -79 161 -61 262c17 101 66 184 145 251c80 67 172 101 276 101c200 4 341 -182 303 -377
c-18 -101 -67 -184 -146 -249s-172 -98 -277 -98zM372 56c85 0 160 27 223 82c64 55 103 124 118 207c14 83 -2 153 -49 211c-46 59 -111 88 -196 88c-84 0 -158 -28 -222 -85s-103 -126 -117 -209c-15 -82 1 -152 47 -209c47 -57 112 -85 196 -85z" />
    <glyph glyph-name="Odieresis" unicode="&#xd6;" horiz-adv-x="808" 
d="M363 820c4 25 28 45 53 45s41 -20 37 -45c-7 -58 -104 -58 -90 0zM553 820c4 25 28 45 53 45s41 -20 37 -45c-7 -58 -104 -58 -90 0zM360 -12c-101 0 -181 37 -240 110c-59 74 -79 161 -61 262c17 101 66 184 145 251c80 67 172 101 276 101c200 4 341 -182 303 -377
c-18 -101 -67 -184 -146 -249s-172 -98 -277 -98zM372 56c85 0 160 27 223 82c64 55 103 124 118 207c14 83 -2 153 -49 211c-46 59 -111 88 -196 88c-84 0 -158 -28 -222 -85s-103 -126 -117 -209c-15 -82 1 -152 47 -209c47 -57 112 -85 196 -85z" />
    <glyph glyph-name="multiply" unicode="&#xd7;" horiz-adv-x="471" 
d="M421 534l43 -42l-167 -144l117 -140l-49 -42l-117 140l-163 -140l-42 42l167 144l-117 140l48 42l117 -140z" />
    <glyph glyph-name="Oslash" unicode="&#xd8;" horiz-adv-x="818" 
d="M793 671l-67 -66c63 -76 85 -166 67 -270c-18 -101 -67 -184 -146 -249s-172 -98 -277 -98c-78 0 -145 23 -200 70l-59 -58l-45 28l68 67c-61 73 -83 162 -65 265c17 101 66 184 145 251c80 67 172 101 276 101c77 0 144 -23 199 -70l59 58zM139 350
c-14 -81 1 -150 45 -206l454 448c-43 35 -97 52 -160 52c-84 0 -158 -28 -222 -85s-103 -126 -117 -209zM723 345c15 83 -1 153 -48 210l-454 -447c43 -35 97 -52 161 -52c85 0 160 27 223 82c64 55 103 124 118 207z" />
    <glyph glyph-name="Ugrave" unicode="&#xd9;" horiz-adv-x="660" 
d="M461 770h-64l-74 130h80zM294 -12c75 0 140 22 193 66c53 45 87 106 101 184l81 462h-70l-81 -462c-19 -108 -103 -182 -224 -182c-119 0 -176 71 -156 182l81 462h-70l-81 -462c-13 -74 2 -134 44 -181c43 -46 103 -69 182 -69z" />
    <glyph glyph-name="Uacute" unicode="&#xda;" horiz-adv-x="660" 
d="M371 770l100 130h82l-116 -130h-66zM294 -12c75 0 140 22 193 66c53 45 87 106 101 184l81 462h-70l-81 -462c-19 -108 -103 -182 -224 -182c-119 0 -176 71 -156 182l81 462h-70l-81 -462c-13 -74 2 -134 44 -181c43 -46 103 -69 182 -69z" />
    <glyph glyph-name="Ucircumflex" unicode="&#xdb;" horiz-adv-x="660" 
d="M494 770l-55 87l-85 -87h-78l128 130h78l84 -130h-72zM518 238l81 462h70l-81 -462c-14 -78 -48 -139 -101 -184c-53 -44 -118 -66 -193 -66c-79 0 -139 23 -182 69c-42 47 -57 107 -44 181l81 462h70l-81 -462c-20 -111 37 -182 156 -182c121 0 205 74 224 182z" />
    <glyph glyph-name="Udieresis" unicode="&#xdc;" horiz-adv-x="660" 
d="M289 820c4 25 28 45 53 45s41 -20 37 -45c-7 -58 -104 -58 -90 0zM479 820c4 25 28 45 53 45s41 -20 37 -45c-7 -58 -104 -58 -90 0zM294 -12c-79 0 -139 23 -182 69c-42 47 -57 107 -44 181l81 462h70l-81 -462c-20 -111 37 -182 156 -182c121 0 205 74 224 182l81 462
h70l-81 -462c-14 -78 -48 -139 -101 -184c-53 -44 -118 -66 -193 -66z" />
    <glyph glyph-name="Yacute" unicode="&#xdd;" horiz-adv-x="575" 
d="M426 900h82l-116 -130h-66zM562 700h82l-309 -374l-57 -326h-70l57 327l-176 373h72l146 -309z" />
    <glyph glyph-name="Thorn" unicode="&#xde;" horiz-adv-x="590" 
d="M206 570h176c66 0 116 -21 150 -63c35 -42 47 -94 36 -157s-41 -116 -90 -158c-49 -41 -112 -62 -189 -62h-160l-23 -130h-70l123 700h70zM500 360c15 88 -34 144 -125 144h-180l-55 -308h157c111 0 187 69 203 164z" />
    <glyph glyph-name="germandbls" unicode="&#xdf;" horiz-adv-x="516" 
d="M244 -3l11 60c93 -5 145 23 156 84c8 43 -19 95 -50 130c-29 36 -57 84 -50 123c4 50 112 105 119 167c9 55 -30 87 -95 87c-33 0 -65 -11 -95 -32s-49 -57 -58 -106l-90 -510h-66l91 515c23 131 114 197 226 197c53 0 93 -15 122 -46c29 -30 40 -67 31 -110
c-11 -74 -116 -138 -118 -169c-5 -27 24 -68 53 -104c29 -35 54 -93 45 -148c-16 -95 -93 -147 -232 -138z" />
    <glyph glyph-name="agrave" unicode="&#xe0;" horiz-adv-x="638" 
d="M341 700l58 -130h-64l-74 130h80zM527 394l19 106h66l-88 -500h-66l15 85c-54 -65 -126 -97 -217 -97c-70 0 -126 27 -169 81s-58 118 -45 191c14 80 48 142 103 186s116 66 183 66c87 0 164 -42 199 -118zM272 52c55 0 104 17 147 52s70 80 81 134l2 12
c9 61 -3 110 -38 145c-34 35 -78 53 -131 53c-52 0 -100 -17 -144 -51c-43 -34 -70 -81 -81 -142c-9 -56 2 -104 33 -144c31 -39 75 -59 131 -59z" />
    <glyph glyph-name="aacute" unicode="&#xe1;" horiz-adv-x="638" 
d="M409 700h82l-116 -130h-66zM527 394l19 106h66l-88 -500h-66l15 85c-54 -65 -126 -97 -217 -97c-70 0 -126 27 -169 81s-58 118 -45 191c14 80 48 142 103 186s116 66 183 66c87 0 164 -42 199 -118zM272 52c55 0 104 17 147 52s70 80 81 134l2 12c9 61 -3 110 -38 145
c-34 35 -78 53 -131 53c-52 0 -100 -17 -144 -51c-43 -34 -70 -81 -81 -142c-9 -56 2 -104 33 -144c31 -39 75 -59 131 -59z" />
    <glyph glyph-name="acircumflex" unicode="&#xe2;" horiz-adv-x="638" 
d="M432 570l-55 87l-85 -87h-78l128 130h78l84 -130h-72zM527 394l19 106h66l-88 -500h-66l15 85c-54 -65 -126 -97 -217 -97c-70 0 -126 27 -169 81s-58 118 -45 191c14 80 48 142 103 186s116 66 183 66c87 0 164 -42 199 -118zM272 52c55 0 104 17 147 52s70 80 81 134
l2 12c9 61 -3 110 -38 145c-34 35 -78 53 -131 53c-52 0 -100 -17 -144 -51c-43 -34 -70 -81 -81 -142c-9 -56 2 -104 33 -144c31 -39 75 -59 131 -59z" />
    <glyph glyph-name="atilde" unicode="&#xe3;" horiz-adv-x="638" 
d="M364 603c-27 23 -39 32 -55 33c-15 1 -24 -17 -31 -56h-58c21 124 97 140 157 87c46 -40 71 -56 85 23h58c-21 -124 -95 -140 -156 -87zM527 394l19 106h66l-88 -500h-66l15 85c-54 -65 -126 -97 -217 -97c-70 0 -126 27 -169 81s-58 118 -45 191c14 80 48 142 103 186
s116 66 183 66c87 0 164 -42 199 -118zM272 52c55 0 104 17 147 52s70 80 81 134l2 12c9 61 -3 110 -38 145c-34 35 -78 53 -131 53c-52 0 -100 -17 -144 -51c-43 -34 -70 -81 -81 -142c-9 -56 2 -104 33 -144c31 -39 75 -59 131 -59z" />
    <glyph glyph-name="adieresis" unicode="&#xe4;" horiz-adv-x="638" 
d="M227 620c4 25 28 45 53 45s41 -20 37 -45c-7 -58 -104 -58 -90 0zM417 620c4 25 28 45 53 45s41 -20 37 -45c-7 -58 -104 -58 -90 0zM527 394l19 106h66l-88 -500h-66l15 85c-54 -65 -126 -97 -217 -97c-70 0 -126 27 -169 81s-58 118 -45 191c14 80 48 142 103 186
s116 66 183 66c87 0 164 -42 199 -118zM272 52c55 0 104 17 147 52s70 80 81 134l2 12c9 61 -3 110 -38 145c-34 35 -78 53 -131 53c-52 0 -100 -17 -144 -51c-43 -34 -70 -81 -81 -142c-9 -56 2 -104 33 -144c31 -39 75 -59 131 -59z" />
    <glyph glyph-name="aring" unicode="&#xe5;" horiz-adv-x="638" 
d="M358 550c-65 0 -100 46 -91 103s60 97 121 97c65 0 99 -47 91 -103c-9 -57 -58 -97 -121 -97zM322 650c-5 -29 11 -49 42 -49c32 0 56 21 61 49c5 29 -12 49 -43 49c-29 0 -55 -18 -60 -49zM527 394l19 106h66l-88 -500h-66l15 85c-54 -65 -126 -97 -217 -97
c-70 0 -126 27 -169 81s-58 118 -45 191c14 80 48 142 103 186s116 66 183 66c87 0 164 -42 199 -118zM272 52c55 0 104 17 147 52s70 80 81 134l2 12c9 61 -3 110 -38 145c-34 35 -78 53 -131 53c-52 0 -100 -17 -144 -51c-43 -34 -70 -81 -81 -142c-9 -56 2 -104 33 -144
c31 -39 75 -59 131 -59z" />
    <glyph glyph-name="ae" unicode="&#xe6;" horiz-adv-x="1044" 
d="M811 512c70 0 124 -27 162 -80s50 -114 36 -184l-8 -31h-437c-4 -101 60 -165 165 -165c77 0 137 28 180 85l52 -34c-56 -71 -143 -115 -235 -115s-156 42 -184 114l-18 -102h-66l15 85c-54 -65 -126 -97 -217 -97c-70 0 -126 27 -169 81s-58 118 -45 191
c14 80 48 142 103 186s116 66 183 66c87 0 164 -42 199 -118l19 106h66l-17 -97c54 73 126 109 216 109zM272 52c55 0 104 17 147 52s70 80 81 134l2 12c9 61 -3 110 -38 145c-34 35 -78 53 -131 53c-52 0 -100 -17 -144 -51c-43 -34 -70 -81 -81 -142
c-9 -56 2 -104 33 -144c31 -39 75 -59 131 -59zM575 281h371c8 105 -56 167 -149 167c-107 0 -191 -67 -222 -167z" />
    <glyph glyph-name="ccedilla" unicode="&#xe7;" horiz-adv-x="553" 
d="M269 52c76 0 144 39 183 100l53 -35c-48 -76 -130 -121 -226 -128l-6 -34c53 -11 85 -45 78 -86c-5 -30 -24 -53 -56 -69s-87 -21 -164 -16l10 54c96 -8 147 4 152 36c5 28 -29 42 -86 41l13 76c-62 9 -110 40 -145 91c-34 52 -45 112 -33 179c13 73 48 133 105 180
s123 71 198 71c97 0 176 -50 204 -130l-57 -29c-21 59 -77 95 -153 95c-57 0 -107 -19 -151 -56c-43 -37 -70 -83 -80 -138c-9 -57 1 -105 31 -144s73 -58 130 -58z" />
    <glyph glyph-name="egrave" unicode="&#xe8;" horiz-adv-x="584" 
d="M340 700l58 -130h-64l-74 130h80zM339 512c75 0 133 -26 172 -78c40 -52 53 -114 38 -186c-2 -12 -5 -22 -8 -31h-437c-4 -101 62 -165 167 -165c77 0 136 29 177 86l52 -34c-48 -73 -143 -116 -238 -116c-77 0 -137 26 -178 78s-55 117 -42 194c13 73 47 134 103 181
c57 47 121 71 194 71zM114 281h372c8 109 -54 167 -151 167c-105 0 -190 -66 -221 -167z" />
    <glyph glyph-name="eacute" unicode="&#xe9;" horiz-adv-x="584" 
d="M408 700h82l-116 -130h-66zM339 512c75 0 133 -26 172 -78c40 -52 53 -114 38 -186c-2 -12 -5 -22 -8 -31h-437c-4 -101 62 -165 167 -165c77 0 136 29 177 86l52 -34c-48 -73 -143 -116 -238 -116c-77 0 -137 26 -178 78s-55 117 -42 194c13 73 47 134 103 181
c57 47 121 71 194 71zM114 281h372c8 109 -54 167 -151 167c-105 0 -190 -66 -221 -167z" />
    <glyph glyph-name="ecircumflex" unicode="&#xea;" horiz-adv-x="584" 
d="M431 570l-55 87l-85 -87h-78l128 130h78l84 -130h-72zM339 512c75 0 133 -26 172 -78c40 -52 53 -114 38 -186c-2 -12 -5 -22 -8 -31h-437c-4 -101 62 -165 167 -165c77 0 136 29 177 86l52 -34c-48 -73 -143 -116 -238 -116c-77 0 -137 26 -178 78s-55 117 -42 194
c13 73 47 134 103 181c57 47 121 71 194 71zM114 281h372c8 109 -54 167 -151 167c-105 0 -190 -66 -221 -167z" />
    <glyph glyph-name="edieresis" unicode="&#xeb;" horiz-adv-x="584" 
d="M226 620c4 25 28 45 53 45s41 -20 37 -45c-7 -58 -104 -58 -90 0zM416 620c4 25 28 45 53 45s41 -20 37 -45c-7 -58 -104 -58 -90 0zM339 512c75 0 133 -26 172 -78c40 -52 53 -114 38 -186c-2 -12 -5 -22 -8 -31h-437c-4 -101 62 -165 167 -165c77 0 136 29 177 86
l52 -34c-48 -73 -143 -116 -238 -116c-77 0 -137 26 -178 78s-55 117 -42 194c13 73 47 134 103 181c57 47 121 71 194 71zM114 281h372c8 109 -54 167 -151 167c-105 0 -190 -66 -221 -167z" />
    <glyph glyph-name="igrave" unicode="&#xec;" horiz-adv-x="206" 
d="M191 570h-64l-44 130h80zM92 0l88 500h-66l-88 -500h66z" />
    <glyph glyph-name="iacute" unicode="&#xed;" horiz-adv-x="206" 
d="M130 570l72 130h80l-88 -130h-64zM26 0h66l88 500h-66z" />
    <glyph glyph-name="icircumflex" unicode="&#xee;" horiz-adv-x="206" 
d="M143 700h78l64 -130h-75l-37 76l-63 -76h-75zM92 0h-66l88 500h66z" />
    <glyph glyph-name="idieresis" unicode="&#xef;" horiz-adv-x="206" 
d="M54 620c4 25 28 45 53 45s41 -20 37 -45c-7 -58 -104 -58 -90 0zM263 588c-20 -17 -49 -17 -64 0c-13 17 -9 47 11 64c21 17 50 17 65 0s8 -47 -12 -64zM92 0h-66l88 500h66z" />
    <glyph glyph-name="eth" unicode="&#xf0;" horiz-adv-x="587" 
d="M379 604l134 -232c23 -40 36 -105 28 -157c-13 -72 -46 -128 -99 -168c-52 -39 -114 -59 -185 -59c-126 0 -245 109 -218 257c11 67 42 120 92 159c51 39 109 58 174 58c36 0 68 -7 96 -22l-76 135l-134 -75l11 60l100 56l-47 84h68l32 -55l121 67l-11 -60zM475 220
c8 45 3 83 -14 113c-28 47 -78 71 -149 71c-109 0 -190 -60 -207 -164c-10 -54 1 -99 34 -135c33 -35 76 -53 129 -53c104 0 188 61 207 168z" />
    <glyph glyph-name="ntilde" unicode="&#xf1;" horiz-adv-x="558" 
d="M337 603c-27 23 -39 32 -55 33c-15 1 -24 -17 -31 -56h-58c21 124 97 140 157 87c46 -40 71 -56 85 23h58c-21 -124 -95 -140 -156 -87zM345 512c121 0 186 -81 165 -205l-54 -307h-66l54 307c15 91 -22 141 -111 141c-93 0 -169 -56 -193 -176l-48 -272h-66l88 500h66
l-12 -70c45 55 104 82 177 82z" />
    <glyph glyph-name="ograve" unicode="&#xf2;" horiz-adv-x="607" 
d="M401 570h-64l-74 130h80zM263 -12c91 0 175 34 240 114c33 40 54 88 63 144c14 79 -1 143 -46 192c-44 49 -100 74 -169 74c-71 0 -137 -23 -198 -68s-98 -108 -112 -189s2 -145 47 -194c46 -49 104 -73 175 -73zM269 52c-53 -1 -96 16 -129 51s-44 84 -33 147
c11 62 39 110 84 145s95 52 148 53c53 0 95 -17 128 -52s45 -82 34 -143c-11 -63 -39 -113 -84 -148s-95 -53 -148 -53z" />
    <glyph glyph-name="oacute" unicode="&#xf3;" horiz-adv-x="607" 
d="M311 570l100 130h82l-116 -130h-66zM263 -12c91 0 175 34 240 114c33 40 54 88 63 144c14 79 -1 143 -46 192c-44 49 -100 74 -169 74c-71 0 -137 -23 -198 -68s-98 -108 -112 -189s2 -145 47 -194c46 -49 104 -73 175 -73zM269 52c-53 -1 -96 16 -129 51s-44 84 -33 147
c11 62 39 110 84 145s95 52 148 53c53 0 95 -17 128 -52s45 -82 34 -143c-11 -63 -39 -113 -84 -148s-95 -53 -148 -53z" />
    <glyph glyph-name="ocircumflex" unicode="&#xf4;" horiz-adv-x="607" 
d="M434 570l-55 87l-85 -87h-78l128 130h78l84 -130h-72zM351 512c69 0 125 -25 169 -74c45 -49 60 -113 46 -192c-9 -56 -30 -104 -63 -144c-65 -80 -149 -114 -240 -114c-71 0 -129 24 -175 73c-45 49 -61 113 -47 194s51 144 112 189s127 68 198 68zM501 253
c11 61 -1 108 -34 143s-75 52 -128 52c-53 -1 -103 -18 -148 -53s-73 -83 -84 -145c-11 -63 0 -112 33 -147s76 -52 129 -51c53 0 103 18 148 53s73 85 84 148z" />
    <glyph glyph-name="otilde" unicode="&#xf5;" horiz-adv-x="607" 
d="M280 580h-58c21 124 97 140 157 87c46 -40 71 -56 85 23h58c-21 -124 -95 -140 -156 -87c-27 23 -39 32 -55 33c-15 1 -24 -17 -31 -56zM263 -12c-71 0 -129 24 -175 73c-45 49 -61 113 -47 194s51 144 112 189s127 68 198 68c69 0 125 -25 169 -74
c45 -49 60 -113 46 -192c-9 -56 -30 -104 -63 -144c-65 -80 -149 -114 -240 -114zM269 52c53 0 103 18 148 53s73 85 84 148c11 61 -1 108 -34 143s-75 52 -128 52c-53 -1 -103 -18 -148 -53s-73 -83 -84 -145c-11 -63 0 -112 33 -147s76 -52 129 -51z" />
    <glyph glyph-name="odieresis" unicode="&#xf6;" horiz-adv-x="607" 
d="M229 620c4 25 28 45 53 45s41 -20 37 -45c-7 -58 -104 -58 -90 0zM419 620c4 25 28 45 53 45s41 -20 37 -45c-7 -58 -104 -58 -90 0zM263 -12c-71 0 -129 24 -175 73c-45 49 -61 113 -47 194s51 144 112 189s127 68 198 68c69 0 125 -25 169 -74c45 -49 60 -113 46 -192
c-9 -56 -30 -104 -63 -144c-65 -80 -149 -114 -240 -114zM269 52c53 0 103 18 148 53s73 85 84 148c11 61 -1 108 -34 143s-75 52 -128 52c-53 -1 -103 -18 -148 -53s-73 -83 -84 -145c-11 -63 0 -112 33 -147s76 -52 129 -51z" />
    <glyph glyph-name="divide" unicode="&#xf7;" horiz-adv-x="580" 
d="M331 482c-31 0 -50 26 -45 57s32 53 64 53c31 0 51 -26 46 -57c-7 -31 -32 -53 -65 -53zM532 318h-460l11 64h460zM265 108c-31 0 -50 26 -45 57s32 53 64 53c31 0 51 -26 46 -57c-7 -31 -32 -53 -65 -53z" />
    <glyph glyph-name="oslash" unicode="&#xf8;" horiz-adv-x="607" 
d="M543 505l40 -25l-55 -51c38 -49 51 -110 38 -183c-9 -56 -30 -104 -63 -144c-65 -80 -149 -114 -240 -114c-59 0 -109 17 -150 50l-46 -43l-40 25l53 50c-39 50 -52 112 -39 185c14 81 51 144 112 189s127 68 198 68c55 0 104 -17 146 -50zM107 250
c-9 -54 -1 -98 23 -133l317 298c-30 22 -66 33 -108 33c-53 -1 -103 -18 -148 -53s-73 -83 -84 -145zM501 253c9 51 2 94 -22 129l-317 -298c28 -21 64 -32 107 -32c53 0 103 18 148 53s73 85 84 148z" />
    <glyph glyph-name="ugrave" unicode="&#xf9;" horiz-adv-x="558" 
d="M309 700l58 -130h-64l-74 130h80zM418 228l48 272h66l-88 -500h-66l12 70c-45 -55 -104 -82 -177 -82c-121 0 -186 81 -165 205l54 307h66l-54 -307c-15 -91 22 -141 111 -141c93 0 169 56 193 176z" />
    <glyph glyph-name="uacute" unicode="&#xfa;" horiz-adv-x="558" 
d="M377 700h82l-116 -130h-66zM418 228l48 272h66l-88 -500h-66l12 70c-45 -55 -104 -82 -177 -82c-121 0 -186 81 -165 205l54 307h66l-54 -307c-15 -91 22 -141 111 -141c93 0 169 56 193 176z" />
    <glyph glyph-name="ucircumflex" unicode="&#xfb;" horiz-adv-x="558" 
d="M400 570l-55 87l-85 -87h-78l128 130h78l84 -130h-72zM418 228l48 272h66l-88 -500h-66l12 70c-45 -55 -104 -82 -177 -82c-121 0 -186 81 -165 205l54 307h66l-54 -307c-15 -91 22 -141 111 -141c93 0 169 56 193 176z" />
    <glyph glyph-name="udieresis" unicode="&#xfc;" horiz-adv-x="558" 
d="M195 620c4 25 28 45 53 45s41 -20 37 -45c-7 -58 -104 -58 -90 0zM385 620c4 25 28 45 53 45s41 -20 37 -45c-7 -58 -104 -58 -90 0zM418 228l48 272h66l-88 -500h-66l12 70c-45 -55 -104 -82 -177 -82c-121 0 -186 81 -165 205l54 307h66l-54 -307
c-15 -91 22 -141 111 -141c93 0 169 56 193 176z" />
    <glyph glyph-name="yacute" unicode="&#xfd;" horiz-adv-x="510" 
d="M345 700h82l-116 -130h-66zM232 75l238 425h74l-310 -546c-60 -105 -141 -161 -229 -154l11 62c55 -6 106 29 151 104l21 35l-134 499h67z" />
    <glyph glyph-name="thorn" unicode="&#xfe;" horiz-adv-x="638" 
d="M382 512c70 0 126 -27 169 -81s58 -118 45 -191c-14 -80 -49 -142 -104 -186s-115 -66 -182 -66c-87 0 -166 42 -199 118l-54 -306h-66l158 900h66l-50 -286c55 65 127 98 217 98zM530 245c9 56 -2 104 -33 143c-31 40 -75 60 -131 60c-55 0 -105 -18 -148 -53
s-69 -80 -80 -135l-2 -10c-9 -61 3 -110 37 -145c35 -35 79 -53 132 -53c52 0 100 17 143 51c44 34 71 81 82 142z" />
    <glyph glyph-name="ydieresis" unicode="&#xff;" horiz-adv-x="510" 
d="M163 620c4 25 28 45 53 45s41 -20 37 -45c-7 -58 -104 -58 -90 0zM353 620c4 25 28 45 53 45s41 -20 37 -45c-7 -58 -104 -58 -90 0zM232 75l238 425h74l-310 -546c-60 -105 -141 -161 -229 -154l11 62c55 -6 106 29 151 104l21 35l-134 499h67z" />
    <glyph glyph-name="Amacron" unicode="&#x100;" horiz-adv-x="630" 
d="M288 838h260l-10 -58h-260zM576 0h-72l-34 172h-332l-96 -172h-76l392 700h72zM383 613l-209 -375h283z" />
    <glyph glyph-name="amacron" unicode="&#x101;" horiz-adv-x="638" 
d="M240 638h260l-10 -58h-260zM527 394l19 106h66l-88 -500h-66l15 85c-54 -65 -126 -97 -217 -97c-70 0 -126 27 -169 81s-58 118 -45 191c14 80 48 142 103 186s116 66 183 66c87 0 164 -42 199 -118zM272 52c55 0 104 17 147 52s70 80 81 134l2 12c9 61 -3 110 -38 145
c-34 35 -78 53 -131 53c-52 0 -100 -17 -144 -51c-43 -34 -70 -81 -81 -142c-9 -56 2 -104 33 -144c31 -39 75 -59 131 -59z" />
    <glyph glyph-name="Abreve" unicode="&#x102;" horiz-adv-x="630" 
d="M406 762c-81 0 -133 50 -118 130h64c-9 -52 12 -72 63 -72s80 24 89 72h64c-15 -84 -71 -130 -162 -130zM576 0h-72l-34 172h-332l-96 -172h-76l392 700h72zM383 613l-209 -375h283z" />
    <glyph glyph-name="abreve" unicode="&#x103;" horiz-adv-x="638" 
d="M358 562c-81 0 -133 50 -118 130h64c-9 -52 12 -72 63 -72s80 24 89 72h64c-15 -84 -71 -130 -162 -130zM527 394l19 106h66l-88 -500h-66l15 85c-54 -65 -126 -97 -217 -97c-70 0 -126 27 -169 81s-58 118 -45 191c14 80 48 142 103 186s116 66 183 66
c87 0 164 -42 199 -118zM272 52c55 0 104 17 147 52s70 80 81 134l2 12c9 61 -3 110 -38 145c-34 35 -78 53 -131 53c-52 0 -100 -17 -144 -51c-43 -34 -70 -81 -81 -142c-9 -56 2 -104 33 -144c31 -39 75 -59 131 -59z" />
    <glyph glyph-name="Aogonek" unicode="&#x104;" horiz-adv-x="630" 
d="M478 -124c-4 -21 6 -31 29 -31c15 0 29 2 43 7l-9 -52c-18 -8 -38 -12 -61 -12c-48 0 -77 36 -69 81c7 41 38 84 93 131l-34 172h-332l-96 -172h-76l392 700h72l146 -700c-59 -47 -91 -88 -98 -124zM383 613l-209 -375h283z" />
    <glyph glyph-name="aogonek" unicode="&#x105;" horiz-adv-x="639" 
d="M612 500l-88 -500c-61 -49 -94 -90 -98 -124c-3 -21 7 -31 29 -31c14 0 28 3 43 9l-9 -55c-20 -7 -40 -11 -61 -11c-52 0 -77 34 -69 81c7 40 41 88 101 143l13 73c-54 -65 -126 -97 -217 -97c-70 0 -126 27 -169 81s-58 118 -45 191c14 80 48 142 103 186s116 66 183 66
c87 0 164 -42 199 -118l19 106h66zM272 52c55 0 104 17 147 52s70 80 81 134l2 12c9 61 -3 110 -38 145c-34 35 -78 53 -131 53c-52 0 -100 -17 -144 -51c-43 -34 -70 -81 -81 -142c-9 -56 2 -104 33 -144c31 -39 75 -59 131 -59z" />
    <glyph glyph-name="Cacute" unicode="&#x106;" horiz-adv-x="745" 
d="M448 770l100 130h82l-116 -130h-66zM360 -12c67 0 130 16 189 47s108 74 145 127l-59 37c-60 -89 -159 -143 -267 -143c-84 0 -149 28 -194 84s-61 126 -47 210c14 83 53 152 118 209s140 85 225 85c109 0 184 -46 226 -139l62 33c-49 108 -151 174 -287 174
c-99 0 -188 -34 -267 -101s-127 -150 -145 -251s1 -189 58 -262s138 -110 243 -110z" />
    <glyph glyph-name="cacute" unicode="&#x107;" horiz-adv-x="553" 
d="M295 570l100 130h82l-116 -130h-66zM258 -12c105 0 196 48 247 129l-53 35c-39 -61 -107 -100 -183 -100c-57 0 -100 19 -130 58s-40 87 -31 144c10 55 37 101 80 138c44 37 94 56 151 56c76 0 132 -36 153 -95l57 29c-28 80 -107 130 -204 130c-75 0 -141 -24 -198 -71
s-92 -107 -105 -180c-13 -75 1 -139 43 -193c43 -53 100 -80 173 -80z" />
    <glyph glyph-name="Cdotaccent" unicode="&#x10a;" horiz-adv-x="745" 
d="M562 825c-7 -31 -34 -55 -65 -55s-50 24 -45 55s33 55 64 55s51 -24 46 -55zM360 -12c-105 0 -186 37 -243 110s-76 161 -58 262s66 184 145 251s168 101 267 101c136 0 238 -66 287 -174l-62 -33c-42 93 -117 139 -226 139c-85 0 -160 -28 -225 -85s-104 -126 -118 -209
c-14 -84 2 -154 47 -210s110 -84 194 -84c108 0 207 54 267 143l59 -37c-37 -53 -86 -96 -145 -127s-122 -47 -189 -47z" />
    <glyph glyph-name="cdotaccent" unicode="&#x10b;" horiz-adv-x="553" 
d="M409 625c-7 -31 -34 -55 -65 -55s-50 24 -45 55s33 55 64 55s51 -24 46 -55zM258 -12c-73 0 -130 27 -173 80c-42 54 -56 118 -43 193c13 73 48 133 105 180s123 71 198 71c97 0 176 -50 204 -130l-57 -29c-21 59 -77 95 -153 95c-57 0 -107 -19 -151 -56
c-43 -37 -70 -83 -80 -138c-9 -57 1 -105 31 -144s73 -58 130 -58c76 0 144 39 183 100l53 -35c-51 -81 -142 -129 -247 -129z" />
    <glyph glyph-name="Ccaron" unicode="&#x10c;" horiz-adv-x="745" 
d="M537 770h-78l-84 130h71l55 -86l85 86h79zM470 644c-85 0 -160 -28 -225 -85s-104 -126 -118 -209c-14 -84 2 -154 47 -210s110 -84 194 -84c108 0 207 54 267 143l59 -37c-37 -53 -86 -96 -145 -127s-122 -47 -189 -47c-105 0 -186 37 -243 110s-76 161 -58 262
s66 184 145 251s168 101 267 101c136 0 238 -66 287 -174l-62 -33c-42 93 -117 139 -226 139z" />
    <glyph glyph-name="ccaron" unicode="&#x10d;" horiz-adv-x="553" 
d="M384 570h-78l-84 130h71l55 -86l85 86h79zM269 52c76 0 144 39 183 100l53 -35c-51 -81 -142 -129 -247 -129c-73 0 -130 27 -173 80c-42 54 -56 118 -43 193c13 73 48 133 105 180s123 71 198 71c97 0 176 -50 204 -130l-57 -29c-21 59 -77 95 -153 95
c-57 0 -107 -19 -151 -56c-43 -37 -70 -83 -80 -138c-9 -57 1 -105 31 -144s73 -58 130 -58z" />
    <glyph glyph-name="Dcaron" unicode="&#x10e;" horiz-adv-x="722" 
d="M471 770h-78l-84 130h71l55 -86l85 86h79zM159 700h270c93 0 165 -36 217 -107s69 -155 52 -253c-17 -97 -63 -178 -136 -243s-158 -97 -256 -97h-270zM418 634h-201l-99 -568h200c77 0 144 27 203 82s95 122 109 202s1 147 -38 202s-97 82 -174 82z" />
    <glyph glyph-name="dcaron" unicode="&#x10f;" horiz-adv-x="703" 
d="M527 394l54 306h66l-123 -700h-66l15 85c-54 -65 -126 -97 -217 -97c-70 0 -126 27 -169 81s-58 118 -45 191c14 80 48 142 103 186s116 66 183 66c87 0 164 -42 199 -118zM686 530l40 170h66l-60 -170h-46zM272 52c55 0 103 17 146 52s71 80 82 133l2 16
c9 61 -4 108 -38 143s-78 52 -131 52c-52 0 -100 -17 -144 -51c-43 -34 -70 -81 -81 -142c-9 -56 2 -104 33 -144c31 -39 75 -59 131 -59z" />
    <glyph glyph-name="Dcroat" unicode="&#x110;" horiz-adv-x="742" 
d="M179 700h270c93 0 165 -36 217 -107s69 -155 52 -253c-17 -97 -63 -178 -136 -243s-158 -97 -256 -97h-270l56 318h-70l11 64h70zM438 634h-201l-44 -252h220l-11 -64h-220l-44 -252h200c77 0 144 27 203 82s95 122 109 202s1 147 -38 202s-97 82 -174 82z" />
    <glyph glyph-name="dslash" unicode="&#x111;" horiz-adv-x="646" 
d="M634 630h69l-9 -54h-70l-101 -576h-66l15 84c-55 -64 -127 -96 -216 -96c-70 0 -126 27 -169 81s-58 118 -45 191c14 80 48 142 103 186s116 66 183 66c87 0 163 -41 198 -116l32 180h-184l9 54h185l12 70h66zM272 52c51 0 98 15 139 46c42 31 70 72 84 121l9 50
c4 55 -11 99 -45 131s-76 48 -126 48c-52 0 -100 -17 -144 -51c-43 -34 -70 -81 -81 -142c-9 -56 2 -104 33 -144c31 -39 75 -59 131 -59z" />
    <glyph glyph-name="Emacron" unicode="&#x112;" horiz-adv-x="530" 
d="M256 838h260l-10 -58h-260zM564 700l-11 -66h-336l-43 -248h310l-12 -66h-310l-44 -254h340l-12 -66h-410l123 700h405z" />
    <glyph glyph-name="emacron" unicode="&#x113;" horiz-adv-x="584" 
d="M239 638h260l-10 -58h-260zM339 512c75 0 133 -26 172 -78c40 -52 53 -114 38 -186c-2 -12 -5 -22 -8 -31h-437c-4 -101 62 -165 167 -165c77 0 136 29 177 86l52 -34c-48 -73 -143 -116 -238 -116c-77 0 -137 26 -178 78s-55 117 -42 194c13 73 47 134 103 181
c57 47 121 71 194 71zM114 281h372c8 109 -54 167 -151 167c-105 0 -190 -66 -221 -167z" />
    <glyph glyph-name="Edotaccent" unicode="&#x116;" horiz-adv-x="530" 
d="M439 825c-7 -31 -34 -55 -65 -55s-50 24 -45 55s33 55 64 55s51 -24 46 -55zM564 700l-11 -66h-336l-43 -248h310l-12 -66h-310l-44 -254h340l-12 -66h-410l123 700h405z" />
    <glyph glyph-name="edotaccent" unicode="&#x117;" horiz-adv-x="584" 
d="M422 625c-7 -31 -34 -55 -65 -55s-50 24 -45 55s33 55 64 55s51 -24 46 -55zM339 512c75 0 133 -26 172 -78c40 -52 53 -114 38 -186c-2 -12 -5 -22 -8 -31h-437c-4 -101 62 -165 167 -165c77 0 136 29 177 86l52 -34c-48 -73 -143 -116 -238 -116c-77 0 -137 26 -178 78
s-55 117 -42 194c13 73 47 134 103 181c57 47 121 71 194 71zM114 281h372c8 109 -54 167 -151 167c-105 0 -190 -66 -221 -167z" />
    <glyph glyph-name="Eogonek" unicode="&#x118;" horiz-adv-x="530" 
d="M564 700l-11 -66h-336l-43 -248h310l-12 -66h-310l-44 -254h340l-12 -66c-61 -48 -93 -88 -98 -120c-3 -20 9 -35 29 -35c14 0 28 3 43 9l-10 -56c-15 -7 -35 -10 -59 -10c-53 0 -78 39 -70 86c7 41 39 83 96 126h-341l123 700h405z" />
    <glyph glyph-name="eogonek" unicode="&#x119;" horiz-adv-x="584" 
d="M339 512c75 0 133 -26 172 -78c40 -52 53 -114 38 -186c-2 -12 -5 -22 -8 -31h-437c-4 -101 62 -165 167 -165c77 0 136 29 177 86l52 -34c-14 -21 -32 -40 -55 -57c-89 -71 -137 -128 -145 -171c-4 -21 6 -31 30 -31c13 0 27 3 42 9l-9 -55c-20 -7 -39 -11 -58 -11
c-56 0 -80 34 -72 81c8 43 37 85 87 124c-21 -3 -41 -5 -58 -5c-77 0 -137 26 -178 78s-55 117 -42 194c13 73 47 134 103 181c57 47 121 71 194 71zM114 281h372c8 109 -54 167 -151 167c-105 0 -190 -66 -221 -167z" />
    <glyph glyph-name="Ecaron" unicode="&#x11a;" horiz-adv-x="530" 
d="M414 770h-78l-84 130h71l55 -86l85 86h79zM564 700l-11 -66h-336l-43 -248h310l-12 -66h-310l-44 -254h340l-12 -66h-410l123 700h405z" />
    <glyph glyph-name="ecaron" unicode="&#x11b;" horiz-adv-x="584" 
d="M397 570h-78l-84 130h71l55 -86l85 86h79zM339 512c75 0 133 -26 172 -78c40 -52 53 -114 38 -186c-2 -12 -5 -22 -8 -31h-437c-4 -101 62 -165 167 -165c77 0 136 29 177 86l52 -34c-48 -73 -143 -116 -238 -116c-77 0 -137 26 -178 78s-55 117 -42 194
c13 73 47 134 103 181c57 47 121 71 194 71zM114 281h372c8 109 -54 167 -151 167c-105 0 -190 -66 -221 -167z" />
    <glyph glyph-name="Gbreve" unicode="&#x11e;" horiz-adv-x="790" 
d="M484 762c-81 0 -133 50 -118 130h64c-9 -52 12 -72 63 -72s80 24 89 72h64c-15 -84 -71 -130 -162 -130zM414 333h350l-6 -35c-15 -87 -58 -161 -129 -221c-70 -59 -155 -89 -255 -89c-111 0 -195 37 -254 110c-59 74 -79 163 -60 267c18 100 66 183 145 248
c79 66 169 99 271 99c135 0 235 -65 288 -174l-62 -33c-47 93 -123 139 -228 139c-87 0 -163 -28 -228 -83s-104 -125 -118 -208c-15 -84 1 -155 46 -212s113 -85 203 -85c76 0 141 20 195 60c55 40 91 90 109 151h-279z" />
    <glyph glyph-name="gbreve" unicode="&#x11f;" horiz-adv-x="639" 
d="M366 562c-81 0 -133 50 -118 130h64c-9 -52 12 -72 63 -72s80 24 89 72h64c-15 -84 -71 -130 -162 -130zM527 394l19 106h66l-84 -480c-13 -74 -46 -131 -98 -171c-52 -41 -115 -61 -189 -61c-105 0 -184 45 -220 122l59 30c24 -59 79 -88 164 -88c121 0 199 61 218 168
l12 67c-55 -66 -125 -99 -211 -99c-75 0 -134 26 -176 79c-41 53 -56 117 -45 193c11 77 45 138 101 183c57 46 118 69 185 69c85 0 164 -42 199 -118zM501 243v2l1 5c10 61 -3 109 -38 144c-35 36 -79 54 -131 54s-100 -18 -145 -53c-44 -35 -71 -81 -80 -140
c-9 -58 2 -106 33 -145c32 -39 77 -58 134 -58c54 0 102 17 145 52s70 82 81 139z" />
    <glyph glyph-name="Gdotaccent" unicode="&#x120;" horiz-adv-x="790" 
d="M549 825c-7 -31 -34 -55 -65 -55s-50 24 -45 55s33 55 64 55s51 -24 46 -55zM414 333h350l-6 -35c-15 -87 -58 -161 -129 -221c-70 -59 -155 -89 -255 -89c-111 0 -195 37 -254 110c-59 74 -79 163 -60 267c18 100 66 183 145 248c79 66 169 99 271 99
c135 0 235 -65 288 -174l-62 -33c-47 93 -123 139 -228 139c-87 0 -163 -28 -228 -83s-104 -125 -118 -208c-15 -84 1 -155 46 -212s113 -85 203 -85c76 0 141 20 195 60c55 40 91 90 109 151h-279z" />
    <glyph glyph-name="gdotaccent" unicode="&#x121;" horiz-adv-x="639" 
d="M431 625c-7 -31 -34 -55 -65 -55s-50 24 -45 55s33 55 64 55s51 -24 46 -55zM527 394l19 106h66l-84 -480c-13 -74 -46 -131 -98 -171c-52 -41 -115 -61 -189 -61c-105 0 -184 45 -220 122l59 30c24 -59 79 -88 164 -88c121 0 199 61 218 168l12 67
c-55 -66 -125 -99 -211 -99c-75 0 -134 26 -176 79c-41 53 -56 117 -45 193c11 77 45 138 101 183c57 46 118 69 185 69c85 0 164 -42 199 -118zM501 243v2l1 5c10 61 -3 109 -38 144c-35 36 -79 54 -131 54s-100 -18 -145 -53c-44 -35 -71 -81 -80 -140
c-9 -58 2 -106 33 -145c32 -39 77 -58 134 -58c54 0 102 17 145 52s70 82 81 139z" />
    <glyph glyph-name="Gcommaaccent" unicode="&#x122;" horiz-adv-x="790" 
d="M414 333h350l-6 -35c-15 -87 -58 -161 -129 -221c-70 -59 -155 -89 -255 -89c-111 0 -195 37 -254 110c-59 74 -79 163 -60 267c18 100 66 183 145 248c79 66 169 99 271 99c135 0 235 -65 288 -174l-62 -33c-47 93 -123 139 -228 139c-87 0 -163 -28 -228 -83
s-104 -125 -118 -208c-15 -84 1 -155 46 -212s113 -85 203 -85c76 0 141 20 195 60c55 40 91 90 109 151h-279zM346 -240h-46l40 170h66z" />
    <glyph glyph-name="gcommaaccent" unicode="&#x123;" horiz-adv-x="639" 
d="M391 760h46l-40 -170h-66zM527 394l19 106h66l-84 -480c-13 -74 -46 -131 -98 -171c-52 -41 -115 -61 -189 -61c-105 0 -184 45 -220 122l59 30c24 -59 79 -88 164 -88c121 0 199 61 218 168l12 67c-55 -66 -125 -99 -211 -99c-75 0 -134 26 -176 79
c-41 53 -56 117 -45 193c11 77 45 138 101 183c57 46 118 69 185 69c85 0 164 -42 199 -118zM501 243v2l1 5c10 61 -3 109 -38 144c-35 36 -79 54 -131 54s-100 -18 -145 -53c-44 -35 -71 -81 -80 -140c-9 -58 2 -106 33 -145c32 -39 77 -58 134 -58c54 0 102 17 145 52
s70 82 81 139z" />
    <glyph glyph-name="Hbar" unicode="&#x126;" horiz-adv-x="730" 
d="M681 568h65l-10 -56h-65l-90 -512h-70l57 327h-380l-57 -327h-70l90 512h-65l10 56h65l23 132h70l-23 -132h380l23 132h70zM200 393h380l21 119h-380z" />
    <glyph glyph-name="hbar" unicode="&#x127;" horiz-adv-x="568" 
d="M355 512c121 0 186 -81 165 -205l-54 -307h-66l54 307c15 91 -22 141 -111 141c-95 0 -170 -58 -194 -179l-47 -269h-66l101 576h-69l9 54h70l12 70h66l-12 -70h144l-9 -54h-145l-25 -146c46 55 105 82 177 82z" />
    <glyph glyph-name="Imacron" unicode="&#x12a;" horiz-adv-x="230" 
d="M338 780h-260l10 58h260zM36 0l123 700h70l-123 -700h-70z" />
    <glyph glyph-name="imacron" unicode="&#x12b;" horiz-adv-x="206" 
d="M261 580h-200l10 58h200zM92 0h-66l88 500h66z" />
    <glyph glyph-name="Iogonek" unicode="&#x12e;" horiz-adv-x="230" 
d="M40 -119c-5 -24 5 -36 28 -36c14 0 28 3 43 9l-9 -55c-17 -7 -37 -11 -61 -11c-48 0 -75 37 -67 86c6 39 27 82 63 130l122 696h70l-123 -700c-39 -51 -61 -90 -66 -119z" />
    <glyph glyph-name="iogonek" unicode="&#x12f;" horiz-adv-x="206" 
d="M182 702c27 0 45 -21 40 -48s-28 -48 -57 -48c-27 0 -43 21 -39 48s28 48 56 48zM180 500l-88 -500c-35 -45 -55 -83 -61 -114c-4 -23 7 -41 27 -41c14 0 28 3 43 9l-9 -55c-20 -7 -40 -11 -61 -11c-51 0 -75 42 -67 90c6 35 27 78 63 127l87 495h66z" />
    <glyph glyph-name="Idot" unicode="&#x130;" horiz-adv-x="230" 
d="M271 825c-7 -31 -34 -55 -65 -55s-50 24 -45 55s33 55 64 55s51 -24 46 -55zM36 0l123 700h70l-123 -700h-70z" />
    <glyph glyph-name="dotlessi" unicode="&#x131;" horiz-adv-x="206" 
d="M92 0h-66l88 500h66z" />
    <glyph glyph-name="Kcommaaccent" unicode="&#x136;" horiz-adv-x="578" 
d="M547 700h94l-397 -345l280 -355h-83l-274 346l-61 -346h-70l123 700h70l-56 -322zM225 -240h-46l40 170h66z" />
    <glyph glyph-name="kcommaaccent" unicode="&#x137;" horiz-adv-x="494" 
d="M416 500h92l-302 -240l224 -260h-80l-214 249l-44 -249h-66l123 700h66l-73 -418zM183 -240h-46l40 170h66z" />
    <glyph glyph-name="Lacute" unicode="&#x139;" horiz-adv-x="490" 
d="M274 900h82l-116 -130h-66zM229 700l-111 -634h320l-12 -66h-390l123 700h70z" />
    <glyph glyph-name="lacute" unicode="&#x13a;" horiz-adv-x="207" 
d="M162 770l100 130h82l-116 -130h-66zM27 0h66l52 299l76 431h-66l-76 -431z" />
    <glyph glyph-name="Lcommaaccent" unicode="&#x13b;" horiz-adv-x="490" 
d="M229 700l-111 -634h320l-12 -66h-390l123 700h70zM203 -240h-46l40 170h66z" />
    <glyph glyph-name="lcommaaccent" unicode="&#x13c;" horiz-adv-x="207" 
d="M93 0h-66l52 299l76 431h66l-76 -431zM21 -240h-46l40 170h66z" />
    <glyph glyph-name="Lcaron" unicode="&#x13d;" horiz-adv-x="490" 
d="M229 700l-111 -634h320l-12 -66h-390l123 700h70zM349 700h66l-60 -170h-46z" />
    <glyph glyph-name="lcaron" unicode="&#x13e;" horiz-adv-x="262" 
d="M93 0h-66l52 299l76 431h66l-76 -431zM297 560h-46l40 170h66z" />
    <glyph glyph-name="Lslash" unicode="&#x141;" horiz-adv-x="520" 
d="M188 293l-40 -227h320l-12 -66h-390l44 248l-78 -46l12 69l78 46l67 383h70l-59 -337l179 105l-12 -69z" />
    <glyph glyph-name="lslash" unicode="&#x142;" horiz-adv-x="240" 
d="M181 414l76 46l-12 -68l-76 -46l-8 -47l-52 -299h-66l52 299v1l-74 -45l12 68l74 45l64 362h66z" />
    <glyph glyph-name="Nacute" unicode="&#x143;" horiz-adv-x="680" 
d="M382 770l100 130h82l-116 -130h-66zM36 0h70l100 569l296 -569h54l123 700h-70l-99 -569l-297 569h-54z" />
    <glyph glyph-name="nacute" unicode="&#x144;" horiz-adv-x="558" 
d="M382 700h82l-116 -130h-66zM345 512c121 0 186 -81 165 -205l-54 -307h-66l54 307c15 91 -22 141 -111 141c-93 0 -169 -56 -193 -176l-48 -272h-66l88 500h66l-12 -70c45 55 104 82 177 82z" />
    <glyph glyph-name="Ncommaaccent" unicode="&#x145;" horiz-adv-x="680" 
d="M106 0h-70l123 700h54l297 -569l99 569h70l-123 -700h-54l-296 569zM258 -240h-46l40 170h66z" />
    <glyph glyph-name="ncommaaccent" unicode="&#x146;" horiz-adv-x="558" 
d="M345 512c121 0 186 -81 165 -205l-54 -307h-66l54 307c15 91 -22 141 -111 141c-93 0 -169 -56 -193 -176l-48 -272h-66l88 500h66l-12 -70c45 55 104 82 177 82zM216 -240h-46l40 170h66z" />
    <glyph glyph-name="Ncaron" unicode="&#x147;" horiz-adv-x="680" 
d="M471 770h-78l-84 130h71l55 -86l85 86h79zM510 131l99 569h70l-123 -700h-54l-296 569l-100 -569h-70l123 700h54z" />
    <glyph glyph-name="ncaron" unicode="&#x148;" horiz-adv-x="558" 
d="M371 570h-78l-84 130h71l55 -86l85 86h79zM345 512c121 0 186 -81 165 -205l-54 -307h-66l54 307c15 91 -22 141 -111 141c-93 0 -169 -56 -193 -176l-48 -272h-66l88 500h66l-12 -70c45 55 104 82 177 82z" />
    <glyph glyph-name="Eng" unicode="&#x14a;" horiz-adv-x="680" 
d="M510 131l99 569h70l-123 -700c-13 -77 -41 -129 -83 -158s-96 -43 -162 -42l12 68c92 -3 144 29 163 132l4 23l-284 546l-100 -569h-70l123 700h54z" />
    <glyph glyph-name="eng" unicode="&#x14b;" horiz-adv-x="558" 
d="M345 512c121 0 186 -81 165 -205l-61 -347c-21 -120 -97 -183 -210 -172l11 64c76 -8 118 24 133 108l61 347c15 91 -22 141 -111 141c-93 0 -169 -56 -193 -176l-48 -272h-66l88 500h66l-12 -70c45 55 104 82 177 82z" />
    <glyph glyph-name="Omacron" unicode="&#x14c;" horiz-adv-x="808" 
d="M626 780h-260l10 58h260zM360 -12c-101 0 -181 37 -240 110c-59 74 -79 161 -61 262c17 101 66 184 145 251c80 67 172 101 276 101c200 4 341 -182 303 -377c-18 -101 -67 -184 -146 -249s-172 -98 -277 -98zM372 56c85 0 160 27 223 82c64 55 103 124 118 207
c14 83 -2 153 -49 211c-46 59 -111 88 -196 88c-84 0 -158 -28 -222 -85s-103 -126 -117 -209c-15 -82 1 -152 47 -209c47 -57 112 -85 196 -85z" />
    <glyph glyph-name="omacron" unicode="&#x14d;" horiz-adv-x="607" 
d="M492 580h-260l10 58h260zM263 -12c-71 0 -129 24 -175 73c-45 49 -61 113 -47 194s51 144 112 189s127 68 198 68c69 0 125 -25 169 -74c45 -49 60 -113 46 -192c-9 -56 -30 -104 -63 -144c-65 -80 -149 -114 -240 -114zM269 52c53 0 103 18 148 53s73 85 84 148
c11 61 -1 108 -34 143s-75 52 -128 52c-53 -1 -103 -18 -148 -53s-73 -83 -84 -145c-11 -63 0 -112 33 -147s76 -52 129 -51z" />
    <glyph glyph-name="Ohungarumlaut" unicode="&#x150;" horiz-adv-x="808" 
d="M365 770l90 130h76l-96 -130h-70zM508 770l100 130h76l-106 -130h-70zM360 -12c105 0 198 33 277 98s128 148 146 249c38 195 -103 381 -303 377c-104 0 -196 -34 -276 -101c-79 -67 -128 -150 -145 -251c-18 -101 2 -188 61 -262c59 -73 139 -110 240 -110zM372 56
c-84 0 -149 28 -196 85c-46 57 -62 127 -47 209c14 83 53 152 117 209s138 85 222 85c85 0 150 -29 196 -88c47 -58 63 -128 49 -211c-15 -83 -54 -152 -118 -207c-63 -55 -138 -82 -223 -82z" />
    <glyph glyph-name="ohungarumlaut" unicode="&#x151;" horiz-adv-x="607" 
d="M231 570l90 130h76l-96 -130h-70zM374 570l100 130h76l-106 -130h-70zM263 -12c91 0 175 34 240 114c33 40 54 88 63 144c14 79 -1 143 -46 192c-44 49 -100 74 -169 74c-71 0 -137 -23 -198 -68s-98 -108 -112 -189s2 -145 47 -194c46 -49 104 -73 175 -73zM269 52
c-53 -1 -96 16 -129 51s-44 84 -33 147c11 62 39 110 84 145s95 52 148 53c53 0 95 -17 128 -52s45 -82 34 -143c-11 -63 -39 -113 -84 -148s-95 -53 -148 -53z" />
    <glyph glyph-name="OE" unicode="&#x152;" horiz-adv-x="916" 
d="M950 700l-11 -66h-316l-43 -248h300l-12 -66h-300l-44 -254h320l-12 -66h-390c-30 -8 -62 -12 -95 -12c-99 0 -176 36 -232 108c-55 72 -74 158 -56 259s66 186 144 254c78 69 169 103 272 103c33 0 63 -4 90 -12h385zM454 71l99 558c-27 10 -57 15 -90 15
c-82 0 -155 -28 -218 -85s-102 -126 -116 -209c-15 -83 -1 -152 42 -209s106 -85 188 -85c33 0 65 5 95 15z" />
    <glyph glyph-name="oe" unicode="&#x153;" horiz-adv-x="1044" 
d="M804 512c71 0 127 -26 166 -79c40 -53 53 -114 39 -185c-2 -12 -5 -22 -8 -31h-437c-4 -101 62 -165 167 -165c77 0 136 29 177 86l52 -34c-24 -36 -58 -64 -101 -85s-87 -31 -132 -31c-105 0 -182 56 -210 145c-53 -89 -148 -145 -259 -145c-74 0 -132 26 -174 78
s-56 115 -43 189c13 75 49 136 106 184c58 49 126 73 203 73c97 0 174 -57 202 -144c52 89 147 144 252 144zM501 250c10 55 -1 102 -32 140c-31 39 -75 58 -130 58c-58 0 -109 -19 -152 -57s-70 -85 -80 -141c-9 -57 1 -104 30 -142c30 -37 74 -56 132 -56
c55 0 105 19 150 57c45 39 73 86 82 141zM574 281h372c8 109 -54 167 -151 167c-105 0 -190 -66 -221 -167z" />
    <glyph glyph-name="Racute" unicode="&#x154;" horiz-adv-x="610" 
d="M432 900h82l-116 -130h-66zM159 700h280c55 0 101 -22 136 -67c35 -44 48 -95 37 -153c-8 -47 -29 -88 -63 -123s-75 -58 -122 -69l119 -288h-73l-115 280h-203l-49 -280h-70zM544 490c7 40 -1 74 -24 102s-53 42 -92 42h-211l-50 -288h210c39 0 75 14 107 42
c33 29 53 63 60 102z" />
    <glyph glyph-name="racute" unicode="&#x155;" horiz-adv-x="315" 
d="M289 700h82l-116 -130h-66zM180 500l-12 -70c45 57 102 83 172 78l-12 -64c-91 0 -167 -51 -187 -166l-49 -278h-66l88 500h66z" />
    <glyph glyph-name="Rcommaaccent" unicode="&#x156;" horiz-adv-x="610" 
d="M159 700h280c55 0 101 -22 136 -67c35 -44 48 -95 37 -153c-8 -47 -29 -88 -63 -123s-75 -58 -122 -69l119 -288h-73l-115 280h-203l-49 -280h-70zM544 490c7 40 -1 74 -24 102s-53 42 -92 42h-211l-50 -288h210c39 0 75 14 107 42c33 29 53 63 60 102zM253 -240h-46
l40 170h66z" />
    <glyph glyph-name="rcommaaccent" unicode="&#x157;" horiz-adv-x="315" 
d="M180 500l-12 -70c45 57 102 83 172 78l-12 -64c-91 0 -167 -51 -187 -166l-49 -278h-66l88 500h66zM21 -240h-46l40 170h66z" />
    <glyph glyph-name="Rcaron" unicode="&#x158;" horiz-adv-x="610" 
d="M421 770h-78l-84 130h71l55 -86l85 86h79zM159 700h280c55 0 101 -22 136 -67c35 -44 48 -95 37 -153c-8 -47 -29 -88 -63 -123s-75 -58 -122 -69l119 -288h-73l-115 280h-203l-49 -280h-70zM544 490c7 40 -1 74 -24 102s-53 42 -92 42h-211l-50 -288h210
c39 0 75 14 107 42c33 29 53 63 60 102z" />
    <glyph glyph-name="rcaron" unicode="&#x159;" horiz-adv-x="315" 
d="M278 570h-78l-84 130h71l55 -86l85 86h79zM180 500l-12 -70c45 57 102 83 172 78l-12 -64c-91 0 -167 -51 -187 -166l-49 -278h-66l88 500h66z" />
    <glyph glyph-name="Sacute" unicode="&#x15a;" horiz-adv-x="584" 
d="M332 770l100 130h82l-116 -130h-66zM267 -12c65 0 122 15 169 45s77 74 88 131s-2 105 -41 142c-27 25 -74 50 -143 75c-55 19 -78 29 -114 53s-47 56 -38 99c7 35 27 63 58 82s66 29 105 29c81 0 134 -38 159 -113l62 32c-31 87 -101 149 -217 149
c-55 0 -106 -15 -152 -44c-45 -29 -74 -72 -85 -128c-13 -64 4 -113 47 -148c44 -33 78 -49 135 -69c38 -13 66 -24 84 -33c58 -29 82 -68 71 -118c-16 -72 -87 -116 -186 -116c-105 0 -168 51 -184 135l-61 -32c27 -108 114 -171 243 -171z" />
    <glyph glyph-name="sacute" unicode="&#x15b;" horiz-adv-x="475" 
d="M245 570l100 130h82l-116 -130h-66zM205 -12c108 0 182 50 197 134c19 108 -82 138 -161 161c-53 17 -95 43 -87 87c9 52 62 78 115 78s98 -22 113 -69l58 31c-29 68 -86 102 -169 102c-47 0 -88 -13 -122 -39c-34 -25 -54 -57 -61 -94c-34 -185 270 -126 248 -248
c-9 -49 -58 -79 -126 -79s-115 35 -126 86l-59 -31c20 -71 83 -119 180 -119z" />
    <glyph glyph-name="Scedilla" unicode="&#x15e;" horiz-adv-x="584" 
d="M340 381c69 -25 116 -50 143 -75c39 -37 52 -85 41 -142c-11 -55 -39 -98 -84 -128s-98 -46 -161 -48l-6 -33c53 -11 85 -45 78 -86c-5 -30 -24 -53 -56 -69s-87 -21 -164 -16l10 54c96 -8 147 4 152 36c5 28 -29 42 -86 41l13 76c-104 13 -173 73 -196 168l61 32
c16 -84 79 -135 184 -135c99 0 170 44 186 116c11 50 -13 89 -71 118c-18 9 -46 20 -84 33c-57 20 -91 36 -135 69c-43 35 -60 84 -47 148c11 56 40 99 85 128c46 29 97 44 152 44c116 0 186 -62 217 -149l-62 -32c-25 75 -78 113 -159 113c-39 0 -74 -10 -105 -29
s-51 -47 -58 -82c-9 -43 2 -75 38 -99s59 -34 114 -53z" />
    <glyph glyph-name="scedilla" unicode="&#x15f;" horiz-adv-x="475" 
d="M154 370c-8 -44 34 -70 87 -87c79 -23 180 -53 161 -161c-13 -80 -82 -129 -181 -134l-6 -33c53 -11 85 -45 78 -86c-5 -30 -24 -53 -56 -69s-87 -21 -164 -16l10 54c96 -8 147 4 152 36c5 28 -29 42 -86 41l13 76c-73 12 -120 56 -137 116l59 31c11 -51 58 -86 126 -86
s117 30 126 79c22 122 -282 63 -248 248c7 37 27 69 61 94c34 26 75 39 122 39c83 0 140 -34 169 -102l-58 -31c-15 47 -60 69 -113 69s-106 -26 -115 -78z" />
    <glyph glyph-name="Scaron" unicode="&#x160;" horiz-adv-x="584" 
d="M421 770h-78l-84 130h71l55 -86l85 86h79zM340 381c69 -25 116 -50 143 -75c39 -37 52 -85 41 -142s-41 -101 -88 -131s-104 -45 -169 -45c-129 0 -216 63 -243 171l61 32c16 -84 79 -135 184 -135c99 0 170 44 186 116c11 50 -13 89 -71 118c-18 9 -46 20 -84 33
c-57 20 -91 36 -135 69c-43 35 -60 84 -47 148c11 56 40 99 85 128c46 29 97 44 152 44c116 0 186 -62 217 -149l-62 -32c-25 75 -78 113 -159 113c-39 0 -74 -10 -105 -29s-51 -47 -58 -82c-9 -43 2 -75 38 -99s59 -34 114 -53z" />
    <glyph glyph-name="scaron" unicode="&#x161;" horiz-adv-x="475" 
d="M334 570h-78l-84 130h71l55 -86l85 86h79zM154 370c-8 -44 34 -70 87 -87c79 -23 180 -53 161 -161c-15 -84 -89 -134 -197 -134c-97 0 -160 48 -180 119l59 31c11 -51 58 -86 126 -86s117 30 126 79c22 122 -282 63 -248 248c7 37 27 69 61 94c34 26 75 39 122 39
c83 0 140 -34 169 -102l-58 -31c-15 47 -60 69 -113 69s-106 -26 -115 -78z" />
    <glyph glyph-name="uni0162" unicode="&#x162;" horiz-adv-x="540" 
d="M99 700h500l-11 -66h-216l-111 -634h-70l111 634h-214zM188 -240h-46l40 170h66z" />
    <glyph glyph-name="uni0163" unicode="&#x163;" horiz-adv-x="376" 
d="M368 436h-144l-53 -303c-15 -87 37 -79 131 -75l-10 -58c-144 -22 -206 22 -187 133l54 303h-106l12 64h105l21 120l69 20l-25 -140h145zM155 -240h-46l40 170h66z" />
    <glyph glyph-name="Tcaron" unicode="&#x164;" horiz-adv-x="540" 
d="M401 770h-78l-84 130h71l55 -86l85 86h79zM99 700h500l-11 -66h-216l-111 -634h-70l111 634h-214z" />
    <glyph glyph-name="tcaron" unicode="&#x165;" horiz-adv-x="376" 
d="M339 715h66l-59 -160h-46zM191 620l69 20l-25 -140h145l-12 -64h-144l-53 -303c-15 -87 37 -79 131 -75l-10 -58c-144 -22 -206 22 -187 133l54 303h-106l12 64h105z" />
    <glyph glyph-name="Tbar" unicode="&#x166;" horiz-adv-x="540" 
d="M599 700l-11 -66h-216l-44 -252h145l-11 -64h-145l-56 -318h-70l56 318h-145l11 64h145l44 252h-214l11 66h500z" />
    <glyph glyph-name="tbar" unicode="&#x167;" horiz-adv-x="376" 
d="M380 500l-12 -64h-144l-26 -149h97l-9 -54h-97l-18 -100c-15 -87 37 -79 131 -75l-10 -58c-144 -22 -206 22 -187 133l18 100h-67l9 54h67l27 149h-106l12 64h105l21 120l69 20l-25 -140h145z" />
    <glyph glyph-name="Umacron" unicode="&#x16a;" horiz-adv-x="660" 
d="M552 780h-260l10 58h260zM294 -12c-79 0 -139 23 -182 69c-42 47 -57 107 -44 181l81 462h70l-81 -462c-20 -111 37 -182 156 -182c121 0 205 74 224 182l81 462h70l-81 -462c-14 -78 -48 -139 -101 -184c-53 -44 -118 -66 -193 -66z" />
    <glyph glyph-name="umacron" unicode="&#x16b;" horiz-adv-x="558" 
d="M208 638h260l-10 -58h-260zM418 228l48 272h66l-88 -500h-66l12 70c-45 -55 -104 -82 -177 -82c-121 0 -186 81 -165 205l54 307h66l-54 -307c-15 -91 22 -141 111 -141c93 0 169 56 193 176z" />
    <glyph glyph-name="Uring" unicode="&#x16e;" horiz-adv-x="660" 
d="M415 720c-65 0 -100 46 -91 103s60 97 121 97c65 0 99 -47 91 -103c-9 -57 -58 -97 -121 -97zM421 771c32 0 56 21 61 49c5 29 -12 49 -43 49c-29 0 -55 -18 -60 -49c-5 -29 11 -49 42 -49zM294 -12c-79 0 -139 23 -182 69c-42 47 -57 107 -44 181l81 462h70l-81 -462
c-20 -111 37 -182 156 -182c121 0 205 74 224 182l81 462h70l-81 -462c-14 -78 -48 -139 -101 -184c-53 -44 -118 -66 -193 -66z" />
    <glyph glyph-name="uring" unicode="&#x16f;" horiz-adv-x="558" 
d="M326 550c-65 0 -100 46 -91 103s60 97 121 97c65 0 99 -47 91 -103c-9 -57 -58 -97 -121 -97zM290 650c-5 -29 11 -49 42 -49c32 0 56 21 61 49c5 29 -12 49 -43 49c-29 0 -55 -18 -60 -49zM418 228l48 272h66l-88 -500h-66l12 70c-45 -55 -104 -82 -177 -82
c-121 0 -186 81 -165 205l54 307h66l-54 -307c-15 -91 22 -141 111 -141c93 0 169 56 193 176z" />
    <glyph glyph-name="Uhungarumlaut" unicode="&#x170;" horiz-adv-x="660" 
d="M291 770l90 130h76l-96 -130h-70zM434 770l100 130h76l-106 -130h-70zM294 -12c75 0 140 22 193 66c53 45 87 106 101 184l81 462h-70l-81 -462c-19 -108 -103 -182 -224 -182c-119 0 -176 71 -156 182l81 462h-70l-81 -462c-13 -74 2 -134 44 -181
c43 -46 103 -69 182 -69z" />
    <glyph glyph-name="uhungarumlaut" unicode="&#x171;" horiz-adv-x="558" 
d="M287 700h76l-96 -130h-70zM516 700l-106 -130h-70l100 130h76zM418 228l48 272h66l-88 -500h-66l12 70c-45 -55 -104 -82 -177 -82c-121 0 -186 81 -165 205l54 307h66l-54 -307c-15 -91 22 -141 111 -141c93 0 169 56 193 176z" />
    <glyph glyph-name="Uogonek" unicode="&#x172;" horiz-adv-x="660" 
d="M518 238l81 462h70l-81 -462c-17 -94 -62 -164 -136 -209c-88 -61 -135 -112 -141 -152c-4 -24 8 -32 32 -32c13 0 27 3 40 8l-9 -55c-16 -7 -34 -10 -55 -10c-56 0 -83 33 -75 81c6 38 34 78 84 121c-15 -1 -26 -2 -34 -2c-79 0 -139 23 -182 69c-42 47 -57 107 -44 181
l81 462h70l-81 -462c-20 -111 37 -182 156 -182c121 0 205 74 224 182z" />
    <glyph glyph-name="uogonek" unicode="&#x173;" horiz-adv-x="559" 
d="M532 500l-88 -500c-53 -43 -93 -92 -98 -124c-3 -21 7 -31 29 -31c14 0 28 3 43 9l-9 -55c-20 -7 -40 -11 -61 -11c-52 0 -77 34 -69 81c7 36 40 83 101 142l10 59c-45 -55 -104 -82 -177 -82c-121 0 -186 81 -165 205l54 307h66l-54 -307c-15 -91 22 -141 111 -141
c93 0 169 56 193 176l48 272h66z" />
    <glyph glyph-name="Wcircumflex" unicode="&#x174;" horiz-adv-x="1000" 
d="M665 770l-55 87l-85 -87h-78l128 130h78l84 -130h-72zM693 92l282 608h74l-326 -700h-84l-76 608l-290 -608h-84l-80 700h69l68 -608l289 608h82z" />
    <glyph glyph-name="wcircumflex" unicode="&#x175;" horiz-adv-x="770" 
d="M515 570l-55 87l-85 -87h-78l128 130h78l84 -130h-72zM517 85l196 415h71l-242 -500h-72l-58 403l-200 -403h-72l-66 500h65l50 -415l204 415h67l-1 -2z" />
    <glyph glyph-name="Ycircumflex" unicode="&#x176;" horiz-adv-x="575" 
d="M449 770l-55 87l-85 -87h-78l128 130h78l84 -130h-72zM562 700h82l-309 -374l-57 -326h-70l57 327l-176 373h72l146 -309z" />
    <glyph glyph-name="ycircumflex" unicode="&#x177;" horiz-adv-x="510" 
d="M368 570l-55 87l-85 -87h-78l128 130h78l84 -130h-72zM232 75l238 425h74l-310 -546c-60 -105 -141 -161 -229 -154l11 62c55 -6 106 29 151 104l21 35l-134 499h67z" />
    <glyph glyph-name="Ydieresis" unicode="&#x178;" horiz-adv-x="575" 
d="M244 820c4 25 28 45 53 45s41 -20 37 -45c-7 -58 -104 -58 -90 0zM434 820c4 25 28 45 53 45s41 -20 37 -45c-7 -58 -104 -58 -90 0zM562 700h82l-309 -374l-57 -326h-70l57 327l-176 373h72l146 -309z" />
    <glyph glyph-name="Zacute" unicode="&#x179;" horiz-adv-x="520" 
d="M407 900h82l-116 -130h-66zM129 700h430l-11 -66l-461 -568h371l-12 -66h-450l12 66l460 568h-350z" />
    <glyph glyph-name="zacute" unicode="&#x17a;" horiz-adv-x="450" 
d="M339 700h82l-116 -130h-66zM94 500h360l-8 -44l-344 -392h285l-11 -64h-380l8 44l344 392h-265z" />
    <glyph glyph-name="Zdotaccent" unicode="&#x17b;" horiz-adv-x="520" 
d="M421 825c-7 -31 -34 -55 -65 -55s-50 24 -45 55s33 55 64 55s51 -24 46 -55zM129 700h430l-11 -66l-461 -568h371l-12 -66h-450l12 66l460 568h-350z" />
    <glyph glyph-name="zdotaccent" unicode="&#x17c;" horiz-adv-x="450" 
d="M353 625c-7 -31 -34 -55 -65 -55s-50 24 -45 55s33 55 64 55s51 -24 46 -55zM94 500h360l-8 -44l-344 -392h285l-11 -64h-380l8 44l344 392h-265z" />
    <glyph glyph-name="Zcaron" unicode="&#x17d;" horiz-adv-x="520" 
d="M396 770h-78l-84 130h71l55 -86l85 86h79zM129 700h430l-11 -66l-461 -568h371l-12 -66h-450l12 66l460 568h-350z" />
    <glyph glyph-name="zcaron" unicode="&#x17e;" horiz-adv-x="450" 
d="M328 570h-78l-84 130h71l55 -86l85 86h79zM348 436h-265l11 64h360l-8 -44l-344 -392h285l-11 -64h-380l8 44z" />
    <glyph glyph-name="florin" unicode="&#x192;" horiz-adv-x="439" 
d="M231 383l64 188c41 121 127 164 224 132l-11 -64c-68 27 -120 -1 -144 -68l-64 -188h114l-12 -64h-124l-133 -388c-41 -121 -128 -164 -224 -132l11 64c68 -27 120 1 144 68l133 388h-108l12 64h118z" />
    <glyph glyph-name="Scommaaccent" unicode="&#x218;" horiz-adv-x="584" 
d="M267 -12c-129 0 -216 63 -243 171l61 32c16 -84 79 -135 184 -135c99 0 170 44 186 116c11 50 -13 89 -71 118c-18 9 -46 20 -84 33c-57 20 -91 36 -135 69c-43 35 -60 84 -47 148c11 56 40 99 85 128c46 29 97 44 152 44c116 0 186 -62 217 -149l-62 -32
c-25 75 -78 113 -159 113c-39 0 -74 -10 -105 -29s-51 -47 -58 -82c-9 -43 2 -75 38 -99s59 -34 114 -53c69 -25 116 -50 143 -75c39 -37 52 -85 41 -142s-41 -101 -88 -131s-104 -45 -169 -45zM231 -240h-46l40 170h66z" />
    <glyph glyph-name="scommaaccent" unicode="&#x219;" horiz-adv-x="475" 
d="M205 -12c-97 0 -160 48 -180 119l59 31c11 -51 58 -86 126 -86s117 30 126 79c22 122 -282 63 -248 248c7 37 27 69 61 94c34 26 75 39 122 39c83 0 140 -34 169 -102l-58 -31c-15 47 -60 69 -113 69s-106 -26 -115 -78c-8 -44 34 -70 87 -87c79 -23 180 -53 161 -161
c-15 -84 -89 -134 -197 -134zM173 -240h-46l40 170h66z" />
    <glyph glyph-name="uni021A" unicode="&#x21a;" horiz-adv-x="540" 
d="M99 700h500l-11 -66h-216l-111 -634h-70l111 634h-214zM188 -240h-46l40 170h66z" />
    <glyph glyph-name="uni021B" unicode="&#x21b;" horiz-adv-x="376" 
d="M368 436h-144l-53 -303c-15 -87 37 -79 131 -75l-10 -58c-144 -22 -206 22 -187 133l54 303h-106l12 64h105l21 120l69 20l-25 -140h145zM155 -240h-46l40 170h66z" />
    <glyph glyph-name="circumflex" unicode="&#x2c6;" horiz-adv-x="330" 
d="M282 700l84 -130h-72l-55 87l-85 -87h-78l128 130h78z" />
    <glyph glyph-name="caron" unicode="&#x2c7;" horiz-adv-x="330" 
d="M225 614l85 86h79l-128 -130h-78l-84 130h71z" />
    <glyph glyph-name="breve" unicode="&#x2d8;" horiz-adv-x="320" 
d="M216 562c-81 0 -133 50 -118 130h64c-9 -52 12 -72 63 -72s80 24 89 72h64c-15 -84 -71 -130 -162 -130z" />
    <glyph glyph-name="dotaccent" unicode="&#x2d9;" horiz-adv-x="130" 
d="M191 625c-7 -31 -34 -55 -65 -55s-50 24 -45 55s33 55 64 55s51 -24 46 -55z" />
    <glyph glyph-name="ring" unicode="&#x2da;" horiz-adv-x="253" 
d="M182 550c-65 0 -100 46 -91 103s60 97 121 97c65 0 99 -47 91 -103c-9 -57 -58 -97 -121 -97zM188 601c32 0 56 21 61 49c5 29 -12 49 -43 49c-29 0 -55 -18 -60 -49c-5 -29 11 -49 42 -49z" />
    <glyph glyph-name="ogonek" unicode="&#x2db;" horiz-adv-x="183" 
d="M24 -212c-53 0 -78 39 -70 86c7 41 39 83 96 126h69c-61 -48 -93 -88 -98 -120c-3 -20 8 -35 29 -35c13 0 28 3 43 9l-10 -56c-15 -7 -35 -10 -59 -10z" />
    <glyph glyph-name="tilde" unicode="&#x2dc;" horiz-adv-x="320" 
d="M136 580h-58c21 124 97 140 157 87c46 -40 71 -56 85 23h58c-21 -124 -95 -140 -156 -87c-27 23 -39 32 -55 33c-15 1 -24 -17 -31 -56z" />
    <glyph glyph-name="hungarumlaut" unicode="&#x2dd;" horiz-adv-x="336" 
d="M76 570l90 130h76l-96 -130h-70zM219 570l100 130h76l-106 -130h-70z" />
    <glyph glyph-name="gravecomb" unicode="&#x300;" horiz-adv-x="0" 
d="M37 570h-64l-74 130h80z" />
    <glyph glyph-name="acutecomb" unicode="&#x301;" horiz-adv-x="0" 
d="M-123 570l100 130h82l-116 -130h-66z" />
    <glyph glyph-name="uni0302" unicode="&#x302;" horiz-adv-x="0" 
d="M-48 700l84 -130h-72l-55 87l-85 -87h-78l128 130h78z" />
    <glyph glyph-name="tildecomb" unicode="&#x303;" horiz-adv-x="0" 
d="M-184 580h-58c21 124 97 140 157 87c46 -40 71 -56 85 23h58c-21 -124 -95 -140 -156 -87c-27 23 -39 32 -54 33c-16 1 -25 -17 -32 -56z" />
    <glyph glyph-name="uni0304" unicode="&#x304;" horiz-adv-x="0" 
d="M38 580h-260l10 58h260z" />
    <glyph glyph-name="uni0306" unicode="&#x306;" horiz-adv-x="0" 
d="M-104 562c-81 0 -133 50 -118 130h64c-9 -52 12 -72 63 -72s80 24 89 72h64c-15 -84 -71 -130 -162 -130z" />
    <glyph glyph-name="uni0307" unicode="&#x307;" horiz-adv-x="0" 
d="M46 625c-7 -31 -34 -55 -65 -55s-50 24 -45 55s33 55 64 55s51 -24 46 -55z" />
    <glyph glyph-name="uni0308" unicode="&#x308;" horiz-adv-x="0" 
d="M-234 620c4 25 28 45 53 45s41 -20 37 -45c-7 -58 -104 -58 -90 0zM-44 620c4 25 28 45 53 45s41 -20 37 -45c-7 -58 -104 -58 -90 0z" />
    <glyph glyph-name="uni030A" unicode="&#x30a;" horiz-adv-x="0" 
d="M-71 550c-65 0 -100 46 -91 103s60 97 121 97c65 0 99 -47 91 -103c-9 -57 -58 -97 -121 -97zM-65 601c32 0 56 21 61 49c5 29 -12 49 -43 49c-29 0 -55 -18 -60 -49c-5 -29 11 -49 42 -49z" />
    <glyph glyph-name="uni030B" unicode="&#x30b;" horiz-adv-x="0" 
d="M-260 570l90 130h76l-96 -130h-70zM-117 570l100 130h76l-106 -130h-70z" />
    <glyph glyph-name="uni030C" unicode="&#x30c;" horiz-adv-x="0" 
d="M-105 614l85 86h79l-128 -130h-78l-84 130h71z" />
    <glyph glyph-name="uni0312" unicode="&#x312;" horiz-adv-x="0" 
d="M59 960h46l-40 -170h-66z" />
    <glyph glyph-name="uni0326" unicode="&#x326;" horiz-adv-x="0" 
d="M-136 -240h-46l40 170h66z" />
    <glyph glyph-name="uni0327" unicode="&#x327;" horiz-adv-x="0" 
d="M-157 0l-8 -45c53 -11 85 -45 78 -86c-5 -30 -24 -53 -56 -69s-87 -21 -164 -16l10 54c96 -8 147 4 152 36c5 28 -29 42 -86 41l15 85h59z" />
    <glyph glyph-name="uni0328" unicode="&#x328;" horiz-adv-x="0" 
d="M-159 -212c-53 0 -78 39 -70 86c7 41 39 83 96 126h69c-61 -48 -93 -88 -98 -120c-3 -20 9 -35 29 -35c14 0 28 3 43 9l-10 -56c-15 -7 -35 -10 -59 -10z" />
    <glyph glyph-name="uni0394" unicode="&#x394;" horiz-adv-x="630" 
d="M358 700h72l146 -700h-610zM382 613l-302 -547h413z" />
    <glyph glyph-name="uni03A9" unicode="&#x3a9;" horiz-adv-x="807" 
d="M783 342c-21 -119 -95 -217 -198 -276h136l-12 -66h-273l12 66c66 17 124 51 173 103c49 53 80 113 92 181c14 82 -2 151 -48 208c-45 57 -109 86 -192 86s-158 -29 -224 -86s-106 -126 -120 -208c-12 -69 -3 -129 27 -181c31 -52 77 -86 138 -103l-9 -50l-3 -16h-273
l12 66h141c-85 61 -124 171 -103 292c17 101 66 185 147 252c81 68 174 102 279 102c99 0 177 -37 236 -110s79 -160 62 -260z" />
    <glyph glyph-name="pi" unicode="&#x3c0;" horiz-adv-x="650" 
d="M74 500h590l-11 -64h-83l-77 -436h-66l77 436h-288l-77 -436h-66l77 436h-87z" />
    <glyph glyph-name="uni0401" unicode="&#x401;" horiz-adv-x="530" 
d="M243 820c4 25 28 45 53 45s41 -20 37 -45c-7 -58 -104 -58 -90 0zM433 820c4 25 28 45 53 45s41 -20 37 -45c-7 -58 -104 -58 -90 0zM564 700l-11 -66h-336l-43 -248h310l-12 -66h-310l-44 -254h340l-12 -66h-410l123 700h405z" />
    <glyph glyph-name="uni0402" unicode="&#x402;" horiz-adv-x="688" 
d="M474 472c116 0 185 -65 165 -190l-21 -118c-22 -124 -92 -181 -210 -172l11 64c76 -8 114 23 129 108l21 118c15 91 -22 126 -102 126c-51 0 -105 -13 -161 -38l-65 -370h-70l111 634h-194l11 66h490l-11 -66h-226l-34 -196c53 23 105 34 156 34z" />
    <glyph glyph-name="uni0403" unicode="&#x403;" horiz-adv-x="490" 
d="M418 899h82l-116 -130h-66zM159 700h390l-11 -66h-321l-111 -634h-70z" />
    <glyph glyph-name="uni0404" unicode="&#x404;" horiz-adv-x="745" 
d="M470 644c-79 0 -150 -25 -212 -74s-103 -112 -124 -187h386l-12 -66h-385c-5 -76 14 -139 59 -188s107 -73 186 -73c108 0 207 54 267 143l59 -37c-37 -53 -86 -96 -145 -127s-122 -47 -189 -47c-105 0 -186 37 -243 110s-76 161 -58 262s66 184 145 251s168 101 267 101
c136 0 238 -66 287 -174l-62 -33c-42 93 -117 139 -226 139z" />
    <glyph glyph-name="uni0405" unicode="&#x405;" horiz-adv-x="584" 
d="M267 -12c-129 0 -216 63 -243 171l61 32c16 -84 79 -135 184 -135c99 0 170 44 186 116c11 50 -13 89 -71 118c-18 9 -46 20 -84 33c-57 20 -91 36 -135 69c-43 35 -60 84 -47 148c11 56 40 99 85 128c46 29 97 44 152 44c116 0 186 -62 217 -149l-62 -32
c-25 75 -78 113 -159 113c-39 0 -74 -10 -105 -29s-51 -47 -58 -82c-9 -43 2 -75 38 -99s59 -34 114 -53c69 -25 116 -50 143 -75c39 -37 52 -85 41 -142s-41 -101 -88 -131s-104 -45 -169 -45z" />
    <glyph glyph-name="uni0406" unicode="&#x406;" horiz-adv-x="230" 
d="M36 0l123 700h70l-123 -700h-70z" />
    <glyph glyph-name="uni0407" unicode="&#x407;" horiz-adv-x="230" 
d="M75 820c4 25 28 45 53 45s41 -20 37 -45c-7 -58 -104 -58 -90 0zM265 820c4 25 28 45 53 45s41 -20 37 -45c-7 -58 -104 -58 -90 0zM36 0l123 700h70l-123 -700h-70z" />
    <glyph glyph-name="uni0408" unicode="&#x408;" horiz-adv-x="553" 
d="M215 -12c-105 0 -171 41 -199 124l63 34c18 -60 65 -90 141 -90c96 0 166 46 183 142l88 502h70l-88 -504c-13 -71 -43 -124 -91 -158c-48 -33 -104 -50 -167 -50z" />
    <glyph glyph-name="uni0409" unicode="&#x409;" horiz-adv-x="996" 
d="M611 400h161c57 0 103 -20 137 -60c35 -40 47 -89 37 -146s-38 -104 -85 -140s-100 -54 -160 -54h-230l112 634h-284l-58 -325c-23 -131 -57 -215 -104 -259s-97 -56 -166 -51l11 62c47 -7 86 8 117 45s55 106 73 205l68 389h424zM876 202c13 77 -37 132 -116 132h-160
l-47 -268h160c39 0 75 13 106 38c31 26 50 59 57 98z" />
    <glyph glyph-name="uni040A" unicode="&#x40a;" horiz-adv-x="981" 
d="M596 400h161c57 0 103 -20 137 -60c35 -40 47 -89 37 -146s-38 -104 -85 -140s-100 -54 -160 -54h-230l59 334h-350l-59 -334h-70l123 700h70l-53 -300h350l53 300h70zM861 202c13 77 -37 132 -116 132h-160l-47 -268h160c39 0 75 13 106 38c31 26 50 59 57 98z" />
    <glyph glyph-name="uni040B" unicode="&#x40b;" horiz-adv-x="693" 
d="M474 472c116 0 185 -65 165 -190l-50 -282h-70l50 282c15 91 -22 126 -102 126c-51 0 -105 -13 -161 -38l-65 -370h-70l111 634h-194l11 66h490l-11 -66h-226l-34 -196c53 23 105 34 156 34z" />
    <glyph glyph-name="uni040C" unicode="&#x40c;" horiz-adv-x="578" 
d="M428 899h82l-116 -130h-66zM547 700h94l-397 -345l280 -355h-83l-274 346l-61 -346h-70l123 700h70l-56 -322z" />
    <glyph glyph-name="uni040E" unicode="&#x40e;" 
d="M265 837h260l-10 -58h-260zM314 269l253 431h72l-319 -547c-67 -115 -141 -160 -250 -153l11 62c75 -7 124 22 168 97l21 35l-161 506h68z" />
    <glyph glyph-name="uni040F" unicode="&#x40f;" horiz-adv-x="660" 
d="M478 66l111 634h70l-123 -700h-215l-24 -134h-70l24 134h-215l123 700h70l-111 -634h360z" />
    <glyph glyph-name="uni0410" unicode="&#x410;" horiz-adv-x="630" 
d="M576 0h-72l-34 172h-332l-96 -172h-76l392 700h72zM383 613l-209 -375h283z" />
    <glyph glyph-name="uni0411" unicode="&#x411;" horiz-adv-x="587" 
d="M569 700l-11 -66h-341l-37 -214h190c55 0 101 -22 136 -67c35 -44 48 -95 37 -153c-10 -57 -39 -105 -86 -143s-100 -57 -161 -57h-260l123 700h410zM358 354h-190l-50 -288h190c39 0 75 14 107 42c33 29 53 63 60 102c8 42 0 76 -23 103s-55 41 -94 41z" />
    <glyph glyph-name="uni0412" unicode="&#x412;" horiz-adv-x="620" 
d="M595 507c-10 -65 -46 -113 -107 -146c60 -31 93 -95 81 -171c-8 -53 -33 -98 -76 -135s-93 -55 -152 -55h-305l123 700h267c55 0 98 -19 131 -57s46 -83 38 -136zM424 634h-207l-42 -244h211c33 0 63 12 90 35c27 24 44 53 50 87c12 68 -33 122 -102 122zM398 324h-235
l-45 -258h229c37 0 71 13 100 38s47 56 53 91s-1 66 -21 91c-19 25 -46 38 -81 38z" />
    <glyph glyph-name="uni0413" unicode="&#x413;" horiz-adv-x="490" 
d="M159 700h390l-11 -66h-321l-111 -634h-70z" />
    <glyph glyph-name="uni0414" unicode="&#x414;" horiz-adv-x="690" 
d="M659 700l-111 -634h75l-35 -200h-70l23 134h-500l-23 -134h-70l35 200h56c56 54 94 137 114 250l67 384h439zM126 66h352l100 568h-299l-57 -320c-19 -109 -51 -192 -96 -248z" />
    <glyph glyph-name="uni0415" unicode="&#x415;" horiz-adv-x="530" 
d="M564 700l-11 -66h-336l-43 -248h310l-12 -66h-310l-44 -254h340l-12 -66h-410l123 700h405z" />
    <glyph glyph-name="uni0416" unicode="&#x416;" horiz-adv-x="850" 
d="M812 700h87l-354 -347l241 -353h-74l-236 342l-60 -342h-70l60 342l-341 -342h-89l367 367l-234 333h74l229 -323l57 323h70l-57 -322z" />
    <glyph glyph-name="uni0417" unicode="&#x417;" horiz-adv-x="567" 
d="M547 513c-12 -71 -53 -122 -123 -153c71 -31 104 -96 91 -176c-21 -119 -115 -196 -274 -196c-125 0 -195 67 -219 158l63 32c11 -39 28 -69 51 -91c24 -22 63 -33 117 -33c108 0 178 58 193 139c13 79 -36 131 -133 131h-80l11 66h55c47 0 87 13 120 38s52 57 59 95
c13 72 -39 123 -130 123c-78 0 -140 -38 -185 -113l-56 37c57 95 141 142 253 142c65 0 114 -19 149 -58s48 -86 38 -141z" />
    <glyph glyph-name="uni0418" unicode="&#x418;" horiz-adv-x="680" 
d="M96 0h-60l123 700h70l-100 -564l490 564h60l-123 -700h-70l99 564z" />
    <glyph glyph-name="uni0419" unicode="&#x419;" horiz-adv-x="680" 
d="M563 780h-260l10 58h260zM96 0h-60l123 700h70l-100 -564l490 564h60l-123 -700h-70l99 564z" />
    <glyph glyph-name="uni041A" unicode="&#x41a;" horiz-adv-x="578" 
d="M547 700h94l-397 -345l280 -355h-83l-274 346l-61 -346h-70l123 700h70l-56 -322z" />
    <glyph glyph-name="uni041B" unicode="&#x41b;" horiz-adv-x="695" 
d="M-29 -1l11 62c47 -7 86 8 117 45s55 106 73 205l68 389h454l-123 -700h-70l112 634h-314l-58 -325c-49 -270 -142 -320 -270 -310z" />
    <glyph glyph-name="uni041C" unicode="&#x41c;" horiz-adv-x="800" 
d="M711 700h88l-123 -700h-70l103 589l-312 -405h-10l-176 416l-105 -600h-70l123 700h82l166 -394z" />
    <glyph glyph-name="uni041D" unicode="&#x41d;" horiz-adv-x="680" 
d="M555 393l54 307h70l-123 -700h-70l57 327h-380l-57 -327h-70l123 700h70l-54 -307h380z" />
    <glyph glyph-name="uni041E" unicode="&#x41e;" horiz-adv-x="808" 
d="M360 -12c-101 0 -181 37 -240 110c-59 74 -79 161 -61 262c17 101 66 184 145 251c80 67 172 101 276 101c200 4 341 -182 303 -377c-18 -101 -67 -184 -146 -249s-172 -98 -277 -98zM372 56c85 0 160 27 223 82c64 55 103 124 118 207c14 83 -2 153 -49 211
c-46 59 -111 88 -196 88c-84 0 -158 -28 -222 -85s-103 -126 -117 -209c-15 -82 1 -152 47 -209c47 -57 112 -85 196 -85z" />
    <glyph glyph-name="uni041F" unicode="&#x41f;" horiz-adv-x="660" 
d="M159 700h500l-123 -700h-70l111 634h-360l-111 -634h-70z" />
    <glyph glyph-name="uni0420" unicode="&#x420;" horiz-adv-x="589" 
d="M159 700h245c66 0 116 -21 150 -63c35 -42 47 -94 36 -157s-41 -116 -90 -158c-49 -41 -112 -62 -189 -62h-159l-46 -260h-70zM522 490c15 88 -34 144 -125 144h-180l-54 -308h156c111 0 187 69 203 164z" />
    <glyph glyph-name="uni0421" unicode="&#x421;" horiz-adv-x="745" 
d="M360 -12c-105 0 -186 37 -243 110s-76 161 -58 262s66 184 145 251s168 101 267 101c136 0 238 -66 287 -174l-62 -33c-42 93 -117 139 -226 139c-85 0 -160 -28 -225 -85s-104 -126 -118 -209c-14 -84 2 -154 47 -210s110 -84 194 -84c108 0 207 54 267 143l59 -37
c-37 -53 -86 -96 -145 -127s-122 -47 -189 -47z" />
    <glyph glyph-name="uni0422" unicode="&#x422;" horiz-adv-x="540" 
d="M99 700h500l-11 -66h-216l-111 -634h-70l111 634h-214z" />
    <glyph glyph-name="uni0423" unicode="&#x423;" 
d="M314 269l253 431h72l-319 -547c-67 -115 -141 -160 -250 -153l11 62c75 -7 124 22 168 97l21 35l-161 506h68z" />
    <glyph glyph-name="uni0424" unicode="&#x424;" horiz-adv-x="806" 
d="M517 700l-14 -79c97 -6 174 -33 229 -82s76 -113 61 -194c-15 -82 -57 -146 -126 -192c-69 -45 -156 -70 -259 -74l-14 -79h-70l14 79c-186 12 -320 110 -289 276c14 81 56 145 125 191c70 46 156 71 259 75l14 79h70zM349 143l73 414c-165 -8 -280 -79 -303 -207
s67 -199 230 -207zM492 557l-73 -414c165 8 281 79 304 207s-68 199 -231 207z" />
    <glyph glyph-name="uni0425" unicode="&#x425;" horiz-adv-x="580" 
d="M542 700h82l-277 -342l169 -358h-72l-142 302l-244 -302h-82l296 366l-158 334h72l131 -278z" />
    <glyph glyph-name="uni0426" unicode="&#x426;" horiz-adv-x="690" 
d="M659 700l-111 -634h75l-35 -200h-70l23 134h-505l123 700h70l-111 -634h360l111 634h70z" />
    <glyph glyph-name="uni0427" unicode="&#x427;" horiz-adv-x="625" 
d="M493 351l61 349h70l-123 -700h-70l50 282c-57 -21 -115 -32 -174 -32c-155 0 -228 83 -207 200l44 250h70l-44 -250c-15 -85 28 -134 147 -134c57 0 116 12 176 35z" />
    <glyph glyph-name="uni0428" unicode="&#x428;" horiz-adv-x="950" 
d="M768 66l111 634h70l-123 -700h-790l123 700h70l-111 -634h290l111 634h70l-111 -634h290z" />
    <glyph glyph-name="uni0429" unicode="&#x429;" horiz-adv-x="980" 
d="M949 700l-111 -634h74l-35 -200h-70l24 134h-795l123 700h70l-111 -634h290l111 634h70l-111 -634h290l111 634h70z" />
    <glyph glyph-name="uni042A" unicode="&#x42a;" horiz-adv-x="701" 
d="M396 0h-250l111 634h-189l11 66h260l-46 -260h175c61 0 109 -23 146 -69c37 -45 51 -99 40 -161c-11 -63 -40 -113 -88 -152c-47 -39 -104 -58 -170 -58zM282 374l-54 -308h179c43 0 82 14 115 43s54 66 62 111c16 89 -35 154 -127 154h-175z" />
    <glyph glyph-name="uni042B" unicode="&#x42b;" horiz-adv-x="775" 
d="M286 0h-250l123 700h70l-46 -260h175c61 0 109 -23 146 -69c37 -45 51 -99 40 -161c-11 -63 -40 -113 -88 -152c-47 -39 -104 -58 -170 -58zM651 0h-70l123 700h70zM172 374l-54 -308h179c43 0 82 14 115 43s54 66 62 111c16 89 -35 154 -127 154h-175z" />
    <glyph glyph-name="uni042C" unicode="&#x42c;" horiz-adv-x="591" 
d="M183 440h175c61 0 109 -23 146 -69c37 -45 51 -99 40 -161c-11 -63 -40 -113 -88 -152c-47 -39 -104 -58 -170 -58h-250l123 700h70zM347 374h-175l-54 -308h179c43 0 82 14 115 43s54 66 62 111c16 89 -35 154 -127 154z" />
    <glyph glyph-name="uni042D" unicode="&#x42d;" horiz-adv-x="739" 
d="M421 712c210 3 332 -178 294 -370c-17 -99 -63 -183 -139 -252c-75 -68 -166 -102 -273 -102c-140 0 -241 67 -282 176l64 34c32 -88 111 -142 223 -142c79 0 149 24 209 73s100 112 121 188h-384l12 66h383c7 77 -11 139 -54 188s-103 73 -182 73
c-113 0 -212 -57 -269 -146l-59 37c36 53 84 96 144 128c60 33 124 49 192 49z" />
    <glyph glyph-name="uni042E" unicode="&#x42e;" horiz-adv-x="1042" 
d="M714 712c200 4 341 -182 303 -377c-18 -101 -67 -184 -146 -249s-172 -98 -277 -98c-95 0 -171 33 -228 99s-81 146 -72 240h-131l-57 -327h-70l123 700h70l-54 -307h130c24 93 74 169 149 229c76 60 163 90 260 90zM947 345c14 83 -2 153 -49 211
c-46 59 -111 88 -196 88c-84 0 -158 -28 -222 -85s-103 -126 -117 -209c-15 -82 1 -152 47 -209c47 -57 112 -85 196 -85c85 0 160 27 223 82c64 55 103 124 118 207z" />
    <glyph glyph-name="uni042F" unicode="&#x42f;" horiz-adv-x="620" 
d="M343 700h276l-123 -700h-70l49 280h-163l-241 -280h-85l246 285c-49 11 -86 36 -113 76c-27 41 -36 86 -27 137c11 58 39 106 86 144c47 39 102 58 165 58zM287 346h200l50 288h-205c-41 0 -77 -14 -110 -41s-53 -60 -60 -100c-7 -41 1 -75 24 -104
c24 -29 58 -43 101 -43z" />
    <glyph glyph-name="uni0430" unicode="&#x430;" horiz-adv-x="638" 
d="M527 394l19 106h66l-88 -500h-66l15 85c-54 -65 -126 -97 -217 -97c-70 0 -126 27 -169 81s-58 118 -45 191c14 80 48 142 103 186s116 66 183 66c87 0 164 -42 199 -118zM272 52c55 0 104 17 147 52s70 80 81 134l2 12c9 61 -3 110 -38 145c-34 35 -78 53 -131 53
c-52 0 -100 -17 -144 -51c-43 -34 -70 -81 -81 -142c-9 -56 2 -104 33 -144c31 -39 75 -59 131 -59z" />
    <glyph glyph-name="uni0431" unicode="&#x431;" horiz-adv-x="568" 
d="M250 -12c-69 0 -124 24 -167 72c-43 49 -57 110 -44 185c15 86 38 152 71 198s92 88 175 125l62 26l59 23c43 19 94 49 105 98l50 -30c-5 -16 -13 -31 -24 -45c-21 -28 -35 -42 -74 -63c-19 -10 -34 -17 -45 -22l-54 -21l-51 -20c-96 -39 -140 -73 -171 -137
c52 52 118 78 198 78c62 0 112 -23 151 -69s53 -102 41 -169c-12 -68 -44 -123 -96 -166c-52 -42 -114 -63 -186 -63zM257 54c53 0 98 16 137 47c39 32 63 72 72 121s-1 89 -28 121s-66 48 -116 48c-49 0 -96 -14 -139 -43c-43 -28 -69 -67 -78 -116c-9 -51 2 -93 31 -127
s70 -51 121 -51z" />
    <glyph glyph-name="uni0432" unicode="&#x432;" horiz-adv-x="499" 
d="M465 360c-9 -49 -34 -84 -77 -105c48 -21 72 -66 61 -121c-13 -81 -76 -134 -180 -134h-243l88 500h223c44 0 78 -14 102 -41c25 -27 33 -60 26 -99zM399 362c9 47 -18 74 -74 74h-156l-27 -152h151c59 0 98 29 106 78zM385 144c8 47 -19 76 -78 76h-176l-28 -156h177
c56 0 96 31 105 80z" />
    <glyph glyph-name="uni0433" unicode="&#x433;" horiz-adv-x="395" 
d="M114 500h320l-11 -64h-254l-77 -436h-66z" />
    <glyph glyph-name="uni0434" unicode="&#x434;" horiz-adv-x="590" 
d="M534 500l-77 -436h70l-35 -198h-66l24 134h-408l-24 -134h-66l35 198h61c41 43 70 106 85 189l43 247h358zM131 64h260l66 372h-226l-32 -183c-13 -75 -35 -138 -68 -189z" />
    <glyph glyph-name="uni0435" unicode="&#x435;" horiz-adv-x="584" 
d="M339 512c75 0 133 -26 172 -78c40 -52 53 -114 38 -186c-2 -12 -5 -22 -8 -31h-437c-4 -101 62 -165 167 -165c77 0 136 29 177 86l52 -34c-48 -73 -143 -116 -238 -116c-77 0 -137 26 -178 78s-55 117 -42 194c13 73 47 134 103 181c57 47 121 71 194 71zM114 281h372
c8 109 -54 167 -151 167c-105 0 -190 -66 -221 -167z" />
    <glyph glyph-name="uni0436" unicode="&#x436;" horiz-adv-x="672" 
d="M606 500h80l-254 -246l176 -254h-72l-169 244l-43 -244h-66l43 243l-247 -243h-78l269 266l-173 234h75l160 -222l39 222h66l-40 -226z" />
    <glyph glyph-name="uni0437" unicode="&#x437;" horiz-adv-x="446" 
d="M411 359c-9 -51 -36 -87 -81 -106c48 -25 73 -73 64 -126c-15 -81 -89 -139 -209 -139c-108 0 -165 49 -180 120l58 31c11 -58 54 -87 130 -87c77 0 128 37 136 89c9 47 -23 79 -82 79h-73l12 64h53c57 0 97 30 106 81c8 48 -28 83 -97 83c-63 0 -108 -26 -136 -77
l-52 34c46 71 111 107 195 107c55 0 96 -15 124 -46s39 -66 32 -107z" />
    <glyph glyph-name="uni0438" unicode="&#x438;" horiz-adv-x="560" 
d="M113 120l365 380h56l-88 -500h-66l66 380l-364 -380h-56l88 500h66z" />
    <glyph glyph-name="uni0439" unicode="&#x439;" horiz-adv-x="560" 
d="M468 580h-260l10 58h260zM113 120l365 380h56l-88 -500h-66l66 380l-364 -380h-56l88 500h66z" />
    <glyph glyph-name="uni043A" unicode="&#x43a;" horiz-adv-x="494" 
d="M416 500h92l-302 -240l224 -260h-80l-214 249l-44 -249h-66l88 500h66l-38 -218z" />
    <glyph glyph-name="uni043B" unicode="&#x43b;" horiz-adv-x="550" 
d="M166 500h358l-88 -500h-66l77 436h-226l-39 -223c-15 -87 -41 -146 -77 -175c-35 -29 -82 -42 -139 -38l11 62c75 -8 118 30 139 151z" />
    <glyph glyph-name="uni043C" unicode="&#x43c;" horiz-adv-x="630" 
d="M524 500h80l-88 -500h-66l70 397l-224 -282h-8l-126 285l-70 -400h-66l88 500h72l120 -274z" />
    <glyph glyph-name="uni043D" unicode="&#x43d;" horiz-adv-x="560" 
d="M430 282l38 218h66l-88 -500h-66l38 218h-288l-38 -218h-66l88 500h66l-38 -218h288z" />
    <glyph glyph-name="uni043E" unicode="&#x43e;" horiz-adv-x="607" 
d="M263 -12c-71 0 -129 24 -175 73c-45 49 -61 113 -47 194s51 144 112 189s127 68 198 68c69 0 125 -25 169 -74c45 -49 60 -113 46 -192c-9 -56 -30 -104 -63 -144c-65 -80 -149 -114 -240 -114zM269 52c53 0 103 18 148 53s73 85 84 148c11 61 -1 108 -34 143
s-75 52 -128 52c-53 -1 -103 -18 -148 -53s-73 -83 -84 -145c-11 -63 0 -112 33 -147s76 -52 129 -51z" />
    <glyph glyph-name="uni043F" unicode="&#x43f;" horiz-adv-x="560" 
d="M114 500h420l-88 -500h-66l77 436h-288l-77 -436h-66z" />
    <glyph glyph-name="uni0440" unicode="&#x440;" horiz-adv-x="638" 
d="M382 512c70 0 126 -27 169 -81s58 -118 45 -191c-14 -80 -49 -142 -104 -186s-115 -66 -182 -66c-87 0 -164 42 -199 118l-54 -306h-66l123 700h66l-15 -85c54 65 126 97 217 97zM530 245c9 56 -2 104 -33 143c-31 40 -75 60 -131 60c-55 0 -104 -18 -147 -53
s-70 -79 -81 -132l-2 -16c-9 -61 4 -108 38 -143s78 -52 131 -52c52 0 100 17 143 51c44 34 71 81 82 142z" />
    <glyph glyph-name="uni0441" unicode="&#x441;" horiz-adv-x="553" 
d="M258 -12c-73 0 -130 27 -173 80c-42 54 -56 118 -43 193c13 73 48 133 105 180s123 71 198 71c97 0 176 -50 204 -130l-57 -29c-21 59 -77 95 -153 95c-57 0 -107 -19 -151 -56c-43 -37 -70 -83 -80 -138c-9 -57 1 -105 31 -144s73 -58 130 -58c76 0 144 39 183 100
l53 -35c-51 -81 -142 -129 -247 -129z" />
    <glyph glyph-name="uni0442" unicode="&#x442;" horiz-adv-x="440" 
d="M54 500h420l-11 -64h-177l-77 -436h-66l77 436h-177z" />
    <glyph glyph-name="uni0443" unicode="&#x443;" horiz-adv-x="510" 
d="M232 75l238 425h74l-310 -546c-60 -105 -141 -161 -229 -154l11 62c55 -6 106 29 151 104l21 35l-134 499h67z" />
    <glyph glyph-name="uni0444" unicode="&#x444;" horiz-adv-x="672" 
d="M448 700l-33 -189c76 -7 134 -36 174 -87s54 -111 42 -180c-12 -70 -46 -128 -102 -175c-55 -47 -124 -73 -206 -80l-33 -189h-66l33 189c-76 7 -134 36 -174 87s-54 111 -42 180c12 70 46 128 102 175s125 73 206 80l33 189h66zM565 250c19 104 -42 184 -162 196
l-68 -392c61 6 113 27 154 63c42 37 67 81 76 133zM269 54l68 392c-61 -6 -113 -27 -154 -64c-41 -36 -67 -80 -76 -132c-19 -104 43 -184 162 -196z" />
    <glyph glyph-name="uni0445" unicode="&#x445;" horiz-adv-x="510" 
d="M436 500h85l-225 -245l150 -255h-74l-122 206l-189 -206h-85l241 262l-140 238h74l111 -189z" />
    <glyph glyph-name="uni0446" unicode="&#x446;" horiz-adv-x="590" 
d="M524 500l-77 -436h80l-35 -198h-66l24 134h-424l88 500h66l-77 -436h278l77 436h66z" />
    <glyph glyph-name="uni0447" unicode="&#x447;" horiz-adv-x="530" 
d="M394 252l44 248h66l-88 -500h-66l33 187c-49 -18 -98 -27 -147 -27c-129 0 -190 71 -170 180l28 160h66l-28 -160c-14 -79 22 -118 107 -118c49 0 100 10 155 30z" />
    <glyph glyph-name="uni0448" unicode="&#x448;" horiz-adv-x="810" 
d="M641 64l77 436h66l-88 -500h-670l88 500h66l-77 -436h236l77 436h66l-77 -436h236z" />
    <glyph glyph-name="uni0449" unicode="&#x449;" horiz-adv-x="840" 
d="M784 500l-77 -436h70l-35 -198h-66l24 134h-674l88 500h66l-77 -436h236l77 436h66l-77 -436h236l77 436h66z" />
    <glyph glyph-name="uni044A" unicode="&#x44a;" horiz-adv-x="541" 
d="M217 310h137c45 0 81 -16 109 -47s38 -69 30 -114s-30 -82 -67 -109c-36 -27 -78 -40 -127 -40h-203l77 436h-140l11 64h206zM342 246h-137l-32 -182h137c56 0 108 36 117 91s-29 91 -85 91z" />
    <glyph glyph-name="uni044B" unicode="&#x44b;" horiz-adv-x="646" 
d="M147 310h137c45 0 81 -16 109 -47s38 -69 30 -114s-30 -82 -67 -109c-36 -27 -78 -40 -127 -40h-203l88 500h66zM466 0l88 500h66l-88 -500h-66zM272 246h-137l-32 -182h137c56 0 108 36 117 91s-29 91 -85 91z" />
    <glyph glyph-name="uni044C" unicode="&#x44c;" horiz-adv-x="471" 
d="M147 310h137c45 0 81 -16 109 -47s38 -69 30 -114s-30 -82 -67 -109c-36 -27 -78 -40 -127 -40h-203l88 500h66zM272 246h-137l-32 -182h137c56 0 108 36 117 91s-29 91 -85 91z" />
    <glyph glyph-name="uni044D" unicode="&#x44d;" horiz-adv-x="553" 
d="M295 512c75 0 133 -27 174 -80s55 -118 42 -193c-13 -74 -47 -134 -104 -181s-123 -70 -199 -70c-97 0 -176 50 -204 130l57 29c21 -63 72 -95 153 -95c51 0 98 15 139 46c42 31 70 71 85 120h-249l12 64h247c3 97 -59 166 -164 166c-76 0 -144 -39 -183 -100l-53 35
c51 81 142 129 247 129z" />
    <glyph glyph-name="uni044E" unicode="&#x44e;" horiz-adv-x="800" 
d="M544 512c69 0 125 -25 169 -74c45 -49 60 -113 46 -192c-9 -56 -30 -104 -63 -144c-65 -80 -149 -114 -240 -114c-64 0 -118 21 -162 62c-43 41 -63 97 -59 168h-105l-38 -218h-66l88 500h66l-38 -218h103c19 73 57 129 114 169c57 41 119 61 185 61zM694 253
c11 61 -1 108 -34 143s-75 52 -128 52c-53 -1 -103 -18 -148 -53s-73 -83 -84 -145c-11 -63 0 -112 33 -147s76 -52 129 -51c53 0 103 18 148 53s73 85 84 148z" />
    <glyph glyph-name="uni044F" unicode="&#x44f;" horiz-adv-x="500" 
d="M271 500h203l-88 -500h-66l34 192h-91l-186 -192h-81l191 195c-73 16 -123 79 -110 156c8 45 30 81 67 108s79 41 127 41zM228 254h137l32 182h-137c-56 0 -108 -36 -117 -91s29 -91 85 -91z" />
    <glyph glyph-name="uni0451" unicode="&#x451;" horiz-adv-x="584" 
d="M226 620c4 25 28 45 53 45s41 -20 37 -45c-7 -58 -104 -58 -90 0zM416 620c4 25 28 45 53 45s41 -20 37 -45c-7 -58 -104 -58 -90 0zM339 512c75 0 133 -26 172 -78c40 -52 53 -114 38 -186c-2 -12 -5 -22 -8 -31h-437c-4 -101 62 -165 167 -165c77 0 136 29 177 86
l52 -34c-48 -73 -143 -116 -238 -116c-77 0 -137 26 -178 78s-55 117 -42 194c13 73 47 134 103 181c57 47 121 71 194 71zM114 281h372c8 109 -54 167 -151 167c-105 0 -190 -66 -221 -167z" />
    <glyph glyph-name="uni0452" unicode="&#x452;" horiz-adv-x="568" 
d="M355 512c121 0 186 -81 165 -205l-61 -347c-21 -123 -91 -180 -210 -172l11 64c74 -8 118 28 133 108l61 347c15 91 -22 141 -111 141c-95 0 -170 -58 -194 -179l-47 -269h-66l101 576h-69l9 54h70l12 70h66l-12 -70h144l-9 -54h-145l-25 -146c46 55 105 82 177 82z" />
    <glyph glyph-name="uni0453" unicode="&#x453;" horiz-adv-x="395" 
d="M313 700h82l-116 -130h-66zM114 500h320l-11 -64h-254l-77 -436h-66z" />
    <glyph glyph-name="uni0454" unicode="&#x454;" horiz-adv-x="553" 
d="M269 52c76 0 144 39 183 100l53 -35c-51 -81 -142 -129 -247 -129c-73 0 -130 27 -173 80c-42 54 -56 118 -43 193c13 73 48 133 105 180s123 71 198 71c97 0 176 -50 204 -130l-57 -29c-21 59 -77 95 -153 95c-51 0 -98 -16 -139 -47s-70 -70 -85 -119h249l-12 -64h-247
c-1 -48 14 -88 44 -119s70 -47 120 -47z" />
    <glyph glyph-name="uni0455" unicode="&#x455;" horiz-adv-x="475" 
d="M205 -12c-97 0 -160 48 -180 119l59 31c11 -51 58 -86 126 -86s117 30 126 79c22 122 -282 63 -248 248c7 37 27 69 61 94c34 26 75 39 122 39c83 0 140 -34 169 -102l-58 -31c-15 47 -60 69 -113 69s-106 -26 -115 -78c-8 -44 34 -70 87 -87c79 -23 180 -53 161 -161
c-15 -84 -89 -134 -197 -134z" />
    <glyph glyph-name="uni0456" unicode="&#x456;" horiz-adv-x="206" 
d="M165 606c-27 0 -43 21 -39 48s28 48 56 48c27 0 45 -21 40 -48s-28 -48 -57 -48zM92 0h-66l88 500h66z" />
    <glyph glyph-name="uni0457" unicode="&#x457;" horiz-adv-x="206" 
d="M28 620c4 25 28 45 53 45s41 -20 37 -45c-7 -58 -104 -58 -90 0zM218 620c4 25 28 45 53 45s41 -20 37 -45c-7 -58 -104 -58 -90 0zM92 0h-66l88 500h66z" />
    <glyph glyph-name="uni0458" unicode="&#x458;" horiz-adv-x="230" 
d="M206 702c27 0 45 -21 40 -48s-28 -48 -57 -48c-27 0 -43 21 -39 48s28 48 56 48zM43 -40l95 540h66l-95 -540c-23 -133 -93 -183 -210 -172l11 64c76 -8 118 24 133 108z" />
    <glyph glyph-name="uni0459" unicode="&#x459;" horiz-adv-x="791" 
d="M477 290h132c43 0 77 -14 104 -42s36 -64 28 -109c-16 -89 -90 -139 -183 -139h-198l77 436h-216l-39 -223c-15 -85 -40 -143 -77 -174c-36 -30 -82 -43 -139 -39l11 62c75 -9 116 28 139 151l50 287h348zM598 226h-132l-29 -162h132c53 0 97 28 106 81s-24 81 -77 81z
" />
    <glyph glyph-name="uni045A" unicode="&#x45a;" horiz-adv-x="791" 
d="M477 290h132c43 0 77 -14 104 -42s36 -64 28 -109c-16 -89 -90 -139 -183 -139h-198l40 226h-268l-40 -226h-66l88 500h66l-37 -210h268l37 210h66zM598 226h-132l-29 -162h132c53 0 97 28 106 81s-24 81 -77 81z" />
    <glyph glyph-name="uni045B" unicode="&#x45b;" horiz-adv-x="568" 
d="M355 512c121 0 186 -81 165 -205l-54 -307h-66l54 307c15 91 -22 141 -111 141c-95 0 -170 -58 -194 -179l-47 -269h-66l101 576h-69l9 54h70l12 70h66l-12 -70h144l-9 -54h-145l-25 -146c46 55 105 82 177 82z" />
    <glyph glyph-name="uni045C" unicode="&#x45c;" horiz-adv-x="494" 
d="M353 700h82l-116 -130h-66zM416 500h92l-302 -240l224 -260h-80l-214 249l-44 -249h-66l88 500h66l-38 -218z" />
    <glyph glyph-name="uni045E" unicode="&#x45e;" horiz-adv-x="510" 
d="M176 638h260l-10 -58h-260zM232 75l238 425h74l-310 -546c-60 -105 -141 -161 -229 -154l11 62c55 -6 106 29 151 104l21 35l-134 499h67z" />
    <glyph glyph-name="uni045F" unicode="&#x45f;" horiz-adv-x="560" 
d="M391 64l77 436h66l-88 -500h-177l-24 -134h-66l24 134h-177l88 500h66l-77 -436h288z" />
    <glyph glyph-name="uni0490" unicode="&#x490;" horiz-adv-x="490" 
d="M480 700l21 120h70l-33 -186h-321l-111 -634h-70l123 700h321z" />
    <glyph glyph-name="uni0491" unicode="&#x491;" horiz-adv-x="395" 
d="M368 500l18 104h66l-29 -168h-254l-77 -436h-66l88 500h254z" />
    <glyph glyph-name="Wgrave" unicode="&#x1e80;" horiz-adv-x="1000" 
d="M632 770h-64l-74 130h80zM189 0h84l290 608l76 -608h84l326 700h-74l-282 -608l-76 608h-82l-289 -608l-68 608h-69z" />
    <glyph glyph-name="wgrave" unicode="&#x1e81;" horiz-adv-x="770" 
d="M424 700l58 -130h-64l-74 130h80zM517 85l196 415h71l-242 -500h-72l-58 403l-200 -403h-72l-66 500h65l50 -415l204 415h67l-1 -2z" />
    <glyph glyph-name="Wacute" unicode="&#x1e82;" horiz-adv-x="1000" 
d="M542 770l100 130h82l-116 -130h-66zM189 0h84l290 608l76 -608h84l326 700h-74l-282 -608l-76 608h-82l-289 -608l-68 608h-69z" />
    <glyph glyph-name="wacute" unicode="&#x1e83;" horiz-adv-x="770" 
d="M492 700h82l-116 -130h-66zM517 85l196 415h71l-242 -500h-72l-58 403l-200 -403h-72l-66 500h65l50 -415l204 415h67l-1 -2z" />
    <glyph glyph-name="Wdieresis" unicode="&#x1e84;" horiz-adv-x="1000" 
d="M460 820c4 25 28 45 53 45s41 -20 37 -45c-7 -58 -104 -58 -90 0zM650 820c4 25 28 45 53 45s41 -20 37 -45c-7 -58 -104 -58 -90 0zM273 0h-84l-80 700h69l68 -608l289 608h82l76 -608l282 608h74l-326 -700h-84l-76 608z" />
    <glyph glyph-name="wdieresis" unicode="&#x1e85;" horiz-adv-x="770" 
d="M310 620c4 25 28 45 53 45s41 -20 37 -45c-7 -58 -104 -58 -90 0zM500 620c4 25 28 45 53 45s41 -20 37 -45c-7 -58 -104 -58 -90 0zM517 85l196 415h71l-242 -500h-72l-58 403l-200 -403h-72l-66 500h65l50 -415l204 415h67l-1 -2z" />
    <glyph glyph-name="Ygrave" unicode="&#x1ef2;" horiz-adv-x="575" 
d="M358 900l58 -130h-64l-74 130h80zM562 700h82l-309 -374l-57 -326h-70l57 327l-176 373h72l146 -309z" />
    <glyph glyph-name="ygrave" unicode="&#x1ef3;" horiz-adv-x="510" 
d="M277 700l58 -130h-64l-74 130h80zM232 75l238 425h74l-310 -546c-60 -105 -141 -161 -229 -154l11 62c55 -6 106 29 151 104l21 35l-134 499h67z" />
    <glyph glyph-name="endash" unicode="&#x2013;" horiz-adv-x="649" 
d="M574 277h-489l11 64h489z" />
    <glyph glyph-name="emdash" unicode="&#x2014;" horiz-adv-x="749" 
d="M674 277h-589l11 64h589z" />
    <glyph glyph-name="quoteleft" unicode="&#x2018;" horiz-adv-x="241" 
d="M180 475h-80l100 225h60z" />
    <glyph glyph-name="quoteright" unicode="&#x2019;" horiz-adv-x="241" 
d="M180 700h80l-100 -225h-60z" />
    <glyph glyph-name="quotesinglbase" unicode="&#x201a;" horiz-adv-x="240" 
d="M71 85h80l-100 -225h-60z" />
    <glyph glyph-name="quotedblleft" unicode="&#x201c;" horiz-adv-x="381" 
d="M180 475h-80l100 225h60zM320 475h-80l100 225h60z" />
    <glyph glyph-name="quotedblright" unicode="&#x201d;" horiz-adv-x="381" 
d="M180 700h80l-100 -225h-60zM320 700h80l-100 -225h-60z" />
    <glyph glyph-name="quotedblbase" unicode="&#x201e;" horiz-adv-x="380" 
d="M71 85h80l-100 -225h-60zM211 85h80l-100 -225h-60z" />
    <glyph glyph-name="dagger" unicode="&#x2020;" horiz-adv-x="480" 
d="M323 535h147l-11 -64h-147l-83 -471h-66l83 471h-147l11 64h147l29 165h66z" />
    <glyph glyph-name="daggerdbl" unicode="&#x2021;" horiz-adv-x="480" 
d="M470 535l-11 -64h-147l-43 -242h147l-11 -64h-147l-29 -165h-66l29 165h-147l11 64h147l43 242h-147l11 64h147l29 165h66l-29 -165h147z" />
    <glyph glyph-name="bullet" unicode="&#x2022;" horiz-adv-x="300" 
d="M151 250c-56 0 -93 49 -82 105c11 55 60 95 117 95c55 0 92 -47 81 -103s-59 -97 -116 -97z" />
    <glyph glyph-name="ellipsis" unicode="&#x2026;" horiz-adv-x="610" 
d="M69 -10c-31 0 -50 25 -45 56s31 54 64 54c31 0 51 -25 46 -56c-7 -32 -30 -54 -65 -54zM259 -10c-31 0 -50 25 -45 56s31 54 64 54c31 0 51 -25 46 -56c-7 -32 -30 -54 -65 -54zM449 -10c-31 0 -50 25 -45 56s31 54 64 54c31 0 51 -25 46 -56c-7 -32 -30 -54 -65 -54z
" />
    <glyph glyph-name="perthousand" unicode="&#x2030;" horiz-adv-x="1065" 
d="M243 412c-43 0 -76 15 -101 45c-25 31 -33 67 -26 109s28 77 62 104c34 28 73 42 118 42c43 0 76 -15 100 -46c25 -30 33 -66 26 -108s-28 -77 -61 -105c-33 -27 -73 -41 -118 -41zM193 498c14 -17 34 -26 60 -26s49 9 68 26c40 35 51 93 23 128c-13 17 -33 26 -59 26
s-49 -9 -69 -26c-39 -35 -50 -93 -23 -128zM108 70l-42 26l562 527l43 -26zM451 -12c-43 0 -76 15 -101 45c-25 31 -33 67 -26 109s28 77 62 104c34 28 73 42 118 42c43 0 76 -15 100 -46c25 -30 33 -66 26 -108s-28 -77 -62 -105c-33 -27 -72 -41 -117 -41zM806 -12
c-43 0 -76 15 -101 45c-25 31 -33 67 -26 109s28 77 62 104c34 28 73 42 118 42c43 0 76 -15 100 -46c25 -30 33 -66 26 -108s-28 -77 -62 -105c-33 -27 -72 -41 -117 -41zM402 74c13 -17 33 -26 59 -26s49 9 68 26c40 35 51 93 23 128c-13 17 -33 26 -59 26s-49 -9 -69 -26
c-40 -35 -49 -93 -22 -128zM757 74c13 -17 33 -26 59 -26s49 9 68 26c40 35 51 93 23 128c-13 17 -33 26 -59 26s-49 -9 -69 -26c-40 -35 -49 -93 -22 -128z" />
    <glyph glyph-name="guilsinglleft" unicode="&#x2039;" horiz-adv-x="337" 
d="M222 489h87l-145 -185l77 -175h-82l-79 180z" />
    <glyph glyph-name="guilsinglright" unicode="&#x203a;" horiz-adv-x="338" 
d="M117 489h82l79 -180l-142 -180h-87l145 185z" />
    <glyph glyph-name="fraction" unicode="&#x2044;" horiz-adv-x="220" 
d="M419 700l-518 -700h-65l518 700h65z" />
    <glyph glyph-name="Euro" unicode="&#x20ac;" horiz-adv-x="595" 
d="M425 644c-101 0 -181 -73 -224 -202h253l-10 -58h-259l-7 -34c-1 -5 -3 -14 -4 -26h259l-10 -58h-254c-5 -135 49 -210 152 -210c73 0 130 34 171 102l56 -35c-57 -90 -137 -135 -239 -135c-69 0 -123 25 -160 75c-37 51 -54 118 -51 203h-75l10 58h70c1 7 2 17 5 32
l5 28h-69l10 58h75c53 169 163 270 308 270c93 0 160 -49 189 -134l-64 -33c-19 66 -65 99 -137 99z" />
    <glyph glyph-name="uni20BD" unicode="&#x20bd;" horiz-adv-x="591" 
d="M189 700h250c56 0 101 -22 136 -65s48 -93 37 -151c-10 -57 -39 -106 -86 -145s-101 -59 -161 -59h-180l-16 -94h260l-10 -58h-261l-22 -128h-70l22 128h-89l10 58h90l16 94h-90l12 66h90zM542 490c7 40 0 74 -23 102c-22 28 -52 42 -91 42h-181l-50 -288h180
c39 0 74 14 106 42c32 29 52 63 59 102z" />
    <glyph glyph-name="uni2116" unicode="&#x2116;" horiz-adv-x="1017" 
d="M852 412c-43 0 -76 15 -101 45c-24 31 -32 67 -25 109s28 77 61 104c34 28 73 42 118 42c43 0 76 -15 100 -46c25 -30 33 -66 26 -108c-15 -85 -83 -146 -179 -146zM106 0h-70l123 700h54l297 -569l99 569h70l-123 -700h-54l-296 569zM863 472c52 0 96 39 104 90
c9 51 -21 90 -73 90s-95 -39 -104 -90c-8 -52 18 -90 73 -90zM969 278h-282l11 64h282z" />
    <glyph glyph-name="trademark" unicode="&#x2122;" horiz-adv-x="466" 
d="M275 700l-7 -37h-56l-29 -163h-40l29 163h-59l7 37h155zM460 700h45l-35 -200h-40l23 134l-80 -100h-4l-42 98l-23 -132h-40l35 200h40l41 -102z" />
    <glyph glyph-name="estimated" unicode="&#x212e;" horiz-adv-x="820" 
d="M491 710c107 0 190 -35 247 -105c58 -69 78 -154 60 -255c-2 -10 -8 -15 -18 -15h-560c-10 0 -16 -5 -18 -15l-33 -192c-2 -7 -1 -14 3 -19c46 -59 119 -89 218 -89c95 0 179 32 250 97c6 6 12 9 19 9h35c13 0 17 -10 6 -19c-87 -78 -192 -117 -316 -117
c-115 0 -203 36 -263 108c-59 72 -80 159 -62 262c18 101 67 185 146 251c80 66 175 99 286 99zM653 380l35 194c1 7 -1 14 -4 19c-45 58 -111 87 -198 87c-86 0 -162 -30 -229 -89c-6 -6 -9 -12 -10 -19l-34 -192c-2 -10 2 -15 12 -15h410c10 0 16 5 18 15z" />
    <glyph glyph-name="oneeighth" unicode="&#x215b;" horiz-adv-x="803" 
d="M126 300l58 328l-95 -27l-7 57l124 42h53l-71 -400h-62zM83 0l518 700h65l-518 -700h-65zM774 294c-5 -37 -28 -65 -68 -85c40 -25 56 -61 47 -107c-12 -71 -78 -114 -163 -114c-41 0 -73 11 -97 34s-33 53 -27 88c9 47 37 81 86 102c-32 23 -45 53 -39 90
c12 69 76 110 151 110c35 0 63 -11 85 -33c23 -22 31 -50 25 -85zM712 298c7 35 -15 56 -58 56c-46 0 -72 -19 -79 -56c-7 -36 15 -59 59 -59c43 0 71 23 78 59zM623 179c-55 0 -86 -22 -93 -65c-7 -40 18 -66 70 -66c51 0 86 26 93 66s-21 65 -70 65z" />
    <glyph glyph-name="threeeighths" unicode="&#x215c;" horiz-adv-x="909" 
d="M341 411c-13 -76 -79 -123 -168 -123c-63 0 -105 28 -127 84l54 28c12 -35 40 -52 83 -52c53 0 89 26 96 69c8 41 -19 69 -71 69h-4l-23 47l104 107h-179l10 60h258l-10 -60l-106 -108c60 -15 94 -62 83 -121zM189 0l518 700h65l-518 -700h-65zM880 294
c-5 -37 -28 -65 -68 -85c40 -25 56 -61 47 -107c-12 -71 -78 -114 -163 -114c-41 0 -73 11 -97 34s-33 53 -27 88c9 47 37 81 86 102c-32 23 -45 53 -39 90c12 69 76 110 151 110c35 0 63 -11 85 -33c23 -22 31 -50 25 -85zM818 298c7 35 -15 56 -58 56
c-46 0 -72 -19 -79 -56c-7 -36 15 -59 59 -59c43 0 71 23 78 59zM729 179c-55 0 -86 -22 -93 -65c-7 -40 18 -66 70 -66c51 0 86 26 93 66s-21 65 -70 65z" />
    <glyph glyph-name="fiveeighths" unicode="&#x215d;" horiz-adv-x="898" 
d="M338 411c-13 -77 -73 -123 -165 -123c-63 0 -105 28 -126 85l56 28c13 -35 39 -53 80 -53c51 0 86 28 93 69c8 44 -17 73 -68 73h-122l52 210h234l-10 -58h-179l-22 -92h60c39 0 70 -13 93 -40s31 -60 24 -99zM178 0l518 700h65l-518 -700h-65zM869 294
c-6 -37 -29 -65 -68 -85c40 -25 56 -61 47 -107c-12 -71 -78 -114 -163 -114c-41 0 -73 11 -97 34s-33 53 -27 88c9 47 37 81 86 102c-32 23 -45 53 -39 90c12 69 76 110 151 110c35 0 63 -11 85 -33c23 -22 31 -50 25 -85zM807 298c7 35 -14 56 -58 56
c-46 0 -72 -19 -79 -56c-7 -36 15 -59 59 -59c43 0 71 23 78 59zM718 179c-55 0 -86 -22 -93 -65c-7 -40 18 -66 70 -66c51 0 86 26 93 66s-21 65 -70 65z" />
    <glyph glyph-name="seveneighths" unicode="&#x215e;" horiz-adv-x="852" 
d="M347 650l-207 -350h-69l203 340h-195l10 60h266zM132 0l518 700h65l-518 -700h-65zM823 294c-6 -37 -29 -65 -68 -85c40 -25 56 -61 47 -107c-12 -71 -78 -114 -163 -114c-41 0 -73 11 -97 34s-33 53 -27 88c9 47 37 81 86 102c-32 23 -45 53 -39 90
c12 69 76 110 151 110c35 0 63 -11 85 -33c23 -22 31 -50 25 -85zM761 298c7 35 -14 56 -58 56c-46 0 -72 -19 -79 -56c-7 -36 15 -59 59 -59c43 0 71 23 78 59zM672 179c-55 0 -86 -22 -93 -65c-7 -40 18 -66 70 -66c51 0 86 26 93 66s-21 65 -70 65z" />
    <glyph glyph-name="arrowleft" unicode="&#x2190;" horiz-adv-x="820" 
d="M209 382h574l-11 -64h-580l221 -268h-88l-247 300l353 300l92 -1z" />
    <glyph glyph-name="arrowup" unicode="&#x2191;" horiz-adv-x="720" 
d="M439 700l247 -300l-15 -88l-220 269l-102 -581h-66l100 571l-313 -266l17 95z" />
    <glyph glyph-name="arrowright" unicode="&#x2192;" horiz-adv-x="820" 
d="M444 650h87l247 -300l-348 -300h-95l311 268h-574l11 64h582z" />
    <glyph glyph-name="arrowdown" unicode="&#x2193;" horiz-adv-x="720" 
d="M472 700l-101 -573l314 267l-17 -94l-352 -300l-247 300l15 86l220 -267l102 581h66z" />
    <glyph glyph-name="arrowboth" unicode="&#x2194;" horiz-adv-x="1040" 
d="M706 600h87l205 -250l-293 -250h-95l256 218h-675l179 -218h-87l-205 250l293 250h95l-256 -218h675z" />
    <glyph glyph-name="arrowupdn" unicode="&#x2195;" horiz-adv-x="620" 
d="M614 561l-15 -87l-178 217l-118 -673l254 216l-17 -95l-293 -249l-206 249l15 86l179 -217l119 675l-256 -216l17 94l294 249z" />
    <glyph glyph-name="uni2196" unicode="&#x2196;" horiz-adv-x="638" 
d="M544 587l51 -63h-380l339 -412l-51 -43l-339 412l-67 -381l-52 63l75 424h424z" />
    <glyph glyph-name="uni2197" unicode="&#x2197;" horiz-adv-x="639" 
d="M139 524l75 63h424l-75 -424l-76 -64l65 373l-474 -402l-41 49l477 405h-375z" />
    <glyph glyph-name="uni2198" unicode="&#x2198;" horiz-adv-x="638" 
d="M506 195l67 381l51 -63l-74 -424h-424l-52 63h380l-339 412l51 43z" />
    <glyph glyph-name="uni2199" unicode="&#x2199;" horiz-adv-x="639" 
d="M592 607l41 -49l-478 -406h375l-74 -63h-424l74 424l75 63l-66 -374z" />
    <glyph glyph-name="partialdiff" unicode="&#x2202;" horiz-adv-x="578" 
d="M315 712c78 0 139 -35 182 -104c44 -69 57 -157 38 -264c-21 -114 -60 -202 -119 -264c-59 -61 -127 -92 -204 -92c-61 0 -108 21 -139 63c-31 43 -42 94 -31 155c24 137 126 224 270 224c61 0 115 -18 161 -53c9 76 -1 140 -30 192s-75 78 -140 78
c-49 0 -94 -12 -137 -35l11 64c42 24 88 36 138 36zM223 52c108 0 199 97 238 258c-42 37 -95 56 -160 56c-100 0 -174 -59 -193 -166c-15 -87 23 -148 115 -148z" />
    <glyph glyph-name="emptyset" unicode="&#x2205;" horiz-adv-x="807" 
d="M754 720h74l-112 -112c63 -75 85 -163 67 -266c-18 -100 -68 -184 -150 -252s-174 -102 -276 -102c-75 0 -139 23 -194 68l-76 -76h-74l113 112c-63 73 -85 162 -67 266c17 100 67 184 149 252c83 68 175 102 277 102c75 0 139 -22 193 -67zM119 350
c-15 -84 2 -156 49 -215l467 467c-44 35 -98 52 -161 52c-84 0 -160 -30 -229 -89s-111 -130 -126 -215zM723 350c15 84 -1 156 -50 215l-467 -466c43 -35 97 -53 161 -53c84 0 160 29 229 88s112 131 127 216z" />
    <glyph glyph-name="product" unicode="&#x220f;" horiz-adv-x="640" 
d="M67 -200h-66l158 900h480l-158 -900h-66l147 836h-348z" />
    <glyph glyph-name="summation" unicode="&#x2211;" horiz-adv-x="540" 
d="M431 -200h-460l11 65l310 400l-159 369l11 66h430l-11 -64h-360l165 -380l-304 -392h378z" />
    <glyph glyph-name="minus" unicode="&#x2212;" horiz-adv-x="540" 
d="M492 318h-420l11 64h420z" />
    <glyph glyph-name="radical" unicode="&#x221a;" horiz-adv-x="644" 
d="M311 0h-70l-95 236h-88l11 64h122l88 -220l368 720h74z" />
    <glyph glyph-name="infinity" unicode="&#x221e;" horiz-adv-x="800" 
d="M630 510c44 0 79 -16 105 -49c26 -32 35 -71 27 -116s-30 -83 -65 -112s-76 -43 -123 -43c-62 0 -117 37 -164 110c-71 -73 -139 -110 -204 -110c-44 0 -79 16 -105 48c-26 33 -35 72 -27 117s29 82 64 111s77 44 124 44c61 0 116 -37 165 -110c69 73 137 110 203 110z
M217 250c48 0 102 33 163 100c-37 67 -80 100 -128 100c-56 0 -102 -41 -113 -100s21 -100 78 -100zM619 450c-49 0 -103 -33 -162 -100c36 -67 78 -100 127 -100c56 0 103 41 114 100s-22 100 -79 100z" />
    <glyph glyph-name="integral" unicode="&#x222b;" horiz-adv-x="439" 
d="M-80 -202l12 64c64 -27 117 3 138 68l219 640c41 120 117 164 230 132l-12 -64c-76 27 -126 -3 -149 -68l-219 -640c-41 -120 -123 -163 -219 -132z" />
    <glyph glyph-name="approxequal" unicode="&#x2248;" horiz-adv-x="594" 
d="M309 402c-92 59 -133 41 -168 -36l-56 28c49 116 145 144 264 64c90 -64 134 -37 168 36l55 -28c-48 -116 -143 -144 -263 -64zM112 206l-55 28c48 116 147 144 264 64c90 -64 134 -37 168 36l55 -28c-48 -116 -143 -144 -263 -64c-89 63 -136 37 -169 -36z" />
    <glyph glyph-name="notequal" unicode="&#x2260;" horiz-adv-x="540" 
d="M521 482l-11 -64h-154l-84 -136h214l-12 -64h-242l-91 -148h-53l91 148h-125l12 64h153l84 136h-213l11 64h242l91 148h53l-91 -148h125z" />
    <glyph glyph-name="lessequal" unicode="&#x2264;" horiz-adv-x="520" 
d="M94 444l428 156l-14 -78l-337 -115l296 -115l-12 -70l-372 156l5 33zM434 100h-400l11 64h400z" />
    <glyph glyph-name="greaterequal" unicode="&#x2265;" horiz-adv-x="520" 
d="M110 530l12 70l372 -156l-6 -33l-5 -33l-428 -156l14 78l336 115zM434 100h-400l11 64h400z" />
    <glyph glyph-name="lozenge" unicode="&#x25ca;" horiz-adv-x="540" 
d="M260 0h-68l-124 350l247 350h68l125 -350zM138 342l97 -271l203 287l-97 271z" />
    <glyph glyph-name="i.loclTRK" horiz-adv-x="206" 
d="M224 625c-7 -31 -34 -55 -65 -55s-50 24 -45 55s33 55 64 55s51 -24 46 -55zM92 0h-66l88 500h66z" />
    <glyph glyph-name="f_f_j" horiz-adv-x="786" 
d="M490 500h270l-95 -540c-21 -120 -97 -183 -210 -172l11 64c76 -8 118 24 133 108l84 476h-204l-77 -436h-66l77 436h-204l-77 -436h-66l77 436h-85l11 64h85l4 20c23 135 109 203 244 192l-12 -64c-94 8 -149 -35 -166 -128l-4 -20h204l5 30c22 128 103 192 244 192
c29 0 60 -4 94 -12l-10 -60c-30 5 -62 8 -95 8c-100 0 -151 -35 -167 -128z" />
    <glyph glyph-name="f_j" horiz-adv-x="516" 
d="M220 500h270l-95 -540c-21 -120 -97 -183 -210 -172l11 64c76 -8 118 24 133 108l84 476h-204l-77 -436h-66l77 436h-85l11 64h85l4 20c22 128 103 192 244 192c28 0 59 -4 93 -12l-10 -60c-30 5 -62 8 -95 8c-100 0 -150 -35 -166 -128z" />
    <glyph glyph-name="uni0414.loclBGR" horiz-adv-x="700" 
d="M465 700l113 -634h65l-36 -200h-70l24 134h-510l-24 -134h-70l36 200h64l336 634h72zM418 613l-286 -547h377z" />
    <glyph glyph-name="uni041B.loclBGR" horiz-adv-x="608" 
d="M42 0h-76l381 700h72l135 -700h-70l-112 613z" />
    <glyph glyph-name="uni0424.loclBGR" horiz-adv-x="847" 
d="M555 800l-16 -89c101 -7 178 -45 231 -113s71 -153 53 -256s-64 -186 -139 -249s-165 -97 -272 -104l-16 -89h-70l16 89c-101 8 -178 46 -231 113c-53 68 -70 153 -52 256s64 185 138 248c75 63 165 98 272 105l16 89h70zM129 350c-15 -85 -3 -154 38 -207
s103 -83 186 -90l105 594c-86 -7 -159 -38 -218 -91s-96 -121 -111 -206zM753 350c15 85 1 153 -40 206s-102 84 -185 91l-105 -594c86 7 159 37 218 90s97 122 112 207z" />
    <glyph glyph-name="uni0414.ss01" horiz-adv-x="690" 
d="M220 700h439l-111 -634h75l-12 -66h-640l12 66h56c56 54 94 137 114 250zM126 66h352l100 568h-299l-57 -320c-19 -109 -51 -192 -96 -248z" />
    <glyph glyph-name="uni0426.ss01" horiz-adv-x="690" 
d="M659 700l-111 -634h75l-12 -66h-575l123 700h70l-111 -634h360l111 634h70z" />
    <glyph glyph-name="uni0429.ss01" horiz-adv-x="980" 
d="M949 700l-111 -634h75l-12 -66h-865l123 700h70l-111 -634h290l111 634h70l-111 -634h290l111 634h70z" />
    <glyph glyph-name="uni0414.loclBGR.ss01" horiz-adv-x="700" 
d="M465 700l113 -634h65l-12 -66h-650l12 66h64l336 634h72zM418 613l-286 -547h377z" />
    <glyph glyph-name="uni0432.loclBGR" horiz-adv-x="572" 
d="M421 396c79 -31 118 -103 101 -202c-23 -132 -119 -206 -267 -206c-68 0 -120 22 -155 67s-45 106 -32 181l42 240c25 151 119 236 251 236c55 0 97 -17 128 -50s42 -75 34 -124c-9 -52 -43 -99 -102 -142zM349 648c-87 0 -154 -63 -173 -172l-16 -92l107 21
c29 6 56 8 82 6c63 40 99 84 108 133c11 60 -31 104 -108 104zM456 200c20 115 -52 170 -200 141l-107 -21l-15 -90c-20 -117 28 -178 132 -178c103 0 174 55 190 148z" />
    <glyph glyph-name="uni0433.loclBGR" horiz-adv-x="456" 
d="M187 -12c-55 0 -97 15 -127 45s-41 67 -34 110c12 67 63 105 122 121c87 23 192 31 202 99c8 52 -36 85 -93 85c-53 0 -105 -28 -129 -77l-52 34c32 64 103 107 188 107c49 0 89 -16 118 -47c30 -31 41 -66 34 -107c-12 -67 -63 -105 -122 -121
c-84 -23 -189 -32 -202 -99c-11 -55 38 -86 99 -86c65 0 123 36 152 91l53 -35c-44 -80 -114 -120 -209 -120z" />
    <glyph glyph-name="uni0434.loclBGR" horiz-adv-x="639" 
d="M527 394l19 106h66l-84 -480c-13 -74 -46 -131 -98 -171c-52 -41 -115 -61 -189 -61c-105 0 -184 45 -220 122l59 30c24 -59 79 -88 164 -88c121 0 199 61 218 168l12 67c-55 -66 -125 -99 -211 -99c-75 0 -134 26 -176 79c-41 53 -56 117 -45 193c11 77 45 138 101 183
c57 46 118 69 185 69c85 0 164 -42 199 -118zM501 243v2l1 5c10 61 -3 109 -38 144c-35 36 -79 54 -131 54s-100 -18 -145 -53c-44 -35 -71 -81 -80 -140c-9 -58 2 -106 33 -145c32 -39 77 -58 134 -58c54 0 102 17 145 52s70 82 81 139z" />
    <glyph glyph-name="uni0436.loclBGR" horiz-adv-x="674" 
d="M54 0h-78l269 266l-173 234h75l160 -222l76 422h66l-77 -426l234 226h80l-254 -246l176 -254h-72l-169 244l-43 -244h-66l43 243z" />
    <glyph glyph-name="uni0438.loclBGR" horiz-adv-x="558" 
d="M418 228l48 272h66l-88 -500h-66l12 70c-45 -55 -104 -82 -177 -82c-121 0 -186 81 -165 205l54 307h66l-54 -307c-15 -91 22 -141 111 -141c93 0 169 56 193 176z" />
    <glyph glyph-name="uni0439.loclBGR" horiz-adv-x="558" 
d="M208 638h260l-10 -58h-260zM418 228l48 272h66l-88 -500h-66l12 70c-45 -55 -104 -82 -177 -82c-121 0 -186 81 -165 205l54 307h66l-54 -307c-15 -91 22 -141 111 -141c93 0 169 56 193 176z" />
    <glyph glyph-name="uni043A.loclBGR" horiz-adv-x="494" 
d="M416 500h92l-302 -240l224 -260h-80l-214 249l-44 -249h-66l123 700h66l-73 -418z" />
    <glyph glyph-name="uni043B.loclBGR" horiz-adv-x="470" 
d="M319 500l97 -500h-68l-78 427l-231 -427h-73l273 500h80z" />
    <glyph glyph-name="uni043F.loclBGR" horiz-adv-x="558" 
d="M345 512c121 0 186 -81 165 -205l-54 -307h-66l54 307c15 91 -22 141 -111 141c-93 0 -169 -56 -193 -176l-48 -272h-66l88 500h66l-12 -70c45 55 104 82 177 82z" />
    <glyph glyph-name="uni0442.loclBGR" horiz-adv-x="848" 
d="M648 512c53 0 94 -18 124 -54s40 -85 29 -146l-55 -312h-66l55 312c15 87 -24 136 -100 136c-79 0 -142 -49 -165 -158l-51 -290h-66l55 312c15 88 -21 136 -93 136c-80 0 -150 -52 -173 -161l-50 -287h-66l88 500h66l-11 -65c45 51 99 77 163 77c67 0 117 -33 137 -93
c47 62 106 93 179 93z" />
    <glyph glyph-name="uni0446.loclBGR" horiz-adv-x="594" 
d="M532 500l-70 -400c-4 -21 7 -36 30 -36h39l-35 -198h-66l24 136c-37 6 -57 29 -60 68c-45 -55 -106 -82 -181 -82c-121 0 -186 81 -165 205l54 307h66l-54 -307c-15 -91 22 -141 111 -141c96 0 174 59 195 186l46 262h66z" />
    <glyph glyph-name="uni0448.loclBGR" horiz-adv-x="848" 
d="M706 213l50 287h66l-88 -500h-66l11 65c-45 -51 -99 -77 -163 -77c-67 0 -117 33 -137 93c-47 -62 -106 -93 -179 -93c-53 0 -94 18 -124 54s-40 85 -29 146l55 312h66l-55 -312c-15 -87 24 -136 100 -136c79 0 142 49 165 158l51 290h66l-55 -312
c-15 -88 21 -136 93 -136c80 0 150 52 173 161z" />
    <glyph glyph-name="uni0449.loclBGR" horiz-adv-x="884" 
d="M822 500l-70 -400c-4 -21 7 -36 30 -36h39l-35 -198h-66l24 136c-36 5 -57 31 -60 68c-45 -55 -101 -82 -168 -82s-118 33 -138 94c-47 -63 -106 -94 -178 -94c-53 0 -94 18 -124 54s-40 85 -29 146l55 312h66l-55 -312c-15 -87 24 -136 100 -136c79 0 142 49 165 158
l51 290h66l-55 -312c-15 -88 21 -136 93 -136c79 0 149 51 172 158l51 290h66z" />
    <glyph glyph-name="uni044C.loclBGR" horiz-adv-x="480" 
d="M140 338h129c58 0 102 -17 132 -52c31 -34 41 -78 32 -132c-9 -49 -33 -89 -73 -120c-39 -31 -88 -46 -145 -46c-59 0 -105 18 -137 55c-31 37 -43 79 -34 127l58 330h66zM367 164c11 68 -30 110 -110 110h-129l-18 -104c-12 -69 34 -118 114 -118c79 0 131 49 143 112z
" />
    <glyph glyph-name="uni044A.loclBGR" horiz-adv-x="562" 
d="M222 338h129c58 0 102 -17 132 -52c31 -35 41 -79 32 -133c-9 -49 -33 -88 -73 -119c-39 -31 -88 -46 -145 -46c-59 0 -105 18 -137 55c-31 37 -43 79 -34 127l47 266h-140l11 64h206zM449 163c11 68 -30 111 -110 111h-129l-18 -104c-12 -71 33 -118 114 -118
c79 0 131 48 143 111z" />
    <glyph glyph-name="uni044E.loclBGR" horiz-adv-x="800" 
d="M544 512c69 0 125 -25 169 -74c45 -49 60 -113 46 -192c-9 -56 -30 -104 -63 -144c-65 -80 -149 -114 -240 -114c-64 0 -118 21 -162 62c-43 41 -63 97 -59 168h-105l-38 -218h-66l123 700h66l-73 -418h103c19 73 56 130 113 170s119 60 186 60zM694 253
c11 61 -1 108 -34 143s-75 52 -128 52c-53 -1 -103 -18 -148 -53s-73 -83 -84 -145c-11 -63 0 -112 33 -147s76 -52 129 -51c53 0 103 18 148 53s73 85 84 148z" />
    <glyph glyph-name="zero.sinf" horiz-adv-x="412" 
d="M133 -172c-52 0 -91 20 -117 61s-33 93 -22 156c23 127 102 207 211 207c52 0 91 -20 117 -61s33 -93 22 -156c-23 -127 -102 -207 -211 -207zM66 -73c15 -26 41 -39 76 -39s65 13 90 39s41 64 50 113s5 87 -10 113s-41 39 -76 39s-65 -13 -90 -39s-41 -64 -50 -113
s-5 -87 10 -113z" />
    <glyph glyph-name="one.sinf" horiz-adv-x="240" 
d="M1 198l124 42h53l-71 -400h-62l58 328l-95 -27z" />
    <glyph glyph-name="two.sinf" horiz-adv-x="340" 
d="M238 -160h-280l9 51l193 158c35 29 55 55 60 80c7 37 -16 63 -60 63c-35 0 -66 -21 -93 -64l-50 31c32 57 89 93 152 93c76 0 124 -54 113 -126c-6 -39 -35 -80 -87 -122l-129 -104h182z" />
    <glyph glyph-name="three.sinf" horiz-adv-x="348" 
d="M35 240h258l-10 -60l-106 -108c60 -15 94 -62 83 -121c-13 -76 -79 -123 -168 -123c-63 0 -105 28 -127 84l54 28c12 -35 40 -52 83 -52c53 0 89 26 96 69c8 41 -19 69 -71 69h-4l-23 47l104 107h-179z" />
    <glyph glyph-name="four.sinf" horiz-adv-x="354" 
d="M234 -27h51l-10 -58h-51l-13 -75h-62l13 75h-206l10 58l196 267h71l-195 -267h134l17 96h62z" />
    <glyph glyph-name="five.sinf" horiz-adv-x="330" 
d="M291 240l-10 -58h-179l-22 -92h60c39 0 70 -13 93 -40s31 -60 24 -99c-13 -77 -73 -123 -165 -123c-63 0 -105 28 -126 85l56 28c13 -35 39 -53 80 -53c51 0 86 28 93 69c8 44 -17 73 -68 73h-122l52 210h234z" />
    <glyph glyph-name="six.sinf" horiz-adv-x="341" 
d="M133 107h12c42 0 75 -14 99 -43c25 -29 33 -63 26 -102s-27 -71 -59 -96s-70 -38 -115 -38c-42 0 -75 14 -99 43c-25 29 -33 63 -26 103c5 29 17 53 35 73l163 193h79zM134 47c-53 0 -93 -32 -101 -79s20 -80 73 -80s94 33 102 80s-19 79 -74 79z" />
    <glyph glyph-name="seven.sinf" horiz-adv-x="297" 
d="M-2 180l10 60h266l-8 -50l-207 -350h-69l203 340h-195z" />
    <glyph glyph-name="eight.sinf" horiz-adv-x="336" 
d="M279 134c-6 -37 -29 -65 -68 -85c40 -25 56 -61 47 -107c-12 -71 -78 -114 -163 -114c-41 0 -73 12 -97 35s-33 52 -27 87c9 47 37 81 86 102c-32 23 -45 53 -39 90c12 69 76 110 151 110c35 0 63 -11 85 -33c23 -22 31 -50 25 -85zM217 138c7 35 -14 56 -58 56
c-46 0 -72 -19 -79 -56c-7 -36 15 -59 59 -59c43 0 71 23 78 59zM128 19c-55 0 -86 -22 -93 -65c-7 -40 18 -66 70 -66c51 0 86 26 93 66s-21 65 -70 65z" />
    <glyph glyph-name="nine.sinf" horiz-adv-x="341" 
d="M171 252c40 0 72 -15 97 -44s35 -63 28 -102c-5 -27 -16 -52 -35 -73l-161 -193h-78l116 134c-3 -1 -9 -1 -16 -1c-41 0 -73 14 -98 43s-34 63 -27 102c13 79 86 134 174 134zM133 33c53 0 93 32 101 79s-20 80 -73 80s-94 -33 -102 -80s19 -79 74 -79z" />
    <glyph glyph-name="zero.tf" 
d="M239 -12c-81 0 -140 34 -176 102c-35 68 -43 157 -24 266c19 110 57 197 114 260c57 64 129 96 214 96c81 0 139 -34 175 -102s44 -157 25 -266c-19 -110 -57 -197 -114 -261c-57 -63 -128 -95 -214 -95zM121 133c25 -51 69 -77 130 -77s113 26 156 77s73 124 90 217
s12 166 -13 217s-68 77 -129 77s-114 -26 -157 -77s-72 -124 -89 -217s-13 -166 12 -217z" />
    <glyph glyph-name="one.tf" 
d="M415 700l-111 -634h204l-12 -66h-500l12 66h226l97 556v-1l-165 -47l-7 62l196 64h60z" />
    <glyph glyph-name="two.tf" 
d="M486 0h-485l11 63l291 218c113 84 172 143 184 211c16 95 -37 152 -134 152c-73 0 -143 -44 -190 -119l-56 35c56 96 153 152 258 152c65 0 116 -21 153 -63c38 -41 51 -95 39 -162c-16 -93 -82 -166 -205 -254l-229 -165h375z" />
    <glyph glyph-name="three.tf" 
d="M128 700h450l-11 -66l-216 -225c120 -16 190 -93 170 -212c-12 -67 -44 -119 -97 -155s-117 -54 -192 -54c-116 0 -205 61 -225 158l62 32c16 -75 82 -122 171 -122c111 0 195 52 211 147s-47 147 -160 147h-18l-23 46l230 238h-363z" />
    <glyph glyph-name="four.tf" 
d="M448 206h94l-11 -66h-95l-25 -140h-70l25 140h-365l11 66l347 494h79l-347 -494h287l34 194h70z" />
    <glyph glyph-name="five.tf" 
d="M584 700l-11 -66h-341l-54 -216h137c67 0 120 -20 161 -61c41 -40 56 -93 45 -160c-12 -67 -44 -119 -95 -155s-113 -54 -185 -54c-111 0 -200 61 -223 158l62 33c15 -76 80 -123 171 -123c104 0 184 52 200 147s-44 147 -148 147h-210l86 350h405z" />
    <glyph glyph-name="six.tf" 
d="M310 450c75 0 132 -23 171 -68c40 -45 54 -101 42 -170c-25 -137 -137 -224 -294 -224c-75 0 -132 22 -172 67s-54 101 -41 170c9 54 31 100 68 137l303 338h85l-226 -255c22 3 43 5 64 5zM453 219c17 100 -39 163 -155 163s-195 -63 -212 -163
c-19 -100 39 -163 155 -163s193 63 212 163z" />
    <glyph glyph-name="seven.tf" 
d="M108 634l11 66h490l-11 -66l-392 -634h-77l393 634h-414z" />
    <glyph glyph-name="eight.tf" 
d="M558 514c-12 -68 -52 -120 -121 -155c67 -35 100 -98 87 -173c-23 -128 -130 -198 -285 -198c-72 0 -129 18 -170 55s-55 88 -44 151c13 76 68 138 148 169c-57 38 -79 91 -67 159c23 124 126 190 261 190c62 0 112 -18 150 -53s52 -84 41 -145zM488 518
c16 84 -40 126 -133 126c-97 0 -163 -42 -179 -126c-13 -80 39 -126 134 -126s165 46 178 126zM298 324c-116 0 -188 -49 -203 -134c-15 -84 44 -134 156 -134c116 0 188 49 203 134s-41 134 -156 134z" />
    <glyph glyph-name="nine.tf" 
d="M377 712c75 0 132 -22 171 -67c40 -44 54 -100 42 -169c-9 -51 -30 -96 -65 -133l-305 -343h-86l227 256c-21 -4 -43 -6 -66 -6c-74 0 -131 22 -171 66c-40 45 -54 101 -42 170s44 124 97 165s119 61 198 61zM221 600c-37 -29 -60 -69 -69 -119s0 -90 27 -119
s69 -44 128 -44s107 15 144 44s60 69 69 119s0 90 -27 119s-69 44 -128 44s-107 -15 -144 -44z" />
    <glyph glyph-name="zero.dnom" horiz-adv-x="412" 
d="M161 -12c-52 0 -91 20 -117 61s-33 93 -22 156c23 127 102 207 211 207c52 0 91 -20 117 -61s33 -93 22 -156c-23 -127 -102 -207 -211 -207zM94 87c15 -26 41 -39 76 -39s65 13 90 39s41 64 50 113s5 87 -10 113s-41 39 -76 39s-65 -13 -90 -39s-41 -64 -50 -113
s-5 -87 10 -113z" />
    <glyph glyph-name="one.dnom" horiz-adv-x="247" 
d="M29 358l124 42h53l-71 -400h-62l58 328l-95 -27z" />
    <glyph glyph-name="two.dnom" horiz-adv-x="340" 
d="M266 0h-280l9 51l193 158c35 29 55 55 60 80c7 37 -16 63 -60 63c-35 0 -66 -21 -93 -64l-50 31c32 57 89 93 152 93c76 0 124 -54 113 -126c-6 -39 -35 -80 -87 -122l-129 -104h182z" />
    <glyph glyph-name="three.dnom" horiz-adv-x="354" 
d="M64 400h258l-10 -60l-106 -108c60 -15 94 -62 83 -121c-13 -76 -79 -123 -168 -123c-63 0 -105 28 -127 84l54 28c12 -35 40 -52 83 -52c53 0 89 26 96 69c8 41 -19 69 -71 69h-4l-23 47l104 107h-179z" />
    <glyph glyph-name="four.dnom" horiz-adv-x="354" 
d="M262 133h51l-10 -58h-51l-13 -75h-62l13 75h-206l10 58l196 267h71l-195 -267h134l17 96h62z" />
    <glyph glyph-name="five.dnom" horiz-adv-x="343" 
d="M320 400l-10 -58h-179l-22 -92h60c39 0 70 -13 93 -40s31 -60 24 -99c-13 -77 -73 -123 -165 -123c-63 0 -105 28 -126 85l56 28c13 -35 39 -53 80 -53c51 0 86 28 93 69c8 44 -17 73 -68 73h-122l52 210h234z" />
    <glyph glyph-name="six.dnom" horiz-adv-x="342" 
d="M162 267h12c42 0 75 -14 99 -43c25 -29 33 -63 26 -102s-27 -72 -59 -97s-70 -37 -115 -37c-42 0 -75 14 -100 43c-24 29 -32 63 -25 103c5 29 17 53 35 73l163 193h79zM163 207c-53 0 -93 -32 -101 -79s20 -80 73 -80s94 33 102 80s-19 79 -74 79z" />
    <glyph glyph-name="seven.dnom" horiz-adv-x="296" 
d="M26 340l10 60h266l-8 -50l-207 -350h-69l203 340h-195z" />
    <glyph glyph-name="eight.dnom" horiz-adv-x="336" 
d="M307 294c-6 -37 -29 -65 -68 -85c40 -25 56 -61 47 -107c-12 -71 -78 -114 -163 -114c-41 0 -73 11 -97 34s-33 53 -27 88c9 47 37 81 86 102c-32 23 -45 53 -39 90c12 69 76 110 151 110c35 0 63 -11 85 -33c23 -22 31 -50 25 -85zM245 298c7 35 -14 56 -58 56
c-46 0 -72 -19 -79 -56c-7 -36 15 -59 59 -59c43 0 71 23 78 59zM156 179c-55 0 -86 -22 -93 -65c-7 -40 18 -66 70 -66c51 0 86 26 93 66s-21 65 -70 65z" />
    <glyph glyph-name="nine.dnom" horiz-adv-x="341" 
d="M199 412c40 0 72 -15 97 -44s35 -63 28 -102c-5 -27 -16 -52 -35 -73l-161 -193h-78l116 134c-3 -1 -9 -1 -16 -1c-41 0 -73 14 -98 43s-34 63 -27 102c13 79 86 134 174 134zM161 193c53 0 93 32 101 79s-20 80 -73 80s-94 -33 -102 -80s19 -79 74 -79z" />
    <glyph glyph-name="zero.numr" horiz-adv-x="412" 
d="M214 288c-52 0 -91 20 -117 61s-33 93 -22 156c23 127 102 207 211 207c52 0 91 -20 117 -61s33 -93 22 -156c-23 -127 -102 -207 -211 -207zM147 387c15 -26 41 -39 76 -39s65 13 90 39s41 64 50 113s5 87 -10 113s-41 39 -76 39s-65 -13 -90 -39s-41 -64 -50 -113
s-5 -87 10 -113z" />
    <glyph glyph-name="one.numr" horiz-adv-x="247" 
d="M82 658l124 42h53l-71 -400h-62l58 328l-95 -27z" />
    <glyph glyph-name="two.numr" horiz-adv-x="340" 
d="M319 300h-280l9 51l193 158c35 29 55 55 60 80c7 37 -16 63 -60 63c-35 0 -66 -21 -93 -64l-50 31c32 57 89 93 152 93c76 0 124 -54 113 -126c-6 -39 -35 -80 -87 -122l-129 -104h182z" />
    <glyph glyph-name="three.numr" horiz-adv-x="353" 
d="M116 700h258l-10 -60l-106 -108c60 -15 94 -62 83 -121c-13 -76 -79 -123 -168 -123c-63 0 -105 28 -127 84l54 28c12 -35 40 -52 83 -52c53 0 89 26 96 69c8 41 -19 69 -71 69h-4l-23 47l104 107h-179z" />
    <glyph glyph-name="four.numr" horiz-adv-x="354" 
d="M315 433h51l-10 -58h-51l-13 -75h-62l13 75h-206l10 58l196 267h71l-195 -267h134l17 96h62z" />
    <glyph glyph-name="five.numr" horiz-adv-x="342" 
d="M372 700l-10 -58h-179l-22 -92h60c39 0 70 -13 93 -40s31 -60 24 -99c-13 -77 -73 -123 -165 -123c-63 0 -105 28 -126 85l56 28c13 -35 39 -53 80 -53c51 0 86 28 93 69c8 44 -17 73 -68 73h-122l52 210h234z" />
    <glyph glyph-name="six.numr" horiz-adv-x="341" 
d="M214 567h12c42 0 75 -14 99 -43c25 -29 33 -63 26 -102s-27 -72 -59 -97s-70 -37 -115 -37c-42 0 -75 14 -100 43c-24 29 -32 63 -25 103c5 29 17 53 35 73l163 193h79zM215 507c-53 0 -93 -32 -101 -79s20 -80 73 -80s94 33 102 80s-19 79 -74 79z" />
    <glyph glyph-name="seven.numr" horiz-adv-x="296" 
d="M79 640l10 60h266l-8 -50l-207 -350h-69l203 340h-195z" />
    <glyph glyph-name="eight.numr" horiz-adv-x="336" 
d="M360 594c-5 -37 -28 -65 -68 -85c40 -25 56 -61 47 -107c-12 -71 -78 -114 -163 -114c-41 0 -73 11 -97 34s-33 53 -27 88c9 47 37 81 86 102c-32 23 -45 53 -39 90c12 69 76 110 151 110c35 0 63 -11 85 -33c23 -22 31 -50 25 -85zM298 598c7 35 -15 56 -58 56
c-46 0 -72 -19 -79 -56c-7 -36 15 -59 59 -59c43 0 71 23 78 59zM209 479c-55 0 -86 -22 -93 -65c-7 -40 18 -66 70 -66c51 0 86 26 93 66s-21 65 -70 65z" />
    <glyph glyph-name="nine.numr" horiz-adv-x="341" 
d="M252 712c40 0 72 -15 97 -44s35 -63 28 -102c-5 -27 -16 -52 -35 -73l-161 -193h-78l116 134c-3 -1 -9 -1 -16 -1c-41 0 -73 14 -98 43s-34 63 -27 102c13 79 86 134 174 134zM214 493c53 0 93 32 101 79s-20 80 -73 80s-94 -33 -102 -80s19 -79 74 -79z" />
    <glyph glyph-name="zero.sups" horiz-adv-x="412" 
d="M242 448c-52 0 -91 20 -117 61s-33 93 -22 156c23 127 102 207 211 207c52 0 91 -20 117 -61s33 -93 22 -156c-23 -127 -102 -207 -211 -207zM175 547c15 -26 41 -39 76 -39s65 13 90 39s41 64 50 113s5 87 -10 113s-41 39 -76 39s-65 -13 -90 -39s-41 -64 -50 -113
s-5 -87 10 -113z" />
    <glyph glyph-name="one.sups" horiz-adv-x="248" 
d="M111 818l124 42h53l-71 -400h-62l58 328l-95 -27z" />
    <glyph glyph-name="two.sups" horiz-adv-x="340" 
d="M347 460h-280l9 51l193 158c35 29 55 55 60 80c7 37 -16 63 -60 63c-35 0 -66 -21 -93 -64l-50 31c32 57 89 93 152 93c76 0 124 -54 113 -126c-6 -39 -35 -80 -87 -122l-129 -104h182z" />
    <glyph glyph-name="three.sups" horiz-adv-x="353" 
d="M145 860h258l-10 -60l-106 -108c60 -15 94 -62 83 -121c-13 -76 -79 -123 -168 -123c-63 0 -105 28 -127 84l54 28c12 -35 40 -52 83 -52c53 0 89 26 96 69c8 41 -19 69 -71 69h-4l-23 47l104 107h-179z" />
    <glyph glyph-name="four.sups" horiz-adv-x="354" 
d="M343 593h51l-10 -58h-51l-13 -75h-62l13 75h-206l10 58l196 267h71l-195 -267h134l17 96h62z" />
    <glyph glyph-name="five.sups" horiz-adv-x="342" 
d="M401 860l-10 -58h-179l-22 -92h60c39 0 70 -13 93 -40s31 -60 24 -99c-13 -77 -73 -123 -165 -123c-63 0 -105 28 -126 85l56 28c13 -35 39 -53 80 -53c51 0 86 28 93 69c8 44 -17 73 -68 73h-122l52 210h234z" />
    <glyph glyph-name="six.sups" horiz-adv-x="341" 
d="M243 727h12c42 0 75 -14 99 -43c25 -29 33 -63 26 -102s-27 -72 -59 -97s-70 -37 -115 -37c-42 0 -75 14 -100 43c-24 29 -32 63 -25 103c5 29 17 53 35 73l163 193h79zM244 667c-53 0 -93 -32 -101 -79s20 -80 73 -80s94 33 102 80s-19 79 -74 79z" />
    <glyph glyph-name="seven.sups" horiz-adv-x="297" 
d="M108 800l10 60h266l-8 -50l-207 -350h-69l203 340h-195z" />
    <glyph glyph-name="eight.sups" horiz-adv-x="336" 
d="M388 754c-5 -37 -28 -65 -68 -85c40 -25 56 -61 47 -107c-12 -71 -78 -114 -163 -114c-41 0 -73 11 -97 34s-33 53 -27 88c9 47 37 81 86 102c-32 23 -45 53 -39 90c12 69 76 110 151 110c35 0 63 -11 85 -33c23 -22 31 -50 25 -85zM326 758c7 35 -15 56 -58 56
c-46 0 -72 -19 -79 -56c-7 -36 15 -59 59 -59c43 0 71 23 78 59zM237 639c-55 0 -86 -22 -93 -65c-7 -40 18 -66 70 -66c51 0 86 26 93 66s-21 65 -70 65z" />
    <glyph glyph-name="nine.sups" horiz-adv-x="341" 
d="M280 872c40 0 72 -15 97 -44s35 -63 28 -102c-5 -27 -16 -52 -35 -73l-161 -193h-78l116 134c-3 -1 -9 -1 -16 -1c-41 0 -73 14 -98 43s-34 63 -27 102c13 79 86 134 174 134zM242 653c53 0 93 32 101 79s-20 80 -73 80s-94 -33 -102 -80s19 -79 74 -79z" />
    <glyph glyph-name="cent.tf" 
d="M293 152c76 0 144 39 183 100l53 -35c-51 -81 -142 -129 -247 -129c-21 0 -42 3 -63 8l-47 -96h-54l56 114c-83 45 -127 142 -108 247c13 73 48 133 105 180s123 71 198 71c19 0 35 -1 48 -4l46 92h54l-52 -106c54 -23 90 -61 108 -112l-57 -29c-15 40 -41 67 -80 82
l-187 -378c15 -3 30 -5 44 -5zM132 354c-13 -77 15 -146 72 -179l183 372c-5 1 -13 1 -24 1c-57 0 -107 -19 -151 -56c-43 -37 -70 -83 -80 -138z" />
    <glyph glyph-name="dollar.tf" 
d="M401 640l-47 -264c57 -25 97 -48 118 -68c41 -37 55 -85 44 -144c-21 -108 -114 -168 -230 -175l-16 -89h-60l16 90c-106 10 -174 60 -205 150l63 31c21 -69 72 -107 154 -114l48 273c-78 33 -183 86 -156 210c11 54 38 96 81 125c43 30 91 46 142 47l16 88h60l-16 -92
c79 -13 133 -56 162 -127l-63 -31c-24 51 -61 81 -111 90zM200 533c-13 -65 25 -98 98 -133l43 243c-68 -5 -126 -45 -141 -110zM446 172c15 68 -27 101 -104 134l-44 -248c79 8 135 50 148 114z" />
    <glyph glyph-name="Euro.tf" 
d="M405 644c-95 0 -167 -71 -210 -202h244l-10 -58h-249l-7 -34c-1 -5 -3 -14 -4 -26h249l-10 -58h-245c-7 -135 43 -210 138 -210c71 0 128 39 169 117l56 -36c-51 -93 -136 -149 -237 -149c-65 0 -114 25 -149 75c-35 51 -50 118 -47 203h-65l10 58h60c1 7 2 17 5 32l5 28
h-59l10 58h64c51 169 155 270 292 270c89 0 159 -54 182 -142l-61 -32c-17 68 -66 106 -131 106z" />
    <glyph glyph-name="florin.tf" 
d="M305 383l78 188c49 120 128 164 237 132l-11 -64c-79 25 -130 -3 -157 -68l-78 -188h150l-12 -64h-164l-161 -388c-49 -120 -128 -164 -236 -132l11 64c79 -25 129 1 156 68l161 388h-148l12 64h162z" />
    <glyph glyph-name="uni20BD.tf" 
d="M179 700h230c56 0 101 -22 136 -65s48 -93 37 -151c-10 -57 -39 -106 -86 -145s-101 -59 -161 -59h-160l-16 -94h240l-10 -58h-241l-22 -128h-70l22 128h-89l10 58h90l16 94h-90l12 66h90zM512 490c7 40 0 74 -23 102c-22 28 -52 42 -91 42h-161l-50 -288h160
c39 0 74 14 106 42c32 29 52 63 59 102z" />
    <glyph glyph-name="sterling.tf" 
d="M432 289h-231l-39 -221h366l-12 -68h-530l12 68h94l39 221h-74l11 62h74l27 151c24 139 111 210 228 210c85 0 153 -51 180 -134l-58 -30c-24 64 -67 96 -130 96c-75 0 -134 -46 -150 -142l-27 -151h231z" />
    <glyph glyph-name="yen.tf" 
d="M561 700h81l-292 -353h168l-10 -58h-181l-11 -60h181l-10 -58h-181l-30 -171h-70l30 171h-179l10 58h179l11 60h-179l10 58h166l-167 353h73l146 -309z" />
    <glyph glyph-name="brevecy" horiz-adv-x="300" 
d="M338 580h-260l10 58h260z" />
    </font>
</defs>
</svg>
