<?xml version="1.0" standalone="no"?>
<!DOCTYPE svg PUBLIC "-//W3C//DTD SVG 1.1//EN" "http://www.w3.org/Graphics/SVG/1.1/DTD/svg11.dtd" >
<svg xmlns="http://www.w3.org/2000/svg" xmlns:xlink="http://www.w3.org/1999/xlink" version="1.1">
<metadata>
Created by FontForge 20170924 at Thu Jul 21 23:26:01 2016
 By www-data
Copyright \251 2016 by Radomir Tinkov. All rights reserved.
</metadata>
<defs>
<font id="Gilroy-Extrabold" horiz-adv-x="580" >
  <font-face 
    font-family="Gilroy"
    font-weight="800"
    font-stretch="normal"
    units-per-em="1000"
    panose-1="0 0 9 0 0 0 0 0 0 0"
    ascent="773"
    descent="-227"
    x-height="500"
    cap-height="700"
    bbox="-447 -270 1124 980"
    underline-thickness="50"
    underline-position="-100"
    unicode-range="U+0020-FB02"
  />
<missing-glyph horiz-adv-x="500" 
d="M93 800h317v-1000h-317v1000zM333 700v33h-165v-33h65v-37h-66v-33h166v33h-66v37h66zM267 534v70h-100v-104h166v34h-66zM200 570h33v-36h-33v36zM333 440v33h-166v-33h66v-37h-66v-33h100v70h66zM333 313v100h-33v-66h-133v-34h166zM333 178v113h-100v-56h34v23h33v-47
h-100v80h-33v-113h166zM333 5v113h-166v-113h166zM200 85h100v-47h-100v47zM333 -51v33h-166v-33h70l-70 -47v-33h166v33h-102l70 47h32z" />
    <glyph glyph-name="fi" unicode="fi" horiz-adv-x="570" 
d="M237 500h278v-500h-150v356h-128v-356h-150v356h-67v144h67c0 143 81 214 243 214c39 0 80 -5 125 -14v-138c-48 5 -90 8 -125 8c-61 0 -93 -15 -93 -70z" />
    <glyph glyph-name="fl" unicode="fl" horiz-adv-x="570" 
d="M330 714c52 0 114 -8 185 -24v-690h-150v583c-8 1 -20 1 -35 1c-62 0 -93 -28 -93 -84h73v-144h-73v-356h-150v356h-67v144h67c0 143 81 214 243 214z" />
    <glyph glyph-name="f_f" unicode="ff" horiz-adv-x="610" 
d="M610 724v-144c-62 5 -93 -18 -93 -70v-10h93v-144h-93v-356h-150v356h-130v-356h-150v356h-67v144h67c0 144 82 223 243 214v-144c-62 5 -93 -18 -93 -70h130v10c0 144 82 223 243 214z" />
    <glyph glyph-name="f_f_i" unicode="ffi" horiz-adv-x="850" 
d="M517 500h278v-500h-150v356h-128v-356h-150v356h-130v-356h-150v356h-67v144h67c0 144 82 223 243 214v-144c-62 5 -93 -18 -93 -70h130v10c0 143 81 214 243 214c39 0 80 -5 125 -14v-138c-48 5 -90 8 -125 8c-61 0 -93 -15 -93 -70v-10z" />
    <glyph glyph-name="f_f_l" unicode="ffl" horiz-adv-x="850" 
d="M610 724c52 0 114 -8 185 -24v-700h-150v593c-8 1 -20 1 -35 1c-62 0 -93 -28 -93 -84v-10h73v-144h-73v-356h-150v356h-130v-356h-150v356h-67v144h67c0 144 82 223 243 214v-144c-62 5 -93 -18 -93 -70h130v10c0 143 81 214 243 214z" />
    <glyph glyph-name=".notdef" horiz-adv-x="500" 
d="M93 800h317v-1000h-317v1000zM333 700v33h-165v-33h65v-37h-66v-33h166v33h-66v37h66zM267 534v70h-100v-104h166v34h-66zM200 570h33v-36h-33v36zM333 440v33h-166v-33h66v-37h-66v-33h100v70h66zM333 313v100h-33v-66h-133v-34h166zM333 178v113h-100v-56h34v23h33v-47
h-100v80h-33v-113h166zM333 5v113h-166v-113h166zM200 85h100v-47h-100v47zM333 -51v33h-166v-33h70l-70 -47v-33h166v33h-102l70 47h32z" />
    <glyph glyph-name="NULL" horiz-adv-x="0" 
 />
    <glyph glyph-name="CR" horiz-adv-x="333" 
 />
    <glyph glyph-name="space" unicode=" " horiz-adv-x="250" 
 />
    <glyph glyph-name="exclam" unicode="!" horiz-adv-x="280" 
d="M200 250h-120l-30 250v200h180v-200zM207 14c-37 -37 -97 -37 -134 0s-37 97 0 134s97 37 134 0s37 -97 0 -134z" />
    <glyph glyph-name="quotedbl" unicode="&#x22;" horiz-adv-x="400" 
d="M160 460h-100l-20 240h140zM340 460h-100l-20 240h140z" />
    <glyph glyph-name="numbersign" unicode="#" horiz-adv-x="621" 
d="M601 500l-18 -110h-105l-14 -80h106l-17 -110h-107l-25 -150h-114l25 150h-92l-25 -150h-114l25 150h-106l18 110h106l14 80h-107l18 110h107l25 150h114l-25 -150h92l25 150h114l-25 -150h105zM258 310h92l14 80h-92z" />
    <glyph glyph-name="dollar" unicode="$" horiz-adv-x="548" 
d="M528 201c0 -121 -82 -198 -205 -213v-88h-70v87c-113 8 -197 66 -233 162l138 80c21 -49 53 -77 95 -84v138l-13 5c-43 17 -67 28 -104 53c-51 35 -87 84 -87 165c0 61 20 110 59 145c39 36 88 57 145 62v87h70v-89c94 -12 160 -60 197 -145l-135 -79
c-13 33 -33 55 -62 65v-135l33 -14c19 -7 31 -12 36 -15c6 -3 17 -8 33 -17c16 -8 27 -15 34 -21c13 -12 41 -37 50 -60c9 -21 19 -53 19 -89zM209 505c0 -20 15 -38 44 -55v105c-29 -7 -44 -24 -44 -50zM323 254v-107c30 8 45 25 45 52c0 22 -15 40 -45 55z" />
    <glyph glyph-name="percent" unicode="%" horiz-adv-x="784" 
d="M387 544c0 -47 -17 -88 -50 -121s-74 -49 -123 -49s-91 16 -124 49s-50 74 -50 121s17 87 50 120s75 50 124 50s90 -16 123 -49c33 -32 50 -72 50 -121zM189 71l-66 39l452 500l66 -38zM267 544c0 32 -22 55 -54 55c-48 0 -70 -60 -38 -94c30 -36 96 -7 92 39zM694 37
c-33 -33 -74 -49 -123 -49s-91 16 -124 49s-50 74 -50 121s17 87 50 120s75 50 124 50s90 -17 123 -50s50 -73 50 -120s-17 -88 -50 -121zM624 158c0 32 -22 55 -54 55c-48 0 -70 -60 -38 -94c30 -36 96 -7 92 39z" />
    <glyph glyph-name="ampersand" unicode="&#x26;" horiz-adv-x="678" 
d="M570 144l88 -98l-125 -72l-62 67c-53 -37 -113 -55 -181 -55c-73 0 -133 19 -180 57s-70 89 -70 154c0 81 41 156 112 201c-19 33 -29 70 -29 111c0 59 21 108 62 147c42 39 96 58 163 58c104 0 187 -53 230 -153l-137 -79c-19 51 -50 76 -91 76c-40 0 -67 -24 -67 -59
c0 -12 3 -24 8 -37c12 -24 20 -33 47 -62l129 -143c14 32 25 69 33 110l134 -76c-15 -55 -36 -104 -64 -147zM303 132c26 0 49 5 70 16l-128 138l-6 6c-25 -20 -37 -46 -37 -78c0 -49 33 -82 101 -82z" />
    <glyph glyph-name="quotesingle" unicode="'" horiz-adv-x="220" 
d="M160 460h-100l-20 240h140z" />
    <glyph glyph-name="parenleft" unicode="(" horiz-adv-x="320" 
d="M310 -100h-150c-147 293 -147 607 0 900h150c-147 -293 -147 -607 0 -900z" />
    <glyph glyph-name="parenright" unicode=")" horiz-adv-x="320" 
d="M160 -100h-150c147 293 147 607 0 900h150c147 -293 147 -607 0 -900z" />
    <glyph glyph-name="asterisk" unicode="*" horiz-adv-x="400" 
d="M260 599l90 9v-88l-90 9l55 -69l-73 -46l-42 85l-42 -85l-73 46l55 69l-90 -9v88l90 -9l-55 69l73 46l42 -85l42 85l73 -46z" />
    <glyph glyph-name="plus" unicode="+" horiz-adv-x="560" 
d="M350 420h160v-140h-160v-160h-140v160h-160v140h160v160h140v-160z" />
    <glyph glyph-name="comma" unicode="," horiz-adv-x="290" 
d="M85 155h160l-80 -295h-120z" />
    <glyph glyph-name="hyphen" unicode="-" horiz-adv-x="500" 
d="M440 227h-380v144h380v-144z" />
    <glyph glyph-name="period" unicode="." horiz-adv-x="280" 
d="M207 14c-37 -37 -97 -37 -134 0s-37 97 0 134s97 37 134 0s37 -97 0 -134z" />
    <glyph glyph-name="slash" unicode="/" horiz-adv-x="520" 
d="M490 800l-400 -900h-60l400 900h60z" />
    <glyph glyph-name="zero" unicode="0" horiz-adv-x="630" 
d="M524 85c-50 -66 -120 -99 -209 -99s-159 33 -210 99c-50 67 -75 155 -75 265s25 198 75 264c51 67 121 100 210 100s159 -33 209 -100c51 -66 76 -154 76 -264s-25 -198 -76 -265zM190 350c0 -139 42 -208 125 -208s125 69 125 208s-42 208 -125 208s-125 -69 -125 -208z
" />
    <glyph glyph-name="one" unicode="1" horiz-adv-x="403" 
d="M10 634l183 66h140v-700h-160v531l-124 -34z" />
    <glyph glyph-name="two" unicode="2" horiz-adv-x="533" 
d="M498 0h-476v116l235 244c47 49 71 90 71 124c0 44 -28 74 -75 74s-81 -25 -103 -76l-135 79c43 100 135 153 236 153c65 0 121 -20 167 -61c47 -40 70 -94 70 -162c0 -74 -36 -147 -109 -220l-116 -117h235v-154z" />
    <glyph glyph-name="three" unicode="3" horiz-adv-x="550" 
d="M492 570l-121 -154c89 -31 149 -103 149 -196c0 -73 -25 -131 -74 -172s-110 -62 -181 -62c-111 0 -204 51 -245 150l138 80c17 -49 53 -74 107 -74c126 -8 126 164 0 156h-33l-61 91l127 161h-256v150h450v-130z" />
    <glyph glyph-name="four" unicode="4" 
d="M500 260h70v-148h-70v-112h-162v112h-318v148l223 440h172l-223 -440h146v150h162v-150z" />
    <glyph glyph-name="five" unicode="5" horiz-adv-x="550" 
d="M228 454h57c69 0 126 -21 171 -62c46 -41 69 -98 69 -172c0 -73 -25 -131 -74 -172s-110 -62 -181 -62c-116 0 -209 50 -250 150l138 80c17 -49 55 -74 112 -74c127 -8 124 164 5 156h-219l29 402h405v-150h-255z" />
    <glyph glyph-name="six" unicode="6" horiz-adv-x="560" 
d="M459 700l-152 -221c69 -5 125 -31 168 -76s65 -102 65 -170c0 -73 -24 -132 -73 -178c-48 -46 -110 -69 -187 -69s-140 23 -188 69s-72 105 -72 178c0 54 14 101 41 142l214 325h184zM209 162c39 -35 103 -35 142 0c19 18 29 42 29 71s-10 53 -29 70
c-39 36 -103 36 -142 1c-19 -17 -29 -41 -29 -71s10 -54 29 -71z" />
    <glyph glyph-name="seven" unicode="7" horiz-adv-x="490" 
d="M10 546v154h460v-134l-228 -566h-170l220 546h-282z" />
    <glyph glyph-name="eight" unicode="8" horiz-adv-x="574" 
d="M453 365c61 -39 91 -95 91 -168c0 -129 -94 -211 -257 -211s-257 82 -257 211c0 73 30 129 91 168c-45 35 -67 82 -67 141c0 65 22 116 66 153s100 55 167 55s123 -18 167 -55s66 -88 66 -153c0 -59 -22 -106 -67 -141zM340 545c-27 25 -79 25 -106 0s-27 -73 0 -98
s79 -25 106 0s27 73 0 98zM217 158c18 -15 41 -22 70 -22s52 7 70 22s27 36 27 62s-9 46 -27 61s-41 23 -70 23s-52 -8 -70 -23s-27 -35 -27 -61s9 -47 27 -62z" />
    <glyph glyph-name="nine" unicode="9" horiz-adv-x="560" 
d="M540 467c0 -54 -14 -101 -41 -142l-214 -325h-184l152 221c-69 5 -126 31 -169 76s-64 102 -64 170c0 73 24 132 72 178c49 46 111 69 188 69s140 -23 188 -69s72 -105 72 -178zM209 537c-19 -17 -29 -41 -29 -70s10 -53 29 -71c39 -35 103 -35 142 0c19 17 29 41 29 71
s-10 54 -29 71c-39 35 -103 35 -142 -1z" />
    <glyph glyph-name="colon" unicode=":" horiz-adv-x="280" 
d="M207 354c-37 -37 -97 -37 -134 0s-37 97 0 134s97 37 134 0s37 -97 0 -134zM207 14c-37 -37 -97 -37 -134 0s-37 97 0 134s97 37 134 0s37 -97 0 -134z" />
    <glyph glyph-name="semicolon" unicode=";" horiz-adv-x="290" 
d="M217 354c-37 -37 -97 -37 -134 0s-37 97 0 134s97 37 134 0s37 -97 0 -134zM85 155h160l-80 -295h-120z" />
    <glyph glyph-name="less" unicode="&#x3c;" horiz-adv-x="530" 
d="M40 415l450 195v-154l-280 -106l280 -106v-154l-450 195v130z" />
    <glyph glyph-name="equal" unicode="=" horiz-adv-x="520" 
d="M480 385h-440v140h440v-140zM480 175h-440v140h440v-140z" />
    <glyph glyph-name="greater" unicode="&#x3e;" horiz-adv-x="530" 
d="M40 456v154l450 -195v-130l-450 -195v154l280 106z" />
    <glyph glyph-name="question" unicode="?" horiz-adv-x="560" 
d="M350 250h-160c0 115 160 163 160 250c0 39 -25 58 -74 58c-48 0 -84 -28 -108 -84l-138 79c44 101 140 161 252 161c61 0 115 -18 160 -54s68 -85 68 -146c0 -147 -160 -197 -160 -264zM337 14c-37 -37 -97 -37 -134 0s-37 97 0 134s97 37 134 0s37 -97 0 -134z" />
    <glyph glyph-name="at" unicode="@" horiz-adv-x="774" 
d="M394 612c71 0 133 -17 188 -52c109 -68 162 -177 162 -290c0 -139 -67 -219 -164 -219c-69 0 -115 26 -137 78c-24 -29 -56 -44 -96 -44c-84 0 -142 69 -142 165s58 165 142 165c34 0 63 -11 86 -33v21h122v-236c0 -44 19 -66 56 -66c56 0 93 58 93 169
c0 86 -30 158 -90 217c-59 59 -133 89 -220 89c-91 0 -168 -31 -231 -94c-62 -63 -93 -140 -93 -232c0 -94 32 -172 97 -234c65 -61 146 -92 245 -92c60 0 113 8 159 24v-38c-46 -15 -99 -22 -159 -22c-109 0 -200 34 -273 103c-73 68 -109 154 -109 259
c0 101 35 186 104 256c70 71 157 106 260 106zM381 193c31 0 51 24 51 57c0 35 -20 57 -51 57c-32 0 -52 -22 -52 -57c0 -33 20 -57 52 -57z" />
    <glyph glyph-name="A" unicode="A" horiz-adv-x="680" 
d="M680 0h-175l-35 110h-260l-35 -110h-175l238 700h204zM340 517l-82 -257h164z" />
    <glyph glyph-name="B" unicode="B" horiz-adv-x="600" 
d="M494 363c57 -37 86 -89 86 -158c0 -61 -22 -110 -65 -148s-97 -57 -161 -57h-294v700h274c63 0 115 -19 157 -56c43 -37 64 -85 64 -144c0 -56 -20 -102 -61 -137zM334 550h-114v-124h114c36 0 61 26 61 62s-25 62 -61 62zM220 150h134c40 0 66 27 66 67s-26 67 -66 67
h-134v-134z" />
    <glyph glyph-name="C" unicode="C" horiz-adv-x="719" 
d="M394 -14c-105 0 -192 35 -261 104c-69 70 -103 157 -103 260s34 190 103 259c69 70 156 105 261 105c125 0 239 -62 300 -162l-138 -80c-31 55 -91 86 -162 86c-62 0 -112 -19 -149 -57s-55 -88 -55 -151s18 -113 55 -151s87 -57 149 -57c71 0 133 33 162 86l138 -80
c-60 -100 -173 -162 -300 -162z" />
    <glyph glyph-name="D" unicode="D" horiz-adv-x="710" 
d="M60 700h280c97 0 177 -34 242 -101s98 -150 98 -249s-33 -183 -98 -250s-145 -100 -242 -100h-280v700zM220 154h120c55 0 100 18 134 53c35 36 52 84 52 143s-17 107 -52 142c-34 36 -79 54 -134 54h-120v-392z" />
    <glyph glyph-name="E" unicode="E" horiz-adv-x="530" 
d="M220 278v-124h280v-154h-440v700h435v-154h-275v-116h250v-152h-250z" />
    <glyph glyph-name="F" unicode="F" horiz-adv-x="520" 
d="M485 700v-154h-265v-135h260v-154h-260v-257h-160v700h425z" />
    <glyph glyph-name="G" unicode="G" horiz-adv-x="783" 
d="M402 390h351v-60c0 -105 -33 -188 -98 -251c-65 -62 -147 -93 -247 -93c-109 0 -199 35 -271 105c-71 70 -107 156 -107 258s35 188 106 259s158 106 261 106c131 0 246 -64 306 -160l-136 -78c-31 48 -95 82 -171 82c-59 0 -109 -20 -148 -59s-58 -90 -58 -151
s20 -110 60 -149c40 -38 93 -57 160 -57c93 0 152 36 179 108h-187v140z" />
    <glyph glyph-name="H" unicode="H" horiz-adv-x="660" 
d="M440 432v268h160v-700h-160v278h-220v-278h-160v700h160v-268h220z" />
    <glyph glyph-name="I" unicode="I" horiz-adv-x="280" 
d="M60 0v700h160v-700h-160z" />
    <glyph glyph-name="J" unicode="J" horiz-adv-x="574" 
d="M267 -14c-111 0 -190 45 -237 136l139 80c24 -43 48 -60 99 -60c61 0 91 28 91 83v475h160v-475c0 -75 -24 -133 -71 -176c-47 -42 -107 -63 -181 -63z" />
    <glyph glyph-name="K" unicode="K" horiz-adv-x="626" 
d="M380 359l246 -359h-182l-224 324v-324h-160v700h160v-304l214 304h182z" />
    <glyph glyph-name="L" unicode="L" horiz-adv-x="480" 
d="M220 700v-546h250v-154h-410v700h160z" />
    <glyph glyph-name="M" unicode="M" horiz-adv-x="820" 
d="M600 700h160v-700h-160v407l-181 -297h-18l-181 297v-407h-160v700h160l190 -311z" />
    <glyph glyph-name="N" unicode="N" horiz-adv-x="670" 
d="M450 320v380h160v-700h-120l-270 380v-380h-160v700h120z" />
    <glyph glyph-name="O" unicode="O" horiz-adv-x="788" 
d="M652 91c-71 -70 -157 -105 -258 -105s-187 35 -258 105s-106 156 -106 259s35 189 106 259s157 105 258 105s187 -35 258 -105s106 -156 106 -259s-35 -189 -106 -259zM248 200c39 -39 88 -58 146 -58s106 19 145 58s59 89 59 150s-20 111 -59 150s-87 58 -145 58
s-107 -19 -146 -58s-58 -89 -58 -150s19 -111 58 -150z" />
    <glyph glyph-name="P" unicode="P" horiz-adv-x="590" 
d="M60 700h265c69 0 127 -23 174 -70s71 -103 71 -170s-24 -123 -71 -170s-105 -70 -174 -70h-105v-220h-160v700zM220 370h105c49 0 85 39 85 90s-36 90 -85 90h-105v-180z" />
    <glyph glyph-name="Q" unicode="Q" horiz-adv-x="793" 
d="M758 350c0 -87 -27 -163 -80 -229l70 -74l-115 -102l-75 79c-52 -25 -107 -38 -164 -38c-101 0 -187 35 -258 105s-106 156 -106 259s35 189 106 259s157 105 258 105s187 -35 258 -105s106 -156 106 -259zM394 142c15 0 31 2 49 5l-101 107l115 102l112 -119
c19 35 29 72 29 113c0 61 -20 111 -59 150s-87 58 -145 58s-107 -19 -146 -58s-58 -89 -58 -150s19 -111 58 -150s88 -58 146 -58z" />
    <glyph glyph-name="R" unicode="R" horiz-adv-x="615" 
d="M600 0h-172l-132 230h-76v-230h-160v700h280c67 0 123 -23 170 -70s70 -103 70 -170c0 -85 -52 -163 -129 -203zM340 550h-120v-180h120c44 0 80 39 80 90s-36 90 -80 90z" />
    <glyph glyph-name="S" unicode="S" horiz-adv-x="585" 
d="M305 -14c-143 0 -240 66 -280 173l138 80c28 -65 77 -97 147 -97c63 0 95 19 95 57c0 21 -10 37 -31 48c-20 12 -58 26 -114 41c-59 16 -99 34 -142 66c-41 33 -64 83 -64 147c0 65 23 116 69 155c47 39 102 58 166 58c115 0 205 -55 256 -158l-135 -79
c-25 53 -60 81 -121 81c-48 0 -75 -24 -75 -53c0 -17 8 -32 24 -45c17 -13 51 -27 102 -42l65 -21c15 -5 35 -14 58 -27c24 -12 42 -25 54 -39c25 -27 48 -73 48 -130c0 -67 -24 -119 -72 -158c-48 -38 -111 -57 -188 -57z" />
    <glyph glyph-name="T" unicode="T" horiz-adv-x="540" 
d="M10 700h520v-154h-180v-546h-160v546h-180v154z" />
    <glyph glyph-name="U" unicode="U" horiz-adv-x="650" 
d="M55 226v474h160v-460c0 -65 37 -98 110 -98s110 33 110 98v460h160v-474c0 -73 -25 -132 -76 -175s-115 -65 -194 -65s-143 22 -194 65s-76 102 -76 175z" />
    <glyph glyph-name="V" unicode="V" horiz-adv-x="660" 
d="M432 0h-204l-228 700h175l155 -515l155 515h175z" />
    <glyph glyph-name="W" unicode="W" horiz-adv-x="998" 
d="M385 0h-182l-193 700h168l121 -490l135 490h130l135 -490l121 490h168l-193 -700h-182l-114 413z" />
    <glyph glyph-name="X" unicode="X" horiz-adv-x="620" 
d="M401 359l209 -359h-182l-118 202l-118 -202h-182l209 359l-199 341h182l108 -185l108 185h182z" />
    <glyph glyph-name="Y" unicode="Y" horiz-adv-x="630" 
d="M448 700h182l-235 -431v-269h-160v269l-235 431h182l133 -270z" />
    <glyph glyph-name="Z" unicode="Z" horiz-adv-x="540" 
d="M510 576l-268 -422h273v-154h-480v124l268 422h-263v154h470v-124z" />
    <glyph glyph-name="bracketleft" unicode="[" horiz-adv-x="320" 
d="M300 800v-144h-100v-612h100v-144h-250v900h250z" />
    <glyph glyph-name="backslash" unicode="\" horiz-adv-x="520" 
d="M490 -100h-60l-400 900h60z" />
    <glyph glyph-name="bracketright" unicode="]" horiz-adv-x="320" 
d="M20 800h250v-900h-250v144h100v612h-100v144z" />
    <glyph glyph-name="asciicircum" unicode="^" 
d="M236 700h108l196 -340h-160l-90 167l-90 -167h-160z" />
    <glyph glyph-name="underscore" unicode="_" horiz-adv-x="520" 
d="M490 -181h-460v144h460v-144z" />
    <glyph glyph-name="grave" unicode="`" horiz-adv-x="300" 
d="M280 560h-144l-116 140h180z" />
    <glyph glyph-name="a" unicode="a" horiz-adv-x="623" 
d="M418 453v47h150v-500h-150v47c-35 -41 -85 -61 -149 -61c-66 0 -122 25 -169 76s-70 114 -70 188s23 136 70 187s103 77 169 77c64 0 114 -20 149 -61zM213 161c22 -22 51 -33 86 -33s64 11 86 33s33 52 33 89s-11 67 -33 89s-51 33 -86 33s-64 -11 -86 -33
s-33 -52 -33 -89s11 -67 33 -89z" />
    <glyph glyph-name="b" unicode="b" horiz-adv-x="623" 
d="M354 514c66 0 122 -26 169 -77s70 -113 70 -187s-23 -137 -70 -188s-103 -76 -169 -76c-64 0 -114 20 -149 61v-47h-150v700h150v-247c35 41 85 61 149 61zM238 161c23 -22 51 -33 86 -33s63 11 85 33c23 22 34 52 34 89s-11 67 -34 89c-22 22 -50 33 -85 33
s-63 -11 -86 -33c-22 -22 -33 -52 -33 -89s11 -67 33 -89z" />
    <glyph glyph-name="c" unicode="c" horiz-adv-x="531" 
d="M295 -14c-76 0 -139 25 -190 76c-50 51 -75 113 -75 188s25 137 75 188c51 51 114 76 190 76c96 0 182 -51 226 -128l-131 -76c-18 37 -50 56 -97 56c-65 0 -113 -48 -113 -116s48 -116 113 -116c47 0 80 19 97 56l131 -75c-44 -79 -129 -129 -226 -129z" />
    <glyph glyph-name="d" unicode="d" horiz-adv-x="623" 
d="M418 453v247h150v-700h-150v47c-35 -41 -85 -61 -149 -61c-66 0 -122 25 -169 76s-70 114 -70 188s23 136 70 187s103 77 169 77c64 0 114 -20 149 -61zM213 161c22 -22 51 -33 86 -33s64 11 86 33s33 52 33 89s-11 67 -33 89s-51 33 -86 33s-64 -11 -86 -33
s-33 -52 -33 -89s11 -67 33 -89z" />
    <glyph glyph-name="e" unicode="e" 
d="M544 190h-355c17 -47 57 -70 120 -70c41 0 73 13 96 38l120 -69c-49 -69 -122 -103 -218 -103c-84 0 -151 25 -202 75c-50 50 -75 113 -75 189c0 75 25 138 74 188c50 51 114 76 192 76c73 0 133 -25 181 -76c49 -50 73 -113 73 -188c0 -21 -2 -41 -6 -60zM186 302h215
c-15 53 -50 79 -106 79c-58 0 -94 -26 -109 -79z" />
    <glyph glyph-name="f" unicode="f" horiz-adv-x="330" 
d="M330 714v-144c-62 5 -93 -18 -93 -70h93v-144h-93v-356h-150v356h-67v144h67c0 144 82 223 243 214z" />
    <glyph glyph-name="g" unicode="g" horiz-adv-x="623" 
d="M422 449v51h146v-475c0 -79 -26 -138 -77 -178c-51 -41 -114 -61 -187 -61c-113 0 -192 40 -237 121l128 74c23 -42 61 -63 114 -63c71 0 113 38 113 107v46c-35 -43 -83 -65 -146 -65c-70 0 -129 25 -176 74c-47 50 -70 110 -70 180s23 130 70 179c47 50 106 75 176 75
c63 0 111 -22 146 -65zM214 176c23 -21 52 -32 87 -32s64 11 87 32s34 49 34 84s-11 63 -34 84s-52 32 -87 32s-64 -11 -87 -32s-34 -49 -34 -84s11 -63 34 -84z" />
    <glyph glyph-name="h" unicode="h" horiz-adv-x="583" 
d="M348 514c53 0 98 -18 133 -55c36 -37 54 -87 54 -152v-307h-150v285c0 59 -36 91 -87 91c-57 0 -93 -35 -93 -103v-273h-150v700h150v-247c30 41 78 61 143 61z" />
    <glyph glyph-name="i" unicode="i" horiz-adv-x="260" 
d="M193 570c-35 -35 -91 -35 -127 0c-35 36 -35 92 0 127c36 36 92 36 127 0c36 -35 36 -91 0 -127zM205 0h-150v500h150v-500z" />
    <glyph glyph-name="j" unicode="j" horiz-adv-x="275" 
d="M208 570c-35 -35 -91 -35 -127 0c-35 36 -35 92 0 127c36 36 92 36 127 0c36 -35 36 -91 0 -127zM70 0v500h150v-500c0 -156 -73 -223 -230 -214v144c56 -3 80 18 80 70z" />
    <glyph glyph-name="k" unicode="k" horiz-adv-x="535" 
d="M348 250l187 -250h-170l-160 221v-221h-150v700h150v-419l150 219h175z" />
    <glyph glyph-name="l" unicode="l" horiz-adv-x="260" 
d="M205 0h-150v730h150v-730z" />
    <glyph glyph-name="m" unicode="m" horiz-adv-x="853" 
d="M615 514c57 0 103 -19 138 -57c35 -37 52 -87 52 -150v-307h-150v294c0 51 -25 82 -72 82c-49 0 -78 -35 -78 -94v-282h-150v294c0 51 -25 82 -72 82c-49 0 -78 -35 -78 -94v-282h-150v500h150v-46c27 40 72 60 134 60c58 0 102 -22 131 -66c31 44 79 66 145 66z" />
    <glyph glyph-name="n" unicode="n" horiz-adv-x="583" 
d="M348 514c53 0 98 -18 133 -55c36 -37 54 -87 54 -152v-307h-150v285c0 59 -36 91 -87 91c-57 0 -93 -35 -93 -103v-273h-150v500h150v-47c30 41 78 61 143 61z" />
    <glyph glyph-name="o" unicode="o" horiz-adv-x="590" 
d="M483 62c-51 -51 -114 -76 -188 -76s-137 25 -188 76s-77 114 -77 188s26 136 77 187s114 77 188 77s137 -26 188 -77s77 -113 77 -187s-26 -137 -77 -188zM213 165c22 -22 49 -33 82 -33s60 11 82 33s33 50 33 85s-11 63 -33 85s-49 33 -82 33s-60 -11 -82 -33
s-33 -50 -33 -85s11 -63 33 -85z" />
    <glyph glyph-name="p" unicode="p" horiz-adv-x="623" 
d="M354 514c66 0 122 -26 169 -77s70 -113 70 -187s-23 -137 -70 -188s-103 -76 -169 -76c-64 0 -114 20 -149 61v-247h-150v700h150v-47c35 41 85 61 149 61zM238 161c23 -22 51 -33 86 -33s63 11 85 33c23 22 34 52 34 89s-11 67 -34 89c-22 22 -50 33 -85 33
s-63 -11 -86 -33c-22 -22 -33 -52 -33 -89s11 -67 33 -89z" />
    <glyph glyph-name="q" unicode="q" horiz-adv-x="623" 
d="M418 453v47h150v-700h-150v247c-35 -41 -85 -61 -149 -61c-66 0 -122 25 -169 76s-70 114 -70 188s23 136 70 187s103 77 169 77c64 0 114 -20 149 -61zM213 161c22 -22 51 -33 86 -33s64 11 86 33s33 52 33 89s-11 67 -33 89s-51 33 -86 33s-64 -11 -86 -33
s-33 -52 -33 -89s11 -67 33 -89z" />
    <glyph glyph-name="r" unicode="r" horiz-adv-x="370" 
d="M205 500v-89c19 64 82 99 150 99v-170c-37 6 -71 0 -103 -19c-31 -18 -47 -50 -47 -95v-226h-150v500h150z" />
    <glyph glyph-name="s" unicode="s" horiz-adv-x="468" 
d="M197 354c0 -20 39 -31 87 -44c69 -15 160 -51 159 -160c0 -54 -20 -95 -60 -123c-40 -27 -89 -41 -148 -41c-105 0 -177 40 -215 119l130 74c13 -39 42 -59 85 -59c36 0 54 10 54 31c0 20 -39 32 -87 44c-69 19 -159 53 -159 155c0 52 19 92 56 121c38 29 85 43 140 43
c83 0 154 -38 195 -107l-128 -69c-16 29 -38 44 -67 44c-28 0 -42 -9 -42 -28z" />
    <glyph glyph-name="t" unicode="t" horiz-adv-x="388" 
d="M348 500v-144h-103v-177c0 -40 30 -47 103 -43v-136c-95 -10 -161 -1 -198 27c-37 29 -55 79 -55 152v177h-80v144h80v95l150 45v-140h103z" />
    <glyph glyph-name="u" unicode="u" horiz-adv-x="583" 
d="M378 227v273h150v-500h-150v47c-30 -41 -78 -61 -143 -61c-53 0 -98 18 -134 55c-35 37 -53 87 -53 152v307h150v-285c0 -59 36 -91 87 -91c57 0 93 35 93 103z" />
    <glyph glyph-name="v" unicode="v" horiz-adv-x="540" 
d="M270 183l104 317h166l-185 -500h-170l-185 500h166z" />
    <glyph glyph-name="w" unicode="w" horiz-adv-x="770" 
d="M533 232l72 268h160l-160 -500h-140l-80 267l-80 -267h-140l-160 500h160l72 -268l78 268h140z" />
    <glyph glyph-name="x" unicode="x" horiz-adv-x="530" 
d="M351 254l179 -254h-172l-93 132l-93 -132h-172l179 254l-173 246h172l87 -124l87 124h172z" />
    <glyph glyph-name="y" unicode="y" horiz-adv-x="530" 
d="M276 194l94 306h160l-171 -485c-56 -157 -144 -222 -285 -215v140c69 0 102 22 125 83l-199 477h165z" />
    <glyph glyph-name="z" unicode="z" horiz-adv-x="475" 
d="M430 400l-189 -260h199v-140h-400v100l189 260h-179v140h380v-100z" />
    <glyph glyph-name="braceleft" unicode="{" horiz-adv-x="360" 
d="M340 37v-144c-147 -9 -220 55 -220 194v142c0 45 -23 55 -70 50v145c47 -5 70 5 70 50v142c0 139 73 203 220 194v-144c-47 5 -70 -5 -70 -50v-142c0 -57 -18 -97 -53 -122c35 -25 53 -66 53 -123v-142c0 -45 23 -55 70 -50z" />
    <glyph glyph-name="bar" unicode="|" horiz-adv-x="270" 
d="M210 -200h-150v920h150v-920z" />
    <glyph glyph-name="braceright" unicode="}" horiz-adv-x="360" 
d="M20 -107v144c47 -5 70 5 70 50v142c0 57 18 98 53 123c-35 25 -53 65 -53 122v142c0 45 -23 55 -70 50v144c147 9 220 -55 220 -194v-142c0 -45 23 -55 70 -50v-145c-47 5 -70 -5 -70 -50v-142c0 -139 -73 -203 -220 -194z" />
    <glyph glyph-name="asciitilde" unicode="~" horiz-adv-x="600" 
d="M440 452l120 -58c-37 -143 -141 -176 -249 -130c-50 23 -85 33 -104 32s-34 -18 -47 -52l-120 58c37 143 140 176 249 130c50 -23 84 -33 103 -32s35 19 48 52z" />
    <glyph glyph-name="exclamdown" unicode="&#xa1;" horiz-adv-x="280" 
d="M73 486c37 37 97 37 134 0s37 -97 0 -134s-97 -37 -134 0s-37 97 0 134zM50 0l30 250h120l30 -250v-200h-180v200z" />
    <glyph glyph-name="cent" unicode="&#xa2;" horiz-adv-x="531" 
d="M282 234h11c47 0 80 19 97 56l131 -75c-44 -79 -129 -129 -226 -129c-21 0 -40 2 -59 6l-30 -92h-60l35 110c-92 41 -151 132 -151 240c0 75 25 137 75 188c51 51 114 76 190 76c18 0 34 -1 48 -4l29 90h60l-34 -106c55 -23 96 -59 123 -108l-131 -76
c-8 16 -21 30 -38 41zM180 350c0 -43 16 -76 48 -97l68 213h-3c-65 0 -113 -48 -113 -116z" />
    <glyph glyph-name="sterling" unicode="&#xa3;" 
d="M256 269v-115h314v-154h-540v154h66v115h-56v140h56v84c0 72 22 127 67 164c45 38 97 57 158 57c105 0 187 -54 226 -149l-139 -80c-16 51 -38 73 -82 73c-41 0 -70 -27 -70 -72v-77h194v-140h-194z" />
    <glyph glyph-name="currency" unicode="&#xa4;" horiz-adv-x="540" 
d="M485 350c0 -49 -15 -92 -45 -131l70 -69l-40 -40l-70 71c-38 -27 -81 -41 -130 -41s-92 14 -129 41l-71 -71l-40 40l70 70c-30 37 -45 81 -45 130s15 93 45 130l-70 70l40 40l71 -71c37 27 80 41 129 41s92 -14 129 -41l71 71l40 -40l-70 -70c30 -37 45 -81 45 -130z
M221 300c24 -24 74 -24 98 0c24 25 24 75 0 99c-24 25 -74 25 -98 0c-24 -24 -24 -74 0 -99z" />
    <glyph glyph-name="yen" unicode="&#xa5;" horiz-adv-x="610" 
d="M448 700h182l-182 -333h92v-88h-140l-5 -10v-30h145v-88h-145v-151h-160v151h-165v88h165v30l-5 10h-160v88h112l-182 333h182l133 -270z" />
    <glyph glyph-name="brokenbar" unicode="&#xa6;" horiz-adv-x="270" 
d="M210 350h-150v370h150v-370zM210 -200h-150v370h150v-370z" />
    <glyph glyph-name="section" unicode="&#xa7;" horiz-adv-x="552" 
d="M517 292c0 -53 -19 -96 -58 -131c20 -28 30 -61 30 -99c0 -57 -20 -100 -60 -129c-39 -30 -89 -45 -148 -45c-114 0 -189 41 -226 124l135 77c17 -47 48 -71 91 -71c39 0 58 15 58 44c0 15 -9 26 -30 37l-30 15c-19 8 -62 24 -82 32c-92 39 -152 86 -152 174
c0 53 20 95 60 126c-18 27 -27 59 -27 98c0 55 19 97 58 126s85 44 140 44c89 0 167 -43 206 -128l-124 -67c-21 43 -49 65 -82 65c-32 0 -48 -13 -48 -40c0 -18 12 -30 31 -42c12 -7 19 -10 35 -17l19 -8l45 -17c45 -17 74 -32 107 -59c35 -25 52 -64 52 -109zM195 330
c0 -27 23 -49 70 -66c7 -3 21 -7 40 -14c20 -7 35 -12 46 -17c11 9 16 22 16 39c0 33 -25 49 -80 69l-33 12l-43 16c-11 -9 -16 -22 -16 -39z" />
    <glyph glyph-name="dieresis" unicode="&#xa8;" horiz-adv-x="380" 
d="M148 562c-29 -29 -77 -29 -106 0s-29 77 0 106s77 29 106 0s29 -77 0 -106zM338 562c-29 -29 -77 -29 -106 0s-29 77 0 106s77 29 106 0s29 -77 0 -106z" />
    <glyph glyph-name="copyright" unicode="&#xa9;" horiz-adv-x="784" 
d="M648 94c-71 -71 -156 -106 -256 -106s-185 35 -256 106s-106 156 -106 256s35 185 106 256s156 106 256 106s185 -35 256 -106s106 -156 106 -256s-35 -185 -106 -256zM164 119c63 -63 139 -95 228 -95s164 32 227 95c63 64 95 141 95 231s-32 167 -95 230
c-63 64 -138 96 -227 96s-165 -32 -228 -96c-63 -63 -94 -140 -94 -230s31 -167 94 -231zM395 153c-55 0 -102 19 -141 58s-58 86 -58 139s19 99 58 138s86 59 141 59c69 0 133 -36 169 -97l-110 -64c-14 23 -35 34 -62 34c-41 0 -70 -33 -70 -70s29 -70 70 -70
c27 0 48 11 62 34l110 -64c-35 -60 -100 -97 -169 -97z" />
    <glyph glyph-name="guillemotleft" unicode="&#xab;" horiz-adv-x="562" 
d="M170 499h132l-110 -190l110 -190h-132l-110 190zM370 499h132l-110 -190l110 -190h-132l-110 190z" />
    <glyph glyph-name="logicalnot" unicode="&#xac;" horiz-adv-x="560" 
d="M40 280v140h480v-260h-150v120h-330z" />
    <glyph glyph-name="registered" unicode="&#xae;" horiz-adv-x="784" 
d="M136 606c71 71 156 106 256 106s185 -35 256 -106s106 -156 106 -256s-35 -185 -106 -256s-156 -106 -256 -106s-185 35 -256 106s-106 156 -106 256s35 185 106 256zM164 119c63 -63 139 -95 228 -95s164 32 227 95c63 64 95 141 95 231s-32 167 -95 230
c-63 64 -138 96 -227 96s-165 -32 -228 -96c-63 -63 -94 -140 -94 -230s31 -167 94 -231zM551 411c0 -47 -17 -84 -51 -111l76 -135h-131l-48 102h-28v-102h-122v370h160c39 0 72 -11 101 -34s43 -53 43 -90zM394 425h-25v-58h25c21 0 35 12 35 29c0 19 -12 29 -35 29z" />
    <glyph glyph-name="overscore" unicode="&#xaf;" horiz-adv-x="340" 
d="M320 559h-300v120h300v-120z" />
    <glyph glyph-name="degree" unicode="&#xb0;" horiz-adv-x="406" 
d="M203 470c-49 0 -91 16 -124 49s-49 74 -49 121s16 87 49 120s75 50 124 50s90 -17 123 -50s50 -73 50 -120s-16 -88 -49 -121s-74 -49 -124 -49zM252 640c0 29 -20 50 -49 50s-49 -21 -49 -50c-6 -65 104 -66 98 0z" />
    <glyph glyph-name="plusminus" unicode="&#xb1;" horiz-adv-x="560" 
d="M350 660v-140h160v-140h-160v-140h-140v140h-160v140h160v140h140zM510 40h-460v140h460v-140z" />
    <glyph glyph-name="acute" unicode="&#xb4;" horiz-adv-x="300" 
d="M20 560l80 140h180l-116 -140h-144z" />
    <glyph glyph-name="uni00B5" unicode="&#xb5;" horiz-adv-x="620" 
d="M565 140h35v-140h-65c-49 0 -86 14 -113 43c-29 -38 -76 -57 -140 -57c-28 0 -54 5 -77 16v-202h-150v700h150v-285c0 -59 36 -91 87 -91c57 0 93 35 93 103v273h150v-330c0 -20 10 -30 30 -30z" />
    <glyph glyph-name="paragraph" unicode="&#xb6;" horiz-adv-x="698" 
d="M240 700h410v-130h-62v-770h-140v770h-68v-770h-140v460c-61 0 -113 21 -156 64s-64 95 -64 156s21 113 64 156s95 64 156 64z" />
    <glyph glyph-name="middot" unicode="&#xb7;" horiz-adv-x="280" 
d="M207 279c-37 -37 -97 -37 -134 0s-37 97 0 134s97 37 134 0s37 -97 0 -134z" />
    <glyph glyph-name="cedilla" unicode="&#xb8;" horiz-adv-x="265" 
d="M182 0v-46c33 -8 63 -33 63 -77c0 -71 -75 -102 -225 -93v104c63 -5 95 0 95 14c0 10 -18 17 -53 20v78h120z" />
    <glyph glyph-name="guillemotright" unicode="&#xbb;" horiz-adv-x="562" 
d="M60 499h132l110 -190l-110 -190h-132l110 190zM260 499h132l110 -190l-110 -190h-132l110 190z" />
    <glyph glyph-name="onequarter" unicode="&#xbc;" horiz-adv-x="812" 
d="M229 700v-400h-122v279l-79 -22l-28 99l122 44h107zM114 0l400 700h100l-400 -700h-100zM760 171h37v-110h-37v-61h-116v61h-180v110l122 229h130l-117 -229h45v61h116v-61z" />
    <glyph glyph-name="onehalf" unicode="&#xbd;" horiz-adv-x="815" 
d="M229 700v-400h-122v279l-79 -22l-28 99l122 44h107zM114 0l400 700h100l-400 -700h-100zM705 157l-47 -47h123v-110h-306v77l145 147c21 21 32 39 32 53c0 18 -10 27 -31 27c-23 0 -40 -16 -53 -47l-99 56c29 67 80 101 154 101c43 0 79 -12 108 -36
c29 -23 44 -54 44 -91c0 -40 -23 -83 -70 -130z" />
    <glyph glyph-name="threequarters" unicode="&#xbe;" horiz-adv-x="884" 
d="M324 422c0 -88 -58 -136 -158 -136c-80 0 -134 30 -161 90l103 60c10 -30 29 -45 58 -45c23 0 35 10 35 31c0 20 -13 30 -40 30h-24l-42 62l62 76h-133v110h281v-85l-67 -79c57 -19 86 -57 86 -114zM186 0l400 700h100l-400 -700h-100zM832 171h37v-110h-37v-61h-116v61
h-180v110l122 229h130l-117 -229h45v61h116v-61z" />
    <glyph glyph-name="questiondown" unicode="&#xbf;" horiz-adv-x="560" 
d="M223 486c37 37 97 37 134 0s37 -97 0 -134s-97 -37 -134 0s-37 97 0 134zM210 250h160c0 -115 -160 -163 -160 -250c0 -39 25 -58 74 -58c48 0 84 28 108 84l138 -79c-44 -101 -140 -161 -252 -161c-61 0 -115 18 -160 54s-68 85 -68 146c0 147 160 197 160 264z" />
    <glyph glyph-name="Agrave" unicode="&#xc0;" horiz-adv-x="680" 
d="M350 900l80 -140h-144l-116 140h180zM680 0h-175l-35 110h-260l-35 -110h-175l238 700h204zM340 517l-82 -257h164z" />
    <glyph glyph-name="Aacute" unicode="&#xc1;" horiz-adv-x="680" 
d="M330 900h180l-116 -140h-144zM680 0h-175l-35 110h-260l-35 -110h-175l238 700h204zM340 517l-82 -257h164z" />
    <glyph glyph-name="Acircumflex" unicode="&#xc2;" horiz-adv-x="680" 
d="M370 750l-35 55l-35 -55h-145l106 150h148l106 -150h-145zM680 0h-175l-35 110h-260l-35 -110h-175l238 700h204zM340 517l-82 -257h164z" />
    <glyph glyph-name="Atilde" unicode="&#xc3;" horiz-adv-x="680" 
d="M323 777c-33 21 -43 16 -43 -24h-120c0 169 105 190 196 133c35 -21 43 -16 43 24h120c0 -169 -105 -190 -196 -133zM680 0h-175l-35 110h-260l-35 -110h-175l238 700h204zM340 517l-82 -257h164z" />
    <glyph glyph-name="Adieresis" unicode="&#xc4;" horiz-adv-x="680" 
d="M298 762c-29 -29 -77 -29 -106 0s-29 77 0 106s77 29 106 0s29 -77 0 -106zM488 762c-29 -29 -77 -29 -106 0s-29 77 0 106s77 29 106 0s29 -77 0 -106zM680 0h-175l-35 110h-260l-35 -110h-175l238 700h204zM340 517l-82 -257h164z" />
    <glyph glyph-name="Aring" unicode="&#xc5;" horiz-adv-x="680" 
d="M680 0h-175l-35 110h-260l-35 -110h-175l235 691c-19 22 -28 48 -28 79c0 72 56 125 133 125c79 0 133 -53 133 -125c0 -31 -9 -57 -28 -80zM366 794c-12 13 -40 13 -52 0c-12 -12 -12 -36 0 -49c12 -12 40 -12 52 0c13 13 13 37 0 49zM340 517l-82 -257h164z" />
    <glyph glyph-name="AE" unicode="&#xc6;" horiz-adv-x="880" 
d="M605 278v-124h245v-154h-400v110h-206l-64 -110h-180l409 700h436v-154h-240v-116h215v-152h-215zM450 464l-119 -204h119v204z" />
    <glyph glyph-name="Ccedilla" unicode="&#xc7;" horiz-adv-x="719" 
d="M394 142c71 0 133 33 162 86l138 -80c-49 -81 -134 -139 -233 -156v-38c33 -8 63 -33 63 -77c0 -71 -75 -102 -225 -93v104c63 -5 95 0 95 14c0 10 -18 17 -53 20v67c-91 12 -166 52 -224 119s-87 148 -87 242c0 103 34 190 103 259c69 70 156 105 261 105
c125 0 239 -62 300 -162l-138 -80c-31 55 -91 86 -162 86c-62 0 -112 -19 -149 -57s-55 -88 -55 -151s18 -113 55 -151s87 -57 149 -57z" />
    <glyph glyph-name="Egrave" unicode="&#xc8;" horiz-adv-x="530" 
d="M288 900l80 -140h-144l-116 140h180zM220 278v-124h280v-154h-440v700h435v-154h-275v-116h250v-152h-250z" />
    <glyph glyph-name="Eacute" unicode="&#xc9;" horiz-adv-x="530" 
d="M268 900h180l-116 -140h-144zM220 278v-124h280v-154h-440v700h435v-154h-275v-116h250v-152h-250z" />
    <glyph glyph-name="Ecircumflex" unicode="&#xca;" horiz-adv-x="530" 
d="M308 750l-35 55l-35 -55h-145l106 150h148l106 -150h-145zM220 278v-124h280v-154h-440v700h435v-154h-275v-116h250v-152h-250z" />
    <glyph glyph-name="Edieresis" unicode="&#xcb;" horiz-adv-x="530" 
d="M236 762c-29 -29 -77 -29 -106 0s-29 77 0 106s77 29 106 0s29 -77 0 -106zM426 762c-29 -29 -77 -29 -106 0s-29 77 0 106s77 29 106 0s29 -77 0 -106zM220 278v-124h280v-154h-440v700h435v-154h-275v-116h250v-152h-250z" />
    <glyph glyph-name="Igrave" unicode="&#xcc;" horiz-adv-x="280" 
d="M230 760h-144l-116 140h180zM60 700v-700h160v700h-160z" />
    <glyph glyph-name="Iacute" unicode="&#xcd;" horiz-adv-x="280" 
d="M50 760l80 140h180l-116 -140h-144zM60 700v-700h160v700h-160z" />
    <glyph glyph-name="Icircumflex" unicode="&#xce;" horiz-adv-x="280" 
d="M170 750l-35 55l-35 -55h-145l106 150h148l106 -150h-145zM220 0h-160v700h160v-700z" />
    <glyph glyph-name="Idieresis" unicode="&#xcf;" horiz-adv-x="280" 
d="M98 762c-29 -29 -77 -29 -106 0s-29 77 0 106s77 29 106 0s29 -77 0 -106zM288 762c-29 -29 -77 -29 -106 0s-29 77 0 106s77 29 106 0s29 -77 0 -106zM60 0v700h160v-700h-160z" />
    <glyph glyph-name="Eth" unicode="&#xd0;" horiz-adv-x="750" 
d="M100 700h280c97 0 177 -34 242 -101s98 -150 98 -249s-33 -183 -98 -250s-145 -100 -242 -100h-280v268h-80v144h80v288zM260 154h120c55 0 100 18 134 53c35 36 52 84 52 143s-17 107 -52 142c-34 36 -79 54 -134 54h-120v-134h140v-144h-140v-114z" />
    <glyph glyph-name="Ntilde" unicode="&#xd1;" horiz-adv-x="670" 
d="M265 753h-120c0 169 105 190 196 133c33 -21 43 -16 43 24h120c0 -169 -105 -190 -196 -133c-35 21 -43 16 -43 -24zM450 320v380h160v-700h-120l-270 380v-380h-160v700h120z" />
    <glyph glyph-name="Ograve" unicode="&#xd2;" horiz-adv-x="788" 
d="M484 770h-144l-116 140h180zM652 91c71 70 106 156 106 259s-35 189 -106 259s-157 105 -258 105s-187 -35 -258 -105s-106 -156 -106 -259s35 -189 106 -259s157 -105 258 -105s187 35 258 105zM248 200c-39 39 -58 89 -58 150s19 111 58 150s88 58 146 58
s106 -19 145 -58s59 -89 59 -150s-20 -111 -59 -150s-87 -58 -145 -58s-107 19 -146 58z" />
    <glyph glyph-name="Oacute" unicode="&#xd3;" horiz-adv-x="788" 
d="M304 770l80 140h180l-116 -140h-144zM652 91c71 70 106 156 106 259s-35 189 -106 259s-157 105 -258 105s-187 -35 -258 -105s-106 -156 -106 -259s35 -189 106 -259s157 -105 258 -105s187 35 258 105zM248 200c-39 39 -58 89 -58 150s19 111 58 150s88 58 146 58
s106 -19 145 -58s59 -89 59 -150s-20 -111 -59 -150s-87 -58 -145 -58s-107 19 -146 58z" />
    <glyph glyph-name="Ocircumflex" unicode="&#xd4;" horiz-adv-x="788" 
d="M424 760l-35 55l-35 -55h-145l106 150h148l106 -150h-145zM136 609c71 70 157 105 258 105s187 -35 258 -105s106 -156 106 -259s-35 -189 -106 -259s-157 -105 -258 -105s-187 35 -258 105s-106 156 -106 259s35 189 106 259zM248 200c39 -39 88 -58 146 -58
s106 19 145 58s59 89 59 150s-20 111 -59 150s-87 58 -145 58s-107 -19 -146 -58s-58 -89 -58 -150s19 -111 58 -150z" />
    <glyph glyph-name="Otilde" unicode="&#xd5;" horiz-adv-x="788" 
d="M334 763h-120c0 169 105 190 196 133c35 -21 43 -16 43 24h120c0 -169 -105 -190 -196 -133c-33 21 -43 16 -43 -24zM652 91c-71 -70 -157 -105 -258 -105s-187 35 -258 105s-106 156 -106 259s35 189 106 259s157 105 258 105s187 -35 258 -105s106 -156 106 -259
s-35 -189 -106 -259zM248 200c39 -39 88 -58 146 -58s106 19 145 58s59 89 59 150s-20 111 -59 150s-87 58 -145 58s-107 -19 -146 -58s-58 -89 -58 -150s19 -111 58 -150z" />
    <glyph glyph-name="Odieresis" unicode="&#xd6;" horiz-adv-x="788" 
d="M352 772c-29 -29 -77 -29 -106 0s-29 77 0 106s77 29 106 0s29 -77 0 -106zM542 772c-29 -29 -77 -29 -106 0s-29 77 0 106s77 29 106 0s29 -77 0 -106zM652 91c-71 -70 -157 -105 -258 -105s-187 35 -258 105s-106 156 -106 259s35 189 106 259s157 105 258 105
s187 -35 258 -105s106 -156 106 -259s-35 -189 -106 -259zM248 200c39 -39 88 -58 146 -58s106 19 145 58s59 89 59 150s-20 111 -59 150s-87 58 -145 58s-107 -19 -146 -58s-58 -89 -58 -150s19 -111 58 -150z" />
    <glyph glyph-name="multiply" unicode="&#xd7;" horiz-adv-x="525" 
d="M376 562l99 -98l-114 -114l114 -114l-99 -98l-113 114l-114 -114l-99 98l114 114l-114 114l99 98l114 -113z" />
    <glyph glyph-name="Oslash" unicode="&#xd8;" horiz-adv-x="793" 
d="M717 671l-55 -67c67 -69 101 -154 101 -254c0 -103 -35 -189 -106 -259s-157 -105 -258 -105c-71 0 -136 19 -197 56l-46 -56l-75 43l55 67c-67 69 -101 154 -101 254c0 103 35 189 106 259s157 105 258 105c71 0 136 -19 197 -56l46 56zM195 350c0 -51 14 -95 42 -131
l259 316c-29 15 -62 23 -97 23c-58 0 -107 -19 -146 -58s-58 -89 -58 -150zM399 142c58 0 106 19 145 58s59 89 59 150c0 51 -14 95 -42 131l-259 -316c29 -15 62 -23 97 -23z" />
    <glyph glyph-name="Ugrave" unicode="&#xd9;" horiz-adv-x="650" 
d="M415 760h-144l-116 140h180zM55 226c0 -73 25 -132 76 -175s115 -65 194 -65s143 22 194 65s76 102 76 175v474h-160v-460c0 -65 -37 -98 -110 -98s-110 33 -110 98v460h-160v-474z" />
    <glyph glyph-name="Uacute" unicode="&#xda;" horiz-adv-x="650" 
d="M235 760l80 140h180l-116 -140h-144zM55 226c0 -73 25 -132 76 -175s115 -65 194 -65s143 22 194 65s76 102 76 175v474h-160v-460c0 -65 -37 -98 -110 -98s-110 33 -110 98v460h-160v-474z" />
    <glyph glyph-name="Ucircumflex" unicode="&#xdb;" horiz-adv-x="650" 
d="M355 750l-35 55l-35 -55h-145l106 150h148l106 -150h-145zM435 240v460h160v-474c0 -73 -25 -132 -76 -175s-115 -65 -194 -65s-143 22 -194 65s-76 102 -76 175v474h160v-460c0 -65 37 -98 110 -98s110 33 110 98z" />
    <glyph glyph-name="Udieresis" unicode="&#xdc;" horiz-adv-x="650" 
d="M283 762c-29 -29 -77 -29 -106 0s-29 77 0 106s77 29 106 0s29 -77 0 -106zM473 762c-29 -29 -77 -29 -106 0s-29 77 0 106s77 29 106 0s29 -77 0 -106zM55 226v474h160v-460c0 -65 37 -98 110 -98s110 33 110 98v460h160v-474c0 -73 -25 -132 -76 -175
s-115 -65 -194 -65s-143 22 -194 65s-76 102 -76 175z" />
    <glyph glyph-name="Yacute" unicode="&#xdd;" horiz-adv-x="630" 
d="M305 900h180l-116 -140h-144zM448 700h182l-235 -431v-269h-160v269l-235 431h182l133 -270z" />
    <glyph glyph-name="Thorn" unicode="&#xde;" horiz-adv-x="590" 
d="M220 590h110c67 0 123 -23 170 -70s70 -103 70 -170s-23 -123 -70 -170s-103 -70 -170 -70h-110v-110h-160v700h160v-110zM220 260h110c44 0 80 39 80 90s-36 90 -80 90h-110v-180z" />
    <glyph glyph-name="germandbls" unicode="&#xdf;" horiz-adv-x="544" 
d="M276 -7v132c69 -7 103 10 103 51c0 19 -18 53 -55 104s-55 88 -55 109c0 17 9 39 27 66s27 50 27 69c0 29 -21 54 -54 54c-39 0 -64 -24 -64 -71v-507h-150v505c0 127 85 209 221 209c60 0 108 -16 143 -48c36 -31 54 -70 54 -115c0 -32 -8 -63 -25 -92s-25 -49 -25 -60
c-4 -41 110 -153 106 -253c0 -119 -84 -170 -253 -153z" />
    <glyph glyph-name="agrave" unicode="&#xe0;" horiz-adv-x="623" 
d="M320 700l80 -140h-144l-116 140h180zM418 453v47h150v-500h-150v47c-35 -41 -85 -61 -149 -61c-66 0 -122 25 -169 76s-70 114 -70 188s23 136 70 187s103 77 169 77c64 0 114 -20 149 -61zM213 161c22 -22 51 -33 86 -33s64 11 86 33s33 52 33 89s-11 67 -33 89
s-51 33 -86 33s-64 -11 -86 -33s-33 -52 -33 -89s11 -67 33 -89z" />
    <glyph glyph-name="aacute" unicode="&#xe1;" horiz-adv-x="623" 
d="M300 700h180l-116 -140h-144zM418 453v47h150v-500h-150v47c-35 -41 -85 -61 -149 -61c-66 0 -122 25 -169 76s-70 114 -70 188s23 136 70 187s103 77 169 77c64 0 114 -20 149 -61zM213 161c22 -22 51 -33 86 -33s64 11 86 33s33 52 33 89s-11 67 -33 89s-51 33 -86 33
s-64 -11 -86 -33s-33 -52 -33 -89s11 -67 33 -89z" />
    <glyph glyph-name="acircumflex" unicode="&#xe2;" horiz-adv-x="623" 
d="M340 550l-35 55l-35 -55h-145l106 150h148l106 -150h-145zM418 453v47h150v-500h-150v47c-35 -41 -85 -61 -149 -61c-66 0 -122 25 -169 76s-70 114 -70 188s23 136 70 187s103 77 169 77c64 0 114 -20 149 -61zM213 161c22 -22 51 -33 86 -33s64 11 86 33s33 52 33 89
s-11 67 -33 89s-51 33 -86 33s-64 -11 -86 -33s-33 -52 -33 -89s11 -67 33 -89z" />
    <glyph glyph-name="atilde" unicode="&#xe3;" horiz-adv-x="623" 
d="M293 577c-33 21 -43 16 -43 -24h-120c0 169 105 190 196 133c35 -21 43 -16 43 24h120c0 -169 -105 -190 -196 -133zM418 453v47h150v-500h-150v47c-35 -41 -85 -61 -149 -61c-66 0 -122 25 -169 76s-70 114 -70 188s23 136 70 187s103 77 169 77c64 0 114 -20 149 -61z
M213 161c22 -22 51 -33 86 -33s64 11 86 33s33 52 33 89s-11 67 -33 89s-51 33 -86 33s-64 -11 -86 -33s-33 -52 -33 -89s11 -67 33 -89z" />
    <glyph glyph-name="adieresis" unicode="&#xe4;" horiz-adv-x="623" 
d="M268 562c-29 -29 -77 -29 -106 0s-29 77 0 106s77 29 106 0s29 -77 0 -106zM458 562c-29 -29 -77 -29 -106 0s-29 77 0 106s77 29 106 0s29 -77 0 -106zM418 453v47h150v-500h-150v47c-35 -41 -85 -61 -149 -61c-66 0 -122 25 -169 76s-70 114 -70 188s23 136 70 187
s103 77 169 77c64 0 114 -20 149 -61zM213 161c22 -22 51 -33 86 -33s64 11 86 33s33 52 33 89s-11 67 -33 89s-51 33 -86 33s-64 -11 -86 -33s-33 -52 -33 -89s11 -67 33 -89z" />
    <glyph glyph-name="aring" unicode="&#xe5;" horiz-adv-x="623" 
d="M310 535c-77 0 -133 53 -133 125s56 125 133 125c79 0 133 -53 133 -125s-54 -125 -133 -125zM336 684c-12 13 -40 13 -52 0c-12 -12 -12 -36 0 -49c12 -12 40 -12 52 0c13 13 13 37 0 49zM418 453v47h150v-500h-150v47c-35 -41 -85 -61 -149 -61c-66 0 -122 25 -169 76
s-70 114 -70 188s23 136 70 187s103 77 169 77c64 0 114 -20 149 -61zM213 161c22 -22 51 -33 86 -33s64 11 86 33s33 52 33 89s-11 67 -33 89s-51 33 -86 33s-64 -11 -86 -33s-33 -52 -33 -89s11 -67 33 -89z" />
    <glyph glyph-name="ae" unicode="&#xe6;" horiz-adv-x="970" 
d="M934 190h-355c18 -47 58 -70 120 -70c41 0 73 13 96 38l120 -69c-51 -71 -106 -103 -198 -103c-65 0 -118 23 -159 68v-54h-140v47c-35 -41 -85 -61 -149 -61c-66 0 -122 25 -169 76s-70 114 -70 188s23 136 70 187s103 77 169 77c64 0 114 -20 149 -61v47h140v-53
c41 45 92 67 155 67c71 0 127 -25 167 -74s60 -112 60 -190c0 -21 -2 -41 -6 -60zM576 304h215c-15 51 -49 77 -104 77c-57 0 -94 -26 -111 -77zM213 161c22 -22 51 -33 86 -33s64 11 86 33s33 52 33 89s-11 67 -33 89s-51 33 -86 33s-64 -11 -86 -33s-33 -52 -33 -89
s11 -67 33 -89z" />
    <glyph glyph-name="ccedilla" unicode="&#xe7;" horiz-adv-x="531" 
d="M293 134c47 0 80 19 97 56l131 -75c-34 -62 -87 -102 -159 -121v-40c33 -8 63 -33 63 -77c0 -71 -75 -102 -225 -93v104c63 -5 95 0 95 14c0 10 -18 17 -53 20v69c-63 11 -114 41 -153 89s-59 105 -59 170c0 75 25 137 75 188c51 51 114 76 190 76c96 0 182 -51 226 -128
l-131 -76c-18 37 -50 56 -97 56c-65 0 -113 -48 -113 -116s48 -116 113 -116z" />
    <glyph glyph-name="egrave" unicode="&#xe8;" 
d="M300 705l80 -140h-144l-116 140h180zM544 190h-355c17 -47 57 -70 120 -70c41 0 73 13 96 38l120 -69c-49 -69 -122 -103 -218 -103c-84 0 -151 25 -202 75c-50 50 -75 113 -75 189c0 75 25 138 74 188c50 51 114 76 192 76c73 0 133 -25 181 -76c49 -50 73 -113 73 -188
c0 -21 -2 -41 -6 -60zM186 302h215c-15 53 -50 79 -106 79c-58 0 -94 -26 -109 -79z" />
    <glyph glyph-name="eacute" unicode="&#xe9;" 
d="M280 705h180l-116 -140h-144zM544 190h-355c17 -47 57 -70 120 -70c41 0 73 13 96 38l120 -69c-49 -69 -122 -103 -218 -103c-84 0 -151 25 -202 75c-50 50 -75 113 -75 189c0 75 25 138 74 188c50 51 114 76 192 76c73 0 133 -25 181 -76c49 -50 73 -113 73 -188
c0 -21 -2 -41 -6 -60zM186 302h215c-15 53 -50 79 -106 79c-58 0 -94 -26 -109 -79z" />
    <glyph glyph-name="ecircumflex" unicode="&#xea;" 
d="M320 555l-35 55l-35 -55h-145l106 150h148l106 -150h-145zM544 190h-355c17 -47 57 -70 120 -70c41 0 73 13 96 38l120 -69c-49 -69 -122 -103 -218 -103c-84 0 -151 25 -202 75c-50 50 -75 113 -75 189c0 75 25 138 74 188c50 51 114 76 192 76c73 0 133 -25 181 -76
c49 -50 73 -113 73 -188c0 -21 -2 -41 -6 -60zM186 302h215c-15 53 -50 79 -106 79c-58 0 -94 -26 -109 -79z" />
    <glyph glyph-name="edieresis" unicode="&#xeb;" 
d="M248 567c-29 -29 -77 -29 -106 0s-29 77 0 106s77 29 106 0s29 -77 0 -106zM438 567c-29 -29 -77 -29 -106 0s-29 77 0 106s77 29 106 0s29 -77 0 -106zM544 190h-355c17 -47 57 -70 120 -70c41 0 73 13 96 38l120 -69c-49 -69 -122 -103 -218 -103
c-84 0 -151 25 -202 75c-50 50 -75 113 -75 189c0 75 25 138 74 188c50 51 114 76 192 76c73 0 133 -25 181 -76c49 -50 73 -113 73 -188c0 -21 -2 -41 -6 -60zM186 302h215c-15 53 -50 79 -106 79c-58 0 -94 -26 -109 -79z" />
    <glyph glyph-name="igrave" unicode="&#xec;" horiz-adv-x="260" 
d="M200 550h-144l-66 150h170zM205 0v500h-150v-500h150z" />
    <glyph glyph-name="iacute" unicode="&#xed;" horiz-adv-x="260" 
d="M55 550l40 150h170l-66 -150h-144zM55 0h150v500h-150v-500z" />
    <glyph glyph-name="icircumflex" unicode="&#xee;" horiz-adv-x="260" 
d="M155 550l-25 44l-25 -44h-145l96 150h148l96 -150h-145zM205 0h-150v500h150v-500z" />
    <glyph glyph-name="idieresis" unicode="&#xef;" horiz-adv-x="260" 
d="M93 567c-29 -29 -77 -29 -106 0s-29 77 0 106s77 29 106 0s29 -77 0 -106zM273 567c-29 -29 -77 -29 -106 0s-29 77 0 106s77 29 106 0s29 -77 0 -106zM205 0h-150v500h150v-500z" />
    <glyph glyph-name="eth" unicode="&#xf0;" horiz-adv-x="566" 
d="M330 584l160 -214c31 -42 46 -89 46 -140c0 -74 -25 -133 -74 -177c-49 -43 -109 -65 -179 -65s-130 22 -179 65c-49 44 -74 103 -74 177c0 61 21 113 63 156c43 44 95 67 157 68l-51 69l-132 -61v100l78 36l-73 102h172l31 -41l119 55v-100zM386 230c0 22 -6 42 -18 59
c-20 26 -48 39 -85 39c-61 0 -103 -38 -103 -98c0 -64 40 -102 103 -102s103 38 103 102z" />
    <glyph glyph-name="ntilde" unicode="&#xf1;" horiz-adv-x="583" 
d="M284 587c-35 21 -43 16 -43 -24h-120c0 169 105 190 196 133c33 -21 43 -16 43 24h120c0 -169 -105 -190 -196 -133zM348 514c53 0 98 -18 133 -55c36 -37 54 -87 54 -152v-307h-150v285c0 59 -36 91 -87 91c-57 0 -93 -35 -93 -103v-273h-150v500h150v-47
c30 41 78 61 143 61z" />
    <glyph glyph-name="ograve" unicode="&#xf2;" horiz-adv-x="590" 
d="M385 570h-144l-116 140h180zM483 62c51 51 77 114 77 188s-26 136 -77 187s-114 77 -188 77s-137 -26 -188 -77s-77 -113 -77 -187s26 -137 77 -188s114 -76 188 -76s137 25 188 76zM213 165c-22 22 -33 50 -33 85s11 63 33 85s49 33 82 33s60 -11 82 -33s33 -50 33 -85
s-11 -63 -33 -85s-49 -33 -82 -33s-60 11 -82 33z" />
    <glyph glyph-name="oacute" unicode="&#xf3;" horiz-adv-x="590" 
d="M205 570l80 140h180l-116 -140h-144zM483 62c51 51 77 114 77 188s-26 136 -77 187s-114 77 -188 77s-137 -26 -188 -77s-77 -113 -77 -187s26 -137 77 -188s114 -76 188 -76s137 25 188 76zM213 165c-22 22 -33 50 -33 85s11 63 33 85s49 33 82 33s60 -11 82 -33
s33 -50 33 -85s-11 -63 -33 -85s-49 -33 -82 -33s-60 11 -82 33z" />
    <glyph glyph-name="ocircumflex" unicode="&#xf4;" horiz-adv-x="590" 
d="M325 560l-35 55l-35 -55h-145l106 150h148l106 -150h-145zM107 437c51 51 114 77 188 77s137 -26 188 -77s77 -113 77 -187s-26 -137 -77 -188s-114 -76 -188 -76s-137 25 -188 76s-77 114 -77 188s26 136 77 187zM213 165c22 -22 49 -33 82 -33s60 11 82 33s33 50 33 85
s-11 63 -33 85s-49 33 -82 33s-60 -11 -82 -33s-33 -50 -33 -85s11 -63 33 -85z" />
    <glyph glyph-name="otilde" unicode="&#xf5;" horiz-adv-x="590" 
d="M235 563h-120c0 169 105 190 196 133c33 -21 43 -16 43 24h120c0 -169 -105 -190 -196 -133c-35 21 -43 16 -43 -24zM483 62c-51 -51 -114 -76 -188 -76s-137 25 -188 76s-77 114 -77 188s26 136 77 187s114 77 188 77s137 -26 188 -77s77 -113 77 -187
s-26 -137 -77 -188zM213 165c22 -22 49 -33 82 -33s60 11 82 33s33 50 33 85s-11 63 -33 85s-49 33 -82 33s-60 -11 -82 -33s-33 -50 -33 -85s11 -63 33 -85z" />
    <glyph glyph-name="odieresis" unicode="&#xf6;" horiz-adv-x="590" 
d="M253 572c-29 -29 -77 -29 -106 0s-29 77 0 106s77 29 106 0s29 -77 0 -106zM443 572c-29 -29 -77 -29 -106 0s-29 77 0 106s77 29 106 0s29 -77 0 -106zM483 62c-51 -51 -114 -76 -188 -76s-137 25 -188 76s-77 114 -77 188s26 136 77 187s114 77 188 77s137 -26 188 -77
s77 -113 77 -187s-26 -137 -77 -188zM213 165c22 -22 49 -33 82 -33s60 11 82 33s33 50 33 85s-11 63 -33 85s-49 33 -82 33s-60 -11 -82 -33s-33 -50 -33 -85s11 -63 33 -85z" />
    <glyph glyph-name="divide" unicode="&#xf7;" horiz-adv-x="560" 
d="M344 483c-35 -35 -93 -35 -128 0s-35 93 0 128s93 35 128 0s35 -93 0 -128zM520 280h-480v140h480v-140zM344 89c-35 -35 -93 -35 -128 0s-35 93 0 128s93 35 128 0s35 -93 0 -128z" />
    <glyph glyph-name="oslash" unicode="&#xf8;" horiz-adv-x="590" 
d="M527 475l-37 -45c47 -50 70 -110 70 -180c0 -74 -26 -137 -77 -188s-114 -76 -188 -76c-51 0 -98 13 -141 39l-29 -35l-61 34l37 45c-47 51 -71 111 -71 181c0 74 26 136 77 187s114 77 188 77c53 0 100 -13 141 -40l30 36zM180 250c0 -25 6 -46 17 -65l144 174
c-14 6 -29 9 -46 9c-65 0 -115 -49 -115 -118zM295 132c65 0 115 49 115 118c0 23 -5 45 -16 64l-144 -174c14 -5 29 -8 45 -8z" />
    <glyph glyph-name="ugrave" unicode="&#xf9;" horiz-adv-x="583" 
d="M298 700l80 -140h-144l-116 140h180zM378 227v273h150v-500h-150v47c-30 -41 -78 -61 -143 -61c-53 0 -98 18 -134 55c-35 37 -53 87 -53 152v307h150v-285c0 -59 36 -91 87 -91c57 0 93 35 93 103z" />
    <glyph glyph-name="uacute" unicode="&#xfa;" horiz-adv-x="583" 
d="M278 700h180l-116 -140h-144zM378 227v273h150v-500h-150v47c-30 -41 -78 -61 -143 -61c-53 0 -98 18 -134 55c-35 37 -53 87 -53 152v307h150v-285c0 -59 36 -91 87 -91c57 0 93 35 93 103z" />
    <glyph glyph-name="ucircumflex" unicode="&#xfb;" horiz-adv-x="583" 
d="M318 550l-35 55l-35 -55h-145l106 150h148l106 -150h-145zM378 227v273h150v-500h-150v47c-30 -41 -78 -61 -143 -61c-53 0 -98 18 -134 55c-35 37 -53 87 -53 152v307h150v-285c0 -59 36 -91 87 -91c57 0 93 35 93 103z" />
    <glyph glyph-name="udieresis" unicode="&#xfc;" horiz-adv-x="583" 
d="M246 562c-29 -29 -77 -29 -106 0s-29 77 0 106s77 29 106 0s29 -77 0 -106zM436 562c-29 -29 -77 -29 -106 0s-29 77 0 106s77 29 106 0s29 -77 0 -106zM378 227v273h150v-500h-150v47c-30 -41 -78 -61 -143 -61c-53 0 -98 18 -134 55c-35 37 -53 87 -53 152v307h150
v-285c0 -59 36 -91 87 -91c57 0 93 35 93 103z" />
    <glyph glyph-name="yacute" unicode="&#xfd;" horiz-adv-x="530" 
d="M256 700h180l-116 -140h-144zM276 194l94 306h160l-171 -485c-56 -157 -144 -222 -285 -215v140c69 0 102 22 125 83l-199 477h165z" />
    <glyph glyph-name="thorn" unicode="&#xfe;" horiz-adv-x="623" 
d="M354 514c66 0 122 -26 169 -77s70 -113 70 -187s-23 -137 -70 -188s-103 -76 -169 -76c-64 0 -114 20 -149 61v-247h-150v900h150v-247c35 41 85 61 149 61zM238 161c23 -22 51 -33 86 -33s63 11 85 33c23 22 34 52 34 89s-11 67 -34 89c-22 22 -50 33 -85 33
s-63 -11 -86 -33c-22 -22 -33 -52 -33 -89s11 -67 33 -89z" />
    <glyph glyph-name="ydieresis" unicode="&#xff;" horiz-adv-x="530" 
d="M224 562c-29 -29 -77 -29 -106 0s-29 77 0 106s77 29 106 0s29 -77 0 -106zM414 562c-29 -29 -77 -29 -106 0s-29 77 0 106s77 29 106 0s29 -77 0 -106zM276 194l94 306h160l-171 -485c-56 -157 -144 -222 -285 -215v140c69 0 102 22 125 83l-199 477h165z" />
    <glyph glyph-name="Amacron" unicode="&#x100;" horiz-adv-x="680" 
d="M190 879h300v-120h-300v120zM680 0h-175l-35 110h-260l-35 -110h-175l238 700h204zM340 517l-82 -257h164z" />
    <glyph glyph-name="amacron" unicode="&#x101;" horiz-adv-x="623" 
d="M160 679h300v-120h-300v120zM418 453v47h150v-500h-150v47c-35 -41 -85 -61 -149 -61c-66 0 -122 25 -169 76s-70 114 -70 188s23 136 70 187s103 77 169 77c64 0 114 -20 149 -61zM213 161c22 -22 51 -33 86 -33s64 11 86 33s33 52 33 89s-11 67 -33 89s-51 33 -86 33
s-64 -11 -86 -33s-33 -52 -33 -89s11 -67 33 -89z" />
    <glyph glyph-name="Abreve" unicode="&#x102;" horiz-adv-x="680" 
d="M165 892h132c0 -31 14 -46 43 -46s43 15 43 46h132c0 -96 -63 -150 -175 -150s-175 54 -175 150zM680 0h-175l-35 110h-260l-35 -110h-175l238 700h204zM340 517l-82 -257h164z" />
    <glyph glyph-name="abreve" unicode="&#x103;" horiz-adv-x="623" 
d="M135 692h132c0 -31 14 -46 43 -46s43 15 43 46h132c0 -96 -63 -150 -175 -150s-175 54 -175 150zM418 453v47h150v-500h-150v47c-35 -41 -85 -61 -149 -61c-66 0 -122 25 -169 76s-70 114 -70 188s23 136 70 187s103 77 169 77c64 0 114 -20 149 -61zM213 161
c22 -22 51 -33 86 -33s64 11 86 33s33 52 33 89s-11 67 -33 89s-51 33 -86 33s-64 -11 -86 -33s-33 -52 -33 -89s11 -67 33 -89z" />
    <glyph glyph-name="Aogonek" unicode="&#x104;" horiz-adv-x="680" 
d="M657 -111c5 -1 12 1 23 4v-90c-28 -11 -57 -17 -88 -17c-59 0 -100 31 -100 91c0 37 21 78 64 123h-51l-35 110h-260l-35 -110h-175l238 700h204l238 -700c-30 -33 -45 -62 -45 -85c-1 -17 6 -26 22 -26zM340 517l-82 -257h164z" />
    <glyph glyph-name="aogonek" unicode="&#x105;" horiz-adv-x="623" 
d="M568 500v-500c-30 -33 -45 -62 -45 -85c-1 -17 6 -26 22 -26c5 -1 12 1 23 4v-90c-28 -11 -57 -17 -88 -17c-59 0 -100 31 -100 91c0 37 21 78 64 123h-26v47c-35 -41 -85 -61 -149 -61c-66 0 -122 25 -169 76s-70 114 -70 188s23 136 70 187s103 77 169 77
c64 0 114 -20 149 -61v47h150zM213 161c22 -22 51 -33 86 -33s64 11 86 33s33 52 33 89s-11 67 -33 89s-51 33 -86 33s-64 -11 -86 -33s-33 -52 -33 -89s11 -67 33 -89z" />
    <glyph glyph-name="Cacute" unicode="&#x106;" horiz-adv-x="719" 
d="M304 770l80 140h180l-116 -140h-144zM394 -14c127 0 240 62 300 162l-138 80c-29 -53 -91 -86 -162 -86c-62 0 -112 19 -149 57s-55 88 -55 151s18 113 55 151s87 57 149 57c71 0 131 -31 162 -86l138 80c-61 100 -175 162 -300 162c-105 0 -192 -35 -261 -105
c-69 -69 -103 -156 -103 -259s34 -190 103 -260c69 -69 156 -104 261 -104z" />
    <glyph glyph-name="cacute" unicode="&#x107;" horiz-adv-x="531" 
d="M207 560l80 140h180l-116 -140h-144zM295 -14c97 0 182 50 226 129l-131 75c-17 -37 -50 -56 -97 -56c-65 0 -113 48 -113 116s48 116 113 116c47 0 79 -19 97 -56l131 76c-44 77 -130 128 -226 128c-76 0 -139 -25 -190 -76c-50 -51 -75 -113 -75 -188s25 -137 75 -188
c51 -51 114 -76 190 -76z" />
    <glyph glyph-name="Cdotaccent" unicode="&#x10a;" horiz-adv-x="719" 
d="M453 780c-33 -33 -84 -33 -119 0c-33 35 -33 86 0 119c35 35 86 35 119 0c35 -33 35 -84 0 -119zM394 -14c-105 0 -192 35 -261 104c-69 70 -103 157 -103 260s34 190 103 259c69 70 156 105 261 105c125 0 239 -62 300 -162l-138 -80c-31 55 -91 86 -162 86
c-62 0 -112 -19 -149 -57s-55 -88 -55 -151s18 -113 55 -151s87 -57 149 -57c71 0 133 33 162 86l138 -80c-60 -100 -173 -162 -300 -162z" />
    <glyph glyph-name="cdotaccent" unicode="&#x10b;" horiz-adv-x="531" 
d="M357 570c-33 -33 -87 -33 -120 0c-33 35 -33 86 0 119c33 35 87 35 120 0c33 -33 33 -84 0 -119zM295 -14c-76 0 -139 25 -190 76c-50 51 -75 113 -75 188s25 137 75 188c51 51 114 76 190 76c96 0 182 -51 226 -128l-131 -76c-18 37 -50 56 -97 56
c-65 0 -113 -48 -113 -116s48 -116 113 -116c47 0 80 19 97 56l131 -75c-44 -79 -129 -129 -226 -129z" />
    <glyph glyph-name="Ccaron" unicode="&#x10c;" horiz-adv-x="719" 
d="M463 760h-148l-106 150h145l35 -55l35 55h145zM394 142c71 0 133 33 162 86l138 -80c-60 -100 -173 -162 -300 -162c-105 0 -192 35 -261 104c-69 70 -103 157 -103 260s34 190 103 259c69 70 156 105 261 105c125 0 239 -62 300 -162l-138 -80c-31 55 -91 86 -162 86
c-62 0 -112 -19 -149 -57s-55 -88 -55 -151s18 -113 55 -151s87 -57 149 -57z" />
    <glyph glyph-name="ccaron" unicode="&#x10d;" horiz-adv-x="531" 
d="M366 550h-148l-106 150h145l35 -55l35 55h145zM293 134c47 0 80 19 97 56l131 -75c-44 -79 -129 -129 -226 -129c-76 0 -139 25 -190 76c-50 51 -75 113 -75 188s25 137 75 188c51 51 114 76 190 76c96 0 182 -51 226 -128l-131 -76c-18 37 -50 56 -97 56
c-65 0 -113 -48 -113 -116s48 -116 113 -116z" />
    <glyph glyph-name="Dcaron" unicode="&#x10e;" horiz-adv-x="710" 
d="M399 750h-148l-106 150h145l35 -55l35 55h145zM60 700h280c97 0 177 -34 242 -101s98 -150 98 -249s-33 -183 -98 -250s-145 -100 -242 -100h-280v700zM220 154h120c55 0 100 18 134 53c35 36 52 84 52 143s-17 107 -52 142c-34 36 -79 54 -134 54h-120v-392z" />
    <glyph glyph-name="dcaron" unicode="&#x10f;" horiz-adv-x="746" 
d="M418 453v247h150v-700h-150v47c-35 -41 -85 -61 -149 -61c-66 0 -122 25 -169 76s-70 114 -70 188s23 136 70 187s103 77 169 77c64 0 114 -20 149 -61zM606 490l10 210h140l-30 -210h-120zM213 161c22 -22 51 -33 86 -33s64 11 86 33s33 52 33 89s-11 67 -33 89
s-51 33 -86 33s-64 -11 -86 -33s-33 -52 -33 -89s11 -67 33 -89z" />
    <glyph glyph-name="Dcroat" unicode="&#x110;" horiz-adv-x="750" 
d="M100 700h280c97 0 177 -34 242 -101s98 -150 98 -249s-33 -183 -98 -250s-145 -100 -242 -100h-280v268h-80v144h80v288zM260 154h120c55 0 100 18 134 53c35 36 52 84 52 143s-17 107 -52 142c-34 36 -79 54 -134 54h-120v-134h140v-144h-140v-114z" />
    <glyph glyph-name="dslash" unicode="&#x111;" horiz-adv-x="628" 
d="M568 640h60v-94h-60v-546h-150v47c-35 -41 -85 -61 -149 -61c-66 0 -122 25 -169 76s-70 114 -70 188s23 136 70 187s103 77 169 77c64 0 114 -20 149 -61v93h-140v94h140v60h150v-60zM213 161c22 -22 51 -33 86 -33s64 11 86 33s33 52 33 89s-11 67 -33 89
s-51 33 -86 33s-64 -11 -86 -33s-33 -52 -33 -89s11 -67 33 -89z" />
    <glyph glyph-name="Emacron" unicode="&#x112;" horiz-adv-x="530" 
d="M128 879h300v-120h-300v120zM220 278v-124h280v-154h-440v700h435v-154h-275v-116h250v-152h-250z" />
    <glyph glyph-name="emacron" unicode="&#x113;" 
d="M140 684h300v-120h-300v120zM544 190h-355c17 -47 57 -70 120 -70c41 0 73 13 96 38l120 -69c-49 -69 -122 -103 -218 -103c-84 0 -151 25 -202 75c-50 50 -75 113 -75 189c0 75 25 138 74 188c50 51 114 76 192 76c73 0 133 -25 181 -76c49 -50 73 -113 73 -188
c0 -21 -2 -41 -6 -60zM186 302h215c-15 53 -50 79 -106 79c-58 0 -94 -26 -109 -79z" />
    <glyph glyph-name="Edotaccent" unicode="&#x116;" horiz-adv-x="530" 
d="M337 770c-33 -33 -84 -33 -119 0c-33 35 -33 86 0 119c35 35 86 35 119 0c35 -33 35 -84 0 -119zM220 278v-124h280v-154h-440v700h435v-154h-275v-116h250v-152h-250z" />
    <glyph glyph-name="edotaccent" unicode="&#x117;" 
d="M349 575c-33 -33 -84 -33 -119 0c-33 33 -33 87 0 120c35 33 86 33 119 0c35 -33 35 -87 0 -120zM544 190h-355c17 -47 57 -70 120 -70c41 0 73 13 96 38l120 -69c-49 -69 -122 -103 -218 -103c-84 0 -151 25 -202 75c-50 50 -75 113 -75 189c0 75 25 138 74 188
c50 51 114 76 192 76c73 0 133 -25 181 -76c49 -50 73 -113 73 -188c0 -21 -2 -41 -6 -60zM186 302h215c-15 53 -50 79 -106 79c-58 0 -94 -26 -109 -79z" />
    <glyph glyph-name="Eogonek" unicode="&#x118;" horiz-adv-x="530" 
d="M500 154v-154c-30 -33 -45 -62 -45 -85c-1 -17 6 -26 22 -26c5 -1 12 1 23 4v-90c-28 -11 -57 -17 -88 -17c-59 0 -100 31 -100 91c0 37 21 78 64 123h-316v700h435v-154h-275v-116h250v-152h-250v-124h280z" />
    <glyph glyph-name="eogonek" unicode="&#x119;" 
d="M544 190h-355c17 -47 57 -70 120 -70c41 0 73 13 96 38l120 -69c-10 -14 -22 -27 -36 -40c-49 -53 -74 -98 -74 -134c0 -17 7 -26 22 -26c5 -1 12 1 23 4v-90c-28 -11 -57 -17 -88 -17c-59 0 -100 31 -100 91c0 39 22 75 67 110c-7 -1 -17 -1 -32 -1
c-84 0 -151 25 -202 75c-50 50 -75 113 -75 189c0 75 25 138 74 188c50 51 114 76 192 76c73 0 133 -25 181 -76c49 -50 73 -113 73 -188c0 -21 -2 -41 -6 -60zM186 302h215c-15 53 -50 79 -106 79c-58 0 -94 -26 -109 -79z" />
    <glyph glyph-name="Ecaron" unicode="&#x11a;" horiz-adv-x="530" 
d="M347 750h-148l-106 150h145l35 -55l35 55h145zM220 278v-124h280v-154h-440v700h435v-154h-275v-116h250v-152h-250z" />
    <glyph glyph-name="ecaron" unicode="&#x11b;" 
d="M359 555h-148l-106 150h145l35 -55l35 55h145zM544 190h-355c17 -47 57 -70 120 -70c41 0 73 13 96 38l120 -69c-49 -69 -122 -103 -218 -103c-84 0 -151 25 -202 75c-50 50 -75 113 -75 189c0 75 25 138 74 188c50 51 114 76 192 76c73 0 133 -25 181 -76
c49 -50 73 -113 73 -188c0 -21 -2 -41 -6 -60zM186 302h215c-15 53 -50 79 -106 79c-58 0 -94 -26 -109 -79z" />
    <glyph glyph-name="Gbreve" unicode="&#x11e;" horiz-adv-x="783" 
d="M224 902h132c0 -31 14 -46 43 -46s43 15 43 46h132c0 -96 -63 -150 -175 -150s-175 54 -175 150zM402 390h351v-60c0 -105 -33 -188 -98 -251c-65 -62 -147 -93 -247 -93c-109 0 -199 35 -271 105c-71 70 -107 156 -107 258s35 188 106 259s158 106 261 106
c131 0 246 -64 306 -160l-136 -78c-31 48 -95 82 -171 82c-59 0 -109 -20 -148 -59s-58 -90 -58 -151s20 -110 60 -149c40 -38 93 -57 160 -57c93 0 152 36 179 108h-187v140z" />
    <glyph glyph-name="gbreve" unicode="&#x11f;" horiz-adv-x="623" 
d="M118 702h132c0 -31 14 -46 43 -46s43 15 43 46h132c0 -96 -63 -150 -175 -150s-175 54 -175 150zM422 449v51h146v-475c0 -79 -26 -138 -77 -178c-51 -41 -114 -61 -187 -61c-113 0 -192 40 -237 121l128 74c23 -42 61 -63 114 -63c71 0 113 38 113 107v46
c-35 -43 -83 -65 -146 -65c-70 0 -129 25 -176 74c-47 50 -70 110 -70 180s23 130 70 179c47 50 106 75 176 75c63 0 111 -22 146 -65zM214 176c23 -21 52 -32 87 -32s64 11 87 32s34 49 34 84s-11 63 -34 84s-52 32 -87 32s-64 -11 -87 -32s-34 -49 -34 -84s11 -63 34 -84z
" />
    <glyph glyph-name="Gdotaccent" unicode="&#x120;" horiz-adv-x="783" 
d="M459 780c-33 -33 -87 -33 -120 0c-33 35 -33 86 0 119c33 35 87 35 120 0c33 -33 33 -84 0 -119zM402 390h351v-60c0 -105 -33 -188 -98 -251c-65 -62 -147 -93 -247 -93c-109 0 -199 35 -271 105c-71 70 -107 156 -107 258s35 188 106 259s158 106 261 106
c131 0 246 -64 306 -160l-136 -78c-31 48 -95 82 -171 82c-59 0 -109 -20 -148 -59s-58 -90 -58 -151s20 -110 60 -149c40 -38 93 -57 160 -57c93 0 152 36 179 108h-187v140z" />
    <glyph glyph-name="gdotaccent" unicode="&#x121;" horiz-adv-x="623" 
d="M353 580c-33 -33 -87 -33 -120 0c-33 35 -33 86 0 119c33 35 87 35 120 0c33 -33 33 -84 0 -119zM422 449v51h146v-475c0 -79 -26 -138 -77 -178c-51 -41 -114 -61 -187 -61c-113 0 -192 40 -237 121l128 74c23 -42 61 -63 114 -63c71 0 113 38 113 107v46
c-35 -43 -83 -65 -146 -65c-70 0 -129 25 -176 74c-47 50 -70 110 -70 180s23 130 70 179c47 50 106 75 176 75c63 0 111 -22 146 -65zM214 176c23 -21 52 -32 87 -32s64 11 87 32s34 49 34 84s-11 63 -34 84s-52 32 -87 32s-64 -11 -87 -32s-34 -49 -34 -84s11 -63 34 -84z
" />
    <glyph glyph-name="Gcommaaccent" unicode="&#x122;" horiz-adv-x="783" 
d="M402 390h351v-60c0 -105 -33 -188 -98 -251c-65 -62 -147 -93 -247 -93c-109 0 -199 35 -271 105c-71 70 -107 156 -107 258s35 188 106 259s158 106 261 106c131 0 246 -64 306 -160l-136 -78c-31 48 -95 82 -171 82c-59 0 -109 -20 -148 -59s-58 -90 -58 -151
s20 -110 60 -149c40 -38 93 -57 160 -57c93 0 152 36 179 108h-187v140zM447 -270h-120l10 210h140z" />
    <glyph glyph-name="gcommaaccent" unicode="&#x123;" horiz-adv-x="623" 
d="M246 790h120l-10 -210h-140zM422 449v51h146v-475c0 -79 -26 -138 -77 -178c-51 -41 -114 -61 -187 -61c-113 0 -192 40 -237 121l128 74c23 -42 61 -63 114 -63c71 0 113 38 113 107v46c-35 -43 -83 -65 -146 -65c-70 0 -129 25 -176 74c-47 50 -70 110 -70 180
s23 130 70 179c47 50 106 75 176 75c63 0 111 -22 146 -65zM214 176c23 -21 52 -32 87 -32s64 11 87 32s34 49 34 84s-11 63 -34 84s-52 32 -87 32s-64 -11 -87 -32s-34 -49 -34 -84s11 -63 34 -84z" />
    <glyph glyph-name="Hbar" unicode="&#x126;" horiz-adv-x="700" 
d="M620 613h60v-116h-60v-497h-160v253h-220v-253h-160v497h-60v116h60v87h160v-87h220v87h160v-87zM240 407h220v90h-220v-90z" />
    <glyph glyph-name="hbar" unicode="&#x127;" horiz-adv-x="588" 
d="M353 514c53 0 98 -18 133 -55c36 -37 54 -87 54 -152v-307h-150v285c0 59 -36 91 -87 91c-57 0 -93 -35 -93 -103v-273h-150v546h-60v94h60v60h150v-60h140v-94h-140v-93c30 41 78 61 143 61z" />
    <glyph glyph-name="Imacron" unicode="&#x12a;" horiz-adv-x="280" 
d="M290 759h-300v120h300v-120zM60 0v700h160v-700h-160z" />
    <glyph glyph-name="imacron" unicode="&#x12b;" horiz-adv-x="260" 
d="M250 559h-240v130h240v-130zM205 0h-150v500h150v-500z" />
    <glyph glyph-name="Iogonek" unicode="&#x12e;" horiz-adv-x="280" 
d="M212 -111c5 -1 12 1 23 4v-90c-28 -11 -57 -17 -88 -17c-59 0 -100 31 -100 91c0 39 16 80 49 123h-36v700h160v-700c-20 -31 -30 -59 -30 -85c-1 -17 6 -26 22 -26z" />
    <glyph glyph-name="iogonek" unicode="&#x12f;" horiz-adv-x="260" 
d="M193 570c-35 -35 -91 -35 -127 0c-35 36 -35 92 0 127c36 36 92 36 127 0c36 -35 36 -91 0 -127zM195 -111c5 -1 12 1 23 4v-90c-28 -11 -57 -17 -88 -17c-59 0 -100 31 -100 91c0 38 15 79 46 123h-21v500h150v-500c-21 -35 -32 -63 -32 -85c-1 -17 6 -26 22 -26z" />
    <glyph glyph-name="Idot" unicode="&#x130;" horiz-adv-x="280" 
d="M199 770c-33 -33 -84 -33 -119 0c-33 35 -33 86 0 119c35 35 86 35 119 0c35 -33 35 -84 0 -119zM60 0v700h160v-700h-160z" />
    <glyph glyph-name="dotlessi" unicode="&#x131;" horiz-adv-x="260" 
d="M205 0h-150v500h150v-500z" />
    <glyph glyph-name="Kcommaaccent" unicode="&#x136;" horiz-adv-x="626" 
d="M616 700l-236 -341l246 -359h-182l-224 324v-324h-160v700h160v-304l214 304h182zM355 -270h-120l10 210h140z" />
    <glyph glyph-name="kcommaaccent" unicode="&#x137;" horiz-adv-x="535" 
d="M530 500l-182 -250l187 -250h-170l-160 221v-221h-150v700h150v-419l150 219h175zM333 -270h-120l10 210h140z" />
    <glyph glyph-name="Lacute" unicode="&#x139;" horiz-adv-x="480" 
d="M142 900h180l-116 -140h-144zM220 700v-546h250v-154h-410v700h160z" />
    <glyph glyph-name="lacute" unicode="&#x13a;" horiz-adv-x="260" 
d="M52 760l80 140h180l-116 -140h-144zM55 0h150v730h-150v-730z" />
    <glyph glyph-name="Lcommaaccent" unicode="&#x13b;" horiz-adv-x="480" 
d="M220 700v-546h250v-154h-410v700h160zM318 -270h-120l10 210h140z" />
    <glyph glyph-name="lcommaaccent" unicode="&#x13c;" horiz-adv-x="260" 
d="M205 0h-150v730h150v-730zM173 -270h-120l10 210h140z" />
    <glyph glyph-name="Lcaron" unicode="&#x13d;" horiz-adv-x="480" 
d="M220 700v-546h250v-154h-410v700h160zM281 700h150l-30 -190h-130z" />
    <glyph glyph-name="lcaron" unicode="&#x13e;" horiz-adv-x="381" 
d="M205 0h-150v730h150v-730zM361 520h-120l10 210h140z" />
    <glyph glyph-name="Lslash" unicode="&#x141;" horiz-adv-x="500" 
d="M240 294v-140h250v-154h-410v199l-60 -36v163l60 36v338h160v-243l120 72v-163z" />
    <glyph glyph-name="lslash" unicode="&#x142;" horiz-adv-x="270" 
d="M210 466l50 34v-143l-50 -34v-323h-150v220l-50 -34v143l50 34v367h150v-264z" />
    <glyph glyph-name="Nacute" unicode="&#x143;" horiz-adv-x="670" 
d="M235 760l80 140h180l-116 -140h-144zM450 700v-380l-270 380h-120v-700h160v380l270 -380h120v700h-160z" />
    <glyph glyph-name="nacute" unicode="&#x144;" horiz-adv-x="583" 
d="M291 710h180l-116 -140h-144zM348 514c53 0 98 -18 133 -55c36 -37 54 -87 54 -152v-307h-150v285c0 59 -36 91 -87 91c-57 0 -93 -35 -93 -103v-273h-150v500h150v-47c30 41 78 61 143 61z" />
    <glyph glyph-name="Ncommaaccent" unicode="&#x145;" horiz-adv-x="670" 
d="M450 320v380h160v-700h-120l-270 380v-380h-160v700h120zM383 -270h-120l10 210h140z" />
    <glyph glyph-name="ncommaaccent" unicode="&#x146;" horiz-adv-x="583" 
d="M348 514c53 0 98 -18 133 -55c36 -37 54 -87 54 -152v-307h-150v285c0 59 -36 91 -87 91c-57 0 -93 -35 -93 -103v-273h-150v500h150v-47c30 41 78 61 143 61zM341 -270h-120l10 210h140z" />
    <glyph glyph-name="Ncaron" unicode="&#x147;" horiz-adv-x="670" 
d="M394 750h-148l-106 150h145l35 -55l35 55h145zM450 320v380h160v-700h-120l-270 380v-380h-160v700h120z" />
    <glyph glyph-name="ncaron" unicode="&#x148;" horiz-adv-x="583" 
d="M370 560h-148l-106 150h145l35 -55l35 55h145zM348 514c53 0 98 -18 133 -55c36 -37 54 -87 54 -152v-307h-150v285c0 59 -36 91 -87 91c-57 0 -93 -35 -93 -103v-273h-150v500h150v-47c30 41 78 61 143 61z" />
    <glyph glyph-name="Eng" unicode="&#x14a;" horiz-adv-x="670" 
d="M450 320v380h160v-700c0 -133 -85 -209 -240 -200v145c55 0 80 17 80 65v46l-230 324v-380h-160v700h120z" />
    <glyph glyph-name="eng" unicode="&#x14b;" horiz-adv-x="583" 
d="M348 514c53 0 98 -18 133 -55c36 -37 54 -87 54 -152v-307c0 -145 -72 -223 -220 -214v144c45 -5 70 14 70 70v285c0 59 -36 91 -87 91c-57 0 -93 -35 -93 -103v-273h-150v500h150v-47c30 41 78 61 143 61z" />
    <glyph glyph-name="Omacron" unicode="&#x14c;" horiz-adv-x="788" 
d="M544 769h-300v120h300v-120zM652 91c-71 -70 -157 -105 -258 -105s-187 35 -258 105s-106 156 -106 259s35 189 106 259s157 105 258 105s187 -35 258 -105s106 -156 106 -259s-35 -189 -106 -259zM248 200c39 -39 88 -58 146 -58s106 19 145 58s59 89 59 150
s-20 111 -59 150s-87 58 -145 58s-107 -19 -146 -58s-58 -89 -58 -150s19 -111 58 -150z" />
    <glyph glyph-name="omacron" unicode="&#x14d;" horiz-adv-x="590" 
d="M445 569h-300v120h300v-120zM483 62c-51 -51 -114 -76 -188 -76s-137 25 -188 76s-77 114 -77 188s26 136 77 187s114 77 188 77s137 -26 188 -77s77 -113 77 -187s-26 -137 -77 -188zM213 165c22 -22 49 -33 82 -33s60 11 82 33s33 50 33 85s-11 63 -33 85
s-49 33 -82 33s-60 -11 -82 -33s-33 -50 -33 -85s11 -63 33 -85z" />
    <glyph glyph-name="Ohungarumlaut" unicode="&#x150;" horiz-adv-x="788" 
d="M204 760l80 140h154l-86 -140h-148zM387 760l90 140h154l-96 -140h-148zM652 91c71 70 106 156 106 259s-35 189 -106 259s-157 105 -258 105s-187 -35 -258 -105s-106 -156 -106 -259s35 -189 106 -259s157 -105 258 -105s187 35 258 105zM248 200
c-39 39 -58 89 -58 150s19 111 58 150s88 58 146 58s106 -19 145 -58s59 -89 59 -150s-20 -111 -59 -150s-87 -58 -145 -58s-107 19 -146 58z" />
    <glyph glyph-name="ohungarumlaut" unicode="&#x151;" horiz-adv-x="590" 
d="M105 560l80 140h154l-86 -140h-148zM288 560l90 140h154l-96 -140h-148zM483 62c51 51 77 114 77 188s-26 136 -77 187s-114 77 -188 77s-137 -26 -188 -77s-77 -113 -77 -187s26 -137 77 -188s114 -76 188 -76s137 25 188 76zM213 165c-22 22 -33 50 -33 85s11 63 33 85
s49 33 82 33s60 -11 82 -33s33 -50 33 -85s-11 -63 -33 -85s-49 -33 -82 -33s-60 11 -82 33z" />
    <glyph glyph-name="OE" unicode="&#x152;" horiz-adv-x="916" 
d="M646 278v-124h240v-154h-400c-33 -9 -67 -14 -102 -14c-101 0 -185 35 -253 104c-67 70 -101 157 -101 260s34 190 101 259c68 70 152 105 253 105c35 0 69 -5 102 -14h395v-154h-235v-116h210v-152h-210zM486 157v386c-27 10 -61 15 -102 15c-57 0 -104 -19 -140 -58
c-36 -38 -54 -88 -54 -150s18 -112 54 -151c36 -38 83 -57 140 -57c41 0 75 5 102 15z" />
    <glyph glyph-name="oe" unicode="&#x153;" horiz-adv-x="960" 
d="M924 190h-355c18 -47 56 -70 115 -70c44 0 78 13 101 38l120 -69c-49 -69 -122 -103 -218 -103c-91 0 -158 34 -203 101c-45 -67 -109 -101 -194 -101c-73 0 -135 25 -185 76s-75 113 -75 188s25 137 75 188s112 76 185 76c85 0 149 -34 194 -101c43 67 110 101 199 101
c73 0 132 -25 178 -75s69 -113 69 -189c0 -21 -2 -41 -6 -60zM566 304h215c-15 51 -49 77 -104 77c-57 0 -94 -26 -111 -77zM213 165c22 -22 49 -33 82 -33s60 11 82 33s33 50 33 85s-11 63 -33 85s-49 33 -82 33s-60 -11 -82 -33s-33 -50 -33 -85s11 -63 33 -85z" />
    <glyph glyph-name="Racute" unicode="&#x154;" horiz-adv-x="615" 
d="M280 900h180l-116 -140h-144zM600 0h-172l-132 230h-76v-230h-160v700h280c67 0 123 -23 170 -70s70 -103 70 -170c0 -85 -52 -163 -129 -203zM340 550h-120v-180h120c44 0 80 39 80 90s-36 90 -80 90z" />
    <glyph glyph-name="racute" unicode="&#x155;" horiz-adv-x="370" 
d="M187 700h180l-116 -140h-144zM205 500v-89c19 64 82 99 150 99v-170c-37 6 -71 0 -103 -19c-31 -18 -47 -50 -47 -95v-226h-150v500h150z" />
    <glyph glyph-name="Rcommaaccent" unicode="&#x156;" horiz-adv-x="615" 
d="M451 257l149 -257h-172l-132 230h-76v-230h-160v700h280c67 0 123 -23 170 -70s70 -103 70 -170c0 -85 -52 -163 -129 -203zM340 550h-120v-180h120c44 0 80 39 80 90s-36 90 -80 90zM368 -270h-120l10 210h140z" />
    <glyph glyph-name="rcommaaccent" unicode="&#x157;" horiz-adv-x="370" 
d="M205 500v-89c19 64 82 99 150 99v-170c-37 6 -71 0 -103 -19c-31 -18 -47 -50 -47 -95v-226h-150v500h150zM174 -270h-120l10 210h140z" />
    <glyph glyph-name="Rcaron" unicode="&#x158;" horiz-adv-x="615" 
d="M359 750h-148l-106 150h145l35 -55l35 55h145zM600 0h-172l-132 230h-76v-230h-160v700h280c67 0 123 -23 170 -70s70 -103 70 -170c0 -85 -52 -163 -129 -203zM340 550h-120v-180h120c44 0 80 39 80 90s-36 90 -80 90z" />
    <glyph glyph-name="rcaron" unicode="&#x159;" horiz-adv-x="370" 
d="M266 550h-148l-106 150h145l35 -55l35 55h145zM205 500v-89c19 64 82 99 150 99v-170c-37 6 -71 0 -103 -19c-31 -18 -47 -50 -47 -95v-226h-150v500h150z" />
    <glyph glyph-name="Sacute" unicode="&#x15a;" horiz-adv-x="585" 
d="M206 770l80 140h180l-116 -140h-144zM305 -14c77 0 140 19 188 57c48 39 72 91 72 158c0 57 -23 103 -48 130c-12 14 -30 27 -54 39c-23 13 -43 22 -58 27l-65 21c-51 15 -85 29 -102 42c-16 13 -24 28 -24 45c0 29 27 53 75 53c61 0 96 -28 121 -81l135 79
c-51 103 -141 158 -256 158c-64 0 -119 -19 -166 -58c-46 -39 -69 -90 -69 -155c0 -64 23 -114 64 -147c43 -32 83 -50 142 -66c56 -15 94 -29 114 -41c21 -11 31 -27 31 -48c0 -38 -32 -57 -95 -57c-70 0 -119 32 -147 97l-138 -80c40 -107 137 -173 280 -173z" />
    <glyph glyph-name="sacute" unicode="&#x15b;" horiz-adv-x="468" 
d="M222 710h180l-116 -140h-144zM197 354c0 -20 39 -31 87 -44c69 -15 160 -51 159 -160c0 -54 -20 -95 -60 -123c-40 -27 -89 -41 -148 -41c-105 0 -177 40 -215 119l130 74c13 -39 42 -59 85 -59c36 0 54 10 54 31c0 20 -39 32 -87 44c-69 19 -159 53 -159 155
c0 52 19 92 56 121c38 29 85 43 140 43c83 0 154 -38 195 -107l-128 -69c-16 29 -38 44 -67 44c-28 0 -42 -9 -42 -28z" />
    <glyph glyph-name="Scedilla" unicode="&#x15e;" horiz-adv-x="585" 
d="M565 201c0 -112 -75 -189 -194 -210v-37c33 -8 63 -33 63 -77c0 -71 -75 -102 -225 -93v104c63 -5 95 0 95 14c0 10 -18 17 -53 20v67c-114 16 -189 73 -226 170l138 80c28 -65 77 -97 147 -97c63 0 95 19 95 57c0 21 -10 37 -31 48c-20 12 -58 26 -114 41
c-59 16 -99 34 -142 66c-41 33 -64 83 -64 147c0 65 23 116 69 155c47 39 102 58 166 58c115 0 205 -55 256 -158l-135 -79c-25 53 -60 81 -121 81c-48 0 -75 -24 -75 -53c0 -17 8 -32 24 -45c17 -13 51 -27 102 -42l65 -21c15 -5 35 -14 58 -27c24 -12 42 -25 54 -39
c25 -27 48 -73 48 -130z" />
    <glyph glyph-name="scedilla" unicode="&#x15f;" horiz-adv-x="468" 
d="M443 150c0 -84 -53 -136 -134 -156v-40c33 -8 63 -33 63 -77c0 -71 -75 -102 -225 -93v104c63 -5 95 0 95 14c0 10 -18 17 -53 20v67c-80 11 -136 49 -169 116l130 74c13 -39 42 -59 85 -59c36 0 54 10 54 31c0 20 -39 32 -87 44c-69 19 -159 53 -159 155
c0 52 19 92 56 121c38 29 85 43 140 43c83 0 154 -38 195 -107l-128 -69c-16 29 -38 44 -67 44c-28 0 -42 -9 -42 -28c0 -20 39 -31 87 -44c69 -15 160 -51 159 -160z" />
    <glyph glyph-name="Scaron" unicode="&#x160;" horiz-adv-x="585" 
d="M365 760h-148l-106 150h145l35 -55l35 55h145zM340 418l65 -21c15 -5 35 -14 58 -27c24 -12 42 -25 54 -39c25 -27 48 -73 48 -130c0 -67 -24 -119 -72 -158c-48 -38 -111 -57 -188 -57c-143 0 -240 66 -280 173l138 80c28 -65 77 -97 147 -97c63 0 95 19 95 57
c0 21 -10 37 -31 48c-20 12 -58 26 -114 41c-59 16 -99 34 -142 66c-41 33 -64 83 -64 147c0 65 23 116 69 155c47 39 102 58 166 58c115 0 205 -55 256 -158l-135 -79c-25 53 -60 81 -121 81c-48 0 -75 -24 -75 -53c0 -17 8 -32 24 -45c17 -13 51 -27 102 -42z" />
    <glyph glyph-name="scaron" unicode="&#x161;" horiz-adv-x="468" 
d="M301 560h-148l-106 150h145l35 -55l35 55h145zM197 354c0 -20 39 -31 87 -44c69 -15 160 -51 159 -160c0 -54 -20 -95 -60 -123c-40 -27 -89 -41 -148 -41c-105 0 -177 40 -215 119l130 74c13 -39 42 -59 85 -59c36 0 54 10 54 31c0 20 -39 32 -87 44
c-69 19 -159 53 -159 155c0 52 19 92 56 121c38 29 85 43 140 43c83 0 154 -38 195 -107l-128 -69c-16 29 -38 44 -67 44c-28 0 -42 -9 -42 -28z" />
    <glyph glyph-name="uni0162" unicode="&#x162;" horiz-adv-x="540" 
d="M10 700h520v-154h-180v-546h-160v546h-180v154zM318 -270h-120l10 210h140z" />
    <glyph glyph-name="uni0163" unicode="&#x163;" horiz-adv-x="388" 
d="M348 500v-144h-103v-177c0 -40 30 -47 103 -43v-136c-95 -10 -161 -1 -198 27c-37 29 -55 79 -55 152v177h-80v144h80v95l150 45v-140h103zM272 -270h-120l10 210h140z" />
    <glyph glyph-name="Tcaron" unicode="&#x164;" horiz-adv-x="540" 
d="M339 750h-148l-106 150h145l35 -55l35 55h145zM10 700h520v-154h-180v-546h-160v546h-180v154z" />
    <glyph glyph-name="tcaron" unicode="&#x165;" horiz-adv-x="416" 
d="M286 540l10 190h140l-30 -190h-120zM95 595l150 45v-140h103v-144h-103v-177c0 -40 30 -47 103 -43v-136c-95 -10 -161 -1 -198 27c-37 29 -55 79 -55 152v177h-80v144h80v95z" />
    <glyph glyph-name="Tbar" unicode="&#x166;" horiz-adv-x="540" 
d="M530 700v-154h-180v-134h110v-144h-110v-268h-160v268h-110v144h110v134h-180v154h520z" />
    <glyph glyph-name="tbar" unicode="&#x167;" horiz-adv-x="388" 
d="M348 500v-144h-103v-48h75v-120h-75v-9c0 -40 30 -47 103 -43v-136c-95 -10 -161 -1 -198 27c-37 29 -55 79 -55 152v9h-55v120h55v48h-80v144h80v95l150 45v-140h103z" />
    <glyph glyph-name="Umacron" unicode="&#x16a;" horiz-adv-x="650" 
d="M475 759h-300v120h300v-120zM55 226v474h160v-460c0 -65 37 -98 110 -98s110 33 110 98v460h160v-474c0 -73 -25 -132 -76 -175s-115 -65 -194 -65s-143 22 -194 65s-76 102 -76 175z" />
    <glyph glyph-name="umacron" unicode="&#x16b;" horiz-adv-x="583" 
d="M138 679h300v-120h-300v120zM378 227v273h150v-500h-150v47c-30 -41 -78 -61 -143 -61c-53 0 -98 18 -134 55c-35 37 -53 87 -53 152v307h150v-285c0 -59 36 -91 87 -91c57 0 93 35 93 103z" />
    <glyph glyph-name="Uring" unicode="&#x16e;" horiz-adv-x="650" 
d="M325 705c-77 0 -133 53 -133 125s56 125 133 125c79 0 133 -53 133 -125s-54 -125 -133 -125zM299 805c12 -12 40 -12 52 0c13 13 13 37 0 49c-12 13 -40 13 -52 0c-12 -12 -12 -36 0 -49zM55 226v474h160v-460c0 -65 37 -98 110 -98s110 33 110 98v460h160v-474
c0 -73 -25 -132 -76 -175s-115 -65 -194 -65s-143 22 -194 65s-76 102 -76 175z" />
    <glyph glyph-name="uring" unicode="&#x16f;" horiz-adv-x="583" 
d="M288 535c-77 0 -133 53 -133 125s56 125 133 125c79 0 133 -53 133 -125s-54 -125 -133 -125zM314 684c-12 13 -40 13 -52 0c-12 -12 -12 -36 0 -49c12 -12 40 -12 52 0c13 13 13 37 0 49zM378 227v273h150v-500h-150v47c-30 -41 -78 -61 -143 -61c-53 0 -98 18 -134 55
c-35 37 -53 87 -53 152v307h150v-285c0 -59 36 -91 87 -91c57 0 93 35 93 103z" />
    <glyph glyph-name="Uhungarumlaut" unicode="&#x170;" horiz-adv-x="650" 
d="M135 750l80 140h154l-86 -140h-148zM318 750l90 140h154l-96 -140h-148zM55 226c0 -73 25 -132 76 -175s115 -65 194 -65s143 22 194 65s76 102 76 175v474h-160v-460c0 -65 -37 -98 -110 -98s-110 33 -110 98v460h-160v-474z" />
    <glyph glyph-name="uhungarumlaut" unicode="&#x171;" horiz-adv-x="583" 
d="M178 690h154l-86 -140h-148zM525 690l-96 -140h-148l90 140h154zM378 227v273h150v-500h-150v47c-30 -41 -78 -61 -143 -61c-53 0 -98 18 -134 55c-35 37 -53 87 -53 152v307h150v-285c0 -59 36 -91 87 -91c57 0 93 35 93 103z" />
    <glyph glyph-name="Uogonek" unicode="&#x172;" horiz-adv-x="650" 
d="M435 240v460h160v-474c0 -77 -29 -138 -86 -183c-64 -59 -84 -91 -87 -128c-1 -15 7 -24 22 -26c5 -1 12 1 23 4v-90c-28 -11 -57 -17 -88 -17c-59 0 -100 31 -100 91c0 33 17 70 51 109h-5c-79 0 -143 22 -194 65s-76 102 -76 175v474h160v-460c0 -65 37 -98 110 -98
s110 33 110 98z" />
    <glyph glyph-name="uogonek" unicode="&#x173;" horiz-adv-x="583" 
d="M528 500v-500c-30 -33 -45 -62 -45 -85c-1 -17 6 -26 22 -26c5 -1 12 1 23 4v-90c-28 -11 -57 -17 -88 -17c-59 0 -100 31 -100 91c0 37 21 78 64 123h-26v47c-30 -41 -78 -61 -143 -61c-53 0 -98 18 -134 55c-35 37 -53 87 -53 152v307h150v-285c0 -59 36 -91 87 -91
c57 0 93 35 93 103v273h150z" />
    <glyph glyph-name="Wcircumflex" unicode="&#x174;" horiz-adv-x="998" 
d="M568 750l-35 55l-35 -55h-145l106 150h148l106 -150h-145zM699 210l121 490h168l-193 -700h-182l-114 413l-114 -413h-182l-193 700h168l121 -490l135 490h130z" />
    <glyph glyph-name="wcircumflex" unicode="&#x175;" horiz-adv-x="770" 
d="M415 550l-35 55l-35 -55h-145l106 150h148l106 -150h-145zM533 232l72 268h160l-160 -500h-140l-80 267l-80 -267h-140l-160 500h160l72 -268l78 268h140z" />
    <glyph glyph-name="Ycircumflex" unicode="&#x176;" horiz-adv-x="630" 
d="M345 750l-35 55l-35 -55h-145l106 150h148l106 -150h-145zM448 700h182l-235 -431v-269h-160v269l-235 431h182l133 -270z" />
    <glyph glyph-name="ycircumflex" unicode="&#x177;" horiz-adv-x="530" 
d="M296 550l-35 55l-35 -55h-145l106 150h148l106 -150h-145zM276 194l94 306h160l-171 -485c-56 -157 -144 -222 -285 -215v140c69 0 102 22 125 83l-199 477h165z" />
    <glyph glyph-name="Ydieresis" unicode="&#x178;" horiz-adv-x="630" 
d="M273 762c-29 -29 -77 -29 -106 0s-29 77 0 106s77 29 106 0s29 -77 0 -106zM463 762c-29 -29 -77 -29 -106 0s-29 77 0 106s77 29 106 0s29 -77 0 -106zM448 700h182l-235 -431v-269h-160v269l-235 431h182l133 -270z" />
    <glyph glyph-name="Zacute" unicode="&#x179;" horiz-adv-x="540" 
d="M265 900h180l-116 -140h-144zM510 576l-268 -422h273v-154h-480v124l268 422h-263v154h470v-124z" />
    <glyph glyph-name="zacute" unicode="&#x17a;" horiz-adv-x="475" 
d="M230 700h180l-116 -140h-144zM430 400l-189 -260h199v-140h-400v100l189 260h-179v140h380v-100z" />
    <glyph glyph-name="Zdotaccent" unicode="&#x17b;" horiz-adv-x="540" 
d="M335 770c-33 -33 -87 -33 -120 0c-33 35 -33 86 0 119c33 35 87 35 120 0c33 -33 33 -84 0 -119zM510 576l-268 -422h273v-154h-480v124l268 422h-263v154h470v-124z" />
    <glyph glyph-name="zdotaccent" unicode="&#x17c;" horiz-adv-x="475" 
d="M299 570c-33 -33 -84 -33 -119 0c-33 35 -33 86 0 119c35 35 86 35 119 0c35 -33 35 -84 0 -119zM430 400l-189 -260h199v-140h-400v100l189 260h-179v140h380v-100z" />
    <glyph glyph-name="Zcaron" unicode="&#x17d;" horiz-adv-x="540" 
d="M344 750h-148l-106 150h145l35 -55l35 55h145zM510 576l-268 -422h273v-154h-480v124l268 422h-263v154h470v-124z" />
    <glyph glyph-name="zcaron" unicode="&#x17e;" horiz-adv-x="475" 
d="M309 550h-148l-106 150h145l35 -55l35 55h145zM430 400l-189 -260h199v-140h-400v100l189 260h-179v140h380v-100z" />
    <glyph glyph-name="florin" unicode="&#x192;" horiz-adv-x="442" 
d="M442 705v-150c-35 19 -89 10 -100 -52l-13 -79h82v-144h-107l-53 -312c-25 -149 -123 -201 -251 -169v150c35 -19 89 -10 100 52l47 279h-76v144h101l19 112c25 149 123 201 251 169z" />
    <glyph glyph-name="Scommaaccent" unicode="&#x218;" horiz-adv-x="585" 
d="M305 -14c-143 0 -240 66 -280 173l138 80c28 -65 77 -97 147 -97c63 0 95 19 95 57c0 21 -10 37 -31 48c-20 12 -58 26 -114 41c-59 16 -99 34 -142 66c-41 33 -64 83 -64 147c0 65 23 116 69 155c47 39 102 58 166 58c115 0 205 -55 256 -158l-135 -79
c-25 53 -60 81 -121 81c-48 0 -75 -24 -75 -53c0 -17 8 -32 24 -45c17 -13 51 -27 102 -42l65 -21c15 -5 35 -14 58 -27c24 -12 42 -25 54 -39c25 -27 48 -73 48 -130c0 -67 -24 -119 -72 -158c-48 -38 -111 -57 -188 -57zM352 -270h-120l10 210h140z" />
    <glyph glyph-name="scommaaccent" unicode="&#x219;" horiz-adv-x="468" 
d="M197 354c0 -20 39 -31 87 -44c69 -15 160 -51 159 -160c0 -54 -20 -95 -60 -123c-40 -27 -89 -41 -148 -41c-105 0 -177 40 -215 119l130 74c13 -39 42 -59 85 -59c36 0 54 10 54 31c0 20 -39 32 -87 44c-69 19 -159 53 -159 155c0 52 19 92 56 121c38 29 85 43 140 43
c83 0 154 -38 195 -107l-128 -69c-16 29 -38 44 -67 44c-28 0 -42 -9 -42 -28zM290 -270h-120l10 210h140z" />
    <glyph glyph-name="uni021A" unicode="&#x21a;" horiz-adv-x="540" 
d="M10 700h520v-154h-180v-546h-160v546h-180v154zM318 -270h-120l10 210h140z" />
    <glyph glyph-name="uni021B" unicode="&#x21b;" horiz-adv-x="388" 
d="M348 500v-144h-103v-177c0 -40 30 -47 103 -43v-136c-95 -10 -161 -1 -198 27c-37 29 -55 79 -55 152v177h-80v144h80v95l150 45v-140h103zM272 -270h-120l10 210h140z" />
    <glyph glyph-name="circumflex" unicode="&#x2c6;" horiz-adv-x="400" 
d="M274 700l106 -150h-145l-35 55l-35 -55h-145l106 150h148z" />
    <glyph glyph-name="caron" unicode="&#x2c7;" horiz-adv-x="400" 
d="M200 645l35 55h145l-106 -150h-148l-106 150h145z" />
    <glyph glyph-name="breve" unicode="&#x2d8;" horiz-adv-x="390" 
d="M20 692h132c0 -31 14 -46 43 -46s43 15 43 46h132c0 -96 -63 -150 -175 -150s-175 54 -175 150z" />
    <glyph glyph-name="dotaccent" unicode="&#x2d9;" horiz-adv-x="220" 
d="M165 570c-33 -33 -87 -33 -120 0c-33 35 -33 86 0 119c33 35 87 35 120 0c33 -33 33 -84 0 -119z" />
    <glyph glyph-name="ring" unicode="&#x2da;" horiz-adv-x="306" 
d="M153 535c-77 0 -133 53 -133 125s56 125 133 125c79 0 133 -53 133 -125s-54 -125 -133 -125zM127 635c12 -12 40 -12 52 0c13 13 13 37 0 49c-12 13 -40 13 -52 0c-12 -12 -12 -36 0 -49z" />
    <glyph glyph-name="ogonek" unicode="&#x2db;" horiz-adv-x="228" 
d="M120 -214c-59 0 -100 31 -100 91c0 37 21 78 64 123h124c-30 -33 -45 -62 -45 -85c-1 -17 6 -26 22 -26c5 -1 12 1 23 4v-90c-28 -11 -57 -17 -88 -17z" />
    <glyph glyph-name="tilde" unicode="&#x2dc;" horiz-adv-x="399" 
d="M140 553h-120c0 169 105 190 196 133c35 -21 43 -16 43 24h120c0 -169 -105 -190 -196 -133c-33 21 -43 16 -43 -24z" />
    <glyph glyph-name="hungarumlaut" unicode="&#x2dd;" horiz-adv-x="467" 
d="M20 550l80 140h154l-86 -140h-148zM203 550l90 140h154l-96 -140h-148z" />
    <glyph glyph-name="gravecomb" unicode="&#x300;" horiz-adv-x="0" 
d="M-20 560h-144l-116 140h180z" />
    <glyph glyph-name="acutecomb" unicode="&#x301;" horiz-adv-x="0" 
d="M-280 560l80 140h180l-116 -140h-144z" />
    <glyph glyph-name="uni0302" unicode="&#x302;" horiz-adv-x="0" 
d="M-126 700l106 -150h-145l-35 55l-35 -55h-145l106 150h148z" />
    <glyph glyph-name="tildecomb" unicode="&#x303;" horiz-adv-x="0" 
d="M-249 553h-120c0 169 105 190 196 133c33 -21 43 -16 43 24h120c0 -169 -105 -190 -196 -133c-35 21 -43 16 -43 -24z" />
    <glyph glyph-name="uni0304" unicode="&#x304;" horiz-adv-x="0" 
d="M-20 559h-300v120h300v-120z" />
    <glyph glyph-name="uni0306" unicode="&#x306;" horiz-adv-x="0" 
d="M-370 692h132c0 -31 14 -46 43 -46s43 15 43 46h132c0 -96 -63 -150 -175 -150s-175 54 -175 150z" />
    <glyph glyph-name="uni0307" unicode="&#x307;" horiz-adv-x="0" 
d="M-45 570c-33 -33 -87 -33 -120 0c-33 35 -33 86 0 119c33 35 87 35 120 0c33 -33 33 -84 0 -119z" />
    <glyph glyph-name="uni0308" unicode="&#x308;" horiz-adv-x="0" 
d="M-232 562c-29 -29 -77 -29 -106 0s-29 77 0 106s77 29 106 0s29 -77 0 -106zM-42 562c-29 -29 -77 -29 -106 0s-29 77 0 106s77 29 106 0s29 -77 0 -106z" />
    <glyph glyph-name="uni030A" unicode="&#x30a;" horiz-adv-x="0" 
d="M-158 535c-77 0 -133 53 -133 125s56 125 133 125c79 0 133 -53 133 -125s-54 -125 -133 -125zM-184 635c12 -12 40 -12 53 0c12 13 12 37 0 49c-13 13 -41 13 -53 0c-12 -12 -12 -36 0 -49z" />
    <glyph glyph-name="uni030B" unicode="&#x30b;" horiz-adv-x="0" 
d="M-447 550l80 140h154l-86 -140h-148zM-264 550l90 140h154l-96 -140h-148z" />
    <glyph glyph-name="uni030C" unicode="&#x30c;" horiz-adv-x="0" 
d="M-200 645l35 55h145l-106 -150h-148l-106 150h145z" />
    <glyph glyph-name="uni0312" unicode="&#x312;" horiz-adv-x="0" 
d="M-140 980h120l-10 -210h-140z" />
    <glyph glyph-name="uni0326" unicode="&#x326;" horiz-adv-x="0" 
d="M-50 -270h-120l10 210h140z" />
    <glyph glyph-name="uni0327" unicode="&#x327;" horiz-adv-x="0" 
d="M-83 0v-46c33 -8 63 -33 63 -77c0 -71 -75 -102 -225 -93v104c63 -5 95 0 95 14c0 10 -18 17 -53 20v78h120z" />
    <glyph glyph-name="uni0328" unicode="&#x328;" horiz-adv-x="0" 
d="M-118 -214c-59 0 -100 31 -100 91c0 37 21 78 64 123h124c-30 -33 -45 -62 -45 -85c-1 -17 6 -26 22 -26c5 -1 12 1 23 4v-90c-28 -11 -57 -17 -88 -17z" />
    <glyph glyph-name="uni0394" unicode="&#x394;" horiz-adv-x="660" 
d="M228 700h204l228 -700h-660zM330 525l-111 -375h222z" />
    <glyph glyph-name="uni03A9" unicode="&#x3a9;" horiz-adv-x="768" 
d="M748 370c0 -85 -31 -157 -94 -216h80v-154h-278v154c80 28 132 101 132 196c0 61 -20 111 -59 150s-87 58 -145 58s-107 -19 -146 -58s-58 -89 -58 -150c0 -95 52 -168 132 -196v-154h-278v154h80c-63 59 -94 131 -94 216c0 97 35 179 106 245s157 99 258 99
s187 -33 258 -99s106 -148 106 -245z" />
    <glyph glyph-name="pi" unicode="&#x3c0;" horiz-adv-x="670" 
d="M20 500h630v-140h-78v-360h-150v360h-170v-360h-150v360h-82v140z" />
    <glyph glyph-name="uni0401" unicode="&#x401;" horiz-adv-x="530" 
d="M236 762c-29 -29 -77 -29 -106 0s-29 77 0 106s77 29 106 0s29 -77 0 -106zM426 762c-29 -29 -77 -29 -106 0s-29 77 0 106s77 29 106 0s29 -77 0 -106zM220 278v-124h280v-154h-440v700h435v-154h-275v-116h250v-152h-250z" />
    <glyph glyph-name="uni0402" unicode="&#x402;" horiz-adv-x="705" 
d="M472 464c116 0 188 -69 188 -197v-63c0 -156 -73 -223 -230 -214v149c53 -3 70 16 70 65v45c0 47 -23 71 -68 71c-28 0 -59 -5 -92 -16v-304h-160v546h-170v154h520v-154h-190v-100c45 12 89 18 132 18z" />
    <glyph glyph-name="uni0403" unicode="&#x403;" horiz-adv-x="470" 
d="M256 899h180l-116 -140h-144zM60 700h400v-154h-240v-546h-160v700z" />
    <glyph glyph-name="uni0404" unicode="&#x404;" horiz-adv-x="719" 
d="M394 142c71 0 133 33 162 86l138 -80c-60 -100 -173 -162 -300 -162c-105 0 -192 35 -261 104c-69 70 -103 157 -103 260s34 190 103 259c69 70 156 105 261 105c125 0 239 -62 300 -162l-138 -80c-31 55 -91 86 -162 86c-96 0 -166 -50 -193 -133h286v-150h-286
c27 -83 97 -133 193 -133z" />
    <glyph glyph-name="uni0405" unicode="&#x405;" horiz-adv-x="585" 
d="M305 -14c-143 0 -240 66 -280 173l138 80c28 -65 77 -97 147 -97c63 0 95 19 95 57c0 21 -10 37 -31 48c-20 12 -58 26 -114 41c-59 16 -99 34 -142 66c-41 33 -64 83 -64 147c0 65 23 116 69 155c47 39 102 58 166 58c115 0 205 -55 256 -158l-135 -79
c-25 53 -60 81 -121 81c-48 0 -75 -24 -75 -53c0 -17 8 -32 24 -45c17 -13 51 -27 102 -42l65 -21c15 -5 35 -14 58 -27c24 -12 42 -25 54 -39c25 -27 48 -73 48 -130c0 -67 -24 -119 -72 -158c-48 -38 -111 -57 -188 -57z" />
    <glyph glyph-name="uni0406" unicode="&#x406;" horiz-adv-x="280" 
d="M60 0v700h160v-700h-160z" />
    <glyph glyph-name="uni0407" unicode="&#x407;" horiz-adv-x="280" 
d="M98 762c-29 -29 -77 -29 -106 0s-29 77 0 106s77 29 106 0s29 -77 0 -106zM288 762c-29 -29 -77 -29 -106 0s-29 77 0 106s77 29 106 0s29 -77 0 -106zM60 0v700h160v-700h-160z" />
    <glyph glyph-name="uni0408" unicode="&#x408;" horiz-adv-x="574" 
d="M267 -14c-111 0 -190 45 -237 136l139 80c24 -43 48 -60 99 -60c61 0 91 28 91 83v475h160v-475c0 -75 -24 -133 -71 -176c-47 -42 -107 -63 -181 -63z" />
    <glyph glyph-name="uni0409" unicode="&#x409;" horiz-adv-x="950" 
d="M600 450h85c70 0 128 -21 175 -63s70 -96 70 -162s-23 -120 -70 -162s-105 -63 -175 -63h-245v546h-154v-262c0 -250 -147 -298 -276 -286v150c79 -9 116 19 116 130v422h474v-250zM600 150h85c51 0 85 26 85 75s-34 75 -85 75h-85v-150z" />
    <glyph glyph-name="uni040A" unicode="&#x40a;" horiz-adv-x="950" 
d="M600 450h85c70 0 128 -21 175 -63s70 -96 70 -162s-23 -120 -70 -162s-105 -63 -175 -63h-245v300h-220v-300h-160v700h160v-250h220v250h160v-250zM600 150h85c51 0 85 26 85 75s-34 75 -85 75h-85v-150z" />
    <glyph glyph-name="uni040B" unicode="&#x40b;" horiz-adv-x="710" 
d="M472 464c116 0 188 -69 188 -197v-267h-160v249c0 47 -23 71 -68 71c-28 0 -59 -5 -92 -16v-304h-160v546h-170v154h520v-154h-190v-100c45 12 89 18 132 18z" />
    <glyph glyph-name="uni040C" unicode="&#x40c;" horiz-adv-x="626" 
d="M306 899h180l-116 -140h-144zM380 359l246 -359h-182l-224 324v-324h-160v700h160v-304l214 304h182z" />
    <glyph glyph-name="uni040E" unicode="&#x40e;" horiz-adv-x="610" 
d="M156 888h300v-130h-300v130zM317 394l123 306h160l-202 -494c-59 -145 -157 -213 -294 -206v150c65 -6 111 17 140 69l-224 481h160z" />
    <glyph glyph-name="uni040F" unicode="&#x40f;" horiz-adv-x="650" 
d="M430 154v546h160v-700h-185v-134h-160v134h-185v700h160v-546h210z" />
    <glyph glyph-name="uni0410" unicode="&#x410;" horiz-adv-x="680" 
d="M680 0h-175l-35 110h-260l-35 -110h-175l238 700h204zM340 517l-82 -257h164z" />
    <glyph glyph-name="uni0411" unicode="&#x411;" horiz-adv-x="585" 
d="M220 440h110c72 0 130 -20 174 -61c44 -40 66 -93 66 -159s-22 -119 -66 -160c-44 -40 -102 -60 -174 -60h-270v700h450v-154h-290v-106zM220 150h110c53 0 80 23 80 70s-27 70 -80 70h-110v-140z" />
    <glyph glyph-name="uni0412" unicode="&#x412;" horiz-adv-x="600" 
d="M494 363c57 -37 86 -89 86 -158c0 -61 -22 -110 -65 -148s-97 -57 -161 -57h-294v700h274c63 0 115 -19 157 -56c43 -37 64 -85 64 -144c0 -56 -20 -102 -61 -137zM334 550h-114v-124h114c36 0 61 26 61 62s-25 62 -61 62zM220 150h134c40 0 66 27 66 67s-26 67 -66 67
h-134v-134z" />
    <glyph glyph-name="uni0413" unicode="&#x413;" horiz-adv-x="470" 
d="M60 700h400v-154h-240v-546h-160v700z" />
    <glyph glyph-name="uni0414" unicode="&#x414;" horiz-adv-x="710" 
d="M610 700v-546h75v-288h-160v134h-350v-134h-160v288h71c37 53 55 130 55 232v314h469zM256 154h194v396h-149v-166c0 -99 -15 -176 -45 -230z" />
    <glyph glyph-name="uni0415" unicode="&#x415;" horiz-adv-x="530" 
d="M220 278v-124h280v-154h-440v700h435v-154h-275v-116h250v-152h-250z" />
    <glyph glyph-name="uni0416" unicode="&#x416;" horiz-adv-x="922" 
d="M686 356l226 -356h-177l-194 310v-310h-160v310l-194 -310h-177l226 356l-216 344h177l184 -308v308h160v-308l184 308h177z" />
    <glyph glyph-name="uni0417" unicode="&#x417;" horiz-adv-x="560" 
d="M445 362c63 -35 95 -90 95 -164c0 -64 -24 -115 -73 -154s-111 -58 -186 -58c-131 0 -220 55 -266 166l138 79c21 -63 64 -95 128 -95c66 0 99 25 99 74s-33 74 -100 74h-89v142h69c63 0 95 23 95 69s-27 69 -81 69c-52 0 -89 -27 -111 -80l-137 79
c51 101 133 151 248 151c71 0 128 -19 173 -57c45 -37 68 -87 68 -150c0 -61 -23 -109 -70 -145z" />
    <glyph glyph-name="uni0418" unicode="&#x418;" horiz-adv-x="670" 
d="M610 0h-160v380l-270 -380h-120v700h160v-380l270 380h120v-700z" />
    <glyph glyph-name="uni0419" unicode="&#x419;" horiz-adv-x="670" 
d="M485 759h-300v130h300v-130zM610 0h-160v380l-270 -380h-120v700h160v-380l270 380h120v-700z" />
    <glyph glyph-name="uni041A" unicode="&#x41a;" horiz-adv-x="626" 
d="M380 359l246 -359h-182l-224 324v-324h-160v700h160v-304l214 304h182z" />
    <glyph glyph-name="uni041B" unicode="&#x41b;" horiz-adv-x="670" 
d="M10 0v150c77 -12 116 17 116 128v422h484v-700h-160v546h-164v-262c0 -119 -35 -203 -91 -242c-55 -37 -114 -50 -185 -42z" />
    <glyph glyph-name="uni041C" unicode="&#x41c;" horiz-adv-x="820" 
d="M600 700h160v-700h-160v407l-181 -297h-18l-181 297v-407h-160v700h160l190 -311z" />
    <glyph glyph-name="uni041D" unicode="&#x41d;" horiz-adv-x="660" 
d="M440 432v268h160v-700h-160v278h-220v-278h-160v700h160v-268h220z" />
    <glyph glyph-name="uni041E" unicode="&#x41e;" horiz-adv-x="788" 
d="M652 91c-71 -70 -157 -105 -258 -105s-187 35 -258 105s-106 156 -106 259s35 189 106 259s157 105 258 105s187 -35 258 -105s106 -156 106 -259s-35 -189 -106 -259zM248 200c39 -39 88 -58 146 -58s106 19 145 58s59 89 59 150s-20 111 -59 150s-87 58 -145 58
s-107 -19 -146 -58s-58 -89 -58 -150s19 -111 58 -150z" />
    <glyph glyph-name="uni041F" unicode="&#x41f;" horiz-adv-x="650" 
d="M60 700h530v-700h-160v546h-210v-546h-160v700z" />
    <glyph glyph-name="uni0420" unicode="&#x420;" horiz-adv-x="590" 
d="M60 700h265c69 0 127 -23 174 -70s71 -103 71 -170s-24 -123 -71 -170s-105 -70 -174 -70h-105v-220h-160v700zM220 370h105c49 0 85 39 85 90s-36 90 -85 90h-105v-180z" />
    <glyph glyph-name="uni0421" unicode="&#x421;" horiz-adv-x="719" 
d="M394 -14c-105 0 -192 35 -261 104c-69 70 -103 157 -103 260s34 190 103 259c69 70 156 105 261 105c125 0 239 -62 300 -162l-138 -80c-31 55 -91 86 -162 86c-62 0 -112 -19 -149 -57s-55 -88 -55 -151s18 -113 55 -151s87 -57 149 -57c71 0 133 33 162 86l138 -80
c-60 -100 -173 -162 -300 -162z" />
    <glyph glyph-name="uni0422" unicode="&#x422;" horiz-adv-x="540" 
d="M10 700h520v-154h-180v-546h-160v546h-180v154z" />
    <glyph glyph-name="uni0423" unicode="&#x423;" horiz-adv-x="610" 
d="M317 394l123 306h160l-202 -494c-59 -145 -157 -213 -294 -206v150c65 -6 111 17 140 69l-224 481h160z" />
    <glyph glyph-name="uni0424" unicode="&#x424;" horiz-adv-x="824" 
d="M490 62v-82h-156v82c-96 11 -172 42 -229 93s-85 116 -85 195s28 143 85 194s133 83 229 94v82h156v-82c96 -11 172 -43 229 -94s85 -115 85 -194s-28 -144 -85 -195s-133 -82 -229 -93zM334 209v282c-103 -14 -154 -61 -154 -141s51 -127 154 -141zM490 491v-282
c103 14 154 61 154 141s-51 127 -154 141z" />
    <glyph glyph-name="uni0425" unicode="&#x425;" horiz-adv-x="620" 
d="M401 359l209 -359h-182l-118 202l-118 -202h-182l209 359l-199 341h182l108 -185l108 185h182z" />
    <glyph glyph-name="uni0426" unicode="&#x426;" horiz-adv-x="690" 
d="M590 700v-546h75v-288h-160v134h-445v700h160v-546h210v546h160z" />
    <glyph glyph-name="uni0427" unicode="&#x427;" horiz-adv-x="635" 
d="M415 399v301h160v-700h-160v244c-38 -15 -78 -22 -119 -22c-72 0 -132 20 -180 60c-47 41 -71 97 -71 168v250h160v-226c0 -63 38 -98 95 -98c42 0 80 8 115 23z" />
    <glyph glyph-name="uni0428" unicode="&#x428;" horiz-adv-x="940" 
d="M720 154v546h160v-700h-820v700h160v-546h170v546h160v-546h170z" />
    <glyph glyph-name="uni0429" unicode="&#x429;" horiz-adv-x="980" 
d="M880 700v-546h75v-288h-160v134h-735v700h160v-546h170v546h160v-546h170v546h160z" />
    <glyph glyph-name="uni042A" unicode="&#x42a;" horiz-adv-x="690" 
d="M425 0h-265v546h-160v154h320v-220h105c69 0 127 -23 174 -70s71 -103 71 -170s-24 -123 -71 -170s-105 -70 -174 -70zM320 330v-180h105c49 0 85 39 85 90s-36 90 -85 90h-105z" />
    <glyph glyph-name="uni042B" unicode="&#x42b;" horiz-adv-x="850" 
d="M325 0h-265v700h160v-220h105c69 0 127 -23 174 -70s71 -103 71 -170s-24 -123 -71 -170s-105 -70 -174 -70zM790 0h-160v700h160v-700zM220 330v-180h105c49 0 85 39 85 90s-36 90 -85 90h-105z" />
    <glyph glyph-name="uni042C" unicode="&#x42c;" horiz-adv-x="590" 
d="M220 480h105c69 0 127 -23 174 -70s71 -103 71 -170s-24 -123 -71 -170s-105 -70 -174 -70h-265v700h160v-220zM220 150h105c49 0 85 39 85 90s-36 90 -85 90h-105v-180z" />
    <glyph glyph-name="uni042D" unicode="&#x42d;" horiz-adv-x="719" 
d="M325 714c105 0 191 -35 260 -105c69 -69 104 -156 104 -259s-35 -190 -104 -260c-69 -69 -155 -104 -260 -104c-127 0 -240 62 -300 162l138 80c29 -53 91 -86 162 -86c96 0 166 50 193 133h-286v150h286c-27 83 -97 133 -193 133c-71 0 -131 -31 -162 -86l-138 80
c61 100 175 162 300 162z" />
    <glyph glyph-name="uni042E" unicode="&#x42e;" horiz-adv-x="1060" 
d="M666 714c101 0 187 -35 258 -105s106 -156 106 -259c0 -101 -36 -187 -107 -258s-156 -106 -257 -106c-89 0 -167 28 -233 83c-65 56 -106 127 -121 214h-92v-283h-160v700h160v-263h96c19 81 60 148 125 199c65 52 140 78 225 78zM666 558c-59 0 -107 -19 -146 -57
c-39 -37 -58 -88 -58 -151c0 -61 19 -111 58 -150s88 -58 146 -58s106 19 145 58s59 89 59 150s-20 111 -59 150s-87 58 -145 58z" />
    <glyph glyph-name="uni042F" unicode="&#x42f;" horiz-adv-x="625" 
d="M285 700h280v-700h-160v230h-51l-149 -230h-180l164 250c-43 18 -77 46 -104 84c-27 39 -40 81 -40 126c0 67 23 123 70 170s103 70 170 70zM285 370h120v180h-120c-44 0 -80 -39 -80 -90s36 -90 80 -90z" />
    <glyph glyph-name="uni0430" unicode="&#x430;" horiz-adv-x="623" 
d="M418 453v47h150v-500h-150v47c-35 -41 -85 -61 -149 -61c-66 0 -122 25 -169 76s-70 114 -70 188s23 136 70 187s103 77 169 77c64 0 114 -20 149 -61zM213 161c22 -22 51 -33 86 -33s64 11 86 33s33 52 33 89s-11 67 -33 89s-51 33 -86 33s-64 -11 -86 -33
s-33 -52 -33 -89s11 -67 33 -89z" />
    <glyph glyph-name="uni0431" unicode="&#x431;" horiz-adv-x="567" 
d="M297 -14c-81 0 -146 26 -195 77c-48 51 -72 116 -72 195c0 85 13 151 38 198s76 89 153 127l41 20c19 9 32 15 37 18l28 15c25 15 28 20 43 35c16 15 23 29 31 49l124 -71c-9 -39 -29 -71 -58 -94s-72 -45 -130 -67c-83 -31 -113 -58 -129 -97c35 31 81 47 137 47
c51 0 99 -20 142 -60c43 -39 65 -92 65 -158c0 -69 -23 -125 -70 -169c-46 -43 -108 -65 -185 -65zM402 220c0 59 -46 101 -109 101c-56 0 -106 -38 -106 -97c0 -60 48 -103 109 -103s106 42 106 99z" />
    <glyph glyph-name="uni0432" unicode="&#x432;" horiz-adv-x="515" 
d="M428 256c45 -24 67 -62 67 -113c0 -85 -62 -143 -170 -143h-270v500h250c108 0 170 -58 170 -143c0 -44 -16 -78 -47 -101zM289 380h-94v-70h94c29 0 44 11 44 34c0 24 -15 36 -44 36zM195 124h110c29 0 44 12 44 37c0 23 -15 35 -44 35h-110v-72z" />
    <glyph glyph-name="uni0433" unicode="&#x433;" horiz-adv-x="415" 
d="M55 500h350v-144h-200v-356h-150v500z" />
    <glyph glyph-name="uni0434" unicode="&#x434;" horiz-adv-x="600" 
d="M515 500v-360h65v-274h-146v134h-278v-134h-146v274h62c27 41 40 99 40 173v187h403zM229 140h140v226h-111v-53c0 -69 -10 -127 -29 -173z" />
    <glyph glyph-name="uni0435" unicode="&#x435;" 
d="M544 190h-355c17 -47 57 -70 120 -70c41 0 73 13 96 38l120 -69c-49 -69 -122 -103 -218 -103c-84 0 -151 25 -202 75c-50 50 -75 113 -75 189c0 75 25 138 74 188c50 51 114 76 192 76c73 0 133 -25 181 -76c49 -50 73 -113 73 -188c0 -21 -2 -41 -6 -60zM186 302h215
c-15 53 -50 79 -106 79c-58 0 -94 -26 -109 -79z" />
    <glyph glyph-name="uni0436" unicode="&#x436;" horiz-adv-x="770" 
d="M594 250l166 -250h-166l-136 217v-217h-146v217l-136 -217h-166l166 250l-156 250h166l126 -214v214h146v-214l126 214h166z" />
    <glyph glyph-name="uni0437" unicode="&#x437;" horiz-adv-x="452" 
d="M359 254c49 -26 73 -65 73 -118c0 -87 -76 -150 -207 -150c-102 0 -172 40 -210 119l121 72c15 -41 45 -61 91 -61c39 0 59 13 59 39c0 23 -16 35 -47 35h-70v126h54c31 0 47 11 47 34c0 24 -16 36 -47 36c-37 0 -65 -19 -82 -58l-121 69c41 78 107 117 200 117
c59 0 105 -15 140 -44s52 -65 52 -106c0 -49 -18 -85 -53 -110z" />
    <glyph glyph-name="uni0438" unicode="&#x438;" 
d="M201 250l214 250h110v-500h-146v250l-214 -250h-110v500h146v-250z" />
    <glyph glyph-name="uni0439" unicode="&#x439;" 
d="M440 559h-300v130h300v-130zM201 250l214 250h110v-500h-146v250l-214 -250h-110v500h146v-250z" />
    <glyph glyph-name="uni043A" unicode="&#x43a;" horiz-adv-x="535" 
d="M348 250l187 -250h-170l-160 221v-221h-150v500h150v-219l150 219h175z" />
    <glyph glyph-name="uni043B" unicode="&#x43b;" horiz-adv-x="545" 
d="M82 500h408v-500h-150v356h-108v-149c0 -152 -77 -224 -222 -207v140c47 -13 72 14 72 77v283z" />
    <glyph glyph-name="uni043C" unicode="&#x43c;" horiz-adv-x="640" 
d="M441 500h144v-500h-144v258l-112 -174h-18l-112 174v-258h-144v500h144l121 -189z" />
    <glyph glyph-name="uni043D" unicode="&#x43d;" 
d="M375 320v180h150v-500h-150v180h-170v-180h-150v500h150v-180h170z" />
    <glyph glyph-name="uni043E" unicode="&#x43e;" horiz-adv-x="590" 
d="M483 62c-51 -51 -114 -76 -188 -76s-137 25 -188 76s-77 114 -77 188s26 136 77 187s114 77 188 77s137 -26 188 -77s77 -113 77 -187s-26 -137 -77 -188zM213 165c22 -22 49 -33 82 -33s60 11 82 33s33 50 33 85s-11 63 -33 85s-49 33 -82 33s-60 -11 -82 -33
s-33 -50 -33 -85s11 -63 33 -85z" />
    <glyph glyph-name="uni043F" unicode="&#x43f;" 
d="M55 500h470v-500h-150v360h-170v-360h-150v500z" />
    <glyph glyph-name="uni0440" unicode="&#x440;" horiz-adv-x="623" 
d="M354 514c66 0 122 -26 169 -77s70 -113 70 -187s-23 -137 -70 -188s-103 -76 -169 -76c-64 0 -114 20 -149 61v-247h-150v700h150v-47c35 41 85 61 149 61zM238 161c23 -22 51 -33 86 -33s63 11 85 33c23 22 34 52 34 89s-11 67 -34 89c-22 22 -50 33 -85 33
s-63 -11 -86 -33c-22 -22 -33 -52 -33 -89s11 -67 33 -89z" />
    <glyph glyph-name="uni0441" unicode="&#x441;" horiz-adv-x="531" 
d="M295 -14c-76 0 -139 25 -190 76c-50 51 -75 113 -75 188s25 137 75 188c51 51 114 76 190 76c96 0 182 -51 226 -128l-131 -76c-18 37 -50 56 -97 56c-65 0 -113 -48 -113 -116s48 -116 113 -116c47 0 80 19 97 56l131 -75c-44 -79 -129 -129 -226 -129z" />
    <glyph glyph-name="uni0442" unicode="&#x442;" horiz-adv-x="470" 
d="M10 500h450v-144h-149v-356h-150v356h-151v144z" />
    <glyph glyph-name="uni0443" unicode="&#x443;" horiz-adv-x="530" 
d="M276 193l94 307h160l-171 -485c-53 -151 -148 -222 -285 -215v140c68 0 99 17 122 69l-196 491h160z" />
    <glyph glyph-name="uni0444" unicode="&#x444;" horiz-adv-x="690" 
d="M418 -6v-194h-146v194c-75 12 -135 41 -178 88s-64 103 -64 168s21 121 64 168s103 76 178 88v194h146v-194c75 -12 134 -41 177 -88s65 -103 65 -168s-22 -121 -65 -168s-102 -76 -177 -88zM272 137v226c-63 -17 -94 -55 -94 -113s31 -96 94 -113zM418 363v-226
c63 17 94 55 94 113s-31 96 -94 113z" />
    <glyph glyph-name="uni0445" unicode="&#x445;" horiz-adv-x="530" 
d="M351 254l179 -254h-172l-93 132l-93 -132h-172l179 254l-173 246h172l87 -124l87 124h172z" />
    <glyph glyph-name="uni0446" unicode="&#x446;" horiz-adv-x="610" 
d="M505 500v-360h85v-274h-146v134h-389v500h150v-360h150v360h150z" />
    <glyph glyph-name="uni0447" unicode="&#x447;" horiz-adv-x="545" 
d="M340 290v210h150v-500h-150v150c-36 -11 -73 -16 -110 -16c-119 0 -200 64 -200 181v185h150v-165c0 -41 27 -61 80 -61c31 0 57 5 80 16z" />
    <glyph glyph-name="uni0448" unicode="&#x448;" horiz-adv-x="840" 
d="M635 140v360h150v-500h-730v500h150v-360h140v360h150v-360h140z" />
    <glyph glyph-name="uni0449" unicode="&#x449;" horiz-adv-x="850" 
d="M765 500v-360h65v-274h-146v134h-629v500h150v-360h130v360h150v-360h130v360h150z" />
    <glyph glyph-name="uni044A" unicode="&#x44a;" horiz-adv-x="585" 
d="M285 350h84c120 0 196 -70 196 -175s-76 -175 -196 -175h-234v356h-135v144h285v-150zM285 130h85c64 -6 64 96 0 90h-85v-90z" />
    <glyph glyph-name="uni044B" unicode="&#x44b;" horiz-adv-x="740" 
d="M205 350h84c120 0 196 -70 196 -175s-76 -175 -196 -175h-234v500h150v-150zM535 0v500h150v-500h-150zM205 130h85c64 -6 64 96 0 90h-85v-90z" />
    <glyph glyph-name="uni044C" unicode="&#x44c;" horiz-adv-x="505" 
d="M205 350h84c120 0 196 -70 196 -175s-76 -175 -196 -175h-234v500h150v-150zM205 130h85c64 -6 64 96 0 90h-85v-90z" />
    <glyph glyph-name="uni044D" unicode="&#x44d;" horiz-adv-x="536" 
d="M241 514c77 0 140 -24 190 -73s75 -112 75 -191s-25 -142 -75 -191s-113 -73 -190 -73c-101 0 -187 50 -231 129l127 72c18 -39 53 -58 106 -58c42 0 74 18 96 54h-139v134h139c-22 36 -54 54 -96 54c-51 0 -87 -19 -106 -58l-127 73c44 79 130 128 231 128z" />
    <glyph glyph-name="uni044E" unicode="&#x44e;" horiz-adv-x="815" 
d="M520 514c74 0 137 -26 188 -77s77 -113 77 -187s-26 -137 -77 -188s-114 -76 -188 -76c-61 0 -115 18 -161 54s-76 83 -91 140h-63v-180h-150v500h150v-180h63c15 57 45 104 91 140s100 54 161 54zM437 165c22 -22 50 -33 83 -33s61 11 82 33c22 22 33 50 33 85
s-11 63 -33 85c-21 22 -49 33 -82 33s-61 -11 -83 -33c-21 -22 -32 -50 -32 -85s11 -63 32 -85z" />
    <glyph glyph-name="uni044F" unicode="&#x44f;" horiz-adv-x="525" 
d="M226 500h244v-500h-146v144h-31l-103 -144h-170l117 165c-60 31 -97 93 -97 157c0 47 17 89 50 124c33 36 79 54 136 54zM324 368h-85c-32 0 -53 -19 -53 -51c0 -31 21 -49 53 -49h85v100z" />
    <glyph glyph-name="uni0451" unicode="&#x451;" 
d="M248 567c-29 -29 -77 -29 -106 0s-29 77 0 106s77 29 106 0s29 -77 0 -106zM438 567c-29 -29 -77 -29 -106 0s-29 77 0 106s77 29 106 0s29 -77 0 -106zM544 190h-355c17 -47 57 -70 120 -70c41 0 73 13 96 38l120 -69c-49 -69 -122 -103 -218 -103
c-84 0 -151 25 -202 75c-50 50 -75 113 -75 189c0 75 25 138 74 188c50 51 114 76 192 76c73 0 133 -25 181 -76c49 -50 73 -113 73 -188c0 -21 -2 -41 -6 -60zM186 302h215c-15 53 -50 79 -106 79c-58 0 -94 -26 -109 -79z" />
    <glyph glyph-name="uni0452" unicode="&#x452;" horiz-adv-x="588" 
d="M353 514c53 0 98 -18 133 -55c36 -37 54 -87 54 -152v-307c0 -156 -73 -223 -230 -214v144c56 -3 80 18 80 70v285c0 59 -36 91 -87 91c-57 0 -93 -35 -93 -103v-273h-150v546h-60v94h60v60h150v-60h140v-94h-140v-93c30 41 78 61 143 61z" />
    <glyph glyph-name="uni0453" unicode="&#x453;" horiz-adv-x="415" 
d="M206 700h180l-116 -140h-144zM55 500h350v-144h-200v-356h-150v500z" />
    <glyph glyph-name="uni0454" unicode="&#x454;" horiz-adv-x="536" 
d="M293 129c53 0 88 19 106 58l127 -72c-44 -79 -130 -129 -231 -129c-77 0 -140 24 -190 73s-75 112 -75 191s25 142 75 191s113 73 190 73c101 0 187 -49 231 -128l-127 -73c-19 39 -55 58 -106 58c-42 0 -74 -18 -96 -54h139v-134h-139c22 -36 54 -54 96 -54z" />
    <glyph glyph-name="uni0455" unicode="&#x455;" horiz-adv-x="468" 
d="M197 354c0 -20 39 -31 87 -44c69 -15 160 -51 159 -160c0 -54 -20 -95 -60 -123c-40 -27 -89 -41 -148 -41c-105 0 -177 40 -215 119l130 74c13 -39 42 -59 85 -59c36 0 54 10 54 31c0 20 -39 32 -87 44c-69 19 -159 53 -159 155c0 52 19 92 56 121c38 29 85 43 140 43
c83 0 154 -38 195 -107l-128 -69c-16 29 -38 44 -67 44c-28 0 -42 -9 -42 -28z" />
    <glyph glyph-name="uni0456" unicode="&#x456;" horiz-adv-x="260" 
d="M193 570c-35 -35 -91 -35 -127 0c-35 36 -35 92 0 127c36 36 92 36 127 0c36 -35 36 -91 0 -127zM205 0h-150v500h150v-500z" />
    <glyph glyph-name="uni0457" unicode="&#x457;" horiz-adv-x="260" 
d="M88 562c-29 -29 -77 -29 -106 0s-29 77 0 106s77 29 106 0s29 -77 0 -106zM278 562c-29 -29 -77 -29 -106 0s-29 77 0 106s77 29 106 0s29 -77 0 -106zM205 0h-150v500h150v-500z" />
    <glyph glyph-name="uni0458" unicode="&#x458;" horiz-adv-x="275" 
d="M208 570c-35 -35 -91 -35 -127 0c-35 36 -35 92 0 127c36 36 92 36 127 0c36 -35 36 -91 0 -127zM70 0v500h150v-500c0 -156 -73 -223 -230 -214v144c56 -3 80 18 80 70z" />
    <glyph glyph-name="uni0459" unicode="&#x459;" horiz-adv-x="755" 
d="M480 340h79c111 0 176 -65 176 -170s-68 -170 -176 -170h-229v356h-98v-149c0 -151 -75 -224 -222 -215v140c48 -6 72 22 72 85v283h398v-160zM480 130h80c21 0 39 15 39 40s-18 40 -39 40h-80v-80z" />
    <glyph glyph-name="uni045A" unicode="&#x45a;" horiz-adv-x="790" 
d="M505 340h79c112 0 186 -66 186 -170s-77 -170 -186 -170h-229v200h-160v-200h-150v500h150v-160h160v160h150v-160zM505 130h80c21 0 39 15 39 40s-18 40 -39 40h-80v-80z" />
    <glyph glyph-name="uni045B" unicode="&#x45b;" horiz-adv-x="588" 
d="M353 514c53 0 98 -18 133 -55c36 -37 54 -87 54 -152v-307h-150v285c0 59 -36 91 -87 91c-57 0 -93 -35 -93 -103v-273h-150v546h-60v94h60v60h150v-60h140v-94h-140v-93c30 41 78 61 143 61z" />
    <glyph glyph-name="uni045C" unicode="&#x45c;" horiz-adv-x="535" 
d="M266 700h180l-116 -140h-144zM348 250l187 -250h-170l-160 221v-221h-150v500h150v-219l150 219h175z" />
    <glyph glyph-name="uni045E" unicode="&#x45e;" horiz-adv-x="530" 
d="M116 689h300v-130h-300v130zM276 193l94 307h160l-171 -485c-53 -151 -148 -222 -285 -215v140c68 0 99 17 122 69l-196 491h160z" />
    <glyph glyph-name="uni045F" unicode="&#x45f;" 
d="M375 140v360h150v-500h-162v-134h-146v134h-162v500h150v-360h170z" />
    <glyph glyph-name="uni0490" unicode="&#x490;" horiz-adv-x="470" 
d="M300 700v120h160v-274h-240v-546h-160v700h240z" />
    <glyph glyph-name="uni0491" unicode="&#x491;" horiz-adv-x="415" 
d="M259 500v100h146v-244h-200v-356h-150v500h204z" />
    <glyph glyph-name="Wgrave" unicode="&#x1e80;" horiz-adv-x="998" 
d="M628 760h-144l-116 140h180zM203 0h182l114 413l114 -413h182l193 700h-168l-121 -490l-135 490h-130l-135 -490l-121 490h-168z" />
    <glyph glyph-name="wgrave" unicode="&#x1e81;" horiz-adv-x="770" 
d="M395 700l80 -140h-144l-116 140h180zM533 232l72 268h160l-160 -500h-140l-80 267l-80 -267h-140l-160 500h160l72 -268l78 268h140z" />
    <glyph glyph-name="Wacute" unicode="&#x1e82;" horiz-adv-x="998" 
d="M448 760l80 140h180l-116 -140h-144zM203 0h182l114 413l114 -413h182l193 700h-168l-121 -490l-135 490h-130l-135 -490l-121 490h-168z" />
    <glyph glyph-name="wacute" unicode="&#x1e83;" horiz-adv-x="770" 
d="M375 700h180l-116 -140h-144zM533 232l72 268h160l-160 -500h-140l-80 267l-80 -267h-140l-160 500h160l72 -268l78 268h140z" />
    <glyph glyph-name="Wdieresis" unicode="&#x1e84;" horiz-adv-x="998" 
d="M496 762c-29 -29 -77 -29 -106 0s-29 77 0 106s77 29 106 0s29 -77 0 -106zM686 762c-29 -29 -77 -29 -106 0s-29 77 0 106s77 29 106 0s29 -77 0 -106zM385 0h-182l-193 700h168l121 -490l135 490h130l135 -490l121 490h168l-193 -700h-182l-114 413z" />
    <glyph glyph-name="wdieresis" unicode="&#x1e85;" horiz-adv-x="770" 
d="M343 562c-29 -29 -77 -29 -106 0s-29 77 0 106s77 29 106 0s29 -77 0 -106zM533 562c-29 -29 -77 -29 -106 0s-29 77 0 106s77 29 106 0s29 -77 0 -106zM533 232l72 268h160l-160 -500h-140l-80 267l-80 -267h-140l-160 500h160l72 -268l78 268h140z" />
    <glyph glyph-name="Ygrave" unicode="&#x1ef2;" horiz-adv-x="630" 
d="M325 900l80 -140h-144l-116 140h180zM448 700h182l-235 -431v-269h-160v269l-235 431h182l133 -270z" />
    <glyph glyph-name="ygrave" unicode="&#x1ef3;" horiz-adv-x="530" 
d="M276 700l80 -140h-144l-116 140h180zM276 194l94 306h160l-171 -485c-56 -157 -144 -222 -285 -215v140c69 0 102 22 125 83l-199 477h165z" />
    <glyph glyph-name="endash" unicode="&#x2013;" horiz-adv-x="640" 
d="M580 227h-520v144h520v-144z" />
    <glyph glyph-name="emdash" unicode="&#x2014;" horiz-adv-x="740" 
d="M680 227h-620v144h620v-144z" />
    <glyph glyph-name="quoteleft" unicode="&#x2018;" horiz-adv-x="290" 
d="M205 405h-160l80 295h120z" />
    <glyph glyph-name="quoteright" unicode="&#x2019;" horiz-adv-x="290" 
d="M85 700h160l-80 -295h-120z" />
    <glyph glyph-name="quotesinglbase" unicode="&#x201a;" horiz-adv-x="290" 
d="M85 155h160l-80 -295h-120z" />
    <glyph glyph-name="quotedblleft" unicode="&#x201c;" horiz-adv-x="490" 
d="M205 405h-160l80 295h120zM405 405h-160l80 295h120z" />
    <glyph glyph-name="quotedblright" unicode="&#x201d;" horiz-adv-x="490" 
d="M85 700h160l-80 -295h-120zM285 700h160l-80 -295h-120z" />
    <glyph glyph-name="quotedblbase" unicode="&#x201e;" horiz-adv-x="490" 
d="M85 155h160l-80 -295h-120zM285 155h160l-80 -295h-120z" />
    <glyph glyph-name="dagger" unicode="&#x2020;" horiz-adv-x="480" 
d="M315 575h125v-144h-125v-431h-150v431h-125v144h125v125h150v-125z" />
    <glyph glyph-name="daggerdbl" unicode="&#x2021;" horiz-adv-x="480" 
d="M440 575v-144h-125v-162h125v-144h-125v-125h-150v125h-125v144h125v162h-125v144h125v125h150v-125h125z" />
    <glyph glyph-name="bullet" unicode="&#x2022;" horiz-adv-x="380" 
d="M192 200c-42 0 -78 15 -108 44c-29 30 -44 66 -44 108c0 41 15 75 44 104c30 29 66 44 108 44c41 0 76 -14 105 -43s43 -64 43 -105c0 -42 -15 -78 -44 -108c-29 -29 -63 -44 -104 -44z" />
    <glyph glyph-name="ellipsis" unicode="&#x2026;" horiz-adv-x="760" 
d="M207 14c-37 -37 -97 -37 -134 0s-37 97 0 134s97 37 134 0s37 -97 0 -134zM447 14c-37 -37 -97 -37 -134 0s-37 97 0 134s97 37 134 0s37 -97 0 -134zM687 14c-37 -37 -97 -37 -134 0s-37 97 0 134s97 37 134 0s37 -97 0 -134z" />
    <glyph glyph-name="perthousand" unicode="&#x2030;" horiz-adv-x="1164" 
d="M387 544c0 -47 -17 -88 -50 -121s-74 -49 -123 -49s-91 16 -124 49s-50 74 -50 121s17 87 50 120s75 50 124 50s90 -16 123 -49c33 -32 50 -72 50 -121zM189 71l-66 39l452 500l66 -38zM267 544c0 32 -22 55 -54 55c-48 0 -70 -60 -38 -94c30 -36 96 -7 92 39zM694 37
c-33 -33 -74 -49 -123 -49s-91 16 -124 49s-50 74 -50 121s17 87 50 120s75 50 124 50s90 -17 123 -50s50 -73 50 -120s-17 -88 -50 -121zM1074 37c-33 -33 -74 -49 -123 -49s-91 16 -124 49s-50 74 -50 121s17 87 50 120s75 50 124 50s90 -17 123 -50s50 -73 50 -120
s-17 -88 -50 -121zM624 158c0 32 -22 55 -54 55c-48 0 -70 -60 -38 -94c30 -36 96 -7 92 39zM1004 158c0 32 -22 55 -54 55c-48 0 -70 -60 -38 -94c30 -36 96 -7 92 39z" />
    <glyph glyph-name="guilsinglleft" unicode="&#x2039;" horiz-adv-x="362" 
d="M170 499h132l-110 -190l110 -190h-132l-110 190z" />
    <glyph glyph-name="guilsinglright" unicode="&#x203a;" horiz-adv-x="362" 
d="M60 499h132l110 -190l-110 -190h-132l110 190z" />
    <glyph glyph-name="fraction" unicode="&#x2044;" horiz-adv-x="180" 
d="M340 700l-400 -700h-100l400 700h100z" />
    <glyph glyph-name="Euro" unicode="&#x20ac;" horiz-adv-x="616" 
d="M463 220l133 -76c-49 -105 -128 -158 -236 -158c-151 0 -250 103 -277 268h-68v84h60v12v20h-60v84h69c29 161 129 260 276 260c104 0 181 -50 231 -149l-133 -77c-25 49 -54 70 -98 70c-59 0 -97 -35 -114 -104h189v-84h-200v-20v-12h200v-84h-191
c17 -75 55 -112 116 -112c47 0 76 23 103 78z" />
    <glyph glyph-name="uni20BD" unicode="&#x20bd;" horiz-adv-x="605" 
d="M345 230h-105v-41h210v-98h-210v-91h-160v91h-70v98h70v41h-70v140h70v330h265c69 0 127 -23 174 -70s71 -103 71 -170c0 -66 -24 -121 -71 -165c-47 -43 -105 -65 -174 -65zM345 550h-105v-180h105c49 0 85 39 85 90s-36 90 -85 90z" />
    <glyph glyph-name="uni2116" unicode="&#x2116;" horiz-adv-x="1046" 
d="M843 374c-49 0 -91 16 -124 49s-49 74 -49 121s16 87 49 120s75 50 124 50s90 -17 123 -50s50 -73 50 -120s-16 -88 -49 -121s-74 -49 -124 -49zM450 320v380h160v-700h-120l-270 380v-380h-160v700h120zM892 544c0 29 -20 50 -49 50s-49 -21 -49 -50
c-6 -65 104 -66 98 0zM1006 184h-322v140h322v-140z" />
    <glyph glyph-name="trademark" unicode="&#x2122;" horiz-adv-x="476" 
d="M30 700h177v-62h-55v-138h-67v138h-55v62zM336 631l46 69h64v-200h-64v100l-43 -64h-6l-43 64v-100h-64v200h64z" />
    <glyph glyph-name="estimated" unicode="&#x212e;" horiz-adv-x="780" 
d="M760 350c0 -10 -5 -15 -15 -15h-560c-10 0 -15 -5 -15 -15v-192c0 -7 2 -14 7 -19c56 -59 134 -89 233 -89c97 0 174 32 231 97c5 6 11 9 18 9h37c13 0 18 -10 9 -19c-73 -78 -171 -117 -295 -117c-117 0 -212 34 -283 103s-107 155 -107 257c0 101 34 187 103 256
s158 104 267 104s197 -35 266 -104s104 -155 104 -256zM610 380v192c0 7 -2 14 -7 19c-56 59 -127 89 -213 89s-157 -30 -213 -89c-5 -5 -7 -12 -7 -19v-192c0 -10 5 -15 15 -15h410c10 0 15 5 15 15z" />
    <glyph glyph-name="oneeighth" unicode="&#x215b;" horiz-adv-x="808" 
d="M229 700v-400h-122v279l-79 -22l-28 99l122 44h107zM114 0l400 700h100l-400 -700h-100zM732 210c37 -23 56 -57 56 -100c0 -76 -57 -124 -157 -124s-157 48 -157 124c0 43 19 77 56 100c-28 21 -42 48 -42 82c0 75 59 122 143 122s143 -47 143 -122
c0 -34 -14 -61 -42 -82zM631 313c-27 0 -41 -11 -41 -33c0 -21 14 -32 41 -32c23 0 41 12 41 32c0 21 -18 33 -41 33zM674 127c7 50 -93 50 -86 0c-7 -51 93 -51 86 0z" />
    <glyph glyph-name="threeeighths" unicode="&#x215c;" horiz-adv-x="880" 
d="M324 422c0 -88 -58 -136 -158 -136c-80 0 -134 30 -161 90l103 60c10 -30 29 -45 58 -45c23 0 35 10 35 31c0 20 -13 30 -40 30h-24l-42 62l62 76h-133v110h281v-85l-67 -79c57 -19 86 -57 86 -114zM186 0l400 700h100l-400 -700h-100zM804 210c37 -23 56 -57 56 -100
c0 -76 -57 -124 -157 -124s-157 48 -157 124c0 43 19 77 56 100c-28 21 -42 48 -42 82c0 75 59 122 143 122s143 -47 143 -122c0 -34 -14 -61 -42 -82zM703 313c-27 0 -41 -11 -41 -33c0 -21 14 -32 41 -32c23 0 41 12 41 32c0 21 -17 33 -41 33zM746 127c7 50 -93 50 -86 0
c-7 -51 93 -51 86 0z" />
    <glyph glyph-name="fiveeighths" unicode="&#x215d;" horiz-adv-x="866" 
d="M319 417c0 -85 -61 -131 -148 -131c-80 0 -134 30 -161 90l100 57c10 -30 29 -45 57 -45c27 0 41 11 41 32s-14 32 -41 32h-130l17 248h244v-110h-142l-3 -41h23c88 0 143 -41 143 -132zM172 0l400 700h100l-400 -700h-100zM790 210c37 -23 56 -57 56 -100
c0 -76 -57 -124 -157 -124s-157 48 -157 124c0 43 19 77 56 100c-28 21 -42 48 -42 82c0 75 59 122 143 122s143 -47 143 -122c0 -34 -14 -61 -42 -82zM689 313c-27 0 -41 -11 -41 -33c0 -21 14 -32 41 -32c23 0 41 12 41 32c0 21 -18 33 -41 33zM732 127c7 50 -93 50 -86 0
c-7 -51 93 -51 86 0z" />
    <glyph glyph-name="seveneighths" unicode="&#x215e;" horiz-adv-x="829" 
d="M280 607l-119 -307h-126l113 290h-148v110h280v-93zM135 0l400 700h100l-400 -700h-100zM753 210c37 -23 56 -57 56 -100c0 -76 -57 -124 -157 -124s-157 48 -157 124c0 43 19 77 56 100c-28 21 -42 48 -42 82c0 75 59 122 143 122s143 -47 143 -122
c0 -34 -14 -61 -42 -82zM652 313c-27 0 -41 -11 -41 -33c0 -21 14 -32 41 -32c23 0 41 12 41 32c0 21 -17 33 -41 33zM695 127c7 50 -93 50 -86 0c-7 -51 93 -51 86 0z" />
    <glyph glyph-name="arrowleft" unicode="&#x2190;" horiz-adv-x="790" 
d="M310 422h440v-144h-440l228 -228h-198l-300 300l300 300h198z" />
    <glyph glyph-name="arrowup" unicode="&#x2191;" horiz-adv-x="680" 
d="M340 700l300 -300v-198l-225 225v-427h-150v427l-225 -225v198z" />
    <glyph glyph-name="arrowright" unicode="&#x2192;" horiz-adv-x="790" 
d="M252 650h198l300 -300l-300 -300h-198l228 228h-440v144h440z" />
    <glyph glyph-name="arrowdown" unicode="&#x2193;" horiz-adv-x="680" 
d="M415 700v-427l225 225v-198l-300 -300l-300 300v198l225 -225v427h150z" />
    <glyph glyph-name="arrowboth" unicode="&#x2194;" horiz-adv-x="1100" 
d="M586 630h194l280 -280l-280 -280h-194l205 208h-485l208 -208h-194l-280 280l280 280h194l-208 -208h488z" />
    <glyph glyph-name="arrowupdn" unicode="&#x2195;" horiz-adv-x="640" 
d="M600 580v-194l-205 205v-482l205 205v-194l-280 -280l-280 280v194l205 -205v482l-205 -205v194l280 280z" />
    <glyph glyph-name="uni2196" unicode="&#x2196;" horiz-adv-x="645" 
d="M282 482l323 -324l-101 -101l-324 323v-322l-140 140v424h424l140 -140h-322z" />
    <glyph glyph-name="uni2197" unicode="&#x2197;" horiz-adv-x="645" 
d="M41 482l140 140h424v-424l-140 -140v322l-324 -323l-101 101l323 324h-322z" />
    <glyph glyph-name="uni2198" unicode="&#x2198;" horiz-adv-x="645" 
d="M465 309v322l140 -140v-424h-424l-140 140h322l-323 324l101 101z" />
    <glyph glyph-name="uni2199" unicode="&#x2199;" horiz-adv-x="645" 
d="M504 632l101 -101l-323 -324h322l-140 -140h-424v424l140 140v-322z" />
    <glyph glyph-name="partialdiff" unicode="&#x2202;" horiz-adv-x="586" 
d="M242 714c82 0 153 -34 213 -102c61 -68 91 -155 91 -262c0 -117 -27 -207 -81 -270c-53 -63 -121 -94 -204 -94c-69 0 -123 20 -162 61s-59 92 -59 153c0 69 20 125 61 169s96 66 165 66c47 0 89 -12 126 -35c-15 111 -72 173 -171 174c-35 1 -72 -10 -110 -31v135
c37 24 81 36 131 36zM267 126c69 0 110 50 125 149c-29 20 -64 30 -103 30c-56 0 -99 -39 -99 -100c0 -49 33 -79 77 -79z" />
    <glyph glyph-name="emptyset" unicode="&#x2205;" horiz-adv-x="804" 
d="M754 720l-93 -117c69 -71 103 -155 103 -253c0 -100 -35 -185 -106 -256s-156 -106 -256 -106c-66 0 -128 17 -185 51l-47 -59h-120l93 117c-69 71 -103 155 -103 253c0 100 35 185 106 256s156 106 256 106c66 0 128 -17 185 -51l47 59h120zM140 350
c0 -67 21 -125 64 -174l322 407c-38 21 -79 31 -124 31c-73 0 -135 -26 -186 -77s-76 -114 -76 -187zM402 86c73 0 134 26 185 77s77 114 77 187c0 67 -21 125 -64 174l-322 -407c38 -21 79 -31 124 -31z" />
    <glyph glyph-name="product" unicode="&#x220f;" horiz-adv-x="640" 
d="M210 -200h-150v900h520v-900h-150v756h-220v-756z" />
    <glyph glyph-name="summation" unicode="&#x2211;" horiz-adv-x="570" 
d="M530 -200h-500v125l204 335l-189 314v126h470v-144h-292l178 -296l-192 -316h321v-144z" />
    <glyph glyph-name="minus" unicode="&#x2212;" horiz-adv-x="560" 
d="M510 280h-460v140h460v-140z" />
    <glyph glyph-name="radical" unicode="&#x221a;" horiz-adv-x="686" 
d="M407 0h-144l-117 186h-106v144h192l91 -157l211 627h152z" />
    <glyph glyph-name="infinity" unicode="&#x221e;" horiz-adv-x="810" 
d="M405 251c-57 -54 -112 -81 -167 -81s-100 16 -135 49s-53 77 -53 131s18 97 53 130s80 50 135 50s110 -27 167 -81c57 54 112 81 167 81s100 -17 135 -50s53 -76 53 -130s-18 -98 -53 -131s-80 -49 -135 -49s-110 27 -167 81zM246 305c23 0 46 15 70 45
c-24 30 -47 45 -70 45c-60 4 -60 -94 0 -90zM564 305c60 -4 60 94 0 90c-23 0 -46 -15 -70 -45c24 -30 47 -45 70 -45z" />
    <glyph glyph-name="integral" unicode="&#x222b;" horiz-adv-x="442" 
d="M0 -204v150c35 -19 89 -10 100 52l91 535c25 149 123 201 251 169v-150c-35 19 -89 10 -100 -52l-91 -535c-25 -149 -123 -201 -251 -169z" />
    <glyph glyph-name="approxequal" unicode="&#x2248;" horiz-adv-x="560" 
d="M291 371c-32 13 -59 22 -80 25s-36 4 -45 1s-21 -8 -36 -16l-90 28c35 133 111 176 229 130c37 -15 53 -20 76 -24c31 -5 45 8 55 44l120 -58c-13 -65 -41 -109 -84 -132s-91 -22 -145 2zM160 141l-120 58c13 65 41 109 84 132s91 22 145 -2c32 -13 58 -22 79 -25
c43 -7 51 -1 82 15l90 -28c-35 -133 -111 -176 -229 -130c-37 15 -53 20 -76 24c-31 5 -45 -8 -55 -44z" />
    <glyph glyph-name="notequal" unicode="&#x2260;" horiz-adv-x="520" 
d="M480 525v-140h-159l-32 -70h191v-140h-254l-56 -125h-90l56 125h-96v140h159l32 70h-191v140h254l56 125h90l-56 -125h96z" />
    <glyph glyph-name="lessequal" unicode="&#x2264;" horiz-adv-x="530" 
d="M40 500l450 170v-154l-280 -81l280 -81v-154l-450 170v130zM490 40h-450v140h450v-140z" />
    <glyph glyph-name="greaterequal" unicode="&#x2265;" horiz-adv-x="530" 
d="M40 516v154l450 -170v-130l-450 -170v154l280 81zM490 40h-450v140h450v-140z" />
    <glyph glyph-name="lozenge" unicode="&#x25ca;" horiz-adv-x="560" 
d="M334 0h-108l-186 350l186 350h108l186 -350zM202 350l78 -147l78 147l-78 147z" />
    <glyph glyph-name="i.loclTRK" horiz-adv-x="260" 
d="M189 570c-33 -33 -84 -33 -119 0c-33 35 -33 86 0 119c35 35 86 35 119 0c35 -33 35 -84 0 -119zM205 0h-150v500h150v-500z" />
    <glyph glyph-name="f_f_j" horiz-adv-x="850" 
d="M517 500h278v-500c0 -156 -73 -223 -230 -214v144c56 -3 80 18 80 70v356h-128v-356h-150v356h-130v-356h-150v356h-67v144h67c0 144 82 223 243 214v-144c-62 5 -93 -18 -93 -70h130v10c0 143 81 214 243 214c39 0 80 -5 125 -14v-138c-48 5 -90 8 -125 8
c-61 0 -93 -15 -93 -70v-10z" />
    <glyph glyph-name="f_j" horiz-adv-x="570" 
d="M237 500h278v-500c0 -156 -73 -223 -230 -214v144c56 -3 80 18 80 70v356h-128v-356h-150v356h-67v144h67c0 143 81 214 243 214c39 0 80 -5 125 -14v-138c-48 5 -90 8 -125 8c-61 0 -93 -15 -93 -70z" />
    <glyph glyph-name="uni0414.loclBGR" horiz-adv-x="740" 
d="M472 700l170 -546h83v-288h-160v134h-390v-134h-160v288h83l170 546h204zM370 521l-105 -367h210z" />
    <glyph glyph-name="uni041B.loclBGR" horiz-adv-x="660" 
d="M0 0l228 700h204l228 -700h-175l-155 515l-155 -515h-175z" />
    <glyph glyph-name="uni0424.loclBGR" horiz-adv-x="864" 
d="M507 -7v-93h-150v93c-101 13 -180 52 -239 115s-88 144 -88 242s29 179 88 242s138 102 239 115v93h150v-93c101 -13 180 -52 239 -115s88 -144 88 -242s-29 -179 -88 -242s-138 -102 -239 -115zM357 140v420c-111 -20 -167 -90 -167 -210s56 -190 167 -210zM507 560
v-420c111 20 167 90 167 210s-56 190 -167 210z" />
    <glyph glyph-name="uni0414.ss01" horiz-adv-x="710" 
d="M610 700v-546h75v-154h-670v154h71c37 53 55 130 55 232v314h469zM256 154h194v396h-149v-166c0 -99 -15 -176 -45 -230z" />
    <glyph glyph-name="uni0426.ss01" horiz-adv-x="690" 
d="M590 700v-546h75v-154h-605v700h160v-546h210v546h160z" />
    <glyph glyph-name="uni0429.ss01" horiz-adv-x="980" 
d="M880 700v-546h75v-154h-895v700h160v-546h170v546h160v-546h170v546h160z" />
    <glyph glyph-name="uni0414.loclBGR.ss01" horiz-adv-x="740" 
d="M472 700l170 -546h83v-154h-710v154h83l170 546h204zM370 521l-105 -367h210z" />
    <glyph glyph-name="uni0432.loclBGR" horiz-adv-x="565" 
d="M425 412c73 -33 110 -98 110 -194c0 -145 -89 -232 -240 -232c-72 0 -130 22 -174 66c-44 45 -66 103 -66 176v239c0 74 21 134 63 179c43 45 98 68 167 68c59 0 107 -16 144 -47s56 -74 56 -129c0 -42 -20 -84 -60 -126zM285 574c-48 0 -80 -43 -80 -107v-50l29 6
c11 3 29 5 53 8c35 28 52 57 52 87c0 35 -21 56 -54 56zM295 130c57 0 90 33 90 88c0 67 -58 91 -151 71l-29 -6v-55c0 -59 35 -98 90 -98z" />
    <glyph glyph-name="uni0433.loclBGR" horiz-adv-x="468" 
d="M323 179l130 -74c-38 -79 -110 -119 -215 -119c-59 0 -108 14 -148 41c-40 28 -60 69 -60 123c0 185 241 148 241 204c0 19 -14 28 -42 28c-29 0 -51 -15 -67 -44l-128 69c41 69 112 107 195 107c55 0 102 -14 139 -43c38 -29 57 -69 57 -121c0 -67 -38 -110 -85 -129
c-68 -27 -156 -34 -156 -67c0 -23 18 -34 54 -34c43 0 72 20 85 59z" />
    <glyph glyph-name="uni0434.loclBGR" horiz-adv-x="623" 
d="M422 449v51h146v-475c0 -79 -26 -138 -77 -178c-51 -41 -114 -61 -187 -61c-113 0 -192 40 -237 121l128 74c23 -42 61 -63 114 -63c71 0 113 38 113 107v46c-35 -43 -83 -65 -146 -65c-70 0 -129 25 -176 74c-47 50 -70 110 -70 180s23 130 70 179c47 50 106 75 176 75
c63 0 111 -22 146 -65zM214 176c23 -21 52 -32 87 -32s64 11 87 32s34 49 34 84s-11 63 -34 84s-52 32 -87 32s-64 -11 -87 -32s-34 -49 -34 -84s11 -63 34 -84z" />
    <glyph glyph-name="uni0436.loclBGR" horiz-adv-x="770" 
d="M594 250l166 -250h-166l-136 217v-217h-146v217l-136 -217h-166l166 250l-156 250h166l126 -214v414h146v-414l126 214h166z" />
    <glyph glyph-name="uni0438.loclBGR" horiz-adv-x="583" 
d="M378 227v273h150v-500h-150v47c-30 -41 -78 -61 -143 -61c-53 0 -98 18 -134 55c-35 37 -53 87 -53 152v307h150v-285c0 -59 36 -91 87 -91c57 0 93 35 93 103z" />
    <glyph glyph-name="uni0439.loclBGR" horiz-adv-x="583" 
d="M138 689h300v-130h-300v130zM378 227v273h150v-500h-150v47c-30 -41 -78 -61 -143 -61c-53 0 -98 18 -134 55c-35 37 -53 87 -53 152v307h150v-285c0 -59 36 -91 87 -91c57 0 93 35 93 103z" />
    <glyph glyph-name="uni043A.loclBGR" horiz-adv-x="535" 
d="M348 250l187 -250h-170l-160 221v-221h-150v700h150v-419l150 219h175z" />
    <glyph glyph-name="uni043B.loclBGR" horiz-adv-x="540" 
d="M355 500l185 -500h-166l-104 317l-104 -317h-166l185 500h170z" />
    <glyph glyph-name="uni043F.loclBGR" horiz-adv-x="583" 
d="M348 514c53 0 98 -18 133 -55c36 -37 54 -87 54 -152v-307h-150v285c0 59 -36 91 -87 91c-57 0 -93 -35 -93 -103v-273h-150v500h150v-47c30 41 78 61 143 61z" />
    <glyph glyph-name="uni0442.loclBGR" horiz-adv-x="853" 
d="M615 514c57 0 103 -19 138 -57c35 -37 52 -87 52 -150v-307h-150v294c0 51 -25 82 -72 82c-49 0 -78 -35 -78 -94v-282h-150v294c0 51 -25 82 -72 82c-49 0 -78 -35 -78 -94v-282h-150v500h150v-46c27 40 72 60 134 60c58 0 102 -22 131 -66c31 44 79 66 145 66z" />
    <glyph glyph-name="uni0446.loclBGR" horiz-adv-x="623" 
d="M558 140h45v-274h-146v147c-23 10 -42 25 -55 46c-33 -49 -89 -73 -167 -73c-53 0 -98 18 -134 55c-35 37 -53 87 -53 152v307h150v-285c0 -59 36 -91 87 -91c57 0 93 35 93 103v273h150v-330c0 -20 10 -30 30 -30z" />
    <glyph glyph-name="uni0448.loclBGR" horiz-adv-x="853" 
d="M648 218v282h150v-500h-150v46c-27 -40 -72 -60 -134 -60c-58 0 -102 22 -131 66c-31 -44 -79 -66 -145 -66c-57 0 -103 19 -138 56c-35 38 -52 88 -52 151v307h150v-294c0 -51 25 -82 72 -82c49 0 78 35 78 94v282h150v-294c0 -51 25 -82 72 -82c49 0 78 35 78 94z" />
    <glyph glyph-name="uni0449.loclBGR" horiz-adv-x="893" 
d="M828 140h45v-274h-146v147c-21 10 -39 24 -52 42c-34 -46 -84 -69 -151 -69c-63 0 -110 22 -140 67c-31 -45 -80 -67 -146 -67c-57 0 -103 19 -138 56c-35 38 -52 88 -52 151v307h150v-294c0 -51 25 -82 72 -82c49 0 78 35 78 94v282h150v-294c0 -51 25 -82 72 -82
c49 0 78 35 78 94v282h150v-330c0 -20 10 -30 30 -30z" />
    <glyph glyph-name="uni044C.loclBGR" horiz-adv-x="498" 
d="M194 368h79c133 0 205 -69 205 -186c0 -57 -20 -104 -60 -141c-39 -37 -91 -55 -155 -55c-135 0 -215 78 -215 206v308h146v-132zM263 126c39 0 69 29 69 58c0 32 -20 54 -59 54h-79v-46c0 -40 26 -66 69 -66z" />
    <glyph glyph-name="uni044A.loclBGR" horiz-adv-x="585" 
d="M281 368h79c133 0 205 -69 205 -186c0 -57 -20 -104 -60 -141c-39 -37 -91 -55 -155 -55c-135 0 -215 78 -215 206v168h-135v140h281v-132zM350 126c39 0 69 29 69 58c0 32 -20 54 -59 54h-79v-46c0 -40 26 -66 69 -66z" />
    <glyph glyph-name="uni044E.loclBGR" horiz-adv-x="815" 
d="M520 514c74 0 137 -26 188 -77s77 -113 77 -187s-26 -137 -77 -188s-114 -76 -188 -76c-61 0 -115 18 -161 54s-76 83 -91 140h-63v-180h-150v700h150v-380h63c15 57 45 104 91 140s100 54 161 54zM437 165c22 -22 50 -33 83 -33s61 11 82 33c22 22 33 50 33 85
s-11 63 -33 85c-21 22 -49 33 -82 33s-61 -11 -83 -33c-21 -22 -32 -50 -32 -85s11 -63 32 -85z" />
    <glyph glyph-name="zero.sinf" horiz-adv-x="408" 
d="M338 -116c-33 -39 -78 -58 -134 -58s-101 19 -134 58c-33 38 -50 90 -50 156s17 118 50 156c33 39 78 58 134 58s101 -19 134 -58c33 -38 50 -90 50 -156s-17 -118 -50 -156zM146 40c0 -61 19 -92 58 -92s58 31 58 92s-19 92 -58 92s-58 -31 -58 -92z" />
    <glyph glyph-name="one.sinf" horiz-adv-x="274" 
d="M0 196l122 44h107v-400h-122v279l-79 -22z" />
    <glyph glyph-name="two.sinf" horiz-adv-x="352" 
d="M327 -160h-306v77l145 147c21 21 32 39 32 53c0 18 -10 27 -31 27c-23 0 -40 -16 -53 -47l-99 56c29 67 80 101 154 101c43 0 79 -12 108 -36c29 -23 44 -54 44 -91c0 -40 -23 -83 -70 -130l-47 -47h123v-110z" />
    <glyph glyph-name="three.sinf" horiz-adv-x="344" 
d="M305 155l-67 -79c57 -19 86 -57 86 -114c0 -88 -58 -136 -158 -136c-80 0 -134 30 -161 90l103 60c10 -30 29 -45 58 -45c23 0 35 10 35 31c0 20 -13 30 -40 30h-24l-42 62l62 76h-133v110h281v-85z" />
    <glyph glyph-name="four.sinf" horiz-adv-x="358" 
d="M306 11h37v-110h-37v-61h-116v61h-180v110l122 229h130l-117 -229h45v61h116v-61z" />
    <glyph glyph-name="five.sinf" horiz-adv-x="339" 
d="M153 89h23c88 0 143 -41 143 -132c0 -85 -61 -131 -148 -131c-80 0 -134 30 -161 90l100 57c10 -30 29 -45 57 -45c27 0 41 11 41 32s-14 32 -41 32h-130l17 248h244v-110h-142z" />
    <glyph glyph-name="six.sinf" horiz-adv-x="342" 
d="M279 240l-83 -129c80 -11 131 -65 131 -142c0 -85 -61 -143 -156 -143s-156 58 -156 143c0 27 6 52 19 74l123 197h122zM215 -31c0 28 -15 42 -44 42s-44 -14 -44 -42c0 -29 15 -43 44 -43s44 14 44 43z" />
    <glyph glyph-name="seven.sinf" horiz-adv-x="295" 
d="M0 130v110h280v-93l-119 -307h-126l113 290h-148z" />
    <glyph glyph-name="eight.sinf" horiz-adv-x="354" 
d="M278 50c37 -23 56 -57 56 -100c0 -76 -57 -124 -157 -124s-157 48 -157 124c0 43 19 77 56 100c-28 21 -42 48 -42 82c0 75 59 122 143 122s143 -47 143 -122c0 -34 -14 -61 -42 -82zM177 153c-27 0 -41 -11 -41 -33c0 -21 14 -32 41 -32c23 0 41 12 41 32
c0 21 -18 33 -41 33zM220 -33c7 50 -93 50 -86 0c-7 -51 93 -51 86 0z" />
    <glyph glyph-name="nine.sinf" horiz-adv-x="342" 
d="M327 111c0 -27 -6 -52 -19 -74l-123 -197h-122l83 129c-80 11 -131 65 -131 142c0 85 61 143 156 143s156 -58 156 -143zM127 111c0 -28 15 -42 44 -42s44 14 44 42c0 29 -15 43 -44 43s-44 -14 -44 -43z" />
    <glyph glyph-name="zero.tf" 
d="M499 85c-50 -66 -120 -99 -209 -99s-159 33 -210 99c-50 67 -75 155 -75 265s25 198 75 264c51 67 121 100 210 100s159 -33 209 -100c51 -66 76 -154 76 -264s-25 -198 -76 -265zM165 350c0 -139 42 -208 125 -208s125 69 125 208s-42 208 -125 208s-125 -69 -125 -208z
" />
    <glyph glyph-name="one.tf" 
d="M380 700v-546h185v-154h-540v154h195v377l-124 -34l-39 137l183 66h140z" />
    <glyph glyph-name="two.tf" 
d="M540 0h-510v116l256 235c55 51 84 87 84 128s-29 79 -89 79c-51 0 -84 -26 -116 -81l-135 79c51 104 144 158 253 158c73 0 133 -21 178 -64c46 -43 69 -96 69 -161c0 -85 -43 -151 -135 -235l-109 -100h254v-154z" />
    <glyph glyph-name="three.tf" 
d="M522 570l-123 -143c95 -32 156 -102 156 -202c0 -75 -25 -133 -74 -176c-49 -42 -111 -63 -186 -63c-137 0 -228 55 -275 165l138 80c22 -59 64 -89 127 -89c73 0 110 32 110 83s-37 83 -110 83h-31l-63 93l129 149h-278v150h480v-130z" />
    <glyph glyph-name="four.tf" 
d="M495 260h70v-148h-70v-112h-162v112h-328v148l223 440h172l-223 -440h156v150h162v-150z" />
    <glyph glyph-name="five.tf" 
d="M228 454h72c75 0 137 -20 184 -61s71 -98 71 -173c0 -74 -25 -132 -75 -173c-49 -41 -111 -61 -185 -61c-137 0 -228 55 -275 165l138 80c22 -59 66 -89 132 -89c72 0 105 31 105 78s-33 78 -105 78h-230l29 402h431v-150h-285z" />
    <glyph glyph-name="six.tf" 
d="M469 700l-153 -211c77 -5 137 -30 182 -76c45 -45 67 -104 67 -175c0 -75 -25 -136 -75 -183c-49 -46 -116 -69 -200 -69s-151 23 -201 69c-49 46 -74 107 -74 183c0 60 16 111 47 152l223 310h184zM290 136c69 0 115 38 115 102s-46 102 -115 102
c-71 0 -115 -37 -115 -102s44 -102 115 -102z" />
    <glyph glyph-name="seven.tf" 
d="M20 546v154h530v-134l-258 -566h-170l247 546h-349z" />
    <glyph glyph-name="eight.tf" 
d="M468 365c66 -40 99 -96 99 -168c0 -129 -104 -211 -277 -211s-277 82 -277 211c0 72 33 128 99 168c-50 34 -75 81 -75 141c0 65 24 116 72 153s108 55 181 55s133 -18 181 -55s72 -88 72 -153c0 -60 -25 -107 -75 -141zM358 545c-16 13 -39 19 -68 19s-52 -6 -69 -19
c-32 -25 -32 -73 0 -98c17 -13 40 -19 69 -19s52 6 68 19c33 25 33 73 0 98zM203 158c20 -15 49 -22 87 -22s67 7 87 22s30 35 30 62s-10 47 -30 62s-49 22 -87 22s-67 -7 -87 -22s-30 -35 -30 -62s10 -47 30 -62z" />
    <glyph glyph-name="nine.tf" 
d="M565 462c0 -60 -16 -111 -47 -152l-223 -310h-184l153 211c-77 5 -137 30 -182 75c-45 46 -67 105 -67 176c0 75 25 136 74 182c50 47 117 70 201 70s151 -23 200 -69c50 -46 75 -107 75 -183zM290 360c71 0 115 37 115 102s-44 102 -115 102c-69 0 -115 -38 -115 -102
s46 -102 115 -102z" />
    <glyph glyph-name="zero.dnom" horiz-adv-x="408" 
d="M338 43c-33 -38 -78 -57 -134 -57s-101 19 -134 57c-33 39 -50 91 -50 157s17 118 50 156c33 39 78 58 134 58s101 -19 134 -58c33 -38 50 -90 50 -156s-17 -118 -50 -157zM146 200c0 -61 19 -92 58 -92s58 31 58 92s-19 92 -58 92s-58 -31 -58 -92z" />
    <glyph glyph-name="one.dnom" horiz-adv-x="274" 
d="M0 356l122 44h107v-400h-122v279l-79 -22z" />
    <glyph glyph-name="two.dnom" horiz-adv-x="361" 
d="M327 0h-306v77l145 147c21 21 32 39 32 53c0 18 -10 27 -31 27c-23 0 -40 -16 -53 -47l-99 56c29 67 80 101 154 101c43 0 79 -12 108 -36c29 -23 44 -54 44 -91c0 -40 -23 -83 -70 -130l-47 -47h123v-110z" />
    <glyph glyph-name="three.dnom" horiz-adv-x="346" 
d="M305 315l-67 -79c57 -19 86 -57 86 -114c0 -88 -58 -136 -158 -136c-80 0 -134 30 -161 90l103 60c10 -30 29 -45 58 -45c23 0 35 10 35 31c0 20 -13 30 -40 30h-24l-42 62l62 76h-133v110h281v-85z" />
    <glyph glyph-name="four.dnom" horiz-adv-x="358" 
d="M306 171h37v-110h-37v-61h-116v61h-180v110l122 229h130l-117 -229h45v61h116v-61z" />
    <glyph glyph-name="five.dnom" horiz-adv-x="332" 
d="M153 249h23c88 0 143 -41 143 -132c0 -85 -61 -131 -148 -131c-80 0 -134 30 -161 90l100 57c10 -30 29 -45 57 -45c27 0 41 11 41 32s-14 32 -41 32h-130l17 248h244v-110h-142z" />
    <glyph glyph-name="six.dnom" horiz-adv-x="342" 
d="M279 400l-83 -129c80 -11 131 -65 131 -142c0 -85 -61 -143 -156 -143s-156 58 -156 143c0 27 6 52 19 74l123 197h122zM215 129c0 28 -15 42 -44 42s-44 -14 -44 -42c0 -29 15 -43 44 -43s44 14 44 43z" />
    <glyph glyph-name="seven.dnom" horiz-adv-x="295" 
d="M0 290v110h280v-93l-119 -307h-126l113 290h-148z" />
    <glyph glyph-name="eight.dnom" horiz-adv-x="354" 
d="M278 210c37 -23 56 -57 56 -100c0 -76 -57 -124 -157 -124s-157 48 -157 124c0 43 19 77 56 100c-28 21 -42 48 -42 82c0 75 59 122 143 122s143 -47 143 -122c0 -34 -14 -61 -42 -82zM177 313c-27 0 -41 -11 -41 -33c0 -21 14 -32 41 -32c23 0 41 12 41 32
c0 21 -18 33 -41 33zM220 127c7 50 -93 50 -86 0c-7 -51 93 -51 86 0z" />
    <glyph glyph-name="nine.dnom" horiz-adv-x="342" 
d="M327 271c0 -27 -6 -52 -19 -74l-123 -197h-122l83 129c-80 11 -131 65 -131 142c0 85 61 143 156 143s156 -58 156 -143zM127 271c0 -28 15 -42 44 -42s44 14 44 42c0 29 -15 43 -44 43s-44 -14 -44 -43z" />
    <glyph glyph-name="zero.numr" horiz-adv-x="408" 
d="M338 343c-33 -38 -78 -57 -134 -57s-101 19 -134 57c-33 39 -50 91 -50 157s17 118 50 156c33 39 78 58 134 58s101 -19 134 -58c33 -38 50 -90 50 -156s-17 -118 -50 -157zM146 500c0 -61 19 -92 58 -92s58 31 58 92s-19 92 -58 92s-58 -31 -58 -92z" />
    <glyph glyph-name="one.numr" horiz-adv-x="274" 
d="M0 656l122 44h107v-400h-122v279l-79 -22z" />
    <glyph glyph-name="two.numr" horiz-adv-x="361" 
d="M327 300h-306v77l145 147c21 21 32 39 32 53c0 18 -10 27 -31 27c-23 0 -40 -16 -53 -47l-99 56c29 67 80 101 154 101c43 0 79 -12 108 -36c29 -23 44 -54 44 -91c0 -40 -23 -83 -70 -130l-47 -47h123v-110z" />
    <glyph glyph-name="three.numr" horiz-adv-x="346" 
d="M305 615l-67 -79c57 -19 86 -57 86 -114c0 -88 -58 -136 -158 -136c-80 0 -134 30 -161 90l103 60c10 -30 29 -45 58 -45c23 0 35 10 35 31c0 20 -13 30 -40 30h-24l-42 62l62 76h-133v110h281v-85z" />
    <glyph glyph-name="four.numr" horiz-adv-x="358" 
d="M306 471h37v-110h-37v-61h-116v61h-180v110l122 229h130l-117 -229h45v61h116v-61z" />
    <glyph glyph-name="five.numr" horiz-adv-x="332" 
d="M153 549h23c88 0 143 -41 143 -132c0 -85 -61 -131 -148 -131c-80 0 -134 30 -161 90l100 57c10 -30 29 -45 57 -45c27 0 41 11 41 32s-14 32 -41 32h-130l17 248h244v-110h-142z" />
    <glyph glyph-name="six.numr" horiz-adv-x="342" 
d="M279 700l-83 -129c80 -11 131 -65 131 -142c0 -85 -61 -143 -156 -143s-156 58 -156 143c0 27 6 52 19 74l123 197h122zM215 429c0 28 -15 42 -44 42s-44 -14 -44 -42c0 -29 15 -43 44 -43s44 14 44 43z" />
    <glyph glyph-name="seven.numr" horiz-adv-x="295" 
d="M0 590v110h280v-93l-119 -307h-126l113 290h-148z" />
    <glyph glyph-name="eight.numr" horiz-adv-x="354" 
d="M278 510c37 -23 56 -57 56 -100c0 -76 -57 -124 -157 -124s-157 48 -157 124c0 43 19 77 56 100c-28 21 -42 48 -42 82c0 75 59 122 143 122s143 -47 143 -122c0 -34 -14 -61 -42 -82zM177 613c-27 0 -41 -11 -41 -33c0 -21 14 -32 41 -32c23 0 41 12 41 32
c0 21 -18 33 -41 33zM220 427c7 50 -93 50 -86 0c-7 -51 93 -51 86 0z" />
    <glyph glyph-name="nine.numr" horiz-adv-x="342" 
d="M327 571c0 -27 -6 -52 -19 -74l-123 -197h-122l83 129c-80 11 -131 65 -131 142c0 85 61 143 156 143s156 -58 156 -143zM127 571c0 -28 15 -42 44 -42s44 14 44 42c0 29 -15 43 -44 43s-44 -14 -44 -43z" />
    <glyph glyph-name="zero.sups" horiz-adv-x="408" 
d="M338 503c-33 -38 -78 -57 -134 -57s-101 19 -134 57c-33 39 -50 91 -50 157s17 118 50 156c33 39 78 58 134 58s101 -19 134 -58c33 -38 50 -90 50 -156s-17 -118 -50 -157zM146 660c0 -61 19 -92 58 -92s58 31 58 92s-19 92 -58 92s-58 -31 -58 -92z" />
    <glyph glyph-name="one.sups" horiz-adv-x="274" 
d="M0 816l122 44h107v-400h-122v279l-79 -22z" />
    <glyph glyph-name="two.sups" horiz-adv-x="361" 
d="M327 460h-306v77l145 147c21 21 32 39 32 53c0 18 -10 27 -31 27c-23 0 -40 -16 -53 -47l-99 56c29 67 80 101 154 101c43 0 79 -12 108 -36c29 -23 44 -54 44 -91c0 -40 -23 -83 -70 -130l-47 -47h123v-110z" />
    <glyph glyph-name="three.sups" horiz-adv-x="346" 
d="M305 775l-67 -79c57 -19 86 -57 86 -114c0 -88 -58 -136 -158 -136c-80 0 -134 30 -161 90l103 60c10 -30 29 -45 58 -45c23 0 35 10 35 31c0 20 -13 30 -40 30h-24l-42 62l62 76h-133v110h281v-85z" />
    <glyph glyph-name="four.sups" horiz-adv-x="358" 
d="M306 631h37v-110h-37v-61h-116v61h-180v110l122 229h130l-117 -229h45v61h116v-61z" />
    <glyph glyph-name="five.sups" horiz-adv-x="332" 
d="M153 709h23c88 0 143 -41 143 -132c0 -85 -61 -131 -148 -131c-80 0 -134 30 -161 90l100 57c10 -30 29 -45 57 -45c27 0 41 11 41 32s-14 32 -41 32h-130l17 248h244v-110h-142z" />
    <glyph glyph-name="six.sups" horiz-adv-x="342" 
d="M279 860l-83 -129c80 -11 131 -65 131 -142c0 -85 -61 -143 -156 -143s-156 58 -156 143c0 27 6 52 19 74l123 197h122zM215 589c0 28 -15 42 -44 42s-44 -14 -44 -42c0 -29 15 -43 44 -43s44 14 44 43z" />
    <glyph glyph-name="seven.sups" horiz-adv-x="295" 
d="M0 750v110h280v-93l-119 -307h-126l113 290h-148z" />
    <glyph glyph-name="eight.sups" horiz-adv-x="354" 
d="M278 670c37 -23 56 -57 56 -100c0 -76 -57 -124 -157 -124s-157 48 -157 124c0 43 19 77 56 100c-28 21 -42 48 -42 82c0 75 59 122 143 122s143 -47 143 -122c0 -34 -14 -61 -42 -82zM177 773c-27 0 -41 -11 -41 -33c0 -21 14 -32 41 -32c23 0 41 12 41 32
c0 21 -18 33 -41 33zM220 587c7 50 -93 50 -86 0c-7 -51 93 -51 86 0z" />
    <glyph glyph-name="nine.sups" horiz-adv-x="342" 
d="M327 731c0 -27 -6 -52 -19 -74l-123 -197h-122l83 129c-80 11 -131 65 -131 142c0 85 61 143 156 143s156 -58 156 -143zM127 731c0 -28 15 -42 44 -42s44 14 44 42c0 29 -15 43 -44 43s-44 -14 -44 -43z" />
    <glyph glyph-name="cent.tf" 
d="M306 234h11c47 0 80 19 97 56l131 -75c-44 -79 -129 -129 -226 -129c-21 0 -40 2 -59 6l-30 -92h-60l35 110c-92 41 -151 132 -151 240c0 75 25 137 75 188c51 51 114 76 190 76c18 0 34 -1 48 -4l29 90h60l-34 -106c55 -23 96 -59 123 -108l-131 -76
c-8 16 -21 30 -38 41zM204 350c0 -43 16 -76 48 -97l68 213h-3c-65 0 -113 -48 -113 -116z" />
    <glyph glyph-name="dollar.tf" 
d="M560 199c0 -121 -85 -198 -218 -211v-88h-70v87c-127 8 -213 72 -252 172l138 80c25 -57 63 -90 114 -99v138c-1 0 -12 6 -17 7c-48 19 -73 28 -114 55c-56 36 -88 86 -92 168c0 63 21 112 63 147c43 35 96 55 160 58v87h70v-89c97 -14 165 -64 203 -150l-135 -79
c-14 37 -37 62 -68 73v-138c70 -27 117 -48 141 -65c51 -37 76 -88 77 -153zM209 510c0 -24 15 -40 63 -63v115c-42 -5 -63 -22 -63 -52zM342 250v-111c39 6 58 23 58 52c0 25 -14 40 -58 59z" />
    <glyph glyph-name="Euro.tf" 
d="M433 219l132 -76c-39 -95 -120 -157 -220 -157c-141 0 -234 101 -258 268h-67v84h60v12v20h-60v84h68c27 161 118 260 257 260c96 0 176 -59 215 -148l-134 -77c-15 40 -45 69 -81 69c-51 0 -83 -35 -96 -104h150v-84h-159v-20v-12h159v-84h-152c13 -75 46 -112 98 -112
c39 0 71 32 88 77z" />
    <glyph glyph-name="florin.tf" 
d="M560 705v-150c-53 20 -104 4 -119 -52l-22 -79h111v-144h-152l-88 -312c-41 -148 -143 -201 -270 -169v150c53 -20 104 -4 119 52l79 279h-108v144h148l32 112c41 148 143 201 270 169z" />
    <glyph glyph-name="uni20BD.tf" 
d="M315 230h-75v-41h180v-98h-180v-91h-160v91h-70v98h70v41h-70v140h70v330h235c69 0 127 -23 174 -70s71 -103 71 -170c0 -66 -24 -121 -71 -165c-47 -43 -105 -65 -174 -65zM315 550h-75v-180h75c49 0 85 39 85 90s-36 90 -85 90z" />
    <glyph glyph-name="sterling.tf" 
d="M256 269v-115h314v-154h-540v154h66v115h-56v140h56v84c0 72 22 127 67 164c45 38 97 57 158 57c105 0 187 -54 226 -149l-139 -80c-16 51 -38 73 -82 73c-41 0 -70 -27 -70 -72v-77h204v-140h-204z" />
    <glyph glyph-name="yen.tf" 
d="M398 700h182l-179 -333h124v-88h-155v-40h155v-88h-155v-151h-160v151h-155v88h155v40h-155v88h124l-179 333h182l108 -227z" />
    <glyph glyph-name="brevecy" horiz-adv-x="380" 
d="M340 559h-300v130h300v-130z" />
    </font>
</defs>
</svg>
